<?xml version="1.0" standalone="no"?>
<!DOCTYPE svg PUBLIC "-//W3C//DTD SVG 1.1//EN" "http://www.w3.org/Graphics/SVG/1.1/DTD/svg11.dtd" >
<svg>
<metadata>
Created by FontForge 20110222 at Sun Jul  8 15:14:10 2012
 By Stefan Warting
(c) Copyright SoftMaker Software GmbH and its licensors
</metadata>
<defs>
<font id="AntiquaBold" horiz-adv-x="500" >
  <font-face 
    font-family="Antiqua"
    font-weight="700"
    font-stretch="normal"
    units-per-em="1000"
    panose-1="0 0 7 0 0 0 0 0 0 0"
    ascent="800"
    descent="-200"
    x-height="481"
    cap-height="667"
    bbox="-163 -257 1128 923"
    underline-thickness="62"
    underline-position="-56"
    unicode-range="U+0020-FB04"
  />
<missing-glyph 
d="M63 0v772h375v-772h-375zM125 63h250v647h-250v-647z" />
    <glyph glyph-name=".notdef" 
d="M63 0v772h375v-772h-375zM125 63h250v647h-250v-647z" />
    <glyph glyph-name="NULL" horiz-adv-x="0" 
 />
    <glyph glyph-name="nonmarkingreturn" horiz-adv-x="250" 
 />
    <glyph glyph-name="space" unicode=" " horiz-adv-x="250" 
 />
    <glyph glyph-name="exclam" unicode="!" horiz-adv-x="313" 
d="M176 216h-39q1 11 1 26q0 87 -7.5 127.5t-38.5 115.5q-25 61 -25 97q0 40 26 67.5t64 27.5t63.5 -27.5t25.5 -67.5q0 -36 -24 -97q-31 -79 -38.5 -121t-7.5 -148zM156 147q33 0 56 -23t23 -55t-23 -55.5t-55 -23.5q-33 0 -56 23.5t-23 55.5t23 55t55 23z" />
    <glyph glyph-name="quotedbl" unicode="&#x22;" horiz-adv-x="495" 
d="M165 400h-68l-46 267h160zM398 400h-68l-46 267h161z" />
    <glyph glyph-name="numbersign" unicode="#" horiz-adv-x="452" 
d="M73 0l27 143h-73l14 79h74l45 242h-76l15 80h76l23 123h33l-23 -123h105l24 123h34l-24 -123h73l-15 -80h-72l-45 -242h74l-14 -79h-75l-27 -143h-34l27 143h-105l-27 -143h-34zM148 222h105l46 242h-105z" />
    <glyph glyph-name="dollar" unicode="$" horiz-adv-x="628" 
d="M291 768h40v-93q74 -3 114 -23q69 -35 69 -101q0 -34 -22 -57t-55 -23q-26 0 -44 17t-18 42q0 21 18 39t18 28q0 17 -23.5 30t-56.5 15v-231q56 -26 103 -50q118 -61 118 -173q0 -109 -94 -166q-48 -29 -127 -36v-100h-40v99q-88 3 -139 28q-72 36 -72 98q0 35 22 57
t56 22q30 0 48.5 -17t18.5 -45q0 -20 -20 -48q-6 -8 -6 -17q0 -18 25.5 -30t66.5 -14v237q-109 49 -154 99.5t-45 125.5q0 122 104 172q35 17 95 22v93zM291 430v210q-89 -11 -89 -93q0 -74 89 -117zM331 238v-217q32 5 62 29q35 28 35 77q0 38 -22 63.5t-75 47.5z" />
    <glyph glyph-name="percent" unicode="%" horiz-adv-x="626" 
d="M169 674q136 0 136 -152q0 -153 -136 -153q-137 0 -137 155q0 150 137 150zM168 649q-51 0 -51 -125q0 -72 12 -100.5t42 -28.5q28 0 39 28.5t11 98.5q0 72 -11.5 99.5t-41.5 27.5zM592 700l-508 -733h-46l506 733h48zM461 298q136 0 136 -153q0 -152 -136 -152
q-137 0 -137 155q0 150 137 150zM460 272q-51 0 -51 -125q0 -71 12 -99.5t41 -28.5q28 0 39.5 28t11.5 99t-11.5 98.5t-41.5 27.5z" />
    <glyph glyph-name="ampersand" unicode="&#x26;" horiz-adv-x="858" 
d="M827 402v-32q-57 -10 -81.5 -27.5t-57.5 -73.5q-29 -49 -86 -122q55 -63 107 -89t124 -25v-33h-303l-49 53q-72 -38 -116 -50.5t-104 -12.5q-104 0 -161 49t-57 137q0 76 45 126.5t146 90.5q-38 68 -38 121q0 86 64 129q51 34 142 34q79 0 123 -28.5t44 -80.5
q0 -46 -39.5 -78.5t-142.5 -70.5q69 -120 192 -247q49 67 49 116q0 55 -44 71q-20 7 -87 11v32h330zM373 444q7 5 19 12q82 50 82 119q0 70 -68 70q-35 0 -56.5 -21t-21.5 -55q0 -41 45 -125zM457 78q-104 113 -210 288q-37 -26 -51 -50.5t-14 -61.5q0 -73 44 -137
q49 -71 131 -71q44 0 100 32z" />
    <glyph glyph-name="quotesingle" unicode="'" horiz-adv-x="268" 
d="M171 400h-74l-46 267h166z" />
    <glyph glyph-name="parenleft" unicode="(" horiz-adv-x="330" 
d="M278 -141l-22 -21q-89 73 -138 155q-77 128 -77 281q0 155 77 282q50 83 138 154l22 -20q-65 -82 -87 -157q-30 -105 -30 -259q0 -153 30 -258q22 -77 87 -157z" />
    <glyph glyph-name="parenright" unicode=")" horiz-adv-x="330" 
d="M52 690l22 20q88 -71 138 -154q77 -127 77 -282q0 -153 -77 -281q-49 -82 -138 -155l-22 21q65 80 87 157q30 105 30 258q0 154 -30 259q-21 75 -87 157z" />
    <glyph glyph-name="asterisk" unicode="*" horiz-adv-x="483" 
d="M228 526q-3 32 -28 88q-6 13 -6 30q0 20 13.5 33t34.5 13q20 0 33.5 -13.5t13.5 -33.5q0 -15 -20 -59q-10 -23 -13 -58q31 13 76 53q20 18 42 18q19 0 32.5 -14.5t13.5 -36.5q0 -19 -15.5 -33t-35.5 -14q-7 0 -44 5q-8 1 -17 1q-18 0 -44 -6q22 -26 74 -56q32 -19 32 -47
q0 -19 -15 -34t-34 -15q-21 0 -36 19q-8 10 -10.5 18t-9.5 43q-5 25 -23 56q-18 -29 -30 -88q-9 -47 -50 -47q-19 0 -34 14.5t-15 33.5q0 21 21 40q4 3 39 24q23 13 46 39q-23 6 -41 6q-1 0 -41 -4q-15 -1 -22 -1q-21 0 -36 14t-15 33q0 20 13.5 35t32.5 15q15 0 25.5 -6.5
t40.5 -33.5q19 -17 52 -31z" />
    <glyph glyph-name="plus" unicode="+" horiz-adv-x="574" 
d="M30 270h222v226h68v-226h223v-63h-223v-223h-68v223h-222v63z" />
    <glyph glyph-name="comma" unicode="," horiz-adv-x="285" 
d="M71 -148l-9 26q49 14 77.5 48t29.5 78q-23 -12 -43 -12q-29 0 -49 20.5t-20 50.5q0 33 24 56t59 23q41 0 64.5 -28t23.5 -77q0 -73 -53 -127q-39 -40 -104 -58z" />
    <glyph glyph-name="hyphen" unicode="-" horiz-adv-x="275" 
d="M275 277v-60h-275v60h275z" />
    <glyph glyph-name="period" unicode="." horiz-adv-x="285" 
d="M142 147q33 0 56 -23t23 -55t-23 -55.5t-55 -23.5q-33 0 -56 23.5t-23 55.5t23.5 55t54.5 23z" />
    <glyph glyph-name="slash" unicode="/" horiz-adv-x="433" 
d="M392 695l-331 -842h-53l333 842h51z" />
    <glyph glyph-name="zero" unicode="0" horiz-adv-x="628" 
d="M314 675q128 0 190 -67q73 -79 73 -278q0 -198 -73 -278q-61 -67 -189 -67q-130 0 -191 67q-73 80 -73 284q0 178 62.5 258.5t200.5 80.5zM316 643q-71 0 -92 -72q-23 -80 -23 -240q0 -158 23 -241q20 -73 91 -73q69 0 89 73q23 83 23 238q0 170 -23 245q-22 70 -88 70z
" />
    <glyph glyph-name="one" unicode="1" horiz-adv-x="628" 
d="M423 668v-529q0 -65 20.5 -84t97.5 -23v-32h-400v32q73 5 98.5 22t25.5 82v345q0 31 -7 39.5t-34 8.5l-97 1v29q145 16 208 109h88z" />
    <glyph glyph-name="two" unicode="2" horiz-adv-x="628" 
d="M547 217l-31 -217h-464q8 89 49.5 151.5t126 118.5t116 105.5t31.5 124.5q0 139 -112 139q-37 0 -66.5 -18t-29.5 -40q0 -16 20 -18q51 -6 51 -58q0 -33 -22.5 -55t-56.5 -22q-37 0 -61.5 27t-24.5 67q0 69 63.5 111t167.5 42q114 0 175 -46.5t61 -132.5q0 -87 -59 -146
q-28 -28 -57.5 -44t-106 -45t-116 -59.5t-59.5 -77.5h305q23 0 33.5 6t18.5 28l23 59h25z" />
    <glyph glyph-name="three" unicode="3" horiz-adv-x="628" 
d="M173 327v40q29 -4 46 -4q135 0 135 150q0 131 -98 131q-32 0 -53.5 -15.5t-21.5 -38.5q0 -17 23 -17q20 0 33.5 -15t13.5 -38q0 -31 -21.5 -53t-53.5 -22q-34 0 -56.5 25.5t-22.5 63.5q0 64 52.5 102.5t140.5 38.5q100 0 156 -40t56 -112q0 -136 -186 -165v-10h21
q95 0 145.5 -41t50.5 -117q0 -92 -73 -148.5t-194 -56.5q-88 0 -141 35t-53 93q0 38 23.5 62t60.5 24q31 0 51 -18.5t20 -47.5q0 -34 -27 -53q-22 -16 -22 -26q0 -16 17.5 -26.5t44.5 -10.5q60 0 94.5 45t34.5 124q0 144 -139 144q-10 0 -57 -3z" />
    <glyph glyph-name="four" unicode="4" horiz-adv-x="628" 
d="M464 668v-418h130l-24 -69h-106v-69q0 -48 16 -62t75 -19v-31h-341v31q56 1 77.5 19t21.5 63v68h-275v66l310 421h116zM313 563l-222 -313h222v313z" />
    <glyph glyph-name="five" unicode="5" horiz-adv-x="628" 
d="M97 321l37 339h255q44 0 60 8q22 10 36 48h24l-27 -179h-321l-20 -172q79 54 177 54q107 0 172 -59t65 -156q0 -101 -71.5 -160t-192.5 -59q-103 0 -164.5 36.5t-61.5 97.5q0 35 23 57.5t57 22.5q32 0 52 -18.5t20 -48.5q0 -29 -32 -56q-12 -10 -12 -19q0 -16 25 -27.5
t59 -11.5q65 0 100.5 46.5t35.5 132.5q0 81 -35.5 125.5t-100.5 44.5q-67 0 -133 -59z" />
    <glyph glyph-name="six" unicode="6" horiz-adv-x="628" 
d="M211 355q71 56 155 56q95 0 154 -56.5t59 -147.5q0 -104 -74 -167q-65 -55 -178 -55q-139 0 -205 78t-66 244q0 195 91 289q77 80 208 80q83 0 134 -31.5t51 -83.5q0 -34 -22.5 -57t-56.5 -23q-31 0 -51.5 19t-20.5 47q0 23 16 43t16 25q0 12 -17.5 20.5t-41.5 8.5
q-151 0 -151 -289zM319 371q-105 0 -105 -169q0 -184 105 -184t105 181q0 172 -105 172z" />
    <glyph glyph-name="seven" unicode="7" horiz-adv-x="628" 
d="M596 660l-15 -88l-22 -36q-1 -2 -56 -77q-69 -95 -95 -164t-37 -189q-7 -72 -29.5 -96t-60.5 -24q-94 0 -94 93q0 92 64 185q25 36 54 65t132 119q52 46 86 89h-338q-32 0 -42 -30l-23 -66h-25l31 219h470z" />
    <glyph glyph-name="eight" unicode="8" horiz-adv-x="628" 
d="M230 349q-161 27 -161 152q0 83 63.5 128.5t181.5 45.5q117 0 180.5 -45.5t63.5 -128.5q0 -127 -161 -152q87 -16 135 -63.5t48 -115.5q0 -88 -69.5 -136.5t-197.5 -48.5q-127 0 -196 48.5t-69 136.5q0 141 182 179zM314 644q-49 0 -77 -36t-28 -98q0 -64 28.5 -102
t76.5 -38t76.5 37.5t28.5 100.5q0 64 -28 100t-77 36zM314 330q-52 0 -82.5 -42.5t-30.5 -113.5q0 -74 29.5 -114.5t82.5 -40.5t83 41t30 112q0 72 -30.5 115t-81.5 43z" />
    <glyph glyph-name="nine" unicode="9" horiz-adv-x="628" 
d="M415 318q-66 -60 -154 -60q-94 0 -152.5 56.5t-58.5 147.5q0 105 77 166q61 48 170 48q143 0 208.5 -77t65.5 -243q0 -199 -87 -288q-81 -83 -222 -83q-85 0 -137.5 34.5t-52.5 90.5q0 34 23.5 57t58.5 23q33 0 53 -18t20 -48q0 -18 -6 -28.5t-29 -31.5q-7 -6 -7 -14
q0 -14 21.5 -24t51.5 -10q81 0 119 73t38 229zM306 642q-105 0 -105 -167q0 -175 106 -175q105 0 105 172q0 170 -106 170z" />
    <glyph glyph-name="colon" unicode=":" horiz-adv-x="285" 
d="M142 147q33 0 56 -23t23 -55t-23 -55.5t-55 -23.5q-33 0 -56 23.5t-23 55.5t23.5 55t54.5 23zM142 481q33 0 56 -23t23 -56q0 -32 -23 -55t-55 -23q-33 0 -56 23t-23 56q0 32 23.5 55t54.5 23z" />
    <glyph glyph-name="semicolon" unicode=";" horiz-adv-x="285" 
d="M71 -148l-9 26q49 14 77.5 48t29.5 78q-21 -12 -42 -12q-29 0 -49.5 20.5t-20.5 50.5q0 33 24 56t59 23q41 0 64.5 -28t23.5 -77q0 -73 -53 -127q-39 -40 -104 -58zM137 481q33 0 56 -23t23 -55q0 -33 -23 -56t-56 -23q-32 0 -55 23t-23 56q0 32 23.5 55t54.5 23z" />
    <glyph glyph-name="less" unicode="&#x3c;" horiz-adv-x="539" 
d="M21 204v46l461 180l36 -53l-383 -151l383 -151l-48 -54z" />
    <glyph glyph-name="equal" unicode="=" horiz-adv-x="587" 
d="M35 341h516v-64h-516v64zM35 204h516v-65h-516v65z" />
    <glyph glyph-name="greater" unicode="&#x3e;" horiz-adv-x="539" 
d="M518 248v-46l-449 -183l-48 54l383 151l-383 151l36 53z" />
    <glyph glyph-name="question" unicode="?" horiz-adv-x="434" 
d="M198 206h-43q-1 15 -1 34q0 46 12 76q7 16 13.5 26t38.5 49q63 77 63 145q0 108 -80 108q-22 0 -38.5 -9t-16.5 -22q0 -5 18 -21t18 -39q0 -29 -20 -48.5t-50 -19.5q-29 0 -47.5 20t-18.5 51q0 55 48.5 87.5t129.5 32.5q82 0 136 -38q46 -33 46 -96q0 -56 -44 -102
q-24 -25 -85 -57q-47 -25 -63.5 -53t-16.5 -83q0 -24 1 -41zM184 147q33 0 56 -23t23 -55t-23 -55.5t-55 -23.5q-33 0 -56 23.5t-23 55.5t23 55t55 23z" />
    <glyph glyph-name="at" unicode="@" horiz-adv-x="681" 
d="M444 471l70 10l-49 -229q-7 -33 -7 -53q0 -39 37 -39q46 0 79 58.5t33 140.5q0 98 -61 156t-165 58q-129 0 -209 -85t-80 -222q0 -116 65.5 -184t178.5 -68q117 0 214 85l-5 -29q-102 -85 -228 -85q-130 0 -209.5 75.5t-79.5 198.5q0 147 99 243t250 96q122 0 196.5 -65
t74.5 -171q0 -91 -53.5 -161.5t-122.5 -70.5q-77 0 -77 88q-53 -84 -121 -84q-46 0 -72 32.5t-26 88.5q0 94 51 161.5t121 67.5q59 0 84 -54zM366 458q-42 0 -75 -57q-39 -68 -39 -154q0 -76 52 -76q44 0 73 59q14 28 27 82t13 82t-14 46t-37 18z" />
    <glyph glyph-name="A" unicode="A" horiz-adv-x="722" 
d="M439 667l189 -508q29 -79 46 -98.5t62 -27.5v-33h-336v33q44 7 60 16t16 27t-16 63l-34 96h-235l-33 -89q-15 -40 -15 -64q0 -38 81 -49v-33h-246v33q51 8 79 43t70 139l155 387q11 28 22 65h135zM312 565l-106 -287h205z" />
    <glyph glyph-name="B" unicode="B" horiz-adv-x="756" 
d="M43 667h427q105 0 151 -31q59 -40 59 -116q0 -132 -164 -165q84 -11 126 -39q63 -43 63 -131q0 -113 -98 -159q-55 -26 -183 -26h-381v33l26 4q40 6 53 24q10 14 10 70v405q0 56 -10 70q-13 18 -53 24l-26 4v33zM299 370h67q69 0 107.5 35t38.5 98q0 124 -147 124h-66
v-257zM299 41h66q168 0 168 150q0 141 -160 141h-74v-291z" />
    <glyph glyph-name="C" unicode="C" horiz-adv-x="710" 
d="M670 673l2 -236l-46 -1q-23 96 -52 137q-49 69 -142 69q-99 0 -151.5 -82.5t-52.5 -237.5q0 -146 53.5 -221.5t152.5 -75.5q101 0 207 110l40 -42q-59 -59 -118 -83.5t-142 -24.5q-174 0 -276 82t-102 270q0 345 371 345q88 0 180 -31q9 -3 18 -3q16 0 32 25h26z" />
    <glyph glyph-name="D" unicode="D" horiz-adv-x="814" 
d="M132 131v405q0 56 -10 70q-13 18 -52 24l-27 4v33h379q160 0 236 -62q113 -92 113 -269q0 -199 -129 -287q-72 -49 -220 -49h-379v33l27 4q39 6 52 24q10 14 10 70zM299 41h58q122 0 176.5 68.5t54.5 223.5q0 157 -54.5 225.5t-179.5 68.5h-55v-586z" />
    <glyph glyph-name="E" unicode="E" horiz-adv-x="714" 
d="M638 667l14 -214h-45q-54 110 -74 131q-40 43 -127 43h-107v-253l59 2q40 1 59.5 17t31.5 58l14 48h34v-293h-34l-12 46q-12 46 -32.5 63.5t-62.5 18.5l-57 1v-294h100q72 0 113 27t73 96l38 81h44l-22 -245h-602v33l26 4q40 6 53 24q10 14 10 70v405q0 56 -10 70
q-13 18 -53 24l-26 4v33h595z" />
    <glyph glyph-name="F" unicode="F" horiz-adv-x="659" 
d="M630 667l10 -214h-44q-56 116 -89.5 145t-112.5 29h-95v-252l60 1q39 1 59 17t32 58l14 48h34v-293h-34l-12 46q-12 46 -33 63.5t-62 18.5l-58 1v-204q0 -56 10 -70q14 -19 53 -24l34 -4v-33h-353v33l26 4q40 6 53 24q10 14 10 70v405q0 56 -10 70q-13 18 -53 24l-26 4
v33h587z" />
    <glyph glyph-name="G" unicode="G" horiz-adv-x="805" 
d="M686 673l2 -236l-47 -2q-18 91 -54 137q-55 70 -151 70q-100 0 -154 -80t-54 -228q0 -125 37 -203q49 -106 158 -106q59 0 105 40q26 23 30.5 38.5t4.5 83.5q0 50 -16.5 67t-68.5 21l-44 3v35h364v-35q-37 -4 -57 -18t-20 -78v-145q-57 0 -116 -17q-122 -35 -202 -35
q-360 0 -360 348q0 181 95 267q91 82 274 82q84 0 179 -29q16 -5 30 -5q17 0 39 25h26z" />
    <glyph glyph-name="H" unicode="H" horiz-adv-x="862" 
d="M563 323h-264v-192q0 -56 10 -70q13 -18 52 -24l26 -4v-33h-344v33l26 4q40 6 53 24q10 14 10 70v405q0 56 -10 70q-13 18 -53 24l-26 4v33h344v-33l-26 -4q-39 -6 -52 -24q-10 -14 -10 -70v-168h264v168q0 56 -10 70q-13 18 -52 24l-26 4v33h344v-33l-27 -4
q-39 -6 -52 -24q-10 -14 -10 -70v-405q0 -56 10 -70q13 -18 52 -24l27 -4v-33h-344v33l26 4q39 6 52 24q10 14 10 70v192z" />
    <glyph glyph-name="I" unicode="I" horiz-adv-x="430" 
d="M132 131v405q0 56 -10 70q-13 18 -53 24l-26 4v33h345v-33l-27 -4q-39 -6 -52 -24q-10 -14 -10 -70v-405q0 -56 10 -70q13 -18 52 -24l27 -4v-33h-345v33l26 4q40 6 53 24q10 14 10 70z" />
    <glyph glyph-name="J" unicode="J" horiz-adv-x="409" 
d="M-15 -225l-2 31q73 10 108 56q23 30 28 80q2 18 2 87v507q0 55 -10 70q-13 19 -52 24l-31 4v33h349v-33l-26 -4q-40 -6 -53 -24q-10 -14 -10 -70v-478q0 -138 -65 -196q-95 -85 -238 -87z" />
    <glyph glyph-name="K" unicode="K" horiz-adv-x="792" 
d="M799 32v-32h-264v23q0 11 -9 24l-191 275l-39 -32v-159q0 -56 10 -70q13 -18 52 -24l27 -4v-33h-342v33l27 4q39 6 52 24q10 14 10 70v405q0 56 -10 70q-13 18 -52 24l-27 4v33h342v-33l-27 -4q-39 -6 -52 -24q-10 -14 -10 -70v-197l102 97q15 14 58 50q68 57 86 76.5
t18 37.5q0 17 -11.5 24t-47.5 10v33h267v-33q-49 -5 -81 -20.5t-82 -57.5l-149 -125l218 -299q39 -54 65.5 -75t59.5 -25z" />
    <glyph glyph-name="L" unicode="L" horiz-adv-x="661" 
d="M642 246l-24 -246h-575v33l26 4q40 6 53 24q10 14 10 70v405q0 56 -10 70q-13 18 -53 24l-26 4v33h350v-33l-32 -4q-46 -6 -57 -33q-5 -14 -5 -61v-495h81q69 0 108 29t78 110l32 66h44z" />
    <glyph glyph-name="M" unicode="M" horiz-adv-x="995" 
d="M27 667h293q74 -187 179 -500l108 288q22 55 52 135q7 20 27 77h266v-33l-27 -4q-39 -6 -52 -24q-10 -14 -10 -70v-405q0 -56 10 -70q13 -18 52 -24l27 -4v-33h-342v33l26 4q40 6 53 24q10 14 10 70v452l-119 -350q-14 -36 -42 -110q-8 -22 -23 -67l-20 -56h-116
q-16 44 -32 92l-33 98q0 5 -50 135l-100 259l9 -436q1 -61 20.5 -84.5t75.5 -30.5v-33h-248v33q64 5 81.5 34.5t19.5 134.5l7 339q0 55 -17 70t-85 22v34z" />
    <glyph glyph-name="N" unicode="N" horiz-adv-x="805" 
d="M306 667l340 -502l-5 300q-2 110 -18.5 136.5t-86.5 32.5v33h260v-33q-67 -5 -84.5 -35t-19.5 -143l-8 -456h-131l-383 557l8 -381q2 -91 18 -113t85 -30v-33h-259v33q64 5 82.5 31t20.5 116l6 345q0 61 -19.5 81t-85.5 28v33h280z" />
    <glyph glyph-name="O" unicode="O" horiz-adv-x="831" 
d="M416 682q185 0 281 -88q91 -83 91 -260q0 -349 -373 -349q-186 0 -281 88q-91 85 -91 266q0 168 91.5 255.5t281.5 87.5zM415 642q-187 0 -187 -304q0 -313 188 -313q187 0 187 309q0 308 -188 308z" />
    <glyph glyph-name="P" unicode="P" horiz-adv-x="692" 
d="M299 282v-151q0 -56 11 -70q15 -19 55 -24l32 -4v-33h-354v33l27 4q39 6 52 24q10 14 10 70v405q0 56 -10 70q-13 18 -52 24l-27 4v33h382q115 0 171 -36q79 -51 79 -152q0 -73 -43 -122t-120 -63q-58 -11 -213 -12zM299 627v-306q19 -1 45 -1q161 0 161 155
q0 99 -58 135q-28 17 -97 17h-51z" />
    <glyph glyph-name="Q" unicode="Q" horiz-adv-x="831" 
d="M919 -59l23 -16q-38 -64 -72 -94q-61 -54 -129 -54q-52 0 -112 38q-6 4 -137 99q-35 26 -106 71q-76 4 -127 19q-122 35 -176 134q-40 73 -40 195q0 349 373 349q372 0 372 -349q0 -281 -233 -333q102 -71 158 -97.5t102 -26.5q35 0 56.5 13.5t47.5 51.5zM415 642
q-187 0 -187 -304q0 -313 188 -313q187 0 187 308q0 309 -188 309z" />
    <glyph glyph-name="R" unicode="R" horiz-adv-x="785" 
d="M761 36l5 -31q-59 -16 -107 -16q-102 0 -147 68q-21 32 -54 163q-15 58 -38 79.5t-72 21.5h-49v-190q0 -56 10 -70q13 -18 53 -24l26 -4v-33h-345v33l26 4q40 6 53 24q10 14 10 70v405q0 56 -10 70q-13 18 -53 24l-26 4v33h419q106 0 157 -32q68 -43 68 -122
q0 -89 -75 -134q-42 -25 -126 -37q89 -14 122.5 -55.5t67.5 -177.5q11 -43 24.5 -59t37.5 -16q3 0 23 2zM299 361h51q166 0 166 141q0 82 -62 111q-32 15 -105 15q-24 0 -50 -1v-266z" />
    <glyph glyph-name="S" unicode="S" horiz-adv-x="625" 
d="M533 673l2 -223l-42 -2q-19 95 -51 135q-50 62 -133 62q-47 0 -77 -26t-30 -67q0 -55 48 -89q33 -24 127 -57q98 -35 135 -65q61 -50 61 -138q0 -57 -27 -106t-72 -73q-68 -37 -172 -37q-67 0 -146 24q-30 9 -37 9q-15 0 -38 -26h-25l-3 252l43 2q21 -79 47 -123
q59 -99 168 -99q55 0 88.5 29t33.5 76q0 49 -40 77q-20 14 -36 21q-19 9 -98 39q-100 39 -146 90.5t-46 126.5q0 92 60.5 144.5t166.5 52.5q69 0 158 -28q13 -4 21 -4q14 0 34 23h26z" />
    <glyph glyph-name="T" unicode="T" horiz-adv-x="695" 
d="M684 667l5 -229h-44l-18 50q-29 80 -68 115q-27 24 -86 24h-41v-496q0 -55 10 -70q12 -18 53 -24l29 -4v-33h-353v33l29 4q40 5 52 24q10 15 10 70v496h-41q-65 0 -97 -35t-57 -104l-18 -50h-44l5 229h674z" />
    <glyph glyph-name="U" unicode="U" horiz-adv-x="776" 
d="M518 667h247v-33q-66 -8 -79.5 -29t-15.5 -123l-4 -224q-2 -121 -46 -180q-69 -93 -233 -93q-179 0 -241 101q-33 54 -33 166v284q0 56 -10 70q-13 18 -52 24l-27 4v33h345v-33l-26 -4q-40 -6 -53 -24q-10 -14 -10 -70v-282q0 -104 33 -150q45 -63 135 -63q86 0 128 56
q33 44 36 139l1 39l-4 207q-2 102 -14.5 123.5t-76.5 28.5v33z" />
    <glyph glyph-name="V" unicode="V" horiz-adv-x="712" 
d="M425 -10h-134l-204 534q-25 65 -43.5 84.5t-63.5 25.5v33h343v-33q-45 -9 -59.5 -18.5t-14.5 -29.5q0 -23 9 -47l160 -434l148 429q11 32 11 51q0 40 -79 49v33h238v-33q-46 -5 -69 -30t-46 -93q-8 -23 -27 -73l-43 -112q-1 -1 -46 -121l-45 -121q-11 -32 -35 -94z" />
    <glyph glyph-name="W" unicode="W" horiz-adv-x="1039" 
d="M631 667l157 -504l55 203q15 53 30 105q18 70 18 108q0 25 -16 37t-57 18v33h235v-33q-39 -5 -58 -27q-22 -27 -53 -117q-22 -63 -92 -291l-64 -209h-115l-156 489l-144 -489h-111l-167 540q-20 64 -37 82.5t-61 21.5v33h329v-33q-40 -4 -54 -13t-14 -29q0 -19 10 -53
l109 -376l142 504h114z" />
    <glyph glyph-name="X" unicode="X" horiz-adv-x="699" 
d="M706 0h-367v33q74 16 74 45q0 15 -36 71l-84 131l-51 -82q-63 -101 -63 -120q0 -31 76 -45v-33h-260v33q51 8 86 35q40 30 88 102l99 149l-154 236q-31 48 -50 61.5t-61 17.5v33h348v-33q-60 -4 -60 -40q0 -19 17 -45l92 -141l53 85q54 87 54 105t-11.5 25.5t-45.5 10.5
v33h231v-33q-55 -6 -95 -43t-119 -158l-42 -64l146 -218q50 -74 67 -90q22 -21 68 -28v-33z" />
    <glyph glyph-name="Y" unicode="Y" horiz-adv-x="692" 
d="M425 278v-147q0 -56 10 -70q14 -20 53 -24l37 -4v-33h-364v33l37 4q39 4 53 24q9 13 9 70v134l-172 295q-25 43 -42 56t-56 18v33h354v-33q-65 -9 -65 -48q0 -31 21 -69l105 -191l87 151q43 75 43 112t-64 45v33h234v-33q-45 -6 -70 -28t-66 -90z" />
    <glyph glyph-name="Z" unicode="Z" horiz-adv-x="694" 
d="M70 667h580v-28l-420 -598h161q80 0 116.5 23.5t78.5 103.5l41 77h44l-23 -245h-625v30l423 599h-155q-59 0 -92.5 -28t-57.5 -85l-32 -78h-45z" />
    <glyph glyph-name="bracketleft" unicode="[" horiz-adv-x="330" 
d="M60 695h243v-36l-130 -2v-766l130 -2v-36h-243v842z" />
    <glyph glyph-name="backslash" unicode="\" horiz-adv-x="433" 
d="M47 695h51l333 -842h-52z" />
    <glyph glyph-name="bracketright" unicode="]" horiz-adv-x="330" 
d="M269 -147h-243v36l130 2v766l-130 2v36h243v-842z" />
    <glyph glyph-name="asciicircum" unicode="^" horiz-adv-x="443" 
d="M113 433l-62 19l141 246h50l150 -246l-63 -19l-111 182z" />
    <glyph glyph-name="underscore" unicode="_" horiz-adv-x="573" 
d="M0 -56h573v-62h-573v62z" />
    <glyph glyph-name="grave" unicode="`" 
d="M293 536l-206 114q-33 18 -33 46q0 17 11 29.5t27 12.5q20 0 44 -23l170 -163z" />
    <glyph glyph-name="a" unicode="a" horiz-adv-x="587" 
d="M570 68l11 -20q-83 -56 -138 -56q-39 0 -65 28q-13 14 -25 52q-83 -82 -171 -82q-65 0 -102.5 36.5t-37.5 98.5q0 87 80 124q30 14 150 34l77 13q-1 96 -11 119q-18 43 -79 43q-24 0 -43.5 -8.5t-19.5 -19.5q0 -4 15 -22q11 -11 11 -31q0 -29 -21.5 -47.5t-54.5 -18.5
t-53 19t-20 51q0 110 211 110q142 0 186 -69q22 -35 22 -120v-160q0 -87 38 -87q14 0 40 13zM350 164v99q-92 -13 -125 -36t-33 -74q0 -40 21.5 -65.5t55.5 -25.5q39 0 65 34q16 21 16 68z" />
    <glyph glyph-name="b" unicode="b" horiz-adv-x="649" 
d="M107 -30h-24v578q0 55 -7 70q-13 27 -62 31l-14 1v31l228 19v-286q67 77 159 77q101 0 162.5 -68t61.5 -180q0 -118 -63.5 -185.5t-175.5 -67.5q-70 0 -137 30q-33 15 -41 15q-29 0 -87 -65zM340 440q-62 0 -89 -50q-23 -43 -23 -157t23 -156q25 -46 83 -46
q117 0 117 208q0 109 -30 157q-27 44 -81 44z" />
    <glyph glyph-name="c" unicode="c" horiz-adv-x="527" 
d="M486 108l21 -24q-52 -51 -102 -72.5t-118 -21.5q-117 0 -183 66.5t-66 183.5q0 122 68.5 186.5t198.5 64.5q94 0 149 -32t55 -86q0 -31 -21 -51.5t-53 -20.5q-30 0 -49 17t-19 44q0 18 21 46q5 5 5 12q0 16 -21 26.5t-53 10.5q-121 0 -121 -200q0 -210 147 -210
q70 0 141 61z" />
    <glyph glyph-name="d" unicode="d" horiz-adv-x="664" 
d="M565 700v-568q0 -59 9 -74.5t48 -24.5l20 -2v-31h-219v72q-60 -82 -162 -82q-100 0 -161.5 69.5t-61.5 183.5q0 112 63 180t167 68q96 0 152 -66v148q0 40 -15.5 57.5t-54.5 17.5h-17v33zM310 449q-59 0 -85.5 -49.5t-26.5 -151.5q0 -205 111 -205q76 0 100 79
q11 37 11 117q0 109 -19 152q-25 58 -91 58z" />
    <glyph glyph-name="e" unicode="e" horiz-adv-x="569" 
d="M502 113l20 -22q-56 -56 -107 -78.5t-124 -22.5q-118 0 -185.5 67.5t-67.5 185.5q0 119 67 183.5t191 64.5q146 0 204 -89q34 -52 34 -152h-337q1 -52 5 -78q7 -44 27 -72q37 -51 113 -51q90 0 160 64zM198 285h199q-4 92 -27 132.5t-72 40.5q-64 0 -85 -70
q-12 -40 -15 -103z" />
    <glyph glyph-name="f" unicode="f" horiz-adv-x="418" 
d="M35 446v35h77q-1 111 37 158q50 61 156 61q63 0 99.5 -24.5t36.5 -65.5q0 -31 -19.5 -51t-48.5 -20q-26 0 -43 16.5t-17 42.5q0 18 15 41q4 8 4 11q0 19 -37 19q-28 0 -45 -21t-17 -55q0 -35 24 -112h121v-35h-121v-314q0 -59 9 -74.5t48 -23.5l29 -3v-31h-308v31l20 2
q39 9 48 24.5t9 74.5v314h-77z" />
    <glyph glyph-name="g" unicode="g" horiz-adv-x="584" 
d="M160 200q-99 38 -99 133q0 76 55 117t166 41q98 0 149 -31q-3 29 -3 37q0 43 25.5 71t64.5 28q29 0 48 -18.5t19 -46.5q0 -26 -16 -43t-40 -17q-38 0 -44 35q-2 12 -10 12q-20 0 -20 -39q0 -24 25 -56q29 -37 29 -83q0 -100 -99 -136q-45 -16 -184 -17q-63 0 -63 -38
q0 -21 23 -31q18 -8 145 -15q111 -6 157 -30q66 -35 66 -119q0 -83 -74.5 -132t-202.5 -49q-111 0 -177.5 37.5t-66.5 100.5q0 58 85 96q-60 29 -60 84q0 75 102 109zM286 459q-43 0 -67.5 -32t-24.5 -88q0 -57 24.5 -89t67.5 -32t67 31.5t24 87.5q0 58 -24 90t-67 32z
M156 -8l-6 -4l-3 -3q-30 -23 -30 -52q0 -50 51 -87t119 -37q62 0 101 26t39 68q0 33 -22 48.5t-75 18.5q-106 7 -174 22z" />
    <glyph glyph-name="h" unicode="h" horiz-adv-x="694" 
d="M248 700v-288q41 45 77.5 62t91.5 17q107 0 153 -71q25 -39 25 -131v-157q0 -59 8.5 -74.5t48.5 -24.5l20 -2v-31h-295v31l19 2q37 9 45.5 25t8.5 74v147q0 83 -16 113q-23 43 -77 43q-68 0 -94 -57q-15 -33 -15 -98v-148q0 -59 8.5 -74.5t45.5 -24.5l19 -2v-31h-295v31
l20 2q39 9 48 24.5t9 74.5v425q0 55 -13 72.5t-56 19.5l-18 1v31z" />
    <glyph glyph-name="i" unicode="i" horiz-adv-x="362" 
d="M257 491v-359q0 -59 9 -74.5t48 -24.5l20 -2v-31h-299v31l20 2q40 9 48.5 24.5t8.5 74.5v212q0 50 -4 66q-9 34 -53 38l-25 2v31zM183 703q34 0 56.5 -19.5t22.5 -48.5t-22.5 -49t-56.5 -20q-33 0 -55.5 20t-22.5 50q0 28 23 47.5t55 19.5z" />
    <glyph glyph-name="j" unicode="j" horiz-adv-x="334" 
d="M258 491v-493q0 -105 -58.5 -165t-161.5 -60q-58 0 -92.5 24.5t-34.5 65.5q0 30 19.5 50t49.5 20q26 0 43 -16.5t17 -41.5q0 -20 -21 -41q-7 -7 -7 -12q0 -17 32 -17q45 0 61 46q8 22 8 86v412q0 60 -9.5 75.5t-50.5 23.5l-27 2v31zM184 703q34 0 56.5 -19.5t22.5 -48.5
q0 -30 -22.5 -49.5t-56.5 -19.5q-33 0 -55.5 20t-22.5 50q0 28 23 47.5t55 19.5z" />
    <glyph glyph-name="k" unicode="k" horiz-adv-x="652" 
d="M611 481v-31q-60 -3 -102 -25.5t-122 -94.5l163 -215q34 -44 50 -58q29 -24 70 -26v-31h-224l-160 238l-38 -34v-72q0 -52 5 -66q10 -28 51 -33l18 -2v-31h-296v31l20 2q39 9 48 24.5t9 74.5v417q0 54 -8 70q-13 27 -61 30l-18 1v31l232 19v-455l126 123q43 42 43 58
q0 21 -59 24v31h253z" />
    <glyph glyph-name="l" unicode="l" horiz-adv-x="350" 
d="M248 700v-568q0 -60 9 -75t48 -24l20 -2v-31h-299v31l20 2q40 9 48.5 24t8.5 75v417q0 55 -9 72q-13 25 -60 28l-18 1v31z" />
    <glyph glyph-name="m" unicode="m" horiz-adv-x="1038" 
d="M252 491v-80q42 44 81 62t92 18q58 0 94.5 -18.5t67.5 -64.5q37 46 76 64.5t95 18.5q117 0 160 -80q20 -37 20 -129v-150q0 -59 8.5 -74.5t48.5 -24.5l20 -2v-31h-295v31l18 2q38 10 46.5 25t8.5 74v159q0 74 -18 103q-26 41 -74 41q-61 0 -89 -52q-14 -26 -14 -93v-158
q0 -59 8.5 -74t47.5 -25l17 -2v-31h-291v31l17 2q39 10 47.5 24.5t8.5 74.5v153q0 78 -15 105q-24 43 -77 43q-48 0 -76 -33t-28 -89v-179q0 -59 8.5 -74t46.5 -25l18 -2v-31h-295v31l20 2q39 9 48 24.5t9 74.5v213q0 48 -4 65q-8 34 -53 38l-25 2v31z" />
    <glyph glyph-name="n" unicode="n" horiz-adv-x="703" 
d="M249 491v-82q45 47 81.5 64.5t91.5 17.5q114 0 158 -77q23 -38 23 -125v-157q0 -59 8.5 -74.5t48.5 -24.5l20 -2v-31h-296v31l18 2q38 9 46.5 25t8.5 74v147q0 82 -16 113q-23 44 -78 44q-64 0 -92 -58q-14 -29 -14 -98v-148q0 -59 8.5 -74.5t46.5 -24.5l18 -2v-31h-295
v31l20 2q39 9 48 24.5t9 74.5v213q0 50 -4 65q-10 35 -53 38l-25 2v31z" />
    <glyph glyph-name="o" unicode="o" horiz-adv-x="616" 
d="M308 491q270 0 270 -251q0 -122 -69 -186t-200 -64q-271 0 -271 254q0 127 76 190q68 57 194 57zM306 457q-60 0 -86 -49.5t-26 -163.5q0 -121 26 -170.5t90 -49.5q60 0 86 50t26 166q0 118 -26.5 167.5t-89.5 49.5z" />
    <glyph glyph-name="p" unicode="p" horiz-adv-x="668" 
d="M248 491v-80q69 80 165 80q98 0 158 -68.5t60 -180.5q0 -118 -63 -185t-173 -67q-82 0 -147 44v-119q0 -59 9 -74.5t48 -23.5l27 -3v-31h-306v31l20 2q39 9 48 24t9 75v434q0 47 -4 61q-10 35 -53 38l-25 2v31zM360 440q-59 0 -85.5 -46.5t-26.5 -166.5q0 -102 19 -143
q25 -54 88 -54q116 0 116 215q0 195 -111 195z" />
    <glyph glyph-name="q" unicode="q" horiz-adv-x="642" 
d="M542 511h23v-596q0 -59 8.5 -74.5t48.5 -24.5l18 -2v-31h-304v31l27 3q39 4 48 22q9 15 9 76v156q-31 -40 -64 -57q-46 -24 -101 -24q-96 0 -157 69.5t-61 178.5q0 121 71 194q58 59 160 59q119 0 179 -66zM309 452q-112 0 -112 -199q0 -210 111 -210q56 0 85 43
q27 39 27 147q0 132 -27.5 175.5t-83.5 43.5z" />
    <glyph glyph-name="r" unicode="r" horiz-adv-x="497" 
d="M252 491v-97q55 99 143 99q43 0 70.5 -24.5t27.5 -63.5q0 -33 -20.5 -55t-51.5 -22q-27 0 -45.5 17.5t-18.5 42.5q0 20 15 39q5 8 5 12q0 11 -20 11q-38 0 -69 -53.5t-31 -151.5v-113q0 -61 9 -77.5t48 -20.5l27 -3v-31h-306v31l20 2q40 9 48.5 24t8.5 75v215q0 47 -4 63
q-9 34 -53 38l-25 2v31z" />
    <glyph glyph-name="s" unicode="s" horiz-adv-x="485" 
d="M411 485l2 -149l-31 -2q-19 57 -46 84q-43 43 -96 43q-33 0 -53 -16.5t-20 -42.5q0 -30 27 -51.5t100 -49.5q84 -32 110 -55q40 -35 40 -99q0 -157 -194 -157q-57 0 -135 21q-11 3 -21 3q-12 0 -26 -18h-19l-2 182l31 1q52 -157 159 -157q37 0 60.5 19t23.5 49
q0 34 -31 53q-18 11 -90 38q-144 54 -144 161q0 149 180 149q64 0 119 -17q10 -3 16 -3q11 0 21 14h19z" />
    <glyph glyph-name="t" unicode="t" horiz-adv-x="390" 
d="M363 481v-35h-123v-255q0 -71 17 -99q25 -42 69 -42q15 0 48 9l9 -24q-89 -45 -168 -45q-84 0 -108 54q-13 29 -13 101v301h-94v35h94v89l111 77h35v-166h123z" />
    <glyph glyph-name="u" unicode="u" horiz-adv-x="695" 
d="M448 0v68q-74 -78 -176 -78q-100 0 -145 68q-29 44 -29 125l-1 190q-1 38 -12.5 53.5t-43.5 21.5l-25 2v31l227 10v-310q0 -71 22 -103t72 -32q79 0 100 74q7 23 7 69v156q0 49 -4 65q-9 34 -53 38l-25 2v31l227 10v-359q0 -60 8.5 -75t48.5 -24l20 -2v-31h-218z" />
    <glyph glyph-name="v" unicode="v" horiz-adv-x="574" 
d="M337 -3h-112l-152 384q-16 41 -28.5 51.5t-50.5 17.5v31h300v-31q-65 -4 -65 -37q0 -14 10 -42l99 -280l102 279q10 27 10 42q0 31 -59 38v31h193v-31q-40 -5 -57 -24q-19 -22 -53 -102z" />
    <glyph glyph-name="w" unicode="w" horiz-adv-x="872" 
d="M322 -3h-123l-121 369q-17 52 -29 64.5t-51 19.5v31h284v-31q-32 -5 -41 -9q-18 -8 -18 -32q0 -22 8 -46l86 -263l116 381h108l114 -375l79 247q11 34 11 55q0 37 -59 42v31h193v-31q-39 -4 -58.5 -25t-44.5 -91l-121 -337h-120l-103 320z" />
    <glyph glyph-name="x" unicode="x" horiz-adv-x="583" 
d="M560 481v-31q-39 -4 -58 -15.5t-57 -54.5l-89 -100l133 -183q26 -35 45 -48t52 -18v-31h-308v31q56 7 56 28q0 14 -23 45l-66 90l-73 -95q-21 -27 -21 -41q0 -20 61 -27v-31h-212v31q55 3 117 72l108 121l-128 173q-22 30 -38 40t-47 13v31h294v-31q-45 -5 -45 -26
q0 -11 15 -32l60 -83l66 90q11 15 11 25q0 15 -21 21q-3 1 -33 5v31h201z" />
    <glyph glyph-name="y" unicode="y" horiz-adv-x="565" 
d="M334 103l97 270q10 28 10 40q0 34 -60 37v31h194v-31q-36 -4 -54.5 -24t-45.5 -85l-142 -338q-58 -138 -79 -167q-45 -63 -123 -63q-52 0 -83.5 25.5t-31.5 66.5q0 31 19 50.5t50 19.5q25 0 42 -15.5t17 -38.5q0 -18 -12 -34t-12 -22q0 -19 32 -19q37 0 64 35
q22 28 51 100q9 22 26 59h-67l-148 366q-23 56 -35 67.5t-49 16.5v31h299v-31q-64 -4 -64 -38q0 -16 18 -66z" />
    <glyph glyph-name="z" unicode="z" horiz-adv-x="555" 
d="M517 452l-304 -417h99q73 0 111 33q30 26 66 125l31 -1l-2 -192h-487v30l305 418h-96q-72 0 -100 -35q-17 -21 -52 -114l-31 2l1 180h459v-29z" />
    <glyph glyph-name="braceleft" unicode="{" horiz-adv-x="330" 
d="M13 271v33q41 3 57.5 20t16.5 56q0 14 -1 39.5t-1 85.5q0 68 4 93q10 55 45 78q17 12 39.5 14.5t97.5 3.5q4 1 26 1v-34q-82 -1 -96 -57q-6 -24 -6 -90v-101q0 -60 -18 -87.5t-67 -37.5q69 -10 81 -72q4 -21 4 -90v-117q0 -68 21.5 -94t80.5 -27v-35q-112 1 -138 9
q-73 22 -73 125l1 212q0 69 -74 72z" />
    <glyph glyph-name="bar" unicode="|" horiz-adv-x="573" 
d="M255 667h64v-834h-64v834z" />
    <glyph glyph-name="braceright" unicode="}" horiz-adv-x="330" 
d="M318 304v-33q-74 -3 -74 -72l1 -212q1 -108 -81 -127q-25 -6 -130 -7v35q60 3 81 27q14 16 17.5 37.5t3.5 90.5v83q0 69 3.5 89.5t18.5 38.5q22 27 63 34q-76 11 -83 79q-2 20 -2 52v130q0 63 -22 87t-80 25v34q22 0 26 -1h40q47 0 69 -6q34 -9 54 -39q23 -35 23 -144
q0 -59 -1 -85t-1 -41q0 -38 17 -55t57 -20z" />
    <glyph glyph-name="asciitilde" unicode="~" horiz-adv-x="502" 
d="M56 585l-21 56q65 54 122 54q29 0 91 -22t91 -22q55 0 108 53l14 -62q-60 -59 -128 -59q-28 0 -66 12q-32 11 -64.5 21.5t-52.5 10.5q-49 0 -94 -42z" />
    <glyph glyph-name="Adieresis" unicode="&#xc4;" horiz-adv-x="722" 
d="M439 667l189 -508q29 -79 46 -98.5t62 -27.5v-33h-336v33q44 7 60 16t16 27t-16 63l-34 96h-235l-33 -89q-15 -40 -15 -64q0 -38 81 -49v-33h-246v33q51 8 79 43t70 139l155 387q11 28 22 65h135zM312 565l-106 -287h205zM248 868q34 0 57.5 -20.5t23.5 -49.5
q0 -31 -23 -51t-58 -20q-34 0 -57 20.5t-23 51.5q0 28 23.5 48.5t56.5 20.5zM509 868q34 0 57.5 -20.5t23.5 -49.5q0 -31 -23 -51t-58 -20q-34 0 -57 20.5t-23 51.5q0 28 23.5 48.5t56.5 20.5z" />
    <glyph glyph-name="Aring" unicode="&#xc5;" horiz-adv-x="722" 
d="M439 667l189 -508q29 -79 46 -98.5t62 -27.5v-33h-336v33q44 7 60 16t16 27t-16 63l-34 96h-235l-33 -89q-15 -40 -15 -64q0 -38 81 -49v-33h-246v33q51 8 79 43t70 139l155 387q11 28 22 65h135zM312 565l-106 -287h205zM375 891q54 0 86.5 -25.5t32.5 -67.5
q0 -41 -33 -67t-85 -26q-55 0 -87.5 26t-32.5 69q0 41 33 66t86 25zM375 860q-27 0 -44 -17t-17 -44q0 -28 17 -45.5t44 -17.5q26 0 43.5 18t17.5 45t-17 44t-44 17z" />
    <glyph glyph-name="Ccedilla" unicode="&#xc7;" horiz-adv-x="710" 
d="M407 -15l-19 -53l28 2q36 0 59.5 -17.5t23.5 -45.5q0 -38 -35 -61.5t-90 -23.5q-31 0 -72 10l5 29q24 -4 38 -4q32 0 51 13.5t19 36.5q0 34 -50 34q-6 0 -26 -3l31 84q-81 4 -173 49q-154 74 -154 302q0 345 371 345q89 0 180 -31q9 -3 18 -3q16 0 32 25h26l2 -236
l-46 -1q-23 96 -52 137q-49 69 -142 69q-98 0 -151 -83t-53 -237q0 -146 53.5 -221.5t152.5 -75.5q103 0 207 110l40 -42q-62 -62 -119.5 -84.5t-154.5 -23.5z" />
    <glyph glyph-name="Eacute" unicode="&#xc9;" horiz-adv-x="714" 
d="M638 667l14 -214h-45q-54 110 -74 131q-40 43 -127 43h-107v-253l59 2q40 1 59.5 17t31.5 58l14 48h34v-293h-34l-12 46q-12 46 -32.5 63.5t-62.5 18.5l-57 1v-294h100q72 0 113 27t73 96l38 81h44l-22 -245h-602v33l26 4q40 6 53 24q10 14 10 70v405q0 56 -10 70
q-13 18 -53 24l-26 4v33h595zM347 709l-11 18l189 150q24 19 42 19q16 0 27.5 -12.5t11.5 -30.5q0 -30 -38 -47z" />
    <glyph glyph-name="Ntilde" unicode="&#xd1;" horiz-adv-x="805" 
d="M306 667l340 -502l-5 300q-2 110 -18.5 136.5t-86.5 32.5v33h260v-33q-67 -5 -84.5 -35t-19.5 -143l-8 -456h-131l-383 557l8 -381q2 -91 18 -113t85 -30v-33h-259v33q64 5 82.5 31t20.5 116l6 345q0 61 -19.5 81t-85.5 28v33h280zM596 864l34 -2q-7 -129 -93 -129
q-31 0 -142 45q-37 15 -63 15q-21 0 -32 -13.5t-19 -49.5l-34 4q4 51 18 79q23 46 77 46q35 0 115 -31q70 -27 90 -27q23 0 34 13.5t15 49.5z" />
    <glyph glyph-name="Odieresis" unicode="&#xd6;" horiz-adv-x="831" 
d="M416 682q185 0 281 -88q91 -83 91 -260q0 -349 -373 -349q-186 0 -281 88q-91 85 -91 266q0 168 91.5 255.5t281.5 87.5zM415 642q-187 0 -187 -304q0 -313 188 -313q187 0 187 309q0 308 -188 308zM291 868q34 0 57.5 -20.5t23.5 -49.5q0 -31 -23 -51t-58 -20
q-34 0 -57 20.5t-23 51.5q0 28 23.5 48.5t56.5 20.5zM552 868q34 0 57.5 -20.5t23.5 -49.5q0 -31 -23 -51t-58 -20q-34 0 -57 20.5t-23 51.5q0 28 23.5 48.5t56.5 20.5z" />
    <glyph glyph-name="Udieresis" unicode="&#xdc;" horiz-adv-x="776" 
d="M518 667h247v-33q-66 -8 -79.5 -29t-15.5 -123l-4 -224q-2 -121 -46 -180q-69 -93 -233 -93q-179 0 -241 101q-33 54 -33 166v284q0 56 -10 70q-13 18 -52 24l-27 4v33h345v-33l-26 -4q-40 -6 -53 -24q-10 -14 -10 -70v-282q0 -104 33 -150q45 -63 135 -63q86 0 128 56
q33 44 36 139l1 39l-4 207q-2 102 -14.5 123.5t-76.5 28.5v33zM298 868q34 0 57.5 -20.5t23.5 -49.5q0 -31 -23 -51t-58 -20q-34 0 -57 20.5t-23 51.5q0 28 23.5 48.5t56.5 20.5zM559 868q34 0 57.5 -20.5t23.5 -49.5q0 -31 -23 -51t-58 -20q-34 0 -57 20.5t-23 51.5
q0 28 23.5 48.5t56.5 20.5z" />
    <glyph glyph-name="aacute" unicode="&#xe1;" horiz-adv-x="587" 
d="M570 68l11 -20q-83 -56 -138 -56q-39 0 -65 28q-13 14 -25 52q-83 -82 -171 -82q-65 0 -102.5 36.5t-37.5 98.5q0 87 80 124q30 14 150 34l77 13q-1 96 -11 119q-18 43 -79 43q-24 0 -43.5 -8.5t-19.5 -19.5q0 -4 15 -22q11 -11 11 -31q0 -29 -21.5 -47.5t-54.5 -18.5
t-53 19t-20 51q0 110 211 110q142 0 186 -69q22 -35 22 -120v-160q0 -87 38 -87q14 0 40 13zM350 164v99q-92 -13 -125 -36t-33 -74q0 -40 21.5 -65.5t55.5 -25.5q39 0 65 34q16 21 16 68zM284 536l-13 16l170 163q24 23 44 23q15 0 26.5 -12.5t11.5 -29.5q0 -27 -34 -46z
" />
    <glyph glyph-name="agrave" unicode="&#xe0;" horiz-adv-x="587" 
d="M570 68l11 -20q-83 -56 -138 -56q-39 0 -65 28q-13 14 -25 52q-83 -82 -171 -82q-65 0 -102.5 36.5t-37.5 98.5q0 87 80 124q30 14 150 34l77 13q-1 96 -11 119q-18 43 -79 43q-24 0 -43.5 -8.5t-19.5 -19.5q0 -4 15 -22q11 -11 11 -31q0 -29 -21.5 -47.5t-54.5 -18.5
t-53 19t-20 51q0 110 211 110q142 0 186 -69q22 -35 22 -120v-160q0 -87 38 -87q14 0 40 13zM350 164v99q-92 -13 -125 -36t-33 -74q0 -40 21.5 -65.5t55.5 -25.5q39 0 65 34q16 21 16 68zM329 536l-206 114q-33 18 -33 46q0 17 11 29.5t27 12.5q20 0 44 -23l170 -163z" />
    <glyph glyph-name="acircumflex" unicode="&#xe2;" horiz-adv-x="587" 
d="M570 68l11 -20q-83 -56 -138 -56q-39 0 -65 28q-13 14 -25 52q-83 -82 -171 -82q-65 0 -102.5 36.5t-37.5 98.5q0 87 80 124q30 14 150 34l77 13q-1 96 -11 119q-18 43 -79 43q-24 0 -43.5 -8.5t-19.5 -19.5q0 -4 15 -22q11 -11 11 -31q0 -29 -21.5 -47.5t-54.5 -18.5
t-53 19t-20 51q0 110 211 110q142 0 186 -69q22 -35 22 -120v-160q0 -87 38 -87q14 0 40 13zM350 164v99q-92 -13 -125 -36t-33 -74q0 -40 21.5 -65.5t55.5 -25.5q39 0 65 34q16 21 16 68zM291 742l180 -182l-19 -22l-161 118l-160 -118l-20 22z" />
    <glyph glyph-name="adieresis" unicode="&#xe4;" horiz-adv-x="587" 
d="M570 68l11 -20q-83 -56 -138 -56q-39 0 -65 28q-13 14 -25 52q-83 -82 -171 -82q-65 0 -102.5 36.5t-37.5 98.5q0 87 80 124q30 14 150 34l77 13q-1 96 -11 119q-18 43 -79 43q-24 0 -43.5 -8.5t-19.5 -19.5q0 -4 15 -22q11 -11 11 -31q0 -29 -21.5 -47.5t-54.5 -18.5
t-53 19t-20 51q0 110 211 110q142 0 186 -69q22 -35 22 -120v-160q0 -87 38 -87q14 0 40 13zM350 164v99q-92 -13 -125 -36t-33 -74q0 -40 21.5 -65.5t55.5 -25.5q39 0 65 34q16 21 16 68zM192 697q34 0 56.5 -20t22.5 -49t-22.5 -49t-56.5 -20q-33 0 -55.5 20t-22.5 50
q0 28 23 48t55 20zM394 697q34 0 56.5 -20t22.5 -49t-22.5 -49t-56.5 -20q-33 0 -55.5 20t-22.5 50q0 28 23 48t55 20z" />
    <glyph glyph-name="atilde" unicode="&#xe3;" horiz-adv-x="587" 
d="M570 68l11 -20q-83 -56 -138 -56q-39 0 -65 28q-13 14 -25 52q-83 -82 -171 -82q-65 0 -102.5 36.5t-37.5 98.5q0 87 80 124q30 14 150 34l77 13q-1 96 -11 119q-18 43 -79 43q-24 0 -43.5 -8.5t-19.5 -19.5q0 -4 15 -22q11 -11 11 -31q0 -29 -21.5 -47.5t-54.5 -18.5
t-53 19t-20 51q0 110 211 110q142 0 186 -69q22 -35 22 -120v-160q0 -87 38 -87q14 0 40 13zM350 164v99q-92 -13 -125 -36t-33 -74q0 -40 21.5 -65.5t55.5 -25.5q39 0 65 34q16 21 16 68zM447 696l34 -1q-8 -125 -75 -125q-35 0 -142 42q-43 17 -58 17q-32 0 -46 -62l-34 4
q4 49 18 77q23 45 73 45q24 0 142 -45q29 -11 44 -11q36 0 44 59z" />
    <glyph glyph-name="aring" unicode="&#xe5;" horiz-adv-x="587" 
d="M570 68l11 -20q-83 -56 -138 -56q-39 0 -65 28q-13 14 -25 52q-83 -82 -171 -82q-65 0 -102.5 36.5t-37.5 98.5q0 87 80 124q30 14 150 34l77 13q-1 96 -11 119q-18 43 -79 43q-24 0 -43.5 -8.5t-19.5 -19.5q0 -4 15 -22q11 -11 11 -31q0 -29 -21.5 -47.5t-54.5 -18.5
t-53 19t-20 51q0 110 211 110q142 0 186 -69q22 -35 22 -120v-160q0 -87 38 -87q14 0 40 13zM350 164v99q-92 -13 -125 -36t-33 -74q0 -40 21.5 -65.5t55.5 -25.5q39 0 65 34q16 21 16 68zM290 732q48 0 81 -27.5t33 -67.5t-33 -67.5t-81 -27.5q-49 0 -81.5 27.5t-32.5 68.5
q0 39 33 66.5t81 27.5zM290 701q-24 0 -40.5 -18t-16.5 -45q0 -28 16 -46.5t41 -18.5q24 0 40.5 18.5t16.5 46.5q0 26 -16.5 44.5t-40.5 18.5z" />
    <glyph glyph-name="ccedilla" unicode="&#xe7;" horiz-adv-x="527" 
d="M301 -10l-20 -52q20 2 25 2q32 0 53 -17t21 -43q0 -36 -33.5 -57.5t-89.5 -21.5q-25 0 -58 8l6 27q21 -5 37 -5q28 0 47 14t19 35q0 34 -44 34q-11 0 -30 -4l29 81q-106 6 -165.5 72t-59.5 177q0 122 68.5 186.5t199.5 64.5q93 0 148 -32t55 -86q0 -31 -21 -51.5
t-53 -20.5q-29 0 -48.5 17.5t-19.5 43.5q0 18 21 46q5 5 5 12q0 16 -21 26.5t-53 10.5q-121 0 -121 -200q0 -210 146 -210q69 0 140 61l21 -24q-87 -91 -204 -94z" />
    <glyph glyph-name="eacute" unicode="&#xe9;" horiz-adv-x="569" 
d="M502 113l20 -22q-56 -56 -107 -78.5t-124 -22.5q-118 0 -185.5 67.5t-67.5 185.5q0 119 67 183.5t191 64.5q146 0 204 -89q34 -52 34 -152h-337q1 -52 5 -78q7 -44 27 -72q37 -51 113 -51q90 0 160 64zM198 285h199q-4 92 -27 132.5t-72 40.5q-64 0 -85 -70
q-12 -40 -15 -103zM277 536l-13 16l170 163q24 23 44 23q15 0 26.5 -12.5t11.5 -29.5q0 -27 -34 -46z" />
    <glyph glyph-name="egrave" unicode="&#xe8;" horiz-adv-x="569" 
d="M502 113l20 -22q-56 -56 -107 -78.5t-124 -22.5q-118 0 -185.5 67.5t-67.5 185.5q0 119 67 183.5t191 64.5q146 0 204 -89q34 -52 34 -152h-337q1 -52 5 -78q7 -44 27 -72q37 -51 113 -51q90 0 160 64zM198 285h199q-4 92 -27 132.5t-72 40.5q-64 0 -85 -70
q-12 -40 -15 -103zM331 536l-206 114q-33 18 -33 46q0 17 11 29.5t27 12.5q20 0 44 -23l170 -163z" />
    <glyph glyph-name="ecircumflex" unicode="&#xea;" horiz-adv-x="569" 
d="M502 113l20 -22q-56 -56 -107 -78.5t-124 -22.5q-118 0 -185.5 67.5t-67.5 185.5q0 119 67 183.5t191 64.5q146 0 204 -89q34 -52 34 -152h-337q1 -52 5 -78q7 -44 27 -72q37 -51 113 -51q90 0 160 64zM198 285h199q-4 92 -27 132.5t-72 40.5q-64 0 -85 -70
q-12 -40 -15 -103zM303 742l180 -182l-19 -22l-161 118l-160 -118l-20 22z" />
    <glyph glyph-name="edieresis" unicode="&#xeb;" horiz-adv-x="569" 
d="M502 113l20 -22q-56 -56 -107 -78.5t-124 -22.5q-118 0 -185.5 67.5t-67.5 185.5q0 119 67 183.5t191 64.5q146 0 204 -89q34 -52 34 -152h-337q1 -52 5 -78q7 -44 27 -72q37 -51 113 -51q90 0 160 64zM198 285h199q-4 92 -27 132.5t-72 40.5q-64 0 -85 -70
q-12 -40 -15 -103zM201 697q34 0 56.5 -20t22.5 -49t-22.5 -49t-56.5 -20q-33 0 -55.5 20t-22.5 50q0 28 23 48t55 20zM403 697q34 0 56.5 -20t22.5 -49t-22.5 -49t-56.5 -20q-33 0 -55.5 20t-22.5 50q0 28 23 48t55 20z" />
    <glyph glyph-name="iacute" unicode="&#xed;" horiz-adv-x="362" 
d="M257 491v-359q0 -59 9 -74.5t48 -24.5l20 -2v-31h-299v31l20 2q40 9 48.5 24.5t8.5 74.5v212q0 50 -4 66q-9 34 -53 38l-25 2v31zM165 536l-12 16l150 163q21 23 44 23q15 0 26.5 -12.5t11.5 -29.5q0 -25 -34 -46z" />
    <glyph glyph-name="igrave" unicode="&#xec;" horiz-adv-x="362" 
d="M257 491v-359q0 -59 9 -74.5t48 -24.5l20 -2v-31h-299v31l20 2q40 9 48.5 24.5t8.5 74.5v212q0 50 -4 66q-9 34 -53 38l-25 2v31zM204 536l-186 114q-33 20 -33 46q0 17 11 29.5t26 12.5q24 0 45 -23l150 -163z" />
    <glyph glyph-name="icircumflex" unicode="&#xee;" horiz-adv-x="362" 
d="M257 491v-359q0 -59 9 -74.5t48 -24.5l20 -2v-31h-299v31l20 2q40 9 48.5 24.5t8.5 74.5v212q0 50 -4 66q-9 34 -53 38l-25 2v31zM186 742l156 -182l-20 -21l-136 117l-136 -117l-21 21z" />
    <glyph glyph-name="idieresis" unicode="&#xef;" horiz-adv-x="362" 
d="M257 491v-359q0 -60 9 -75t48 -24l20 -2v-31h-299v31l20 2q39 9 48 24.5t9 74.5l-1 241q-1 36 -10 51q-12 18 -46 24l-25 2v31zM91 695q31 0 52.5 -19t21.5 -48t-21.5 -48t-52.5 -19t-52 19.5t-21 48.5q0 28 21.5 47t51.5 19zM277 695q31 0 52.5 -19t21.5 -48t-21.5 -48
t-53.5 -19q-31 0 -52 19.5t-21 48.5q0 28 21.5 47t52.5 19z" />
    <glyph glyph-name="ntilde" unicode="&#xf1;" horiz-adv-x="703" 
d="M249 491v-82q45 47 81.5 64.5t91.5 17.5q114 0 158 -77q23 -38 23 -125v-157q0 -59 8.5 -74.5t48.5 -24.5l20 -2v-31h-296v31l18 2q38 9 46.5 25t8.5 74v147q0 82 -16 113q-23 44 -78 44q-64 0 -92 -58q-14 -29 -14 -98v-148q0 -59 8.5 -74.5t46.5 -24.5l18 -2v-31h-295
v31l20 2q39 9 48 24.5t9 74.5v213q0 50 -4 65q-10 35 -53 38l-25 2v31zM511 696l34 -1q-8 -125 -75 -125q-35 0 -142 42q-43 17 -58 17q-32 0 -46 -62l-34 4q4 49 18 77q23 45 73 45q24 0 142 -45q29 -11 44 -11q36 0 44 59z" />
    <glyph glyph-name="oacute" unicode="&#xf3;" horiz-adv-x="616" 
d="M308 491q270 0 270 -251q0 -122 -69 -186t-200 -64q-271 0 -271 254q0 127 76 190q68 57 194 57zM306 457q-60 0 -86 -49.5t-26 -163.5q0 -121 26 -170.5t90 -49.5q60 0 86 50t26 166q0 118 -26.5 167.5t-89.5 49.5zM305 536l-13 16l170 163q24 23 44 23q15 0 26.5 -12.5
t11.5 -29.5q0 -27 -34 -46z" />
    <glyph glyph-name="ograve" unicode="&#xf2;" horiz-adv-x="616" 
d="M308 491q270 0 270 -251q0 -122 -69 -186t-200 -64q-271 0 -271 254q0 127 76 190q68 57 194 57zM306 457q-60 0 -86 -49.5t-26 -163.5q0 -121 26 -170.5t90 -49.5q60 0 86 50t26 166q0 118 -26.5 167.5t-89.5 49.5zM344 536l-206 114q-33 18 -33 46q0 17 11 29.5
t27 12.5q20 0 44 -23l170 -163z" />
    <glyph glyph-name="ocircumflex" unicode="&#xf4;" horiz-adv-x="616" 
d="M308 491q270 0 270 -251q0 -122 -69 -186t-200 -64q-271 0 -271 254q0 127 76 190q68 57 194 57zM306 457q-60 0 -86 -49.5t-26 -163.5q0 -121 26 -170.5t90 -49.5q60 0 86 50t26 166q0 118 -26.5 167.5t-89.5 49.5zM318 742l180 -182l-19 -22l-161 118l-160 -118l-20 22
z" />
    <glyph glyph-name="odieresis" unicode="&#xf6;" horiz-adv-x="616" 
d="M308 491q270 0 270 -251q0 -122 -69 -186t-200 -64q-271 0 -271 254q0 127 76 190q68 57 194 57zM306 457q-60 0 -86 -49.5t-26 -163.5q0 -121 26 -170.5t90 -49.5q60 0 86 50t26 166q0 118 -26.5 167.5t-89.5 49.5zM213 697q34 0 56.5 -20t22.5 -49t-22.5 -49t-56.5 -20
q-33 0 -55.5 20t-22.5 50q0 28 23 48t55 20zM415 697q34 0 56.5 -20t22.5 -49t-22.5 -49t-56.5 -20q-33 0 -55.5 20t-22.5 50q0 28 23 48t55 20z" />
    <glyph glyph-name="otilde" unicode="&#xf5;" horiz-adv-x="616" 
d="M308 491q270 0 270 -251q0 -122 -69 -186t-200 -64q-271 0 -271 254q0 127 76 190q68 57 194 57zM306 457q-60 0 -86 -49.5t-26 -163.5q0 -121 26 -170.5t90 -49.5q60 0 86 50t26 166q0 118 -26.5 167.5t-89.5 49.5zM472 696l34 -1q-8 -125 -75 -125q-35 0 -142 42
q-43 17 -58 17q-32 0 -46 -62l-34 4q4 49 18 77q23 45 73 45q24 0 142 -45q29 -11 44 -11q36 0 44 59z" />
    <glyph glyph-name="uacute" unicode="&#xfa;" horiz-adv-x="695" 
d="M448 0v68q-74 -78 -176 -78q-100 0 -145 68q-29 44 -29 125l-1 190q-1 38 -12.5 53.5t-43.5 21.5l-25 2v31l227 10v-310q0 -71 22 -103t72 -32q79 0 100 74q7 23 7 69v156q0 49 -4 65q-9 34 -53 38l-25 2v31l227 10v-359q0 -60 8.5 -75t48.5 -24l20 -2v-31h-218zM305 536
l-13 16l170 163q24 23 44 23q15 0 26.5 -12.5t11.5 -29.5q0 -27 -34 -46z" />
    <glyph glyph-name="ugrave" unicode="&#xf9;" horiz-adv-x="695" 
d="M448 0v68q-74 -78 -176 -78q-100 0 -145 68q-29 44 -29 125l-1 190q-1 38 -12.5 53.5t-43.5 21.5l-25 2v31l227 10v-310q0 -71 22 -103t72 -32q79 0 100 74q7 23 7 69v156q0 49 -4 65q-9 34 -53 38l-25 2v31l227 10v-359q0 -60 8.5 -75t48.5 -24l20 -2v-31h-218zM370 536
l-206 114q-33 18 -33 46q0 17 11 29.5t27 12.5q20 0 44 -23l170 -163z" />
    <glyph glyph-name="ucircumflex" unicode="&#xfb;" horiz-adv-x="695" 
d="M448 0v68q-74 -78 -176 -78q-100 0 -145 68q-29 44 -29 125l-1 190q-1 38 -12.5 53.5t-43.5 21.5l-25 2v31l227 10v-310q0 -71 22 -103t72 -32q79 0 100 74q7 23 7 69v156q0 49 -4 65q-9 34 -53 38l-25 2v31l227 10v-359q0 -60 8.5 -75t48.5 -24l20 -2v-31h-218zM338 742
l180 -182l-19 -22l-161 118l-160 -118l-20 22z" />
    <glyph glyph-name="udieresis" unicode="&#xfc;" horiz-adv-x="695" 
d="M448 0v68q-74 -78 -176 -78q-100 0 -145 68q-29 44 -29 125l-1 190q-1 38 -12.5 53.5t-43.5 21.5l-25 2v31l227 10v-310q0 -71 22 -103t72 -32q79 0 100 74q7 23 7 69v156q0 49 -4 65q-9 34 -53 38l-25 2v31l227 10v-359q0 -60 8.5 -75t48.5 -24l20 -2v-31h-218zM232 697
q34 0 56.5 -20t22.5 -49t-22.5 -49t-56.5 -20q-33 0 -55.5 20t-22.5 50q0 28 23 48t55 20zM434 697q34 0 56.5 -20t22.5 -49t-22.5 -49t-56.5 -20q-33 0 -55.5 20t-22.5 50q0 28 23 48t55 20z" />
    <glyph glyph-name="dagger" unicode="&#x2020;" horiz-adv-x="561" 
d="M263 352v19q-37 -4 -72 -21q-57 -29 -78 -29q-25 0 -43 19.5t-18 47.5q0 27 17.5 45.5t43.5 18.5q21 0 72 -26q35 -18 78 -24q-5 54 -11 78t-32 87q-9 22 -9 43q0 30 19.5 48.5t50.5 18.5t50.5 -19t19.5 -48q0 -21 -27 -88q-20 -50 -25 -120q42 6 77 24q50 26 72 26
q26 0 43.5 -18.5t17.5 -45.5q0 -28 -18 -47.5t-43 -19.5q-21 0 -78 29q-34 17 -71 21q1 -140 10 -211q9 -74 41 -178q7 -23 7 -48q0 -33 -21.5 -55t-55.5 -22q-32 0 -54 22t-22 55q0 22 29 123q30 105 30 295z" />
    <glyph glyph-name="degree" unicode="&#xb0;" horiz-adv-x="335" 
d="M168 677q48 0 82 -34t34 -82q0 -49 -34.5 -83t-83.5 -34q-47 0 -81 34.5t-34 82.5t34 82t83 34zM168 616q-23 0 -39.5 -16t-16.5 -39t16 -39.5t39 -16.5t39.5 16.5t16.5 39.5t-16 39t-39 16z" />
    <glyph glyph-name="cent" unicode="&#xa2;" horiz-adv-x="628" 
d="M322 685h40v-97q88 -2 139 -33.5t51 -83.5q0 -31 -21 -51.5t-53 -20.5q-29 0 -48 17.5t-19 43.5q0 19 21 46q4 5 4 12q0 16 -21 26.5t-53 10.5v-407q17 -3 29 -3q66 0 136 61l21 -24q-79 -82 -186 -93v-104h-40v103q-114 3 -177.5 69t-63.5 181t62.5 180t178.5 70v97z
M322 167v377q-86 -35 -86 -186q0 -138 86 -191z" />
    <glyph glyph-name="sterling" unicode="&#xa3;" horiz-adv-x="628" 
d="M497 374v-38h-138q5 -25 5 -41q0 -75 -56 -152q96 -44 136 -44q50 0 80.5 33.5t30.5 89.5q0 12 -1 23l22 3q13 -52 13 -85q0 -80 -41 -129t-109 -49q-36 0 -72 13.5t-120 59.5q-67 -72 -137 -72q-41 0 -65.5 24t-24.5 64q0 50 36.5 80.5t96.5 30.5q51 0 122 -29
q15 22 15 37q0 35 -62 109q-7 10 -28 34h-132v38h107q-47 68 -47 130q0 81 55.5 126t155.5 45q83 0 130.5 -33t47.5 -91q0 -38 -22.5 -62.5t-58.5 -24.5q-30 0 -49.5 17.5t-19.5 43.5q0 20 9 32q5 7 26 24q9 9 9 20q0 19 -21 31.5t-53 12.5q-42 0 -66.5 -22.5t-24.5 -61.5
q0 -41 43 -99q35 -47 59 -88h149zM219 73q-3 2 -12 7q-67 35 -100 35q-22 0 -37 -13.5t-15 -33.5q0 -22 17 -37.5t42 -15.5q51 0 105 58z" />
    <glyph glyph-name="section" unicode="&#xa7;" horiz-adv-x="505" 
d="M410 195v-6q49 -44 49 -104q0 -88 -68.5 -143.5t-176.5 -55.5q-77 0 -123.5 30.5t-46.5 80.5q0 34 19.5 54.5t51.5 20.5q29 0 47.5 -15.5t18.5 -39.5q0 -19 -26 -48q-7 -8 -7 -16q0 -16 22.5 -26t57.5 -10q56 0 94 28.5t38 71.5q0 40 -38 63q-20 12 -118 41
q-157 46 -157 161q0 79 71 138v7q-23 25 -30 37q-10 18 -10 44q0 76 56 123t147 47q145 0 145 -82q0 -28 -18 -46.5t-46 -18.5q-26 0 -42 13t-16 33q0 10 10 30q2 6 2 10q0 14 -15.5 23t-38.5 9q-40 0 -67.5 -25t-27.5 -63q0 -41 31 -65q27 -21 101 -43q86 -26 115 -48
q45 -34 45 -92t-49 -118zM140 406l-8 -2q-16 -27 -16 -48q0 -45 55 -74q23 -12 118 -40q63 -18 95 -36l7 1q11 22 11 35q0 36 -38 59q-24 14 -92 36q-63 20 -85.5 32t-46.5 37z" />
    <glyph glyph-name="bullet" unicode="&#x2022;" horiz-adv-x="667" 
d="M336 478q56 0 96.5 -41t40.5 -98t-40.5 -97.5t-97.5 -40.5q-58 0 -98.5 40.5t-40.5 97.5q0 58 40.5 98.5t99.5 40.5z" />
    <glyph glyph-name="paragraph" unicode="&#xb6;" horiz-adv-x="434" 
d="M263 278h-11q-115 0 -183 56.5t-68 151.5q0 178 191 178h239v-29l-106 -9q-21 -2 -24.5 -5t-3.5 -21v-603q0 -88 -24 -130q-31 -53 -104 -53q-48 0 -79.5 25.5t-31.5 64.5q0 28 18 46t45 18q25 0 41 -15t16 -38q0 -18 -19 -44q-2 -4 -2 -8q0 -18 29 -18q36 0 58 32.5
t21 109.5z" />
    <glyph glyph-name="germandbls" unicode="&#xdf;" horiz-adv-x="687" 
d="M43 445v36h69q5 108 53 157q60 62 199 62q183 0 183 -100q0 -31 -15.5 -49.5t-61.5 -42.5q-36 -19 -36 -42q0 -29 54 -62q93 -56 119 -82q51 -51 51 -130q0 -91 -55 -144t-149 -53q-65 0 -102 23.5t-37 64.5q0 29 19 48t48 19q25 0 42 -15.5t17 -38.5q0 -16 -12 -34
q-6 -9 -6 -14q0 -7 13 -13t29 -6q36 0 57.5 24t21.5 64q0 38 -18.5 65t-71.5 65q-62 45 -84.5 76t-22.5 72q0 37 19 67q9 15 53 62q29 31 29 68q0 35 -24 56t-63 21q-68 0 -92 -67q-12 -33 -12 -110v-492h-222v31l19 2q40 8 49 24t9 75v313h-69z" />
    <glyph glyph-name="registered" unicode="&#xae;" horiz-adv-x="769" 
d="M589 176l3 -22q-39 -9 -62 -9q-57 0 -84 38q-11 16 -31 89q-8 30 -20.5 41t-39.5 11h-25v-99q0 -26 4 -34q6 -12 29 -15l17 -2v-23h-199v23l18 2q23 3 29 15q4 8 4 34v217q0 26 -4 34q-6 12 -29 15l-17 2v23l236 -1q130 -1 130 -85q0 -73 -99 -92q40 -10 57 -33t35 -93
q10 -38 32 -38q2 0 16 2zM330 351h27q91 0 91 73q0 42 -34 57q-16 7 -62 7q-10 0 -22 -1v-136zM385 682q143 0 245 -102t102 -246q0 -146 -102 -247.5t-249 -101.5q-141 0 -242.5 103t-101.5 246q0 144 102 246t246 102zM385 640q-125 0 -214 -89.5t-89 -216.5
q0 -125 88.5 -216t210.5 -91q128 0 217 89.5t89 217.5q0 126 -89 216t-213 90z" />
    <glyph glyph-name="copyright" unicode="&#xa9;" horiz-adv-x="769" 
d="M552 519l1 -132l-31 -1q-13 53 -29 75q-27 36 -78 36q-114 0 -114 -169q0 -158 114 -158q57 0 118 61l26 -27q-64 -61 -150 -61q-99 0 -157.5 44.5t-58.5 145.5q0 191 211 191q49 0 103 -17q6 -2 10 -2q7 0 17 14h18zM385 682q143 0 245 -102t102 -246
q0 -146 -102 -247.5t-249 -101.5q-141 0 -242.5 103t-101.5 246q0 144 102 246t246 102zM385 640q-125 0 -214 -89.5t-89 -216.5q0 -125 88.5 -216t210.5 -91q128 0 217 89.5t89 217.5q0 126 -89 216t-213 90z" />
    <glyph glyph-name="trademark" unicode="&#x2122;" horiz-adv-x="993" 
d="M405 667l3 -134h-30l-12 30q-18 44 -36 60t-51 16h-22v-275q0 -27 4 -35q6 -14 30 -16l20 -2v-24h-214v24l19 2q24 3 31 15q4 9 4 36v275h-22q-33 0 -51 -16t-36 -60l-12 -30h-30l3 134h402zM422 667h177q57 -157 103 -276l95 235q1 2 15 41h158v-24l-18 -2
q-24 -3 -30 -15q-4 -8 -4 -35v-227q0 -27 4 -35q6 -13 30 -16l18 -2v-24h-206v24l18 2q24 3 30 16q4 8 4 35v238l-103 -273q-7 -18 -12 -42h-72q-11 28 -25 66l-27 71q-30 78 -69 179l5 -230q1 -34 11.5 -46.5t44.5 -15.5v-24h-151v24q39 2 49 17.5t11 74.5l3 186
q1 35 -10 43q-7 6 -49 11v24z" />
    <glyph glyph-name="acute" unicode="&#xb4;" 
d="M207 536l-13 16l170 163q24 23 44 23q15 0 26.5 -12.5t11.5 -29.5q0 -27 -34 -46z" />
    <glyph glyph-name="dieresis" unicode="&#xa8;" 
d="M148 697q34 0 56.5 -20t22.5 -49t-22.5 -49t-56.5 -20q-33 0 -55.5 20t-22.5 50q0 28 23 48t55 20zM350 697q34 0 56.5 -20t22.5 -49t-22.5 -49t-56.5 -20q-33 0 -55.5 20t-22.5 50q0 28 23 48t55 20z" />
    <glyph glyph-name="notequal" unicode="&#x2260;" horiz-adv-x="587" 
d="M35 340h304l100 127l52 -26l-79 -101h139v-64h-190l-58 -73h248v-65h-298l-97 -125l-53 25l78 100h-146v65h197l58 73h-255v64z" />
    <glyph glyph-name="AE" unicode="&#xc6;" horiz-adv-x="1022" 
d="M946 667l14 -214h-45q-52 106 -74 131q-39 43 -128 43h-94v-253l46 1q39 1 59.5 17t32.5 59l14 48h34v-293h-34l-13 46q-13 46 -33.5 63.5t-61.5 18.5l-44 1v-294h87q72 0 113.5 27t73.5 96l38 81h44l-22 -245h-590v33l31 4q38 5 52 24q10 14 10 70v95h-230l-61 -99
q-26 -42 -26 -58t14 -23.5t54 -12.5v-33h-238v33q52 9 79 29.5t69 84.5l284 433q7 11 7 21q0 18 -22 24q-11 3 -56 9v33h616zM456 590l-204 -322h204v322z" />
    <glyph glyph-name="Oslash" unicode="&#xd8;" horiz-adv-x="831" 
d="M705 718l-61 -86q144 -81 144 -298q0 -349 -369 -349q-132 0 -212 37l-67 -93l-38 31l63 87q-18 13 -31 26q-91 87 -91 260q0 176 92.5 262.5t264.5 86.5q116 0 200 -29l67 94zM252 155l292 425q-44 61 -129 61q-187 0 -187 -309q0 -99 24 -177zM571 534l-296 -428
q41 -81 140 -81q188 0 188 309q0 123 -32 200z" />
    <glyph glyph-name="infinity" unicode="&#x221e;" horiz-adv-x="746" 
d="M391 281q53 71 87.5 95t84.5 24q65 0 105 -40.5t40 -105.5q0 -73 -50 -122.5t-123 -49.5q-92 0 -179 107q-57 -63 -88 -82.5t-74 -19.5q-65 0 -108.5 45t-43.5 113t43.5 112t110.5 44q70 0 121 -42q23 -19 74 -78zM337 213q-42 65 -55 84q-50 72 -99 72q-40 0 -66 -35
t-26 -88q0 -56 29.5 -90t78.5 -34q38 0 67 19.5t71 71.5zM408 255q41 -58 57 -78q49 -60 95 -60q44 0 72 36.5t28 92.5q0 55 -29 88t-76 33t-85 -39q-18 -18 -62 -73z" />
    <glyph glyph-name="plusminus" unicode="&#xb1;" horiz-adv-x="578" 
d="M32 385h226v224h63v-224h226v-60h-226v-226h-63v226h-226v60zM32 61h515v-61h-515v61z" />
    <glyph glyph-name="lessequal" unicode="&#x2264;" horiz-adv-x="581" 
d="M495 492l38 -50l-382 -153l379 -151l-45 -53l-448 180v47zM33 62h514v-62h-514v62z" />
    <glyph glyph-name="greaterequal" unicode="&#x2265;" horiz-adv-x="581" 
d="M544 312v-47l-448 -180l-45 53l380 151l-383 153l38 50zM547 62v-62h-514v62h514z" />
    <glyph glyph-name="yen" unicode="&#xa5;" horiz-adv-x="628" 
d="M42 252v38h179l-41 86h-141v38h123l-67 139q-18 38 -35.5 52.5t-51.5 21.5v33h319v-33q-62 -8 -62 -52q0 -21 19 -65l77 -177l65 137q40 84 40 110q0 37 -65 47v33h218v-33q-41 -7 -64.5 -30t-57.5 -88l-49 -95h126v-38h-145l-45 -86h187v-38h-191v-122q0 -57 10 -71
q15 -21 53 -24l36 -3v-32h-347v32l35 3q38 3 53 24q9 13 9 71v122h-187z" />
    <glyph glyph-name="partialdiff" unicode="&#x2202;" horiz-adv-x="554" 
d="M237 706l15 -19q-63 -25 -85 -39t-22 -30q0 -21 26.5 -41.5t125.5 -76.5q90 -51 133 -90q75 -69 75 -176q0 -109 -68.5 -177.5t-176.5 -68.5q-100 0 -159.5 60t-59.5 161q0 105 69 172q38 37 116 74q-16 9 -21 12q-21 11 -62 33q-96 51 -96 98q0 28 40 51t150 57z
M250 442q-11 -6 -17 -9q-92 -54 -92 -213q0 -94 35.5 -149.5t95.5 -55.5t96.5 54.5t36.5 144.5q0 83 -34 133t-121 95z" />
    <glyph glyph-name="summation" unicode="&#x2211;" horiz-adv-x="665" 
d="M254 322l-200 328v17h521l19 -202h-27l-12 51q-16 68 -42 91.5t-87 23.5h-234l149 -247l-191 -283h302q53 0 80 18t44 64l20 55h24l-23 -238h-553v18z" />
    <glyph glyph-name="product" unicode="&#x220f;" horiz-adv-x="820" 
d="M562 629h-300v-488q0 -62 10 -79q14 -23 56 -28l39 -5v-29h-317v29l35 4q50 6 63 34q7 17 7 74v386q0 61 -10 78q-14 23 -56 28l-39 5v29h724v-29l-35 -4q-43 -5 -58 -26q-12 -17 -12 -81v-386q0 -62 10 -79q14 -23 56 -28l39 -5v-29h-317v29l35 4q43 5 58 26
q12 17 12 82v488z" />
    <glyph glyph-name="integral" unicode="&#x222b;" horiz-adv-x="281" 
d="M-13 -101q36 0 40 -44q2 -26 24 -26q54 0 54 139q0 67 -12 236q-11 155 -11 229q0 140 51 204q40 51 106 51q68 0 68 -54q0 -46 -44 -46q-22 0 -31 14q-3 5 -7 29t-25 24q-51 0 -51 -128q0 -27 13 -168q12 -130 12 -243q0 -178 -48 -254q-42 -67 -110 -67q-72 0 -72 59
q0 20 12 32.5t31 12.5z" />
    <glyph glyph-name="ordfeminine" unicode="&#xaa;" horiz-adv-x="420" 
d="M365 333v-40h-314v40h314zM361 438l7 -14q-48 -33 -81 -33q-39 0 -53 42q-47 -43 -96 -43q-38 0 -60.5 21.5t-22.5 56.5q0 49 48 71q21 9 85 20l42 7q0 52 -5 64q-10 24 -43 24q-34 0 -34 -14q0 -2 7.5 -10.5t7.5 -19.5q0 -17 -13.5 -28t-32.5 -11q-45 0 -45 41
q0 64 124 64q94 0 115 -53q6 -16 6 -55v-91q0 -47 19 -47q8 0 25 8zM231 490v53q-49 -7 -67 -19.5t-18 -40.5q0 -49 41 -49q44 0 44 56z" />
    <glyph glyph-name="ordmasculine" unicode="&#xba;" horiz-adv-x="417" 
d="M365 333v-40h-314v40h314zM208 676q157 0 157 -143t-156 -143q-158 0 -158 145q0 141 157 141zM207 653q-62 0 -62 -118q0 -66 14 -94t48 -28q35 0 49.5 27.5t14.5 92.5t-14.5 92.5t-49.5 27.5z" />
    <glyph glyph-name="Omega" unicode="&#x3a9;" horiz-adv-x="762" 
d="M42 0l-12 196h19l16 -47q11 -33 24.5 -44t44.5 -11h130q-77 37 -117 84q-69 81 -69 201q0 136 82 217t220 81q139 0 218 -76.5t79 -210.5t-88 -226q-41 -42 -105 -70h132q35 0 53 12t27 43l14 47h19l-12 -196h-306v90q58 11 91 50q59 69 59 229q0 273 -182 273
q-91 0 -139.5 -73t-48.5 -210q0 -237 150 -269v-90h-299z" />
    <glyph glyph-name="ae" unicode="&#xe6;" horiz-adv-x="863" 
d="M796 113l21 -22q-40 -40 -72 -60q-66 -41 -157 -41q-112 0 -183 65q-22 20 -32 37q-2 -3 -4 -7l-11 -16q-23 -33 -73 -58q-43 -21 -98 -21q-68 0 -106.5 36t-38.5 99q0 87 79 125q50 24 164 31l65 4q0 22 -1 51q-2 73 -22 97.5t-68 24.5q-24 0 -43.5 -8.5t-19.5 -19.5
q0 -4 15 -22q11 -11 11 -31q0 -29 -21.5 -47.5t-54.5 -18.5t-53 19t-20 51q0 110 210 110q104 0 154 -46q63 46 156 46q144 0 202 -89q33 -50 34 -152h-337q0 -106 31 -150q36 -51 113 -51q92 0 160 64zM350 162v88q-84 -1 -121 -24t-37 -74q0 -40 21.5 -65.5t55.5 -25.5
q40 0 65 33q16 21 16 68zM492 285h200q-4 76 -18 113q-22 60 -81 60q-65 0 -86 -70q-11 -34 -15 -103z" />
    <glyph glyph-name="oslash" unicode="&#xf8;" horiz-adv-x="616" 
d="M163 17l-50 -72l-30 22l48 67l-6 5q-87 72 -87 202q0 121 69 185.5t200 64.5q75 0 132 -21l49 71l30 -21l-46 -66q106 -61 106 -214q0 -122 -69 -186t-201 -64q-82 0 -145 27zM200 126l192 285q-27 46 -85 46q-62 0 -88.5 -49t-26.5 -164q0 -72 8 -118zM408 369
l-193 -287q25 -58 91 -58q62 0 88 49.5t26 165.5q0 85 -12 130z" />
    <glyph glyph-name="questiondown" unicode="&#xbf;" horiz-adv-x="434" 
d="M237 265h43v-33q0 -47 -12 -77q-7 -17 -12 -25q-8 -12 -39 -50q-63 -78 -63 -146q0 -108 80 -108q22 0 38.5 9.5t16.5 21.5q0 5 -18 21t-18 40q0 29 20 48.5t49 19.5t48 -20.5t19 -51.5q0 -55 -48.5 -87.5t-130.5 -32.5q-81 0 -135 38q-46 33 -46 96q0 55 44 102
q24 25 84 57q47 25 63.5 53t16.5 84v41zM249 481q33 0 56 -23t23 -57q0 -31 -23 -54t-55 -23q-33 0 -56 23t-23 55q0 33 23 56t55 23z" />
    <glyph glyph-name="exclamdown" unicode="&#xa1;" horiz-adv-x="313" 
d="M176 255v-47q0 -69 9 -112t36 -110q25 -61 25 -98q0 -40 -25.5 -67.5t-63.5 -27.5t-64 27.5t-26 67.5q0 36 25 97q29 71 38 123q8 45 8 125v22h38zM156 481q33 0 56 -23.5t23 -56.5q0 -31 -23 -54t-55 -23q-33 0 -56 23t-23 55t23 55.5t55 23.5z" />
    <glyph glyph-name="logicalnot" unicode="&#xac;" horiz-adv-x="597" 
d="M34 255h513v-286h-66v223h-447v63z" />
    <glyph glyph-name="radical" unicode="&#x221a;" horiz-adv-x="412" 
d="M11 338l-2 24l143 18l98 -268l208 585h167v-30h-138l-238 -667h-52l-121 340z" />
    <glyph glyph-name="florin" unicode="&#x192;" horiz-adv-x="628" 
d="M514 401v-34h-152l-41 -254q-24 -149 -82 -214q-69 -77 -167 -77q-54 0 -88.5 26.5t-34.5 67.5q0 31 19 50.5t49 19.5q27 0 44 -16t17 -42q0 -31 -36 -52q-6 -3 -6 -9q0 -17 33 -17q52 0 79 68q17 41 36 162l46 287h-130v34h135q23 148 73 211t145 63q64 0 102 -25
t38 -68q0 -31 -19.5 -50.5t-48.5 -19.5q-26 0 -42 15t-16 39q0 21 26 49q6 6 6 12q0 17 -25 17q-72 0 -94 -158l-12 -85h146z" />
    <glyph glyph-name="approxequal" unicode="&#x2248;" horiz-adv-x="504" 
d="M53 242l-21 57q64 53 122 53q31 0 91 -21l6 -2q58 -20 85 -20q55 0 108 52l14 -62q-61 -58 -128 -58q-32 0 -94.5 21.5t-88.5 21.5q-51 0 -94 -42zM58 96l-21 55q68 60 130 60q25 0 89 -21q58 -19 90 -19q55 0 106 51l14 -62q-60 -57 -130 -57q-29 0 -120 27
q-37 11 -62 11q-44 0 -96 -45z" />
    <glyph glyph-name="approxequal" unicode="&#x22f2;" horiz-adv-x="504" 
d="M53 242l-21 57q64 53 122 53q31 0 91 -21l6 -2q58 -20 85 -20q55 0 108 52l14 -62q-61 -58 -128 -58q-32 0 -94.5 21.5t-88.5 21.5q-51 0 -94 -42zM58 96l-21 55q68 60 130 60q25 0 89 -21q58 -19 90 -19q55 0 106 51l14 -62q-60 -57 -130 -57q-29 0 -120 27
q-37 11 -62 11q-44 0 -96 -45z" />
    <glyph glyph-name="guillemotleft" unicode="&#xab;" horiz-adv-x="441" 
d="M182 471h38l-81 -227l81 -226h-38l-138 226zM342 471h38l-64 -227l64 -226h-38l-120 226z" />
    <glyph glyph-name="guillemotright" unicode="&#xbb;" horiz-adv-x="441" 
d="M259 471l138 -227l-138 -226h-38l82 226l-82 227h38zM99 471l121 -227l-121 -226h-38l64 226l-64 227h38z" />
    <glyph glyph-name="ellipsis" unicode="&#x2026;" horiz-adv-x="758" 
d="M126 147q33 0 56 -23t23 -55t-23 -55.5t-55 -23.5q-33 0 -56 23.5t-23 55.5t23.5 55t54.5 23zM379 147q33 0 56 -23t23 -55t-23 -55.5t-55 -23.5q-33 0 -56 23.5t-23 55.5t23 55t55 23zM632 147q33 0 56 -23t23 -55t-23 -55.5t-56 -23.5q-32 0 -55 23.5t-23 55.5t23.5 55
t54.5 23z" />
    <glyph glyph-name="nonbreakingspace" unicode="&#xa0;" horiz-adv-x="250" 
 />
    <glyph glyph-name="Agrave" unicode="&#xc0;" horiz-adv-x="722" 
d="M439 667l189 -508q29 -79 46 -98.5t62 -27.5v-33h-336v33q44 7 60 16t16 27t-16 63l-34 96h-235l-33 -89q-15 -40 -15 -64q0 -38 81 -49v-33h-246v33q51 8 79 43t70 139l155 387q11 28 22 65h135zM312 565l-106 -287h205zM408 709l-221 97q-38 17 -38 47q0 18 11.5 30.5
t27.5 12.5q19 0 43 -19l188 -150z" />
    <glyph glyph-name="Atilde" unicode="&#xc3;" horiz-adv-x="722" 
d="M439 667l189 -508q29 -79 46 -98.5t62 -27.5v-33h-336v33q44 7 60 16t16 27t-16 63l-34 96h-235l-33 -89q-15 -40 -15 -64q0 -38 81 -49v-33h-246v33q51 8 79 43t70 139l155 387q11 28 22 65h135zM312 565l-106 -287h205zM548 864l34 -2q-7 -129 -93 -129q-31 0 -142 45
q-37 15 -63 15q-21 0 -32 -13.5t-19 -49.5l-34 4q4 51 18 79q23 46 77 46q35 0 115 -31q70 -27 90 -27q23 0 34 13.5t15 49.5z" />
    <glyph glyph-name="Otilde" unicode="&#xd5;" horiz-adv-x="831" 
d="M416 682q185 0 281 -88q91 -83 91 -260q0 -349 -373 -349q-186 0 -281 88q-91 85 -91 266q0 168 91.5 255.5t281.5 87.5zM415 642q-187 0 -187 -304q0 -313 188 -313q187 0 187 309q0 308 -188 308zM596 864l34 -2q-7 -129 -93 -129q-31 0 -142 45q-37 15 -63 15
q-21 0 -32 -13.5t-19 -49.5l-34 4q4 51 18 79q23 46 77 46q35 0 115 -31q70 -27 90 -27q23 0 34 13.5t15 49.5z" />
    <glyph glyph-name="OE" unicode="&#x152;" horiz-adv-x="1096" 
d="M1020 667l14 -214h-45q-54 110 -74 131q-40 43 -127 43h-107v-253l59 2q40 1 59.5 17t31.5 58l14 48h34v-293h-34l-12 46q-12 46 -33 63.5t-62 18.5l-57 1v-294h100q71 0 111.5 27t73.5 96l39 81h44l-22 -245h-467q-27 0 -121 -6q-31 -2 -59 -2q-337 0 -337 341
q0 342 338 342q28 0 107 -5q47 -3 73 -3h459zM517 60v547q-42 29 -92 29q-198 0 -198 -304q0 -302 197 -302q52 0 93 30z" />
    <glyph glyph-name="oe" unicode="&#x153;" horiz-adv-x="935" 
d="M868 113l21 -22q-40 -40 -72 -60q-66 -41 -157 -41q-89 0 -168 54q-76 -54 -186 -54q-131 0 -199.5 64.5t-68.5 186.5q0 130 76 193q69 57 190 57q114 0 187 -53q72 53 175 53q143 0 201 -89q33 -50 34 -152h-338q1 -107 32 -150q36 -51 113 -51q92 0 160 64zM306 457
q-59 0 -85.5 -50t-26.5 -163q0 -121 26 -170.5t90 -49.5q60 0 86 50.5t26 166.5q0 118 -26.5 167t-89.5 49zM564 285h200q-4 76 -18 113q-22 60 -82 60q-64 0 -85 -70q-12 -40 -15 -103z" />
    <glyph glyph-name="endash" unicode="&#x2013;" horiz-adv-x="502" 
d="M465 274v-54h-427v54h427z" />
    <glyph glyph-name="emdash" unicode="&#x2014;" horiz-adv-x="686" 
d="M686 274v-54h-686v54h686z" />
    <glyph glyph-name="quotedblleft" unicode="&#x201c;" horiz-adv-x="526" 
d="M447 700l8 -23q-49 -16 -78.5 -51.5t-30.5 -79.5q25 15 45 15q29 0 48.5 -19t19.5 -48q0 -32 -23 -54t-56 -22q-40 0 -62.5 27.5t-22.5 74.5q0 70 52 124q38 39 100 56zM215 700l8 -23q-49 -16 -78 -51.5t-30 -79.5q23 15 45 15q29 0 48.5 -19t19.5 -48q0 -32 -23 -54
t-57 -22q-39 0 -61.5 27.5t-22.5 74.5q0 70 52 124q38 39 99 56z" />
    <glyph glyph-name="quotedblright" unicode="&#x201d;" horiz-adv-x="526" 
d="M79 418l-8 23q49 15 78.5 50.5t30.5 80.5q-23 -15 -45 -15q-29 0 -48.5 19t-19.5 48q0 32 23 54t57 22q39 0 61.5 -27.5t22.5 -74.5q0 -72 -52 -125q-37 -38 -100 -55zM311 418l-8 23q49 15 78 51t30 80q-23 -15 -45 -15q-29 0 -48.5 19t-19.5 48q0 32 23 54t57 22
q39 0 61.5 -27.5t22.5 -74.5q0 -72 -52 -125q-37 -38 -99 -55z" />
    <glyph glyph-name="quoteleft" unicode="&#x2018;" horiz-adv-x="295" 
d="M215 700l8 -23q-48 -16 -77.5 -51.5t-30.5 -79.5q23 15 45 15q29 0 48.5 -19t19.5 -48q0 -32 -23 -54t-56 -22q-40 0 -62.5 27.5t-22.5 74.5q0 70 52 124q38 39 99 56z" />
    <glyph glyph-name="quoteright" unicode="&#x2019;" horiz-adv-x="295" 
d="M79 418l-8 23q50 16 79 51t30 80q-25 -15 -45 -15q-29 0 -48.5 19t-19.5 48q0 32 23 54t57 22q39 0 61.5 -27.5t22.5 -74.5q0 -71 -52 -125q-37 -38 -100 -55z" />
    <glyph glyph-name="divide" unicode="&#xf7;" horiz-adv-x="573" 
d="M287 503q31 0 53.5 -22.5t22.5 -54.5q0 -31 -22.5 -53.5t-53.5 -22.5t-54 22.5t-23 53.5q0 32 22.5 54.5t54.5 22.5zM287 130q31 0 53.5 -22.5t22.5 -54.5q0 -31 -22.5 -53.5t-53.5 -22.5t-54 22.5t-23 53.5q0 32 22.5 54.5t54.5 22.5zM30 271h513v-63h-513v63z" />
    <glyph glyph-name="lozenge" unicode="&#x25ca;" horiz-adv-x="667" 
d="M334 693l259 -360l-259 -359l-260 359zM334 604l-197 -271l197 -270l197 270z" />
    <glyph glyph-name="ydieresis" unicode="&#xff;" horiz-adv-x="565" 
d="M334 103l97 270q10 28 10 40q0 34 -60 37v31h194v-31q-36 -4 -54.5 -24t-45.5 -85l-142 -338q-58 -138 -79 -167q-45 -63 -123 -63q-52 0 -83.5 25.5t-31.5 66.5q0 31 19 50.5t50 19.5q25 0 42 -15.5t17 -38.5q0 -18 -12 -34t-12 -22q0 -19 32 -19q37 0 64 35
q22 28 51 100q9 22 26 59h-67l-148 366q-23 56 -35 67.5t-49 16.5v31h299v-31q-64 -4 -64 -38q0 -16 18 -66zM210 697q33 0 55.5 -20t22.5 -49t-22.5 -49t-56.5 -20q-33 0 -55 20t-22 50q0 28 23 48t55 20zM415 693q34 0 56.5 -19.5t22.5 -48.5t-22.5 -49t-56.5 -20
q-33 0 -55.5 20t-22.5 50q0 28 23 47.5t55 19.5z" />
    <glyph glyph-name="Ydieresis" unicode="&#x178;" horiz-adv-x="692" 
d="M425 278v-147q0 -56 10 -70q14 -20 53 -24l37 -4v-33h-364v33l37 4q39 4 53 24q9 13 9 70v134l-172 295q-25 43 -42 56t-56 18v33h354v-33q-65 -9 -65 -48q0 -31 21 -69l105 -191l87 151q43 75 43 112t-64 45v33h234v-33q-45 -6 -70 -28t-66 -90zM250 868
q34 0 57.5 -20.5t23.5 -49.5q0 -31 -23 -51t-58 -20q-34 0 -57 20.5t-23 51.5q0 28 23.5 48.5t56.5 20.5zM511 868q34 0 57.5 -20.5t23.5 -49.5q0 -31 -23 -51t-58 -20q-34 0 -57 20.5t-23 51.5q0 28 23.5 48.5t56.5 20.5z" />
    <glyph glyph-name="fraction" unicode="&#x2044;" horiz-adv-x="124" 
d="M287 660l-405 -660h-45l404 660h46z" />
    <glyph glyph-name="currency" unicode="&#xa4;" horiz-adv-x="799" 
d="M299 394h277l-16 -38h-264q-1 -10 -1 -32h251l-16 -38h-234q6 -94 31 -148q52 -113 174 -113q101 0 207 110l40 -42q-60 -59 -118.5 -83.5t-141.5 -24.5q-116 0 -205 40t-129 110q-32 55 -42 151h-61l16 38h43v32h-59l16 38h46q28 288 368 288q53 0 184 -32q6 -2 14 -2
q15 0 32 25h26l2 -236l-46 -1q-24 97 -52 137q-49 69 -142 69q-111 0 -163 -102q-25 -48 -37 -146z" />
    <glyph glyph-name="guilsinglleft" unicode="&#x2039;" horiz-adv-x="281" 
d="M138 244l82 -226h-39l-137 226l137 227h39z" />
    <glyph glyph-name="guilsinglright" unicode="&#x203a;" horiz-adv-x="281" 
d="M143 244l-82 227h39l137 -227l-137 -226h-39z" />
    <glyph glyph-name="fi" unicode="&#xf001;" horiz-adv-x="681" 
d="M35 446v35h77q15 219 275 219q179 0 179 -95q0 -31 -20.5 -50t-55.5 -19q-33 0 -52.5 16.5t-19.5 44.5q0 10 7 29q4 11 4 15q0 28 -55 28q-74 0 -100 -64q-16 -38 -17 -124h319v-349q0 -52 5 -66q10 -29 52 -33l20 -2v-31h-295v31l19 2q36 8 45 24.5t9 74.5v221
q0 58 -14.5 75.5t-62.5 17.5h-97v-314q0 -58 9 -74.5t45 -24.5l24 -2v-31h-300v31l20 2q39 9 48 24.5t9 74.5v314h-77z" />
    <glyph glyph-name="fl" unicode="&#xf002;" horiz-adv-x="682" 
d="M587 695v-563q0 -60 9 -75t48 -24l20 -2v-31h-298v31l19 2q40 9 48.5 24t8.5 75v409q-59 5 -59 55q0 11 12 36q2 6 2 9q0 27 -44 27q-73 0 -89 -76q-7 -33 -7 -111h105v-35h-105v-314q0 -59 9 -75t48 -24l22 -2v-31h-301v31l21 2q38 9 47 24.5t9 74.5v314h-77v35h78
q1 97 55 153q63 66 183 66q88 0 129 -32z" />
    <glyph glyph-name="daggerdbl" unicode="&#x2021;" horiz-adv-x="561" 
d="M262 167v226q-42 -5 -77 -24q-51 -28 -72 -28q-26 0 -43.5 20t-17.5 49q0 26 17 45t41 19q19 0 81 -32q24 -12 71 -18q-8 53 -17 79q-6 17 -15 38l-13 30q-9 21 -9 42q0 28 20.5 46t52.5 18q31 0 51.5 -18t20.5 -46q0 -22 -30 -91q-15 -34 -24 -98q38 6 55 11q14 6 56 28
q21 11 41 11q24 0 41 -19t17 -46q0 -29 -18 -49t-43 -20q-18 0 -72 29q-36 19 -77 24v-226q39 6 54.5 11.5t60.5 30.5q16 9 36 9q25 0 42 -18.5t17 -46.5t-17.5 -48t-41.5 -20q-17 0 -74 30q-30 16 -77 20q4 -64 12 -90q5 -19 31 -76q10 -22 10 -44q0 -29 -20.5 -48.5
t-50.5 -19.5q-31 0 -51.5 19.5t-20.5 48.5q0 22 33 98q16 37 20 112q-35 -3 -50.5 -8.5t-62.5 -30.5q-20 -11 -38 -11q-24 0 -41.5 20t-17.5 48q0 27 17 46t42 19q18 0 73 -29q27 -14 78 -22z" />
    <glyph glyph-name="periodcentered" unicode="&#x2219;" horiz-adv-x="637" 
d="M318 342q34 0 58.5 -24t24.5 -58t-24 -58.5t-58 -24.5q-35 0 -59 24.5t-24 59.5q0 33 24.5 57t57.5 24z" />
    <glyph glyph-name="quotesinglbase" unicode="&#x201a;" horiz-adv-x="295" 
d="M79 -149l-8 23q49 16 78.5 51.5t30.5 79.5q-25 -15 -45 -15q-29 0 -48.5 19t-19.5 48q0 32 23 54t57 22q39 0 61.5 -27.5t22.5 -74.5q0 -72 -52 -125q-37 -38 -100 -55z" />
    <glyph glyph-name="quotedblbase" unicode="&#x201e;" horiz-adv-x="526" 
d="M79 -149l-8 23q49 16 78.5 51.5t30.5 79.5q-25 -15 -45 -15q-29 0 -48.5 19t-19.5 48q0 32 23 54t57 22q39 0 61.5 -27.5t22.5 -74.5q0 -72 -52 -125q-37 -38 -100 -55zM311 -149l-8 23q49 16 78 51.5t30 79.5q-23 -15 -45 -15q-29 0 -48.5 19t-19.5 48q0 32 23 54t57 22
q39 0 61.5 -27.5t22.5 -74.5q0 -72 -52 -125q-37 -38 -99 -55z" />
    <glyph glyph-name="perthousand" unicode="&#x2030;" horiz-adv-x="922" 
d="M169 674q136 0 136 -152q0 -153 -136 -153q-137 0 -137 155q0 150 137 150zM168 649q-51 0 -51 -125q0 -72 12 -100.5t42 -28.5q28 0 39 28.5t11 98.5q0 72 -11.5 99.5t-41.5 27.5zM592 700l-508 -733h-46l506 733h48zM461 298q136 0 136 -153q0 -152 -136 -152
q-137 0 -137 155q0 150 137 150zM460 272q-51 0 -51 -125q0 -71 12 -99.5t41 -28.5q28 0 39.5 28t11.5 99t-11.5 98.5t-41.5 27.5zM783 298q136 0 136 -153q0 -152 -136 -152q-137 0 -137 155q0 150 137 150zM782 272q-51 0 -51 -125q0 -71 12 -99.5t41 -28.5q28 0 39.5 28
t11.5 99t-11.5 98.5t-41.5 27.5z" />
    <glyph glyph-name="Acircumflex" unicode="&#xc2;" horiz-adv-x="722" 
d="M439 667l189 -508q29 -79 46 -98.5t62 -27.5v-33h-336v33q44 7 60 16t16 27t-16 63l-34 96h-235l-33 -89q-15 -40 -15 -64q0 -38 81 -49v-33h-246v33q51 8 79 43t70 139l155 387q11 28 22 65h135zM312 565l-106 -287h205zM377 901l185 -173l-20 -23l-165 108l-164 -108
l-20 23z" />
    <glyph glyph-name="Ecircumflex" unicode="&#xca;" horiz-adv-x="714" 
d="M638 667l14 -214h-45q-54 110 -74 131q-40 43 -127 43h-107v-253l59 2q40 1 59.5 17t31.5 58l14 48h34v-293h-34l-12 46q-12 46 -32.5 63.5t-62.5 18.5l-57 1v-294h100q72 0 113 27t73 96l38 81h44l-22 -245h-602v33l26 4q40 6 53 24q10 14 10 70v405q0 56 -10 70
q-13 18 -53 24l-26 4v33h595zM382 901l185 -173l-20 -23l-165 108l-164 -108l-20 23z" />
    <glyph glyph-name="Aacute" unicode="&#xc1;" horiz-adv-x="722" 
d="M439 667l189 -508q29 -79 46 -98.5t62 -27.5v-33h-336v33q44 7 60 16t16 27t-16 63l-34 96h-235l-33 -89q-15 -40 -15 -64q0 -38 81 -49v-33h-246v33q51 8 79 43t70 139l155 387q11 28 22 65h135zM312 565l-106 -287h205zM356 709l-11 18l189 150q24 19 42 19
q16 0 27.5 -12.5t11.5 -30.5q0 -30 -38 -47z" />
    <glyph glyph-name="Edieresis" unicode="&#xcb;" horiz-adv-x="714" 
d="M638 667l14 -214h-45q-54 110 -74 131q-40 43 -127 43h-107v-253l59 2q40 1 59.5 17t31.5 58l14 48h34v-293h-34l-12 46q-12 46 -32.5 63.5t-62.5 18.5l-57 1v-294h100q72 0 113 27t73 96l38 81h44l-22 -245h-602v33l26 4q40 6 53 24q10 14 10 70v405q0 56 -10 70
q-13 18 -53 24l-26 4v33h595zM248 868q34 0 57.5 -20.5t23.5 -49.5q0 -31 -23 -51t-58 -20q-34 0 -57 20.5t-23 51.5q0 28 23.5 48.5t56.5 20.5zM509 868q34 0 57.5 -20.5t23.5 -49.5q0 -31 -23 -51t-58 -20q-34 0 -57 20.5t-23 51.5q0 28 23.5 48.5t56.5 20.5z" />
    <glyph glyph-name="Egrave" unicode="&#xc8;" horiz-adv-x="714" 
d="M638 667l14 -214h-45q-54 110 -74 131q-40 43 -127 43h-107v-253l59 2q40 1 59.5 17t31.5 58l14 48h34v-293h-34l-12 46q-12 46 -32.5 63.5t-62.5 18.5l-57 1v-294h100q72 0 113 27t73 96l38 81h44l-22 -245h-602v33l26 4q40 6 53 24q10 14 10 70v405q0 56 -10 70
q-13 18 -53 24l-26 4v33h595zM424 709l-221 97q-38 17 -38 47q0 18 11.5 30.5t27.5 12.5q19 0 43 -19l188 -150z" />
    <glyph glyph-name="Iacute" unicode="&#xcd;" horiz-adv-x="430" 
d="M132 131v405q0 56 -10 70q-13 18 -53 24l-26 4v33h345v-33l-27 -4q-39 -6 -52 -24q-10 -14 -10 -70v-405q0 -56 10 -70q13 -18 52 -24l27 -4v-33h-345v33l26 4q40 6 53 24q10 14 10 70zM207 709l-11 18l175 150q22 19 43 19q16 0 27.5 -12.5t11.5 -30.5q0 -29 -38 -47z
" />
    <glyph glyph-name="Icircumflex" unicode="&#xce;" horiz-adv-x="430" 
d="M132 131v405q0 56 -10 70q-13 18 -53 24l-26 4v33h345v-33l-27 -4q-39 -6 -52 -24q-10 -14 -10 -70v-405q0 -56 10 -70q13 -18 52 -24l27 -4v-33h-345v33l26 4q40 6 53 24q10 14 10 70zM222 901l177 -173l-20 -23l-157 108l-158 -108l-20 23z" />
    <glyph glyph-name="Idieresis" unicode="&#xcf;" horiz-adv-x="430" 
d="M132 131v405q0 56 -10 70q-13 18 -53 24l-26 4v33h345v-33l-27 -4q-39 -6 -52 -24q-10 -14 -10 -70v-405q0 -56 10 -70q13 -18 52 -24l27 -4v-33h-345v33l26 4q40 6 53 24q10 14 10 70zM121 866q32 0 54 -20t22 -49t-22 -48.5t-54 -19.5t-53.5 20t-21.5 50q0 28 22 47.5
t53 19.5zM321 866q32 0 54 -20t22 -49t-22 -48.5t-54 -19.5t-53.5 20t-21.5 50q0 28 22 47.5t53 19.5z" />
    <glyph glyph-name="Igrave" unicode="&#xcc;" horiz-adv-x="430" 
d="M132 131v405q0 56 -10 70q-13 18 -53 24l-26 4v33h345v-33l-27 -4q-39 -6 -52 -24q-10 -14 -10 -70v-405q0 -56 10 -70q13 -18 52 -24l27 -4v-33h-345v33l26 4q40 6 53 24q10 14 10 70zM236 709l-208 97q-38 18 -38 47q0 18 11.5 30.5t27.5 12.5q21 0 43 -19l175 -150z
" />
    <glyph glyph-name="Oacute" unicode="&#xd3;" horiz-adv-x="831" 
d="M416 682q185 0 281 -88q91 -83 91 -260q0 -349 -373 -349q-186 0 -281 88q-91 85 -91 266q0 168 91.5 255.5t281.5 87.5zM415 642q-187 0 -187 -304q0 -313 188 -313q187 0 187 309q0 308 -188 308zM394 709l-11 18l189 150q24 19 42 19q16 0 27.5 -12.5t11.5 -30.5
q0 -30 -38 -47z" />
    <glyph glyph-name="Ocircumflex" unicode="&#xd4;" horiz-adv-x="831" 
d="M416 682q185 0 281 -88q91 -83 91 -260q0 -349 -373 -349q-186 0 -281 88q-91 85 -91 266q0 168 91.5 255.5t281.5 87.5zM415 642q-187 0 -187 -304q0 -313 188 -313q187 0 187 309q0 308 -188 308zM422 901l185 -173l-20 -23l-165 108l-164 -108l-20 23z" />
    <glyph glyph-name="apple" unicode="&#xf000;" horiz-adv-x="667" 
d="M480 691q2 -69 -41 -119.5t-107 -53.5q-1 69 40 117t108 56zM623 457q-81 -61 -81 -139q0 -106 100 -149q-37 -92 -82 -144t-86 -52q-25 0 -65 19q-23 11 -51 11q-39 0 -87 -20q-27 -11 -46 -11q-65 0 -129 112t-64 225q0 95 52.5 156t133.5 61q28 0 91 -23q22 -7 35 -7
q16 0 59 16t75 16q94 0 145 -71z" />
    <glyph glyph-name="Ograve" unicode="&#xd2;" horiz-adv-x="831" 
d="M416 682q185 0 281 -88q91 -83 91 -260q0 -349 -373 -349q-186 0 -281 88q-91 85 -91 266q0 168 91.5 255.5t281.5 87.5zM415 642q-187 0 -187 -304q0 -313 188 -313q187 0 187 309q0 308 -188 308zM456 709l-221 97q-38 17 -38 47q0 18 11.5 30.5t27.5 12.5q19 0 43 -19
l188 -150z" />
    <glyph glyph-name="Uacute" unicode="&#xda;" horiz-adv-x="776" 
d="M518 667h247v-33q-66 -8 -79.5 -29t-15.5 -123l-4 -224q-2 -121 -46 -180q-69 -93 -233 -93q-179 0 -241 101q-33 54 -33 166v284q0 56 -10 70q-13 18 -52 24l-27 4v33h345v-33l-26 -4q-40 -6 -53 -24q-10 -14 -10 -70v-282q0 -104 33 -150q45 -63 135 -63q86 0 128 56
q33 44 36 139l1 39l-4 207q-2 102 -14.5 123.5t-76.5 28.5v33zM380 709l-11 18l189 150q24 19 42 19q16 0 27.5 -12.5t11.5 -30.5q0 -30 -38 -47z" />
    <glyph glyph-name="Ucircumflex" unicode="&#xdb;" horiz-adv-x="776" 
d="M518 667h247v-33q-66 -8 -79.5 -29t-15.5 -123l-4 -224q-2 -121 -46 -180q-69 -93 -233 -93q-179 0 -241 101q-33 54 -33 166v284q0 56 -10 70q-13 18 -52 24l-27 4v33h345v-33l-26 -4q-40 -6 -53 -24q-10 -14 -10 -70v-282q0 -104 33 -150q45 -63 135 -63q86 0 128 56
q33 44 36 139l1 39l-4 207q-2 102 -14.5 123.5t-76.5 28.5v33zM431 901l185 -173l-20 -23l-165 108l-164 -108l-20 23z" />
    <glyph glyph-name="Ugrave" unicode="&#xd9;" horiz-adv-x="776" 
d="M518 667h247v-33q-66 -8 -79.5 -29t-15.5 -123l-4 -224q-2 -121 -46 -180q-69 -93 -233 -93q-179 0 -241 101q-33 54 -33 166v284q0 56 -10 70q-13 18 -52 24l-27 4v33h345v-33l-26 -4q-40 -6 -53 -24q-10 -14 -10 -70v-282q0 -104 33 -150q45 -63 135 -63q86 0 128 56
q33 44 36 139l1 39l-4 207q-2 102 -14.5 123.5t-76.5 28.5v33zM468 709l-221 97q-38 17 -38 47q0 18 11.5 30.5t27.5 12.5q19 0 43 -19l188 -150z" />
    <glyph glyph-name="dotlessi" unicode="&#x131;" horiz-adv-x="362" 
d="M257 491v-359q0 -59 9 -74.5t48 -24.5l20 -2v-31h-299v31l20 2q40 9 48.5 24.5t8.5 74.5v212q0 50 -4 66q-9 34 -53 38l-25 2v31z" />
    <glyph glyph-name="circumflex" unicode="&#x2c6;" 
d="M250 742l180 -182l-19 -22l-161 118l-160 -118l-20 22z" />
    <glyph glyph-name="tilde" unicode="&#x2dc;" 
d="M394 696l34 -1q-8 -125 -75 -125q-35 0 -142 42q-43 17 -58 17q-32 0 -46 -62l-34 4q4 49 18 77q23 45 73 45q24 0 142 -45q29 -11 44 -11q36 0 44 59z" />
    <glyph glyph-name="macron" unicode="&#x2c9;" 
d="M403 655v-58h-305v58h305z" />
    <glyph glyph-name="breve" unicode="&#x2d8;" 
d="M384 723h34q-3 -65 -32 -112q-38 -61 -135 -61q-160 0 -170 173h34q24 -106 136 -106q57 0 88 25t45 81z" />
    <glyph glyph-name="dotaccent" unicode="&#x2d9;" 
d="M250 697q34 0 56.5 -20t22.5 -49t-22.5 -49t-56.5 -20q-33 0 -55.5 20t-22.5 50q0 28 23 48t55 20z" />
    <glyph glyph-name="ring" unicode="&#x2da;" 
d="M250 732q48 0 81 -27.5t33 -67.5t-33 -67.5t-81 -27.5q-49 0 -81.5 27.5t-32.5 68.5q0 39 33 66.5t81 27.5zM250 701q-24 0 -40.5 -18t-16.5 -45q0 -28 16 -46.5t41 -18.5q24 0 40.5 18.5t16.5 46.5q0 26 -16.5 44.5t-40.5 18.5z" />
    <glyph glyph-name="cedilla" unicode="&#xb8;" 
d="M284 4l-23 -59q20 2 25 2q33 0 54 -17t21 -43q0 -35 -33.5 -56.5t-89.5 -21.5q-25 0 -58 8l6 26q23 -4 36 -4q29 0 48 13.5t19 35.5q0 33 -45 33q-11 0 -30 -4l32 87h38z" />
    <glyph glyph-name="hungarumlaut" unicode="&#x2dd;" 
d="M131 536l-14 14l130 161q22 27 42 27q14 0 25.5 -13t11.5 -30q0 -24 -29 -44zM290 536l-14 14l130 161q22 27 43 27q14 0 25.5 -13t11.5 -30q0 -23 -30 -44z" />
    <glyph glyph-name="ogonek" unicode="&#x2db;" 
d="M304 0h38q-55 -38 -55 -89q0 -28 18.5 -46t47.5 -18q19 0 44 12l11 -24q-38 -22 -84 -22q-52 0 -83.5 23t-31.5 60q0 67 95 104z" />
    <glyph glyph-name="caron" unicode="&#x2c7;" 
d="M250 538l-180 182l20 22l160 -119l161 119l19 -22z" />
    <glyph glyph-name="Lslash" unicode="&#x141;" horiz-adv-x="661" 
d="M132 314v222q0 56 -10 70q-13 18 -53 24l-26 4v33h350v-33l-32 -4q-39 -5 -52 -24q-10 -15 -10 -70v-130l128 98v-56l-128 -98v-309h80q69 0 108 29t78 110l32 66h44l-24 -246h-574v33l26 4q40 6 53 24q10 14 10 70v126l-89 -68v56z" />
    <glyph glyph-name="lslash" unicode="&#x142;" horiz-adv-x="350" 
d="M103 337v212q0 60 -13 79t-56 21l-18 1v31l232 19v-284l73 56v-45l-73 -57v-238q0 -60 8.5 -75t48.5 -24l20 -2v-31h-299v31l20 2q40 9 48.5 24t8.5 75v159l-74 -56v46z" />
    <glyph glyph-name="Scaron" unicode="&#x160;" horiz-adv-x="625" 
d="M533 673l2 -223l-42 -2q-19 95 -51 135q-50 62 -133 62q-47 0 -77 -26t-30 -67q0 -55 48 -89q33 -24 127 -57q98 -35 135 -65q61 -50 61 -138q0 -57 -27 -106t-72 -73q-68 -37 -172 -37q-67 0 -146 24q-30 9 -37 9q-15 0 -38 -26h-25l-3 252l43 2q21 -79 47 -123
q59 -99 168 -99q55 0 88.5 29t33.5 76q0 49 -40 77q-20 14 -36 21q-19 9 -98 39q-100 39 -146 90.5t-46 126.5q0 92 60.5 144.5t166.5 52.5q69 0 158 -28q13 -4 21 -4q14 0 34 23h26zM313 712l-184 173l20 23l164 -108l164 108l20 -23z" />
    <glyph glyph-name="scaron" unicode="&#x161;" horiz-adv-x="485" 
d="M411 485l2 -149l-31 -2q-19 57 -46 84q-43 43 -96 43q-33 0 -53 -16.5t-20 -42.5q0 -30 27 -51.5t100 -49.5q84 -32 110 -55q40 -35 40 -99q0 -157 -194 -157q-57 0 -135 21q-11 3 -21 3q-12 0 -26 -18h-19l-2 182l31 1q52 -157 159 -157q37 0 60.5 19t23.5 49
q0 34 -31 53q-18 11 -90 38q-144 54 -144 161q0 149 180 149q64 0 119 -17q10 -3 16 -3q11 0 21 14h19zM246 538l-180 182l19 22l161 -119l160 119l20 -22z" />
    <glyph glyph-name="Zcaron" unicode="&#x17d;" horiz-adv-x="694" 
d="M70 667h580v-28l-420 -598h161q80 0 116.5 23.5t78.5 103.5l41 77h44l-23 -245h-625v30l423 599h-155q-59 0 -92.5 -28t-57.5 -85l-32 -78h-45zM369 708l-185 174l20 22l165 -108l164 108l20 -22z" />
    <glyph glyph-name="zcaron" unicode="&#x17e;" horiz-adv-x="555" 
d="M517 452l-304 -417h99q73 0 111 33q30 26 66 125l31 -1l-2 -192h-487v30l305 418h-96q-72 0 -100 -35q-17 -21 -52 -114l-31 2l1 180h459v-29zM292 538l-180 182l20 22l160 -119l161 119l19 -22z" />
    <glyph glyph-name="brokenbar" unicode="&#xa6;" 
d="M195 667h110v-359h-110v359zM195 153h110v-320h-110v320z" />
    <glyph glyph-name="Eth" unicode="&#xd0;" horiz-adv-x="814" 
d="M132 368v168q0 56 -10 70q-13 18 -52 24l-27 4v33h378q160 0 236 -62q114 -93 114 -269q0 -199 -129 -287q-72 -49 -221 -49h-378v33l27 4q39 6 52 24q10 14 10 70v192h-89v45h89zM299 368h142v-45h-142v-282h57q123 0 177.5 68.5t54.5 223.5q0 156 -55 225t-179 69h-55
v-259z" />
    <glyph glyph-name="eth" unicode="&#xf0;" horiz-adv-x="608" 
d="M46 657l90 30q46 -22 130 -71l120 39l22 -25l-104 -36q139 -82 202 -166.5t63 -188.5q0 -114 -75 -184q-71 -66 -193 -66q-123 0 -192.5 66t-69.5 183q0 155 125 214q53 25 139 28q-54 47 -101 81l-130 -44l-23 26l121 40q-38 28 -124 74zM329 455q-11 -3 -22 -5
q-111 -23 -111 -216q0 -212 110 -212q106 0 106 221q0 137 -83 212z" />
    <glyph glyph-name="Yacute" unicode="&#xdd;" horiz-adv-x="692" 
d="M425 278v-147q0 -56 10 -70q14 -20 53 -24l37 -4v-33h-364v33l37 4q39 4 53 24q9 13 9 70v134l-172 295q-25 43 -42 56t-56 18v33h354v-33q-65 -9 -65 -48q0 -31 21 -69l105 -191l87 151q43 75 43 112t-64 45v33h234v-33q-45 -6 -70 -28t-66 -90zM340 709l-11 18l189 150
q24 19 42 19q16 0 27.5 -12.5t11.5 -30.5q0 -30 -38 -47z" />
    <glyph glyph-name="yacute" unicode="&#xfd;" horiz-adv-x="565" 
d="M334 103l97 270q10 28 10 40q0 34 -60 37v31h194v-31q-36 -4 -54.5 -24t-45.5 -85l-142 -338q-58 -138 -79 -167q-45 -63 -123 -63q-52 0 -83.5 25.5t-31.5 66.5q0 31 19 50.5t50 19.5q25 0 42 -15.5t17 -38.5q0 -18 -12 -34t-12 -22q0 -19 32 -19q37 0 64 35
q22 28 51 100q9 22 26 59h-67l-148 366q-23 56 -35 67.5t-49 16.5v31h299v-31q-64 -4 -64 -38q0 -16 18 -66zM285 536l-13 16l170 163q24 23 44 23q15 0 26.5 -12.5t11.5 -29.5q0 -27 -34 -46z" />
    <glyph glyph-name="Thorn" unicode="&#xde;" horiz-adv-x="692" 
d="M299 175v-44q0 -55 11 -69q16 -20 55 -25l32 -4v-33h-354v33l26 4q40 6 53 24q10 14 10 70v405q0 56 -10 70q-13 18 -53 24l-26 4v33h344v-33l-26 -4q-38 -6 -49.5 -20t-12.5 -50h125q115 0 171 -36q79 -51 79 -152q0 -73 -43 -121.5t-120 -63.5q-58 -11 -212 -12z
M299 520v-306q18 -1 45 -1q160 0 160 154q0 100 -58 136q-28 17 -96 17h-51z" />
    <glyph glyph-name="thorn" unicode="&#xfe;" horiz-adv-x="668" 
d="M248 700v-289q69 80 165 80q98 0 158 -68t60 -180q0 -118 -63 -185.5t-173 -67.5q-82 0 -147 44v-119q0 -59 9 -74.5t48 -23.5l27 -3v-31h-306v31l20 2q39 9 48 24.5t9 74.5v643q0 45 -4 61q-9 34 -53 38l-25 2v31zM360 440q-59 0 -85.5 -46.5t-26.5 -166.5
q0 -101 19 -143q24 -54 88 -54q116 0 116 215q0 195 -111 195z" />
    <glyph glyph-name="minus" unicode="&#x2212;" horiz-adv-x="574" 
d="M30 271h513v-63h-513v63z" />
    <glyph glyph-name="multiply" unicode="&#xd7;" horiz-adv-x="589" 
d="M72 499l223 -222l223 220l37 -39l-221 -219l223 -219l-40 -38l-222 219l-220 -218l-37 39l218 217l-222 221z" />
    <glyph glyph-name="onesuperior" unicode="&#xb9;" horiz-adv-x="404" 
d="M272 665v-316q0 -39 15 -50q12 -9 58 -11v-24h-252v24q47 3 59 10q17 10 17 49v205q0 17 -3.5 21t-19.5 4l-62 1v22q91 9 129 65h59z" />
    <glyph glyph-name="twosuperior" unicode="&#xb2;" horiz-adv-x="404" 
d="M350 398l-20 -134h-292q8 101 110 165q52 33 71 61.5t19 72.5q0 79 -67 79q-21 0 -39 -10t-18 -22q0 -7 19 -9q26 -3 26 -35q0 -21 -15 -35t-37 -14q-24 0 -40 16.5t-16 41.5q0 42 40 68t105 26q149 0 149 -109q0 -53 -37 -88q-28 -26 -102 -53q-83 -30 -105 -76h184
q22 0 30 19l15 36h20z" />
    <glyph glyph-name="threesuperior" unicode="&#xb3;" horiz-adv-x="419" 
d="M116 457v31q23 -3 33 -3q82 0 82 85q0 73 -59 73q-42 0 -43 -28q0 -5 7 -5q37 -1 37 -36q0 -20 -15 -34t-36 -14q-23 0 -38.5 16t-15.5 40q0 40 34.5 63.5t92.5 23.5q138 0 138 -93q0 -40 -31 -66t-84 -32v-4q5 1 13 1q121 0 121 -95q0 -56 -48 -90.5t-126 -34.5
q-56 0 -91 22t-35 58q0 23 16 38.5t41 15.5q49 0 49 -43q0 -21 -19 -34q-13 -9 -13 -13q0 -18 35 -18q78 0 78 96q0 82 -85 82q-4 0 -38 -2z" />
    <glyph glyph-name="onehalf" unicode="&#xbd;" horiz-adv-x="933" 
d="M272 665v-316q0 -39 15 -50q12 -9 58 -11v-24h-252v24q47 3 59 10q17 10 17 49v205q0 17 -3.5 21t-19.5 4l-62 1v22q91 9 129 65h59zM701 660l-404 -660h-46l404 660h46zM877 134l-20 -134h-292q10 101 111 165q52 33 71 61.5t19 72.5q0 79 -67 79q-21 0 -39 -10t-18 -22
q0 -7 18 -9q26 -3 26 -35q0 -21 -14.5 -35t-36.5 -14q-24 0 -40 16.5t-16 41.5q0 42 40 68t105 26q149 0 149 -109q0 -53 -37 -88q-28 -26 -102 -53q-83 -30 -106 -76h184q22 0 30 19l15 36h20z" />
    <glyph glyph-name="onequarter" unicode="&#xbc;" horiz-adv-x="933" 
d="M272 665v-316q0 -39 15 -50q12 -9 58 -11v-24h-252v24q47 3 59 10q17 10 17 49v205q0 17 -3.5 21t-19.5 4l-62 1v22q91 9 129 65h59zM711 660l-404 -660h-46l405 660h45zM825 401v-248h81l-16 -46h-65v-38q0 -29 12 -37q9 -6 44 -8v-24h-216v24q35 0 48 9.5t13 35.5v38
h-169v43l192 251h76zM726 328l-128 -175h128v175z" />
    <glyph glyph-name="threequarters" unicode="&#xbe;" horiz-adv-x="933" 
d="M711 660l-404 -660h-46l405 660h45zM825 401v-248h81l-16 -46h-65v-38q0 -29 12 -37q9 -6 44 -8v-24h-216v24q35 0 48 9.5t13 35.5v38h-169v43l192 251h76zM726 328l-128 -175h128v175zM116 457v31q23 -3 33 -3q82 0 82 85q0 73 -59 73q-42 0 -43 -28q0 -5 7 -5
q37 -1 37 -36q0 -20 -15 -34t-36 -14q-23 0 -38.5 16t-15.5 40q0 40 34.5 63.5t92.5 23.5q138 0 138 -93q0 -40 -31 -66t-84 -32v-4q5 1 13 1q121 0 121 -95q0 -56 -48 -90.5t-126 -34.5q-56 0 -91 22t-35 58q0 23 16 38.5t41 15.5q49 0 49 -43q0 -21 -19 -34
q-13 -9 -13 -13q0 -18 35 -18q78 0 78 96q0 82 -85 82q-4 0 -38 -2z" />
    <glyph glyph-name="franc" unicode="&#x20a3;" horiz-adv-x="926" 
d="M588 660l10 -196h-40q-57 103 -91.5 130.5t-108.5 27.5h-83v-252l36 1q39 1 58 17t32 58l14 47h32v-289h-32l-12 46q-12 45 -32.5 62.5t-61.5 18.5l-34 1v-203q0 -56 10 -70q15 -20 52 -24l29 -3v-32h-325v32l21 3q39 6 52 24q10 14 10 70v403q0 55 -10 69q-13 18 -52 24
l-21 3v32h547zM696 406v-95q28 43 48 63q35 34 84 34q40 0 65.5 -24t25.5 -61q0 -34 -20 -55.5t-51 -21.5q-26 0 -44 17t-18 41q0 19 14 39q5 7 5 12q0 11 -15 11q-30 0 -58 -52q-30 -56 -30 -151v-33q0 -60 9 -76t48 -21l22 -3v-30h-283v29l15 3q40 8 48.5 23t8.5 75v131
q0 45 -4 62q-8 31 -53 38l-20 3v29z" />
    <glyph glyph-name="Gbreve" unicode="&#x11e;" horiz-adv-x="805" 
d="M686 673l2 -236l-47 -2q-18 91 -54 137q-55 70 -151 70q-100 0 -154 -80t-54 -228q0 -125 37 -203q49 -106 158 -106q59 0 105 40q26 23 30.5 38.5t4.5 83.5q0 50 -16.5 67t-68.5 21l-44 3v35h364v-35q-37 -4 -57 -18t-20 -78v-145q-57 0 -116 -17q-122 -35 -202 -35
q-360 0 -360 348q0 181 95 267q91 82 274 82q84 0 179 -29q16 -5 30 -5q17 0 39 25h26zM556 892h35q-7 -175 -171 -175q-165 0 -172 175h34q19 -107 137 -107t137 107z" />
    <glyph glyph-name="gbreve" unicode="&#x11f;" horiz-adv-x="584" 
d="M160 200q-99 38 -99 133q0 76 55 117t166 41q98 0 149 -31q-3 29 -3 37q0 43 25.5 71t64.5 28q29 0 48 -18.5t19 -46.5q0 -26 -16 -43t-40 -17q-38 0 -44 35q-2 12 -10 12q-20 0 -20 -39q0 -24 25 -56q29 -37 29 -83q0 -100 -99 -136q-45 -16 -184 -17q-63 0 -63 -38
q0 -21 23 -31q18 -8 145 -15q111 -6 157 -30q66 -35 66 -119q0 -83 -74.5 -132t-202.5 -49q-111 0 -177.5 37.5t-66.5 100.5q0 58 85 96q-60 29 -60 84q0 75 102 109zM286 459q-43 0 -67.5 -32t-24.5 -88q0 -57 24.5 -89t67.5 -32t67 31.5t24 87.5q0 58 -24 90t-67 32z
M156 -8l-6 -4l-3 -3q-30 -23 -30 -52q0 -50 51 -87t119 -37q62 0 101 26t39 68q0 33 -22 48.5t-75 18.5q-106 7 -174 22zM424 723h34q-4 -67 -33 -112q-39 -61 -134 -61q-161 0 -171 173h34q25 -106 136 -106q57 0 88.5 25t45.5 81z" />
    <glyph glyph-name="Scedilla" unicode="&#x15e;" horiz-adv-x="625" 
d="M308 -13l-16 -42q23 3 29 3q36 0 59.5 -17.5t23.5 -45.5q0 -37 -35 -61t-90 -24q-30 0 -72 9l5 30q25 -4 39 -4q31 0 50 14t19 36q0 34 -50 34q-6 0 -26 -3l26 71q-55 6 -114 24q-29 9 -37 9q-16 0 -38 -26h-25l-3 253l43 1q21 -80 47 -123q59 -99 168 -99q55 0 88.5 29
t33.5 76q0 49 -40 77q-20 14 -36 21q-19 9 -98 39q-100 39 -146 90.5t-46 126.5q0 92 60.5 144.5t166.5 52.5q70 0 158 -28q13 -4 21 -4q14 0 34 23h26l2 -223l-42 -2q-19 95 -51 135q-50 62 -133 62q-47 0 -77 -26t-30 -67q0 -55 48 -89q34 -24 127 -57q97 -34 135 -65
q61 -50 61 -138q0 -90 -62 -152t-203 -64z" />
    <glyph glyph-name="scedilla" unicode="&#x15f;" horiz-adv-x="485" 
d="M247 -10l-17 -45q20 2 25 2q33 0 54 -17t21 -43q0 -35 -33.5 -56.5t-89.5 -21.5q-23 0 -58 8l6 26q23 -4 37 -4q29 0 47.5 13.5t18.5 35.5q0 33 -44 33q-11 0 -31 -4l27 74q-45 7 -95 20q-11 3 -21 3q-12 0 -26 -18h-19l-2 182l31 1q52 -157 159 -157q37 0 60.5 19
t23.5 49q0 34 -31 53q-18 11 -90 38q-144 54 -144 161q0 149 180 149q64 0 119 -17q10 -3 16 -3q11 0 21 14h19l2 -149l-31 -2q-19 57 -46 84q-43 43 -96 43q-33 0 -53 -16.5t-20 -42.5q0 -30 26.5 -51t100.5 -50q83 -32 110 -55q40 -34 40 -99q0 -107 -94 -143
q-37 -14 -103 -14z" />
    <glyph glyph-name="Cacute" unicode="&#x106;" horiz-adv-x="710" 
d="M670 673l2 -236l-46 -1q-23 96 -52 137q-49 69 -142 69q-99 0 -151.5 -82.5t-52.5 -237.5q0 -146 53.5 -221.5t152.5 -75.5q101 0 207 110l40 -42q-59 -59 -118 -83.5t-142 -24.5q-174 0 -276 82t-102 270q0 345 371 345q88 0 180 -31q9 -3 18 -3q16 0 32 25h26zM390 709
l-13 16l127 147q21 24 43 24q16 0 27.5 -13t11.5 -31q0 -26 -33 -46z" />
    <glyph glyph-name="cacute" unicode="&#x107;" horiz-adv-x="527" 
d="M486 108l21 -24q-52 -51 -102 -72.5t-118 -21.5q-117 0 -183 66.5t-66 183.5q0 122 68.5 186.5t198.5 64.5q94 0 149 -32t55 -86q0 -31 -21 -51.5t-53 -20.5q-30 0 -49 17t-19 44q0 18 21 46q5 5 5 12q0 16 -21 26.5t-53 10.5q-121 0 -121 -200q0 -210 147 -210
q70 0 141 61zM283 536l-13 14l129 161q22 27 43 27q14 0 25.5 -13t11.5 -30q0 -23 -30 -44z" />
    <glyph glyph-name="Ccaron" unicode="&#x10c;" horiz-adv-x="710" 
d="M670 673l2 -236l-46 -1q-23 96 -52 137q-49 69 -142 69q-99 0 -151.5 -82.5t-52.5 -237.5q0 -146 53.5 -221.5t152.5 -75.5q101 0 207 110l40 -42q-59 -59 -118 -83.5t-142 -24.5q-174 0 -276 82t-102 270q0 345 371 345q88 0 180 -31q9 -3 18 -3q16 0 32 25h26zM418 711
l-184 174l20 22l164 -108l165 108l20 -22z" />
    <glyph glyph-name="ccaron" unicode="&#x10d;" horiz-adv-x="527" 
d="M486 108l21 -24q-52 -51 -102 -72.5t-118 -21.5q-117 0 -183 66.5t-66 183.5q0 122 68.5 186.5t198.5 64.5q94 0 149 -32t55 -86q0 -31 -21 -51.5t-53 -20.5q-30 0 -49 17t-19 44q0 18 21 46q5 5 5 12q0 16 -21 26.5t-53 10.5q-121 0 -121 -200q0 -210 147 -210
q70 0 141 61zM305 538l-180 182l20 22l160 -119l161 119l19 -22z" />
    <glyph glyph-name="sfthyphen" unicode="&#xad;" horiz-adv-x="275" 
d="M275 277v-60h-275v60h275z" />
    <glyph glyph-name="overscore.001" unicode="&#xaf;" 
d="M5 851h490v-82h-490v82z" />
    <glyph glyph-name="mu1" unicode="&#xb5;" horiz-adv-x="640" 
d="M176 -176l-91 -11q16 304 16 389q0 33 -6 274l106 8q-11 -191 -11 -269t20 -110q31 -49 95 -49q76 0 100 70q11 30 11 112q0 114 -3 237l108 10q-14 -164 -14 -333q0 -63 13.5 -88.5t46.5 -25.5q23 0 47 14l-3 -29q-46 -33 -99 -33q-88 0 -96 101q-43 -101 -146 -101
q-68 0 -105 43q2 -47 5 -104z" />
    <glyph glyph-name="mu1" unicode="&#x3bc;" horiz-adv-x="640" 
d="M176 -176l-91 -11q16 304 16 389q0 33 -6 274l106 8q-11 -191 -11 -269t20 -110q31 -49 95 -49q76 0 100 70q11 30 11 112q0 114 -3 237l108 10q-14 -164 -14 -333q0 -63 13.5 -88.5t46.5 -25.5q23 0 47 14l-3 -29q-46 -33 -99 -33q-88 0 -96 101q-43 -101 -146 -101
q-68 0 -105 43q2 -47 5 -104z" />
    <glyph glyph-name="middot.001" unicode="&#xb7;" horiz-adv-x="637" 
d="M318 342q34 0 58.5 -24t24.5 -58t-24 -58.5t-58 -24.5q-35 0 -59 24.5t-24 59.5q0 33 24.5 57t57.5 24z" />
    <glyph glyph-name="Amacron" unicode="&#x100;" horiz-adv-x="722" 
d="M439 667l189 -508q29 -79 46 -98.5t62 -27.5v-33h-336v33q44 7 60 16t16 27t-16 63l-34 96h-235l-33 -89q-15 -40 -15 -64q0 -38 81 -49v-33h-246v33q51 8 79 43t70 139l155 387q11 28 22 65h135zM312 565l-106 -287h205zM540 823v-60h-325v60h325z" />
    <glyph glyph-name="amacron" unicode="&#x101;" horiz-adv-x="587" 
d="M570 68l11 -20q-83 -56 -138 -56q-39 0 -65 28q-13 14 -25 52q-83 -82 -171 -82q-65 0 -102.5 36.5t-37.5 98.5q0 87 80 124q30 14 150 34l77 13q-1 96 -11 119q-18 43 -79 43q-24 0 -43.5 -8.5t-19.5 -19.5q0 -4 15 -22q11 -11 11 -31q0 -29 -21.5 -47.5t-54.5 -18.5
t-53 19t-20 51q0 110 211 110q142 0 186 -69q22 -35 22 -120v-160q0 -87 38 -87q14 0 40 13zM350 164v99q-92 -13 -125 -36t-33 -74q0 -40 21.5 -65.5t55.5 -25.5q39 0 65 34q16 21 16 68zM452 655v-58h-305v58h305z" />
    <glyph glyph-name="Abreve" unicode="&#x102;" horiz-adv-x="722" 
d="M439 667l189 -508q29 -79 46 -98.5t62 -27.5v-33h-336v33q44 7 60 16t16 27t-16 63l-34 96h-235l-33 -89q-15 -40 -15 -64q0 -38 81 -49v-33h-246v33q51 8 79 43t70 139l155 387q11 28 22 65h135zM312 565l-106 -287h205zM504 892h35q-7 -175 -171 -175q-165 0 -172 175
h34q19 -107 137 -107t137 107z" />
    <glyph glyph-name="abreve" unicode="&#x103;" horiz-adv-x="587" 
d="M570 68l11 -20q-83 -56 -138 -56q-39 0 -65 28q-13 14 -25 52q-83 -82 -171 -82q-65 0 -102.5 36.5t-37.5 98.5q0 87 80 124q30 14 150 34l77 13q-1 96 -11 119q-18 43 -79 43q-24 0 -43.5 -8.5t-19.5 -19.5q0 -4 15 -22q11 -11 11 -31q0 -29 -21.5 -47.5t-54.5 -18.5
t-53 19t-20 51q0 110 211 110q142 0 186 -69q22 -35 22 -120v-160q0 -87 38 -87q14 0 40 13zM350 164v99q-92 -13 -125 -36t-33 -74q0 -40 21.5 -65.5t55.5 -25.5q39 0 65 34q16 21 16 68zM424 723h34q-3 -65 -32 -112q-38 -61 -135 -61q-160 0 -170 173h34
q24 -106 136 -106q57 0 88 25t45 81z" />
    <glyph glyph-name="Aogonek" unicode="&#x104;" horiz-adv-x="722" 
d="M619 0l-8 -6q-46 -35 -46 -87q0 -29 18 -47t47 -18q19 0 46 12l13 -26q-42 -23 -91 -23q-55 0 -86.5 23.5t-31.5 63.5q0 72 99 108h-179v33q44 7 60 16t16 27t-16 63l-34 96h-235l-33 -89q-15 -40 -15 -64q0 -38 81 -49v-33h-246v33q51 8 79 43t70 139l155 387
q11 28 22 65h135l189 -508q29 -79 46 -98.5t62 -27.5v-33h-117zM312 565l-106 -287h205z" />
    <glyph glyph-name="aogonek" unicode="&#x105;" horiz-adv-x="587" 
d="M442 -8h-9q-43 -32 -43 -81q0 -28 18.5 -46t47.5 -18q19 0 43 12l12 -24q-40 -22 -84 -22q-52 0 -83.5 23t-31.5 60q0 68 94 104q-36 16 -53 72q-83 -82 -171 -82q-65 0 -102.5 36.5t-37.5 98.5q0 87 80 123q34 15 150 35l77 13q-1 96 -11 119q-18 43 -79 43
q-24 0 -43.5 -8.5t-19.5 -19.5q0 -4 15 -22q11 -11 11 -31q0 -29 -21.5 -47.5t-54.5 -18.5t-53 19t-20 51q0 110 211 110q142 0 186 -69q22 -35 22 -120v-160q0 -87 38 -87q14 0 40 13l11 -20q-83 -56 -139 -56zM350 164v99q-92 -13 -125 -36t-33 -74q0 -40 21.5 -65.5
t55.5 -25.5q39 0 65 34q16 21 16 68z" />
    <glyph glyph-name="Ccircumflex" unicode="&#x108;" horiz-adv-x="710" 
d="M670 673l2 -236l-46 -1q-23 96 -52 137q-49 69 -142 69q-99 0 -151.5 -82.5t-52.5 -237.5q0 -146 53.5 -221.5t152.5 -75.5q101 0 207 110l40 -42q-59 -59 -118 -83.5t-142 -24.5q-174 0 -276 82t-102 270q0 345 371 345q88 0 180 -31q9 -3 18 -3q16 0 32 25h26zM418 901
l185 -173l-20 -23l-165 108l-164 -108l-20 23z" />
    <glyph glyph-name="Cdotaccent" unicode="&#x10a;" horiz-adv-x="710" 
d="M670 673l2 -236l-46 -1q-23 96 -52 137q-49 69 -142 69q-99 0 -151.5 -82.5t-52.5 -237.5q0 -146 53.5 -221.5t152.5 -75.5q101 0 207 110l40 -42q-59 -59 -118 -83.5t-142 -24.5q-174 0 -276 82t-102 270q0 345 371 345q88 0 180 -31q9 -3 18 -3q16 0 32 25h26zM415 868
q34 0 57.5 -20.5t23.5 -49.5q0 -31 -23 -51t-58 -20q-34 0 -57 20.5t-23 51.5q0 28 23.5 48.5t56.5 20.5z" />
    <glyph glyph-name="cdotaccent" unicode="&#x10b;" horiz-adv-x="527" 
d="M486 108l21 -24q-52 -51 -102 -72.5t-118 -21.5q-117 0 -183 66.5t-66 183.5q0 122 68.5 186.5t198.5 64.5q94 0 149 -32t55 -86q0 -31 -21 -51.5t-53 -20.5q-30 0 -49 17t-19 44q0 18 21 46q5 5 5 12q0 16 -21 26.5t-53 10.5q-121 0 -121 -200q0 -210 147 -210
q70 0 141 61zM300 697q34 0 56.5 -20t22.5 -49t-22.5 -49t-56.5 -20q-33 0 -55.5 20t-22.5 50q0 28 23 48t55 20z" />
    <glyph glyph-name="Dcaron" unicode="&#x10e;" horiz-adv-x="814" 
d="M132 131v405q0 56 -10 70q-13 18 -52 24l-27 4v33h379q160 0 236 -62q113 -92 113 -269q0 -199 -129 -287q-72 -49 -220 -49h-379v33l27 4q39 6 52 24q10 14 10 70zM299 41h58q122 0 176.5 68.5t54.5 223.5q0 157 -54.5 225.5t-179.5 68.5h-55v-586zM403 708l-184 174
l20 22l164 -108l165 108l20 -22z" />
    <glyph glyph-name="dcaron" unicode="&#x10f;" horiz-adv-x="806" 
d="M565 700v-568q0 -59 9 -74.5t48 -24.5l20 -2v-31h-219v72q-60 -82 -162 -82q-100 0 -161.5 69.5t-61.5 183.5q0 112 63 180t167 68q96 0 152 -66v148q0 40 -15.5 57.5t-54.5 17.5h-17v33zM310 449q-59 0 -85.5 -49.5t-26.5 -151.5q0 -205 111 -205q76 0 100 79
q11 37 11 117q0 109 -19 152q-25 58 -91 58zM644 503l-9 22q64 20 73 74l-4 4q-15 -9 -29 -9q-22 0 -36 14t-14 36q0 24 17 40t43 16q30 0 49 -21t19 -53q0 -90 -109 -123z" />
    <glyph glyph-name="Dcroat" unicode="&#x110;" horiz-adv-x="814" 
d="M132 368v168q0 56 -10 70q-13 18 -52 24l-27 4v33h378q160 0 236 -62q114 -93 114 -269q0 -199 -129 -287q-72 -49 -221 -49h-378v33l27 4q39 6 52 24q10 14 10 70v192h-89v45h89zM299 368h142v-45h-142v-282h57q123 0 177.5 68.5t54.5 223.5q0 156 -55 225t-179 69h-55
v-259z" />
    <glyph glyph-name="dcroat" unicode="&#x111;" horiz-adv-x="664" 
d="M420 575v5q0 68 -70 68h-17v33l232 19v-125h84v-35h-84v-408q0 -59 9 -74.5t48 -24.5l20 -2v-31h-219v72q-61 -82 -162 -82q-100 0 -161.5 69.5t-61.5 183.5q0 112 63 180t167 68q96 0 152 -66v115h-165v35h165zM310 449q-59 0 -85.5 -49.5t-26.5 -151.5q0 -205 111 -205
q69 0 96 67q15 40 15 128q0 111 -19 153q-26 58 -91 58z" />
    <glyph glyph-name="Emacron" unicode="&#x112;" horiz-adv-x="714" 
d="M638 667l14 -214h-45q-54 110 -74 131q-40 43 -127 43h-107v-253l59 2q40 1 59.5 17t31.5 58l14 48h34v-293h-34l-12 46q-12 46 -32.5 63.5t-62.5 18.5l-57 1v-294h100q72 0 113 27t73 96l38 81h44l-22 -245h-602v33l26 4q40 6 53 24q10 14 10 70v405q0 56 -10 70
q-13 18 -53 24l-26 4v33h595zM536 823v-60h-325v60h325z" />
    <glyph glyph-name="emacron" unicode="&#x113;" horiz-adv-x="569" 
d="M502 113l20 -22q-56 -56 -107 -78.5t-124 -22.5q-118 0 -185.5 67.5t-67.5 185.5q0 119 67 183.5t191 64.5q146 0 204 -89q34 -52 34 -152h-337q1 -52 5 -78q7 -44 27 -72q37 -51 113 -51q90 0 160 64zM198 285h199q-4 92 -27 132.5t-72 40.5q-64 0 -85 -70
q-12 -40 -15 -103zM464 655v-58h-305v58h305z" />
    <glyph glyph-name="Ebreve" unicode="&#x114;" horiz-adv-x="714" 
d="M638 667l14 -214h-45q-54 110 -74 131q-40 43 -127 43h-107v-253l59 2q40 1 59.5 17t31.5 58l14 48h34v-293h-34l-12 46q-12 46 -32.5 63.5t-62.5 18.5l-57 1v-294h100q72 0 113 27t73 96l38 81h44l-22 -245h-602v33l26 4q40 6 53 24q10 14 10 70v405q0 56 -10 70
q-13 18 -53 24l-26 4v33h595zM520 892h35q-7 -175 -171 -175q-165 0 -172 175h35q18 -107 136 -107t137 107z" />
    <glyph glyph-name="ebreve" unicode="&#x115;" horiz-adv-x="569" 
d="M502 113l20 -22q-56 -56 -107 -78.5t-124 -22.5q-118 0 -185.5 67.5t-67.5 185.5q0 119 67 183.5t191 64.5q146 0 204 -89q34 -52 34 -152h-337q1 -52 5 -78q7 -44 27 -72q37 -51 113 -51q90 0 160 64zM198 285h199q-4 92 -27 132.5t-72 40.5q-64 0 -85 -70
q-12 -40 -15 -103zM433 723h33q-3 -66 -32 -112q-39 -61 -134 -61q-161 0 -171 173h34q25 -106 136 -106q57 0 88.5 25t45.5 81z" />
    <glyph glyph-name="Edotaccent" unicode="&#x116;" horiz-adv-x="714" 
d="M638 667l14 -214h-45q-54 110 -74 131q-40 43 -127 43h-107v-253l59 2q40 1 59.5 17t31.5 58l14 48h34v-293h-34l-12 46q-12 46 -32.5 63.5t-62.5 18.5l-57 1v-294h100q72 0 113 27t73 96l38 81h44l-22 -245h-602v33l26 4q40 6 53 24q10 14 10 70v405q0 56 -10 70
q-13 18 -53 24l-26 4v33h595zM393 868q34 0 57.5 -20.5t23.5 -49.5q0 -31 -23 -51t-58 -20q-34 0 -57 20.5t-23 51.5q0 28 23.5 48.5t56.5 20.5z" />
    <glyph glyph-name="edotaccent" unicode="&#x117;" horiz-adv-x="569" 
d="M502 113l20 -22q-56 -56 -107 -78.5t-124 -22.5q-118 0 -185.5 67.5t-67.5 185.5q0 119 67 183.5t191 64.5q146 0 204 -89q34 -52 34 -152h-337q1 -52 5 -78q7 -44 27 -72q37 -51 113 -51q90 0 160 64zM198 285h199q-4 92 -27 132.5t-72 40.5q-64 0 -85 -70
q-12 -40 -15 -103zM297 697q34 0 56.5 -20t22.5 -49t-22.5 -49t-56.5 -20q-33 0 -55.5 20t-22.5 50q0 28 23 48t55 20z" />
    <glyph glyph-name="Eogonek" unicode="&#x118;" horiz-adv-x="714" 
d="M563 0l-8 -6q-45 -34 -45 -87q0 -29 17.5 -47t46.5 -18q19 0 46 12l13 -26q-43 -23 -91 -23q-54 0 -85.5 23.5t-31.5 63.5q0 71 98 108h-480v33l26 4q48 7 58 32q5 14 5 62v405q0 56 -10 70q-13 18 -53 24l-26 4v33h595l14 -214h-45q-52 107 -74 131q-40 43 -127 43h-107
v-253l59 2q40 1 59.5 17t31.5 58l14 48h34v-293h-34l-12 46q-12 46 -32.5 63.5t-62.5 18.5l-57 1v-294h100q72 0 113 27t73 96l38 81h44l-22 -245h-82z" />
    <glyph glyph-name="eogonek" unicode="&#x119;" horiz-adv-x="569" 
d="M502 113l20 -22q-54 -56 -104 -77q-78 -44 -78 -104q0 -28 18.5 -45.5t47.5 -17.5q19 0 43 12l12 -24q-40 -22 -84 -22q-52 0 -83.5 22.5t-31.5 59.5q0 59 64 96q-15 -1 -35 -1q-118 0 -185.5 67.5t-67.5 185.5q0 119 67 183.5t191 64.5q146 0 204 -89q34 -52 34 -152
h-337q1 -52 5 -78q7 -44 27 -72q37 -51 113 -51q90 0 160 64zM198 285h199q-4 92 -27 132.5t-72 40.5q-64 0 -85 -70q-12 -40 -15 -103z" />
    <glyph glyph-name="Ecaron" unicode="&#x11a;" horiz-adv-x="714" 
d="M638 667l14 -214h-45q-54 110 -74 131q-40 43 -127 43h-107v-253l59 2q40 1 59.5 17t31.5 58l14 48h34v-293h-34l-12 46q-12 46 -32.5 63.5t-62.5 18.5l-57 1v-294h100q72 0 113 27t73 96l38 81h44l-22 -245h-602v33l26 4q40 6 53 24q10 14 10 70v405q0 56 -10 70
q-13 18 -53 24l-26 4v33h595zM393 708l-184 174l20 22l164 -108l165 108l20 -22z" />
    <glyph glyph-name="ecaron" unicode="&#x11b;" horiz-adv-x="569" 
d="M502 113l20 -22q-56 -56 -107 -78.5t-124 -22.5q-118 0 -185.5 67.5t-67.5 185.5q0 119 67 183.5t191 64.5q146 0 204 -89q34 -52 34 -152h-337q1 -52 5 -78q7 -44 27 -72q37 -51 113 -51q90 0 160 64zM198 285h199q-4 92 -27 132.5t-72 40.5q-64 0 -85 -70
q-12 -40 -15 -103zM298 538l-180 182l20 22l160 -119l161 119l19 -22z" />
    <glyph glyph-name="Gcircumflex" unicode="&#x11c;" horiz-adv-x="805" 
d="M686 673l2 -236l-47 -2q-18 91 -54 137q-55 70 -151 70q-100 0 -154 -80t-54 -228q0 -125 37 -203q49 -106 158 -106q59 0 105 40q26 23 30.5 38.5t4.5 83.5q0 50 -16.5 67t-68.5 21l-44 3v35h364v-35q-37 -4 -57 -18t-20 -78v-145q-57 0 -116 -17q-122 -35 -202 -35
q-360 0 -360 348q0 181 95 267q91 82 274 82q84 0 179 -29q16 -5 30 -5q17 0 39 25h26zM422 901l185 -173l-20 -23l-165 108l-164 -108l-20 23z" />
    <glyph glyph-name="gcircumflex" unicode="&#x11d;" horiz-adv-x="584" 
d="M160 200q-99 38 -99 133q0 76 55 117t166 41q98 0 149 -31q-3 29 -3 37q0 43 25.5 71t64.5 28q29 0 48 -18.5t19 -46.5q0 -26 -16 -43t-40 -17q-38 0 -44 35q-2 12 -10 12q-20 0 -20 -39q0 -24 25 -56q29 -37 29 -83q0 -100 -99 -136q-45 -16 -184 -17q-63 0 -63 -38
q0 -21 23 -31q18 -8 145 -15q111 -6 157 -30q66 -35 66 -119q0 -83 -74.5 -132t-202.5 -49q-111 0 -177.5 37.5t-66.5 100.5q0 58 85 96q-60 29 -60 84q0 75 102 109zM286 459q-43 0 -67.5 -32t-24.5 -88q0 -57 24.5 -89t67.5 -32t67 31.5t24 87.5q0 58 -24 90t-67 32z
M156 -8l-6 -4l-3 -3q-30 -23 -30 -52q0 -50 51 -87t119 -37q62 0 101 26t39 68q0 33 -22 48.5t-75 18.5q-106 7 -174 22zM289 742l147 -182l-20 -22l-127 118l-127 -118l-20 22z" />
    <glyph glyph-name="Gdotaccent" unicode="&#x120;" horiz-adv-x="805" 
d="M686 673l2 -236l-47 -2q-18 91 -54 137q-55 70 -151 70q-100 0 -154 -80t-54 -228q0 -125 37 -203q49 -106 158 -106q59 0 105 40q26 23 30.5 38.5t4.5 83.5q0 50 -16.5 67t-68.5 21l-44 3v35h364v-35q-37 -4 -57 -18t-20 -78v-145q-57 0 -116 -17q-122 -35 -202 -35
q-360 0 -360 348q0 181 95 267q91 82 274 82q84 0 179 -29q16 -5 30 -5q17 0 39 25h26zM422 868q34 0 57.5 -20.5t23.5 -49.5q0 -31 -23 -51t-58 -20q-34 0 -57 20.5t-23 51.5q0 28 23.5 48.5t56.5 20.5z" />
    <glyph glyph-name="gdotaccent" unicode="&#x121;" horiz-adv-x="584" 
d="M160 200q-99 38 -99 133q0 76 55 117t166 41q98 0 149 -31q-3 29 -3 37q0 43 25.5 71t64.5 28q29 0 48 -18.5t19 -46.5q0 -26 -16 -43t-40 -17q-38 0 -44 35q-2 12 -10 12q-20 0 -20 -39q0 -24 25 -56q29 -37 29 -83q0 -100 -99 -136q-45 -16 -184 -17q-63 0 -63 -38
q0 -21 23 -31q18 -8 145 -15q111 -6 157 -30q66 -35 66 -119q0 -83 -74.5 -132t-202.5 -49q-111 0 -177.5 37.5t-66.5 100.5q0 58 85 96q-60 29 -60 84q0 75 102 109zM286 459q-43 0 -67.5 -32t-24.5 -88q0 -57 24.5 -89t67.5 -32t67 31.5t24 87.5q0 58 -24 90t-67 32z
M156 -8l-6 -4l-3 -3q-30 -23 -30 -52q0 -50 51 -87t119 -37q62 0 101 26t39 68q0 33 -22 48.5t-75 18.5q-106 7 -174 22zM292 697q34 0 56.5 -20t22.5 -49t-22.5 -49t-56.5 -20q-33 0 -55.5 20t-22.5 50q0 28 23 48t55 20z" />
    <glyph glyph-name="Gcommaaccent" unicode="&#x122;" horiz-adv-x="805" 
d="M686 673l2 -236l-47 -2q-18 91 -54 137q-55 70 -151 70q-100 0 -154 -80t-54 -228q0 -125 37 -203q49 -106 158 -106q59 0 105 40q26 23 30.5 38.5t4.5 83.5q0 50 -16.5 67t-68.5 21l-44 3v35h364v-35q-37 -4 -57 -18t-20 -78v-145q-57 0 -116 -17q-122 -35 -202 -35
q-360 0 -360 348q0 181 95 267q91 82 274 82q84 0 179 -29q16 -5 30 -5q17 0 39 25h26zM364 -257l-9 24q67 21 78 79l-5 4q-17 -9 -31 -9q-23 0 -38 15t-15 38q0 26 18 42.5t46 16.5q32 0 52.5 -22t20.5 -57q0 -95 -117 -131z" />
    <glyph glyph-name="gcommaaccent" unicode="&#x123;" horiz-adv-x="584" 
d="M160 200q-99 38 -99 133q0 76 55 117t166 41q98 0 149 -31q-3 29 -3 37q0 43 25.5 71t64.5 28q29 0 48 -18.5t19 -46.5q0 -26 -16 -43t-40 -17q-38 0 -44 35q-2 12 -10 12q-20 0 -20 -39q0 -24 25 -56q29 -37 29 -83q0 -100 -99 -136q-45 -16 -184 -17q-63 0 -63 -38
q0 -21 23 -31q18 -8 145 -15q111 -6 157 -30q66 -35 66 -119q0 -83 -74.5 -132t-202.5 -49q-111 0 -177.5 37.5t-66.5 100.5q0 58 85 96q-60 29 -60 84q0 75 102 109zM286 459q-43 0 -67.5 -32t-24.5 -88q0 -57 24.5 -89t67.5 -32t67 31.5t24 87.5q0 58 -24 90t-67 32z
M156 -8l-6 -4l-3 -3q-30 -23 -30 -52q0 -50 51 -87t119 -37q62 0 101 26t39 68q0 33 -22 48.5t-75 18.5q-106 7 -174 22zM331 742l8 -22q-64 -20 -73 -74l4 -3q16 8 29 8q22 0 36 -14t14 -36q0 -23 -17 -39t-43 -16q-30 0 -49 21t-19 53q0 89 110 122z" />
    <glyph glyph-name="Hcircumflex" unicode="&#x124;" horiz-adv-x="862" 
d="M563 323h-264v-192q0 -56 10 -70q13 -18 52 -24l26 -4v-33h-344v33l26 4q40 6 53 24q10 14 10 70v405q0 56 -10 70q-13 18 -53 24l-26 4v33h344v-33l-26 -4q-39 -6 -52 -24q-10 -14 -10 -70v-168h264v168q0 56 -10 70q-13 18 -52 24l-26 4v33h344v-33l-27 -4
q-39 -6 -52 -24q-10 -14 -10 -70v-405q0 -56 10 -70q13 -18 52 -24l27 -4v-33h-344v33l26 4q39 6 52 24q10 14 10 70v192zM437 901l185 -173l-20 -23l-165 108l-164 -108l-20 23z" />
    <glyph glyph-name="Hbar" unicode="&#x126;" horiz-adv-x="862" 
d="M132 484h-89v45h89q1 55 -5 68q-11 26 -58 33l-26 4v33h343v-33l-25 -4q-47 -7 -57 -33q-6 -13 -5 -68h264q1 55 -5 68q-10 26 -57 33l-26 4v33h343v-33l-26 -4q-47 -7 -57 -33q-6 -13 -5 -68h88v-45h-88v-353q0 -56 10 -70q13 -18 52 -24l27 -4v-33h-344v33l25 4
q40 6 53 24q10 14 10 70v192h-264v-192q0 -56 10 -70q13 -18 52 -24l26 -4v-33h-344v33l26 4q40 6 53 24q10 14 10 70v353zM299 484v-116h264v116h-264z" />
    <glyph glyph-name="hbar" unicode="&#x127;" horiz-adv-x="694" 
d="M248 700v-125h175v-35h-175v-128q40 45 76.5 62t91.5 17q108 0 154 -71q25 -39 25 -131v-157q0 -59 8.5 -74.5t48.5 -24.5l20 -2v-31h-295v31l19 2q37 9 45.5 25t8.5 74v147q0 82 -17 113q-23 43 -76 43q-68 0 -94 -57q-15 -33 -15 -98v-148q0 -59 8.5 -74.5t45.5 -24.5
l19 -2v-31h-295v31l20 2q39 9 48 24.5t9 74.5v408h-87v35h87q-1 40 -15.5 56t-53.5 18l-18 1v31z" />
    <glyph glyph-name="Imacron" unicode="&#x12a;" horiz-adv-x="430" 
d="M132 131v405q0 56 -10 70q-13 18 -53 24l-26 4v33h345v-33l-27 -4q-39 -6 -52 -24q-10 -14 -10 -70v-405q0 -56 10 -70q13 -18 52 -24l27 -4v-33h-345v33l26 4q40 6 53 24q10 14 10 70zM381 823v-60h-325v60h325z" />
    <glyph glyph-name="imacron" unicode="&#x12b;" horiz-adv-x="362" 
d="M257 491v-359q0 -59 9 -74.5t48 -24.5l20 -2v-31h-299v31l20 2q40 9 48.5 24.5t8.5 74.5v212q0 50 -4 66q-9 34 -53 38l-25 2v31zM313 655v-58h-278v58h278z" />
    <glyph glyph-name="ibreve" unicode="&#x12d;" horiz-adv-x="362" 
d="M257 491v-359q0 -59 9 -74.5t48 -24.5l20 -2v-31h-299v31l20 2q40 9 48.5 24.5t8.5 74.5v212q0 50 -4 66q-9 34 -53 38l-25 2v31zM303 723h33q-5 -94 -39.5 -133.5t-110.5 -39.5q-150 0 -160 173h34q15 -57 44 -81.5t81 -24.5q101 0 118 106z" />
    <glyph glyph-name="Iogonek" unicode="&#x12e;" horiz-adv-x="430" 
d="M264 0l-5 -3q-49 -37 -49 -90q0 -29 17.5 -47t46.5 -18q20 0 47 12l12 -26q-42 -23 -90 -23q-55 0 -86.5 23.5t-31.5 63.5q0 71 98 108h-180v33l26 4q40 6 53 24q10 14 10 70v405q0 56 -10 70q-13 18 -53 24l-26 4v33h345v-33l-27 -4q-39 -6 -52 -24q-10 -14 -10 -70
v-405q0 -56 10 -70q13 -18 52 -24l26 -4v-33h-123z" />
    <glyph glyph-name="iogonek" unicode="&#x12f;" horiz-adv-x="362" 
d="M334 0h-107q-55 -37 -55 -89q0 -29 18 -46.5t48 -17.5q20 0 44 12l11 -24q-38 -22 -83 -22q-52 0 -84 22.5t-32 60.5q0 68 95 104h-154v31l20 2q44 4 54 38q3 11 3 61v212q0 50 -4 66q-9 34 -53 38l-25 2v31l227 10v-359q0 -52 5 -66q10 -29 52 -33l20 -2v-31zM183 703
q34 0 56.5 -19.5t22.5 -48.5t-22.5 -49t-56.5 -20q-33 0 -55.5 20t-22.5 50q0 28 23 47.5t55 19.5z" />
    <glyph glyph-name="Idotaccent" unicode="&#x130;" horiz-adv-x="430" 
d="M132 131v405q0 56 -10 70q-13 18 -53 24l-26 4v33h345v-33l-27 -4q-39 -6 -52 -24q-10 -14 -10 -70v-405q0 -56 10 -70q13 -18 52 -24l27 -4v-33h-345v33l26 4q40 6 53 24q10 14 10 70zM228 868q34 0 57.5 -20.5t23.5 -49.5q0 -31 -23 -51t-58 -20q-34 0 -57 20.5
t-23 51.5q0 28 23.5 48.5t56.5 20.5z" />
    <glyph glyph-name="IJ" unicode="&#x132;" horiz-adv-x="833" 
d="M132 131v405q0 56 -10 70q-13 18 -53 24l-26 4v33h345v-33l-27 -4q-39 -6 -52 -24q-10 -14 -10 -70v-405q0 -56 10 -70q13 -18 52 -24l27 -4v-33h-345v33l26 4q40 6 53 24q10 14 10 70zM408 -225l-2 31q73 10 108 56q23 30 28 80q2 18 2 87v507q0 55 -10 70
q-13 19 -52 24l-31 4v33h349v-33l-26 -4q-40 -6 -53 -24q-10 -14 -10 -70v-478q0 -138 -65 -196q-95 -85 -238 -87z" />
    <glyph glyph-name="ij" unicode="&#x133;" horiz-adv-x="665" 
d="M257 491v-359q0 -59 9 -74.5t48 -24.5l20 -2v-31h-299v31l20 2q40 9 48.5 24.5t8.5 74.5v212q0 50 -4 66q-9 34 -53 38l-25 2v31zM183 703q34 0 56.5 -19.5t22.5 -48.5t-22.5 -49t-56.5 -20q-33 0 -55.5 20t-22.5 50q0 28 23 47.5t55 19.5zM588 491v-493
q0 -105 -58.5 -165t-161.5 -60q-58 0 -92.5 24.5t-34.5 65.5q0 30 19.5 50t49.5 20q26 0 43 -16.5t17 -41.5q0 -20 -21 -41q-7 -7 -7 -12q0 -17 32 -17q45 0 61 46q8 22 8 86v412q0 60 -9.5 75.5t-50.5 23.5l-27 2v31zM514 703q33 0 55.5 -19.5t22.5 -48.5
q0 -30 -22.5 -49.5t-56.5 -19.5q-33 0 -55 20t-22 50q0 28 23 47.5t55 19.5z" />
    <glyph glyph-name="Kcommaaccent" unicode="&#x136;" horiz-adv-x="792" 
d="M799 32v-32h-264v23q0 11 -9 24l-191 275l-39 -32v-159q0 -56 10 -70q13 -18 52 -24l27 -4v-33h-342v33l27 4q39 6 52 24q10 14 10 70v405q0 56 -10 70q-13 18 -52 24l-27 4v33h342v-33l-27 -4q-39 -6 -52 -24q-10 -14 -10 -70v-197l102 97q15 14 58 50q68 57 86 76.5
t18 37.5q0 17 -11.5 24t-47.5 10v33h267v-33q-49 -5 -81 -20.5t-82 -57.5l-149 -125l218 -299q39 -54 65.5 -75t59.5 -25zM364 -257l-9 24q67 21 78 79l-5 4q-17 -9 -31 -9q-23 0 -38 15t-15 38q0 26 18 42.5t46 16.5q32 0 52.5 -22t20.5 -57q0 -95 -117 -131z" />
    <glyph glyph-name="kcommaaccent" unicode="&#x137;" horiz-adv-x="652" 
d="M611 481v-31q-60 -3 -102 -25.5t-122 -94.5l163 -215q34 -44 50 -58q29 -24 70 -26v-31h-224l-160 238l-38 -34v-72q0 -52 5 -66q10 -28 51 -33l18 -2v-31h-296v31l20 2q39 9 48 24.5t9 74.5v417q0 54 -8 70q-13 27 -61 30l-18 1v31l232 19v-455l126 123q43 42 43 58
q0 21 -59 24v31h253zM285 -243l-9 22q64 20 73 74l-4 3q-16 -8 -29 -8q-22 0 -36 14t-14 36q0 23 17 39t43 16q30 0 49 -21t19 -53q0 -89 -109 -122z" />
    <glyph glyph-name="kgreenlandic" unicode="&#x138;" horiz-adv-x="652" 
d="M286 238l-38 -34v-72q0 -51 5 -66q9 -28 51 -33l18 -2v-31h-296v31l20 2q39 9 48 24.5t9 74.5v208q0 57 -4 70q-10 34 -54 38l-24 2v31l227 10v-246l126 123q43 42 43 58q0 23 -59 24v31h253v-31q-66 -3 -122 -38q-32 -20 -102 -82l163 -215q34 -44 50 -58q29 -24 70 -26
v-31h-224z" />
    <glyph glyph-name="Lacute" unicode="&#x139;" horiz-adv-x="661" 
d="M642 246l-24 -246h-575v33l26 4q40 6 53 24q10 14 10 70v405q0 56 -10 70q-13 18 -53 24l-26 4v33h350v-33l-32 -4q-46 -6 -57 -33q-5 -14 -5 -61v-495h81q69 0 108 29t78 110l32 66h44zM219 709l-12 16l126 147q21 24 44 24q16 0 27.5 -13t11.5 -31q0 -26 -33 -46z" />
    <glyph glyph-name="lacute" unicode="&#x13a;" horiz-adv-x="350" 
d="M248 700v-568q0 -60 9 -75t48 -24l20 -2v-31h-299v31l20 2q40 9 48.5 24t8.5 75v417q0 55 -9 72q-13 25 -60 28l-18 1v31zM160 736l-12 16l126 147q21 24 44 24q16 0 27.5 -13t11.5 -31q0 -26 -33 -46z" />
    <glyph glyph-name="Lcommaaccent" unicode="&#x13b;" horiz-adv-x="661" 
d="M642 246l-24 -246h-575v33l26 4q40 6 53 24q10 14 10 70v405q0 56 -10 70q-13 18 -53 24l-26 4v33h350v-33l-32 -4q-46 -6 -57 -33q-5 -14 -5 -61v-495h81q69 0 108 29t78 110l32 66h44zM292 -257l-9 24q67 21 78 79l-5 4q-17 -9 -31 -9q-23 0 -38 15t-15 38
q0 26 18 42.5t46 16.5q32 0 52.5 -22t20.5 -57q0 -95 -117 -131z" />
    <glyph glyph-name="lcommaaccent" unicode="&#x13c;" horiz-adv-x="350" 
d="M248 700v-568q0 -60 9 -75t48 -24l20 -2v-31h-299v31l20 2q40 9 48.5 24t8.5 75v417q0 55 -9 72q-13 25 -60 28l-18 1v31zM134 -243l-9 22q64 20 73 74l-4 3q-16 -8 -29 -8q-22 0 -36 14t-14 36q0 23 17 39t43 16q30 0 49 -21t19 -53q0 -89 -109 -122z" />
    <glyph glyph-name="Lcaron" unicode="&#x13d;" horiz-adv-x="661" 
d="M642 246l-24 -246h-575v33l26 4q40 6 53 24q10 14 10 70v405q0 56 -10 70q-13 18 -53 24l-26 4v33h350v-33l-32 -4q-46 -6 -57 -33q-5 -14 -5 -61v-495h81q69 0 108 29t78 110l32 66h44zM474 474l-9 24q66 21 78 79l-5 3q-17 -9 -31 -9q-23 0 -38 15t-15 38q0 26 18 43
t46 17q32 0 52.5 -22t20.5 -57q0 -96 -117 -131z" />
    <glyph glyph-name="lcaron" unicode="&#x13e;" horiz-adv-x="489" 
d="M248 700v-568q0 -60 9 -75t48 -24l20 -2v-31h-299v31l20 2q40 9 48.5 24t8.5 75v417q0 55 -9 72q-13 25 -60 28l-18 1v31zM327 503l-9 22q64 20 73 74l-4 4q-15 -9 -29 -9q-22 0 -36 14t-14 36q0 24 17 40t43 16q30 0 49 -21t19 -53q0 -90 -109 -123z" />
    <glyph glyph-name="Ldot" unicode="&#x13f;" horiz-adv-x="661" 
d="M642 246l-24 -246h-575v33l26 4q40 6 53 24q10 14 10 70v405q0 56 -10 70q-13 18 -53 24l-26 4v33h350v-33l-32 -4q-46 -6 -57 -33q-5 -14 -5 -61v-495h81q69 0 108 29t78 110l32 66h44zM509 445q38 0 64 -26t26 -64q0 -37 -26.5 -63.5t-63.5 -26.5t-63.5 26.5
t-26.5 64.5q0 36 26.5 62.5t63.5 26.5z" />
    <glyph glyph-name="ldot" unicode="&#x140;" horiz-adv-x="524" 
d="M248 700v-568q0 -60 9 -75t48 -24l20 -2v-31h-299v31l20 2q40 9 48.5 24t8.5 75v417q0 55 -9 72q-13 25 -60 28l-18 1v31zM442 438q34 0 58.5 -24t24.5 -58t-24 -58.5t-58 -24.5q-35 0 -59 24.5t-24 59.5q0 33 24.5 57t57.5 24z" />
    <glyph glyph-name="Ncommaaccent" unicode="&#x145;" horiz-adv-x="805" 
d="M306 667l340 -502l-5 300q-2 110 -18.5 136.5t-86.5 32.5v33h260v-33q-67 -5 -84.5 -35t-19.5 -143l-8 -456h-131l-383 557l8 -381q2 -91 18 -113t85 -30v-33h-259v33q64 5 82.5 31t20.5 116l6 345q0 61 -19.5 81t-85.5 28v33h280zM354 -257l-9 24q67 21 78 79l-5 4
q-17 -9 -31 -9q-23 0 -38 15t-15 38q0 26 18 42.5t46 16.5q32 0 52.5 -22t20.5 -57q0 -95 -117 -131z" />
    <glyph glyph-name="ncommaaccent" unicode="&#x146;" horiz-adv-x="703" 
d="M249 491v-82q45 47 81.5 64.5t91.5 17.5q114 0 158 -77q23 -38 23 -125v-157q0 -59 8.5 -74.5t48.5 -24.5l20 -2v-31h-296v31l18 2q38 9 46.5 25t8.5 74v147q0 82 -16 113q-23 44 -78 44q-64 0 -92 -58q-14 -29 -14 -98v-148q0 -59 8.5 -74.5t46.5 -24.5l18 -2v-31h-295
v31l20 2q39 9 48 24.5t9 74.5v213q0 50 -4 65q-10 35 -53 38l-25 2v31zM310 -243l-9 22q64 20 73 74l-4 3q-16 -8 -29 -8q-22 0 -36 14t-14 36q0 23 17 39t43 16q30 0 49 -21t19 -53q0 -89 -109 -122z" />
    <glyph glyph-name="Ncaron" unicode="&#x147;" horiz-adv-x="805" 
d="M306 667l340 -502l-5 300q-2 110 -18.5 136.5t-86.5 32.5v33h260v-33q-67 -5 -84.5 -35t-19.5 -143l-8 -456h-131l-383 557l8 -381q2 -91 18 -113t85 -30v-33h-259v33q64 5 82.5 31t20.5 116l6 345q0 61 -19.5 81t-85.5 28v33h280zM415 708l-184 174l20 22l164 -108
l165 108l20 -22z" />
    <glyph glyph-name="ncaron" unicode="&#x148;" horiz-adv-x="703" 
d="M249 491v-82q45 47 81.5 64.5t91.5 17.5q114 0 158 -77q23 -38 23 -125v-157q0 -59 8.5 -74.5t48.5 -24.5l20 -2v-31h-296v31l18 2q38 9 46.5 25t8.5 74v147q0 82 -16 113q-23 44 -78 44q-64 0 -92 -58q-14 -29 -14 -98v-148q0 -59 8.5 -74.5t46.5 -24.5l18 -2v-31h-295
v31l20 2q39 9 48 24.5t9 74.5v213q0 50 -4 65q-10 35 -53 38l-25 2v31zM358 538l-180 182l20 22l160 -119l161 119l19 -22z" />
    <glyph glyph-name="napostrophe" unicode="&#x149;" horiz-adv-x="897" 
d="M63 418l-8 23q50 16 79 51t30 80q-23 -15 -45 -15q-29 0 -48.5 19t-19.5 48q0 32 23 54t57 22q39 0 61.5 -27.5t22.5 -74.5q0 -72 -52 -125q-37 -38 -100 -55zM443 491v-82q45 47 81.5 64.5t91.5 17.5q114 0 158 -77q23 -38 23 -125v-157q0 -59 8.5 -74.5t48.5 -24.5
l20 -2v-31h-296v31l18 2q38 9 46.5 25t8.5 74v147q0 82 -16 113q-23 44 -78 44q-64 0 -92 -58q-14 -29 -14 -98v-148q0 -59 8.5 -74.5t46.5 -24.5l18 -2v-31h-295v31l20 2q39 9 48 24.5t9 74.5v213q0 50 -4 65q-10 35 -53 38l-25 2v31z" />
    <glyph glyph-name="Eng" unicode="&#x14a;" horiz-adv-x="841" 
d="M291 667v-82q44 53 90 75t115 22q161 0 209 -103q17 -36 17 -114v-466q0 -107 -62 -167t-174 -60q-63 0 -98.5 24.5t-35.5 67.5q0 32 19.5 52.5t50.5 20.5q27 0 44.5 -16.5t17.5 -42.5q0 -22 -21 -44q-7 -7 -7 -12q0 -15 31 -15q43 0 61 46q7 18 7 86v516q0 170 -122 170
q-134 0 -134 -169v-325q0 -56 10 -70q13 -18 52 -24l26 -4v-33h-344v33l26 4q40 6 53 24q10 14 10 70v387q0 50 -4 65q-9 33 -54 38l-25 3v33z" />
    <glyph glyph-name="eng" unicode="&#x14b;" horiz-adv-x="704" 
d="M249 491v-82q45 47 82 64.5t92 17.5q110 0 154 -71q26 -42 26 -131v-290q0 -106 -58.5 -166t-161.5 -60q-58 0 -92 24.5t-34 65.5q0 30 19.5 50t48.5 20q26 0 43 -16.5t17 -41.5q0 -20 -20 -41q-7 -7 -7 -12q0 -17 31 -17q45 0 62 46q7 19 7 86v342q0 82 -16 113
q-24 44 -79 44q-64 0 -92 -58q-14 -29 -14 -98v-148q0 -59 8.5 -74.5t46.5 -24.5l18 -2v-31h-295v31l19 2q46 5 54 38q4 16 4 61v213q0 50 -4 65q-10 35 -53 38l-25 2v31z" />
    <glyph glyph-name="Omacron" unicode="&#x14c;" horiz-adv-x="831" 
d="M416 682q185 0 281 -88q91 -83 91 -260q0 -349 -373 -349q-186 0 -281 88q-91 85 -91 266q0 168 91.5 255.5t281.5 87.5zM415 642q-187 0 -187 -304q0 -313 188 -313q187 0 187 309q0 308 -188 308zM581 823v-60h-325v60h325z" />
    <glyph glyph-name="omacron" unicode="&#x14d;" horiz-adv-x="616" 
d="M308 491q270 0 270 -251q0 -122 -69 -186t-200 -64q-271 0 -271 254q0 127 76 190q68 57 194 57zM306 457q-60 0 -86 -49.5t-26 -163.5q0 -121 26 -170.5t90 -49.5q60 0 86 50t26 166q0 118 -26.5 167.5t-89.5 49.5zM464 655v-58h-305v58h305z" />
    <glyph glyph-name="Ohungarumlaut" unicode="&#x150;" horiz-adv-x="831" 
d="M416 682q185 0 281 -88q91 -83 91 -260q0 -349 -373 -349q-186 0 -281 88q-91 85 -91 266q0 168 91.5 255.5t281.5 87.5zM415 642q-187 0 -187 -304q0 -313 188 -313q187 0 187 309q0 308 -188 308zM326 709l-13 16l126 147q21 24 44 24q16 0 27.5 -13t11.5 -31
q0 -26 -33 -46zM495 709l-13 16l127 147q21 24 43 24q16 0 27.5 -13t11.5 -31q0 -27 -32 -46z" />
    <glyph glyph-name="ohungarumlaut" unicode="&#x151;" horiz-adv-x="616" 
d="M308 491q270 0 270 -251q0 -122 -69 -186t-200 -64q-271 0 -271 254q0 127 76 190q68 57 194 57zM306 457q-60 0 -86 -49.5t-26 -163.5q0 -121 26 -170.5t90 -49.5q60 0 86 50t26 166q0 118 -26.5 167.5t-89.5 49.5zM236 536l-14 14l130 161q22 27 42 27q14 0 25.5 -13
t11.5 -30q0 -24 -29 -44zM395 536l-13 14l129 161q22 27 43 27q14 0 25.5 -13t11.5 -30q0 -23 -30 -44z" />
    <glyph glyph-name="Rcommaaccent" unicode="&#x156;" horiz-adv-x="785" 
d="M761 36l5 -31q-59 -16 -107 -16q-102 0 -147 68q-21 32 -54 163q-15 58 -38 79.5t-72 21.5h-49v-190q0 -56 10 -70q13 -18 53 -24l26 -4v-33h-345v33l26 4q40 6 53 24q10 14 10 70v405q0 56 -10 70q-13 18 -53 24l-26 4v33h419q106 0 157 -32q68 -43 68 -122
q0 -89 -75 -134q-42 -25 -126 -37q89 -14 122.5 -55.5t67.5 -177.5q11 -43 24.5 -59t37.5 -16q13 0 23 2zM299 361h51q166 0 166 141q0 82 -62 111q-32 15 -105 15q-24 0 -50 -1v-266zM344 -257l-9 24q67 21 78 79l-4 4q-18 -9 -32 -9q-23 0 -38 15t-15 38q0 26 18 42.5
t46 16.5q32 0 52.5 -22t20.5 -57q0 -95 -117 -131z" />
    <glyph glyph-name="rcommaaccent" unicode="&#x157;" horiz-adv-x="497" 
d="M252 491v-97q55 99 143 99q43 0 70.5 -24.5t27.5 -63.5q0 -33 -20.5 -55t-51.5 -22q-27 0 -45.5 17.5t-18.5 42.5q0 20 15 39q5 8 5 12q0 11 -20 11q-38 0 -69 -53.5t-31 -151.5v-113q0 -61 9 -77.5t48 -20.5l27 -3v-31h-306v31l20 2q40 9 48.5 24t8.5 75v215q0 47 -4 63
q-9 34 -53 38l-25 2v31zM143 -243l-9 22q63 20 74 74l-4 3q-17 -8 -30 -8q-22 0 -36 14t-14 36q0 23 17.5 39t42.5 16q30 0 49.5 -21t19.5 -53q0 -89 -110 -122z" />
    <glyph glyph-name="Rcaron" unicode="&#x158;" horiz-adv-x="785" 
d="M761 36l5 -31q-59 -16 -107 -16q-102 0 -147 68q-21 32 -54 163q-15 58 -38 79.5t-72 21.5h-49v-190q0 -56 10 -70q13 -18 53 -24l26 -4v-33h-345v33l26 4q40 6 53 24q10 14 10 70v405q0 56 -10 70q-13 18 -53 24l-26 4v33h419q106 0 157 -32q68 -43 68 -122
q0 -89 -75 -134q-42 -25 -126 -37q89 -14 122.5 -55.5t67.5 -177.5q11 -43 24.5 -59t37.5 -16q13 0 23 2zM299 361h51q166 0 166 141q0 82 -62 111q-32 15 -105 15q-24 0 -50 -1v-266zM369 708l-184 174l20 22l164 -108l164 108l20 -22z" />
    <glyph glyph-name="rcaron" unicode="&#x159;" horiz-adv-x="497" 
d="M252 491v-97q55 99 143 99q43 0 70.5 -24.5t27.5 -63.5q0 -33 -20.5 -55t-51.5 -22q-27 0 -45.5 17.5t-18.5 42.5q0 20 15 39q5 8 5 12q0 11 -20 11q-38 0 -69 -53.5t-31 -151.5v-113q0 -61 9 -77.5t48 -20.5l27 -3v-31h-306v31l20 2q40 9 48.5 24t8.5 75v215q0 47 -4 63
q-9 34 -53 38l-25 2v31zM258 538l-180 182l20 22l160 -119l161 119l19 -22z" />
    <glyph glyph-name="Sacute" unicode="&#x15a;" horiz-adv-x="625" 
d="M533 673l2 -223l-42 -2q-19 95 -51 135q-50 62 -133 62q-47 0 -77 -26t-30 -67q0 -55 48 -89q33 -24 127 -57q98 -35 135 -65q61 -50 61 -138q0 -57 -27 -106t-72 -73q-68 -37 -172 -37q-67 0 -146 24q-30 9 -37 9q-15 0 -38 -26h-25l-3 252l43 2q21 -79 47 -123
q59 -99 168 -99q55 0 88.5 29t33.5 76q0 49 -40 77q-20 14 -36 21q-19 9 -98 39q-100 39 -146 90.5t-46 126.5q0 92 60.5 144.5t166.5 52.5q69 0 158 -28q13 -4 21 -4q14 0 34 23h26zM271 709l-11 18l189 150q24 19 42 19q16 0 27.5 -12.5t11.5 -30.5q0 -30 -38 -47z" />
    <glyph glyph-name="sacute" unicode="&#x15b;" horiz-adv-x="485" 
d="M411 485l2 -149l-31 -2q-19 57 -46 84q-43 43 -96 43q-33 0 -53 -16.5t-20 -42.5q0 -30 27 -51.5t100 -49.5q84 -32 110 -55q40 -35 40 -99q0 -157 -194 -157q-57 0 -135 21q-11 3 -21 3q-12 0 -26 -18h-19l-2 182l31 1q52 -157 159 -157q37 0 60.5 19t23.5 49
q0 34 -31 53q-18 11 -90 38q-144 54 -144 161q0 149 180 149q64 0 119 -17q10 -3 16 -3q11 0 21 14h19zM216 536l-12 16l170 163q24 23 43 23q16 0 27 -12.5t11 -29.5q0 -28 -33 -46z" />
    <glyph glyph-name="Scircumflex" unicode="&#x15c;" horiz-adv-x="625" 
d="M533 673l2 -223l-42 -2q-19 95 -51 135q-50 62 -133 62q-47 0 -77 -26t-30 -67q0 -55 48 -89q33 -24 127 -57q98 -35 135 -65q61 -50 61 -138q0 -57 -27 -106t-72 -73q-68 -37 -172 -37q-67 0 -146 24q-30 9 -37 9q-15 0 -38 -26h-25l-3 252l43 2q21 -79 47 -123
q59 -99 168 -99q55 0 88.5 29t33.5 76q0 49 -40 77q-20 14 -36 21q-19 9 -98 39q-100 39 -146 90.5t-46 126.5q0 92 60.5 144.5t166.5 52.5q69 0 158 -28q13 -4 21 -4q14 0 34 23h26zM315 901l185 -173l-20 -23l-165 108l-164 -108l-20 23z" />
    <glyph glyph-name="scircumflex" unicode="&#x15d;" horiz-adv-x="485" 
d="M411 485l2 -149l-31 -2q-19 57 -46 84q-43 43 -96 43q-33 0 -53 -16.5t-20 -42.5q0 -30 27 -51.5t100 -49.5q84 -32 110 -55q40 -35 40 -99q0 -157 -194 -157q-57 0 -135 21q-11 3 -21 3q-12 0 -26 -18h-19l-2 182l31 1q52 -157 159 -157q37 0 60.5 19t23.5 49
q0 34 -31 53q-18 11 -90 38q-144 54 -144 161q0 149 180 149q64 0 119 -17q10 -3 16 -3q11 0 21 14h19zM250 742l180 -182l-20 -22l-160 118l-161 -118l-20 22z" />
    <glyph glyph-name="Tcaron" unicode="&#x164;" horiz-adv-x="695" 
d="M684 667l5 -229h-44l-18 50q-29 80 -68 115q-27 24 -86 24h-41v-496q0 -55 10 -70q12 -18 53 -24l29 -4v-33h-353v33l29 4q40 5 52 24q10 15 10 70v496h-41q-65 0 -97 -35t-57 -104l-18 -50h-44l5 229h674zM347 708l-184 174l20 22l164 -108l165 108l20 -22z" />
    <glyph glyph-name="tcaron" unicode="&#x165;" horiz-adv-x="390" 
d="M362 481v-35h-123v-255q0 -71 17 -99q25 -42 69 -42q15 0 48 9l9 -24q-89 -45 -168 -45q-84 0 -108 54q-13 29 -13 101v301h-94v35h94v89l111 77h35v-166h123zM172 679l-178 173l20 23l158 -108l157 108l20 -23z" />
    <glyph glyph-name="Tbar" unicode="&#x166;" horiz-adv-x="695" 
d="M433 410h141v-45h-141v-234q0 -55 10 -70q12 -18 53 -24l29 -4v-33h-355v33l30 4q40 5 52 24q10 15 10 70v234h-141v45h141v217h-41q-58 0 -86 -24q-41 -36 -68 -115l-17 -50h-45l6 229h673l6 -229h-45l-18 50q-29 82 -67 115q-27 24 -86 24h-41v-217z" />
    <glyph glyph-name="tbar" unicode="&#x167;" horiz-adv-x="390" 
d="M362 481v-35h-122v-67h106v-35h-106v-156q0 -68 17 -96q26 -42 70 -42q13 0 46 9l9 -24q-86 -45 -166 -45q-84 0 -109 54q-13 29 -13 101v199h-79v35h79v67h-94v35h94v89l111 77h35v-166h122z" />
    <glyph glyph-name="utilde" unicode="&#x169;" horiz-adv-x="695" 
d="M448 0v68q-74 -78 -176 -78q-100 0 -145 68q-29 44 -29 125l-1 190q-1 38 -12.5 53.5t-43.5 21.5l-25 2v31l227 10v-310q0 -71 22 -103t72 -32q79 0 100 74q7 23 7 69v156q0 49 -4 65q-9 34 -53 38l-25 2v31l227 10v-359q0 -60 8.5 -75t48.5 -24l20 -2v-31h-218zM494 696
l34 -1q-8 -125 -75 -125q-35 0 -142 42q-43 17 -58 17q-32 0 -46 -62l-34 4q4 49 18 77q23 45 73 45q24 0 142 -45q29 -11 44 -11q36 0 44 59z" />
    <glyph glyph-name="Umacron" unicode="&#x16a;" horiz-adv-x="776" 
d="M518 667h247v-33q-66 -8 -79.5 -29t-15.5 -123l-4 -224q-2 -121 -46 -180q-69 -93 -233 -93q-179 0 -241 101q-33 54 -33 166v284q0 56 -10 70q-13 18 -52 24l-27 4v33h345v-33l-26 -4q-40 -6 -53 -24q-10 -14 -10 -70v-282q0 -104 33 -150q45 -63 135 -63q86 0 128 56
q33 44 36 139l1 39l-4 207q-2 102 -14.5 123.5t-76.5 28.5v33zM577 823v-60h-325v60h325z" />
    <glyph glyph-name="umacron" unicode="&#x16b;" horiz-adv-x="695" 
d="M448 0v68q-74 -78 -176 -78q-100 0 -145 68q-29 44 -29 125l-1 190q-1 38 -12.5 53.5t-43.5 21.5l-25 2v31l227 10v-310q0 -71 22 -103t72 -32q79 0 100 74q7 23 7 69v156q0 49 -4 65q-9 34 -53 38l-25 2v31l227 10v-359q0 -60 8.5 -75t48.5 -24l20 -2v-31h-218zM486 655
v-58h-305v58h305z" />
    <glyph glyph-name="ubreve" unicode="&#x16d;" horiz-adv-x="695" 
d="M448 0v68q-74 -78 -176 -78q-100 0 -145 68q-29 44 -29 125l-1 190q-1 38 -12.5 53.5t-43.5 21.5l-25 2v31l227 10v-310q0 -71 22 -103t72 -32q79 0 100 74q7 23 7 69v156q0 49 -4 65q-9 34 -53 38l-25 2v31l227 10v-359q0 -60 8.5 -75t48.5 -24l20 -2v-31h-218zM475 723
h34q-3 -65 -32 -112q-38 -61 -135 -61q-161 0 -170 173h34q24 -106 136 -106q57 0 88 25t45 81z" />
    <glyph glyph-name="Uring" unicode="&#x16e;" horiz-adv-x="776" 
d="M518 667h247v-33q-66 -8 -79.5 -29t-15.5 -123l-4 -224q-2 -121 -46 -180q-69 -93 -233 -93q-179 0 -241 101q-33 54 -33 166v284q0 56 -10 70q-13 18 -52 24l-27 4v33h345v-33l-26 -4q-40 -6 -53 -24q-10 -14 -10 -70v-282q0 -104 33 -150q45 -63 135 -63q86 0 128 56
q33 44 36 139l1 39l-4 207q-2 102 -14.5 123.5t-76.5 28.5v33zM434 891q54 0 86.5 -25.5t32.5 -67.5q0 -41 -33 -67t-85 -26q-55 0 -87.5 26t-32.5 69q0 41 33 66t86 25zM434 860q-27 0 -44 -17t-17 -44q0 -28 17 -45.5t44 -17.5q26 0 43.5 18t17.5 45t-17 44t-44 17z" />
    <glyph glyph-name="uring" unicode="&#x16f;" horiz-adv-x="695" 
d="M448 0v68q-74 -78 -176 -78q-100 0 -145 68q-29 44 -29 125l-1 190q-1 38 -12.5 53.5t-43.5 21.5l-25 2v31l227 10v-310q0 -71 22 -103t72 -32q79 0 100 74q7 23 7 69v156q0 49 -4 65q-9 34 -53 38l-25 2v31l227 10v-359q0 -60 8.5 -75t48.5 -24l20 -2v-31h-218zM344 732
q48 0 81 -27.5t33 -67.5t-33 -67.5t-81 -27.5q-49 0 -81.5 27.5t-32.5 68.5q0 39 33 66.5t81 27.5zM344 701q-24 0 -40.5 -18t-16.5 -45q0 -28 16 -46.5t41 -18.5q24 0 40.5 18.5t16.5 46.5q0 26 -16.5 44.5t-40.5 18.5z" />
    <glyph glyph-name="Uhungarumlaut" unicode="&#x170;" horiz-adv-x="776" 
d="M518 667h247v-33q-66 -8 -79.5 -29t-15.5 -123l-4 -224q-2 -121 -46 -180q-69 -93 -233 -93q-179 0 -241 101q-33 54 -33 166v284q0 56 -10 70q-13 18 -52 24l-27 4v33h345v-33l-26 -4q-40 -6 -53 -24q-10 -14 -10 -70v-282q0 -104 33 -150q45 -63 135 -63q86 0 128 56
q33 44 36 139l1 39l-4 207q-2 102 -14.5 123.5t-76.5 28.5v33zM341 709l-13 16l127 147q21 24 43 24q16 0 27.5 -13t11.5 -31q0 -27 -32 -46zM511 709l-13 16l127 147q21 24 43 24q16 0 27.5 -13t11.5 -31q0 -26 -33 -46z" />
    <glyph glyph-name="uhungarumlaut" unicode="&#x171;" horiz-adv-x="695" 
d="M448 0v68q-74 -78 -176 -78q-100 0 -145 68q-29 44 -29 125l-1 190q-1 38 -12.5 53.5t-43.5 21.5l-25 2v31l227 10v-310q0 -71 22 -103t72 -32q79 0 100 74q7 23 7 69v156q0 49 -4 65q-9 34 -53 38l-25 2v31l227 10v-359q0 -60 8.5 -75t48.5 -24l20 -2v-31h-218zM245 536
l-14 14l130 161q22 27 43 27q14 0 25.5 -13t11.5 -30q0 -23 -30 -44zM404 536l-13 14l130 161q22 27 42 27q14 0 25.5 -13t11.5 -30q0 -23 -30 -44z" />
    <glyph glyph-name="Uogonek" unicode="&#x172;" horiz-adv-x="776" 
d="M670 482l-4 -224q-2 -94 -27.5 -149t-85.5 -90q-64 -47 -64 -112q0 -29 17.5 -47t46.5 -18q19 0 46 12l13 -26q-42 -23 -91 -23q-55 0 -86 23.5t-31 64.5q0 56 46 96q-31 -4 -62 -4q-181 0 -242 101q-33 54 -33 166v284q0 56 -10 70q-13 18 -52 24l-27 4v33h345v-33
l-26 -4q-40 -6 -53 -24q-10 -14 -10 -70v-282q0 -104 33 -150q45 -63 135 -63q86 0 128 56q33 44 36 139l1 39l-4 207q-2 102 -14.5 123.5t-76.5 28.5v33h247v-33q-66 -8 -79.5 -29t-15.5 -123z" />
    <glyph glyph-name="uogonek" unicode="&#x173;" horiz-adv-x="695" 
d="M448 0v68q-74 -78 -176 -78q-100 0 -145 68q-29 44 -29 125v162q0 62 -9 78t-48 25l-25 2v31l227 10v-310q0 -71 22 -103t72 -32q79 0 100 74q7 23 7 69v156q0 49 -4 65q-9 34 -53 38l-25 2v31l227 10v-359q0 -59 9 -74.5t48 -24.5l20 -2v-31h-180q-55 -37 -55 -89
q0 -28 18.5 -46t47.5 -18q20 0 44 12l12 -24q-40 -22 -84 -22q-52 0 -84 22.5t-32 60.5q0 67 95 104z" />
    <glyph glyph-name="Wcircumflex" unicode="&#x174;" horiz-adv-x="1039" 
d="M631 667l157 -504l55 203q15 53 30 105q18 70 18 108q0 25 -16 37t-57 18v33h235v-33q-39 -5 -58 -27q-22 -27 -53 -117q-22 -63 -92 -291l-64 -209h-115l-156 489l-144 -489h-111l-167 540q-20 64 -37 82.5t-61 21.5v33h329v-33q-40 -4 -54 -13t-14 -29q0 -19 10 -53
l109 -376l142 504h114zM573 901l185 -173l-20 -23l-165 108l-164 -108l-20 23z" />
    <glyph glyph-name="Ycircumflex" unicode="&#x176;" horiz-adv-x="692" 
d="M425 278v-147q0 -56 10 -70q14 -20 53 -24l37 -4v-33h-364v33l37 4q39 4 53 24q9 13 9 70v134l-172 295q-25 43 -42 56t-56 18v33h354v-33q-65 -9 -65 -48q0 -31 21 -69l105 -191l87 151q43 75 43 112t-64 45v33h234v-33q-45 -6 -70 -28t-66 -90zM383 901l184 -173
l-20 -23l-164 108l-165 -108l-20 23z" />
    <glyph glyph-name="ycircumflex" unicode="&#x177;" horiz-adv-x="565" 
d="M334 103l97 270q10 28 10 40q0 34 -60 37v31h194v-31q-36 -4 -54.5 -24t-45.5 -85l-142 -338q-58 -138 -79 -167q-45 -63 -123 -63q-52 0 -83.5 25.5t-31.5 66.5q0 31 19 50.5t50 19.5q25 0 42 -15.5t17 -38.5q0 -18 -12 -34t-12 -22q0 -19 32 -19q37 0 64 35
q22 28 51 100q9 22 26 59h-67l-148 366q-23 56 -35 67.5t-49 16.5v31h299v-31q-64 -4 -64 -38q0 -16 18 -66zM309 742l180 -182l-20 -22l-160 118l-161 -118l-19 22z" />
    <glyph glyph-name="Zacute" unicode="&#x179;" horiz-adv-x="694" 
d="M70 667h580v-28l-420 -598h161q80 0 116.5 23.5t78.5 103.5l41 77h44l-23 -245h-625v30l423 599h-155q-59 0 -92.5 -28t-57.5 -85l-32 -78h-45zM368 709l-13 16l127 147q21 24 43 24q16 0 27.5 -13t11.5 -31q0 -27 -32 -46z" />
    <glyph glyph-name="zacute" unicode="&#x17a;" horiz-adv-x="555" 
d="M517 452l-304 -417h99q73 0 111 33q30 26 66 125l31 -1l-2 -192h-487v30l305 418h-96q-72 0 -100 -35q-17 -21 -52 -114l-31 2l1 180h459v-29zM285 536l-13 14l129 161q22 27 43 27q14 0 25.5 -13t11.5 -30q0 -23 -30 -44z" />
    <glyph glyph-name="Zdotaccent" unicode="&#x17b;" horiz-adv-x="694" 
d="M70 667h580v-28l-420 -598h161q80 0 116.5 23.5t78.5 103.5l41 77h44l-23 -245h-625v30l423 599h-155q-59 0 -92.5 -28t-57.5 -85l-32 -78h-45zM375 868q34 0 57.5 -20.5t23.5 -49.5q0 -31 -23 -51t-58 -20q-34 0 -57 20.5t-23 51.5q0 28 23.5 48.5t56.5 20.5z" />
    <glyph glyph-name="zdotaccent" unicode="&#x17c;" horiz-adv-x="555" 
d="M517 452l-304 -417h99q73 0 111 33q30 26 66 125l31 -1l-2 -192h-487v30l305 418h-96q-72 0 -100 -35q-17 -21 -52 -114l-31 2l1 180h459v-29zM303 697q34 0 56.5 -20t22.5 -49t-22.5 -49t-56.5 -20q-33 0 -55.5 20t-22.5 50q0 28 23 48t55 20z" />
    <glyph glyph-name="Acaron" unicode="&#x1cd;" horiz-adv-x="722" 
d="M439 667l189 -508q29 -79 46 -98.5t62 -27.5v-33h-336v33q44 7 60 16t16 27t-16 63l-34 96h-235l-33 -89q-15 -40 -15 -64q0 -38 81 -49v-33h-246v33q51 8 79 43t70 139l155 387q11 28 22 65h135zM312 565l-106 -287h205zM378 708l-185 174l20 22l165 -108l164 108
l20 -22z" />
    <glyph glyph-name="acaron" unicode="&#x1ce;" horiz-adv-x="587" 
d="M570 68l11 -20q-83 -56 -138 -56q-39 0 -65 28q-13 14 -25 52q-83 -82 -171 -82q-65 0 -102.5 36.5t-37.5 98.5q0 87 80 124q30 14 150 34l77 13q-1 96 -11 119q-18 43 -79 43q-24 0 -43.5 -8.5t-19.5 -19.5q0 -4 15 -22q11 -11 11 -31q0 -29 -21.5 -47.5t-54.5 -18.5
t-53 19t-20 51q0 110 211 110q142 0 186 -69q22 -35 22 -120v-160q0 -87 38 -87q14 0 40 13zM350 164v99q-92 -13 -125 -36t-33 -74q0 -40 21.5 -65.5t55.5 -25.5q39 0 65 34q16 21 16 68zM293 538l-180 182l20 22l160 -119l161 119l19 -22z" />
    <glyph glyph-name="Ucaron" unicode="&#x1d3;" horiz-adv-x="776" 
d="M518 667h247v-33q-66 -8 -79.5 -29t-15.5 -123l-4 -224q-2 -121 -46 -180q-69 -93 -233 -93q-179 0 -241 101q-33 54 -33 166v284q0 56 -10 70q-13 18 -52 24l-27 4v33h345v-33l-26 -4q-40 -6 -53 -24q-10 -14 -10 -70v-282q0 -104 33 -150q45 -63 135 -63q86 0 128 56
q33 44 36 139l1 39l-4 207q-2 102 -14.5 123.5t-76.5 28.5v33zM431 708l-184 174l20 22l164 -108l164 108l20 -22z" />
    <glyph glyph-name="ucaron" unicode="&#x1d4;" horiz-adv-x="695" 
d="M448 0v68q-74 -78 -176 -78q-100 0 -145 68q-29 44 -29 125l-1 190q-1 38 -12.5 53.5t-43.5 21.5l-25 2v31l227 10v-310q0 -71 22 -103t72 -32q79 0 100 74q7 23 7 69v156q0 49 -4 65q-9 34 -53 38l-25 2v31l227 10v-359q0 -60 8.5 -75t48.5 -24l20 -2v-31h-218zM344 538
l-180 182l19 22l161 -119l160 119l20 -22z" />
    <glyph glyph-name="Gcaron" unicode="&#x1e6;" horiz-adv-x="805" 
d="M686 673l2 -236l-47 -2q-18 91 -54 137q-55 70 -151 70q-100 0 -154 -80t-54 -228q0 -125 37 -203q49 -106 158 -106q59 0 105 40q26 23 30.5 38.5t4.5 83.5q0 50 -16.5 67t-68.5 21l-44 3v35h364v-35q-37 -4 -57 -18t-20 -78v-145q-57 0 -116 -17q-122 -35 -202 -35
q-360 0 -360 348q0 181 95 267q91 82 274 82q84 0 179 -29q16 -5 30 -5q17 0 39 25h26zM426 712l-185 173l20 23l165 -108l164 108l20 -23z" />
    <glyph glyph-name="gcaron" unicode="&#x1e7;" horiz-adv-x="584" 
d="M160 200q-99 38 -99 133q0 76 55 117t166 41q98 0 149 -31q-3 29 -3 37q0 43 25.5 71t64.5 28q29 0 48 -18.5t19 -46.5q0 -26 -16 -43t-40 -17q-38 0 -44 35q-2 12 -10 12q-20 0 -20 -39q0 -24 25 -56q29 -37 29 -83q0 -100 -99 -136q-45 -16 -184 -17q-63 0 -63 -38
q0 -21 23 -31q18 -8 145 -15q111 -6 157 -30q66 -35 66 -119q0 -83 -74.5 -132t-202.5 -49q-111 0 -177.5 37.5t-66.5 100.5q0 58 85 96q-60 29 -60 84q0 75 102 109zM286 459q-43 0 -67.5 -32t-24.5 -88q0 -57 24.5 -89t67.5 -32t67 31.5t24 87.5q0 58 -24 90t-67 32z
M156 -8l-6 -4l-3 -3q-30 -23 -30 -52q0 -50 51 -87t119 -37q62 0 101 26t39 68q0 33 -22 48.5t-75 18.5q-106 7 -174 22zM289 538l-180 182l20 22l160 -119l160 119l20 -22z" />
    <glyph glyph-name="Gacute" unicode="&#x1f4;" horiz-adv-x="805" 
d="M686 673l2 -236l-47 -2q-18 91 -54 137q-55 70 -151 70q-100 0 -154 -80t-54 -228q0 -125 37 -203q49 -106 158 -106q59 0 105 40q26 23 30.5 38.5t4.5 83.5q0 50 -16.5 67t-68.5 21l-44 3v35h364v-35q-37 -4 -57 -18t-20 -78v-145q-57 0 -116 -17q-122 -35 -202 -35
q-360 0 -360 348q0 181 95 267q91 82 274 82q84 0 179 -29q16 -5 30 -5q17 0 39 25h26zM401 709l-11 18l189 150q24 19 43 19q16 0 27.5 -12.5t11.5 -30.5q0 -30 -39 -47z" />
    <glyph glyph-name="Scommaaccent" unicode="&#x218;" horiz-adv-x="625" 
d="M533 673l2 -223l-42 -2q-19 95 -51 135q-50 62 -133 62q-47 0 -77 -26t-30 -67q0 -55 48 -89q33 -24 127 -57q98 -35 135 -65q61 -50 61 -138q0 -57 -27 -106t-72 -73q-68 -37 -172 -37q-67 0 -146 24q-30 9 -37 9q-15 0 -38 -26h-25l-3 252l43 2q21 -79 47 -123
q59 -99 168 -99q55 0 88.5 29t33.5 76q0 49 -40 77q-20 14 -36 21q-19 9 -98 39q-100 39 -146 90.5t-46 126.5q0 92 60.5 144.5t166.5 52.5q69 0 158 -28q13 -4 21 -4q14 0 34 23h26zM260 -257l-9 24q67 21 79 79l-5 4q-18 -9 -32 -9q-23 0 -38 15t-15 38q0 26 18 42.5
t46 16.5q32 0 53 -22.5t21 -56.5q0 -95 -118 -131z" />
    <glyph glyph-name="scommaaccent" unicode="&#x219;" horiz-adv-x="485" 
d="M411 485l2 -149l-31 -2q-19 57 -46 84q-43 43 -96 43q-33 0 -53 -16.5t-20 -42.5q0 -30 27 -51.5t100 -49.5q84 -32 110 -55q40 -35 40 -99q0 -157 -194 -157q-57 0 -135 21q-11 3 -21 3q-12 0 -26 -18h-19l-2 182l31 1q52 -157 159 -157q37 0 60.5 19t23.5 49
q0 34 -31 53q-18 11 -90 38q-144 54 -144 161q0 149 180 149q64 0 119 -17q10 -3 16 -3q11 0 21 14h19zM197 -243l-8 22q64 20 73 74l-4 3q-16 -8 -29 -8q-22 0 -36 14t-14 36q0 23 17 39t43 16q30 0 49 -21t19 -53q0 -89 -110 -122z" />
    <glyph glyph-name="Tcommaaccent" unicode="&#x162;" horiz-adv-x="695" 
d="M684 667l5 -229h-44l-18 50q-29 80 -68 115q-27 24 -86 24h-41v-496q0 -55 10 -70q12 -18 53 -24l29 -4v-33h-353v33l29 4q40 5 52 24q10 15 10 70v496h-41q-65 0 -97 -35t-57 -104l-18 -50h-44l5 229h674zM299 -257l-9 24q67 21 78 79l-4 4q-18 -9 -32 -9q-23 0 -38 15
t-15 38q0 26 18 42.5t46 16.5q32 0 52.5 -22t20.5 -57q0 -95 -117 -131z" />
    <glyph glyph-name="tcommaaccent" unicode="&#x163;" horiz-adv-x="390" 
d="M363 481v-35h-123v-255q0 -71 17 -99q25 -42 69 -42q15 0 48 9l9 -24q-89 -45 -168 -45q-84 0 -108 54q-13 29 -13 101v301h-94v35h94v89l111 77h35v-166h123zM134 -243l-9 22q64 20 73 74l-4 3q-16 -8 -29 -8q-22 0 -36 14t-14 36q0 23 17 39t43 16q30 0 49 -21t19 -53
q0 -89 -109 -122z" />
    <glyph glyph-name="Adotaccent" unicode="&#x226;" horiz-adv-x="722" 
d="M439 667l189 -508q29 -79 46 -98.5t62 -27.5v-33h-336v33q44 7 60 16t16 27t-16 63l-34 96h-235l-33 -89q-15 -40 -15 -64q0 -38 81 -49v-33h-246v33q51 8 79 43t70 139l155 387q11 28 22 65h135zM312 565l-106 -287h205zM374 868q34 0 57.5 -20.5t23.5 -49.5
q0 -31 -23 -51t-58 -20q-34 0 -57 20.5t-23 51.5q0 28 23.5 48.5t56.5 20.5z" />
    <glyph glyph-name="adotaccent" unicode="&#x227;" horiz-adv-x="587" 
d="M570 68l11 -20q-83 -56 -138 -56q-39 0 -65 28q-13 14 -25 52q-83 -82 -171 -82q-65 0 -102.5 36.5t-37.5 98.5q0 87 80 124q30 14 150 34l77 13q-1 96 -11 119q-18 43 -79 43q-24 0 -43.5 -8.5t-19.5 -19.5q0 -4 15 -22q11 -11 11 -31q0 -29 -21.5 -47.5t-54.5 -18.5
t-53 19t-20 51q0 110 211 110q142 0 186 -69q22 -35 22 -120v-160q0 -87 38 -87q14 0 40 13zM350 164v99q-92 -13 -125 -36t-33 -74q0 -40 21.5 -65.5t55.5 -25.5q39 0 65 34q16 21 16 68zM286 697q34 0 56.5 -20t22.5 -49t-22.5 -49t-56.5 -20q-33 0 -55.5 20t-22.5 50
q0 28 23 48t55 20z" />
    <glyph glyph-name="commabelow" unicode="&#x326;" 
d="M205 -243l-9 22q64 20 73 74l-4 3q-16 -8 -29 -8q-22 0 -36 14t-14 36q0 23 17 39t43 16q30 0 49 -21t19 -53q0 -89 -109 -122z" />
    <glyph glyph-name="Dcommaaccent" unicode="&#x1e10;" horiz-adv-x="814" 
d="M132 131v405q0 56 -10 70q-13 18 -52 24l-27 4v33h379q160 0 236 -62q113 -92 113 -269q0 -199 -129 -287q-72 -49 -220 -49h-379v33l27 4q39 6 52 24q10 14 10 70zM299 41h58q122 0 176.5 68.5t54.5 223.5q0 157 -54.5 225.5t-179.5 68.5h-55v-586zM345 -257l-9 24
q67 21 79 79l-5 4q-18 -9 -32 -9q-23 0 -38 15t-15 38q0 26 18 42.5t46 16.5q32 0 53 -22.5t21 -56.5q0 -95 -118 -131z" />
    <glyph glyph-name="dcommaaccent" unicode="&#x1e11;" horiz-adv-x="664" 
d="M565 700v-568q0 -59 9 -74.5t48 -24.5l20 -2v-31h-219v72q-60 -82 -162 -82q-100 0 -161.5 69.5t-61.5 183.5q0 112 63 180t167 68q96 0 152 -66v148q0 40 -15.5 57.5t-54.5 17.5h-17v33zM310 449q-59 0 -85.5 -49.5t-26.5 -151.5q0 -205 111 -205q76 0 100 79
q11 37 11 117q0 109 -19 152q-25 58 -91 58zM270 -243l-9 22q64 20 73 74l-4 3q-16 -8 -29 -8q-22 0 -36 14t-14 36q0 23 17 39t43 16q30 0 49 -21t19 -53q0 -89 -109 -122z" />
    <glyph glyph-name="Fdotaccent" unicode="&#x1e1e;" horiz-adv-x="659" 
d="M630 667l10 -214h-44q-56 116 -89.5 145t-112.5 29h-95v-252l60 1q39 1 59 17t32 58l14 48h34v-293h-34l-12 46q-12 46 -33 63.5t-62 18.5l-58 1v-204q0 -56 10 -70q14 -19 53 -24l34 -4v-33h-353v33l26 4q40 6 53 24q10 14 10 70v405q0 56 -10 70q-13 18 -53 24l-26 4
v33h587zM369 868q34 0 57.5 -20.5t23.5 -49.5q0 -31 -23 -51t-58 -20q-34 0 -57 20.5t-23 51.5q0 28 23.5 48.5t56.5 20.5z" />
    <glyph glyph-name="Wdieresis" unicode="&#x1e84;" horiz-adv-x="1039" 
d="M631 667l157 -504l55 203q15 53 30 105q18 70 18 108q0 25 -16 37t-57 18v33h235v-33q-39 -5 -58 -27q-22 -27 -53 -117q-22 -63 -92 -291l-64 -209h-115l-156 489l-144 -489h-111l-167 540q-20 64 -37 82.5t-61 21.5v33h329v-33q-40 -4 -54 -13t-14 -29q0 -19 10 -53
l109 -376l142 504h114zM446 868q34 0 57.5 -20.5t23.5 -49.5q0 -31 -23 -51t-58 -20q-34 0 -57 20.5t-23 51.5q0 28 23.5 48.5t56.5 20.5zM707 868q34 0 57 -20.5t23 -49.5q0 -31 -23 -51t-58 -20q-34 0 -56.5 20.5t-22.5 51.5q0 28 23.5 48.5t56.5 20.5z" />
    <glyph glyph-name="enquad" unicode="&#x2000;" 
 />
    <glyph glyph-name="enspace" unicode="&#x2002;" 
 />
    <glyph glyph-name="threeperemspace" unicode="&#x2004;" horiz-adv-x="333" 
 />
    <glyph glyph-name="fourperemspace" unicode="&#x2005;" horiz-adv-x="250" 
 />
    <glyph glyph-name="figurespace" unicode="&#x2007;" horiz-adv-x="628" 
 />
    <glyph glyph-name="hyphenminus" unicode="&#x2010;" horiz-adv-x="275" 
d="M275 277v-60h-275v60h275z" />
    <glyph glyph-name="underscoredbl" unicode="&#x2017;" 
d="M5 -29h490v-82h-490v82zM5 -156h490v-82h-490v82z" />
    <glyph glyph-name="trianglebullet" unicode="&#x2023;" 
d="M71 119v433l405 -217z" />
    <glyph glyph-name="onedotlead" unicode="&#x2024;" horiz-adv-x="637" 
d="M319 142q29 0 50 -21t21 -50t-21 -50t-50 -21t-50 21t-21 51q0 28 21 49t50 21z" />
    <glyph glyph-name="twodotlead" unicode="&#x2025;" horiz-adv-x="1273" 
d="M319 142q29 0 50 -21t21 -50t-21 -50t-50 -21t-50 21t-21 51q0 28 21 49t50 21zM956 142q29 0 50 -21t21 -50t-21 -50t-50 -21t-50 21t-21 51q0 28 21 49t50 21z" />
    <glyph glyph-name="minute" unicode="&#x2032;" horiz-adv-x="268" 
d="M171 400h-74l-46 267h166z" />
    <glyph glyph-name="second" unicode="&#x2033;" horiz-adv-x="495" 
d="M165 400h-68l-46 267h160zM398 400h-68l-46 267h161z" />
    <glyph glyph-name="exclamdbl" unicode="&#x203c;" horiz-adv-x="626" 
d="M176 216h-39q1 11 1 26q0 87 -7.5 127.5t-38.5 115.5q-25 61 -25 97q0 40 26 67.5t64 27.5t63.5 -27.5t25.5 -67.5q0 -36 -24 -97q-31 -79 -38.5 -121t-7.5 -148zM156 147q33 0 56 -23t23 -55t-23 -55.5t-55 -23.5q-33 0 -56 23.5t-23 55.5t23 55t55 23zM489 216h-39
q1 11 1 26q0 87 -7.5 127.5t-38.5 115.5q-25 61 -25 97q0 40 26 67.5t64 27.5t63.5 -27.5t25.5 -67.5q0 -36 -24 -97q-31 -79 -38.5 -121t-7.5 -148zM469 147q33 0 56 -23t23 -55t-23 -55.5t-55 -23.5q-33 0 -56 23.5t-23 55.5t23 55t55 23z" />
    <glyph glyph-name="overscore2" unicode="&#x203e;" 
d="M5 851h490v-82h-490v82z" />
    <glyph glyph-name="zerosuperior" unicode="&#x2070;" horiz-adv-x="404" 
d="M202 669q86 0 125.5 -48.5t39.5 -156.5q0 -110 -38.5 -159.5t-125.5 -49.5q-89 0 -127.5 49.5t-38.5 161.5q0 106 39.5 154.5t125.5 48.5zM203 645q-38 0 -53 -39.5t-15 -142.5t14.5 -143.5t52.5 -40.5t52.5 40t14.5 142q0 104 -14.5 144t-51.5 40z" />
    <glyph glyph-name="foursuperior" unicode="&#x2074;" horiz-adv-x="404" 
d="M298 665v-248h80l-16 -46h-64v-38q0 -29 12 -37q9 -6 43 -8v-24h-215v24q35 0 48 10t13 36v37h-170v43l193 251h76zM199 592l-129 -175h129v175z" />
    <glyph glyph-name="fivesuperior" unicode="&#x2075;" horiz-adv-x="404" 
d="M66 456l23 204h160q26 0 37.5 5.5t19.5 27.5h20l-17 -111h-198l-12 -94q46 30 106 30q67 0 108 -35.5t41 -94.5q0 -61 -44.5 -97t-121.5 -36q-64 0 -103 22.5t-39 60.5q0 22 14.5 36t37.5 14q47 0 47 -42q0 -19 -21 -36q-6 -6 -6 -9q0 -8 15 -14.5t34 -6.5q82 0 82 104
q0 98 -82 98q-41 0 -82 -36z" />
    <glyph glyph-name="sixsuperior" unicode="&#x2076;" horiz-adv-x="404" 
d="M142 483q44 30 92 30q59 0 96.5 -34.5t37.5 -89.5q0 -61 -43 -97.5t-116 -36.5q-169 0 -169 192q0 107 48.5 164.5t139.5 57.5q53 0 85 -19.5t32 -50.5q0 -22 -14.5 -36t-37.5 -14q-20 0 -33.5 12t-13.5 30q0 14 12 27q8 9 8 13q0 14 -34 14q-90 0 -90 -162zM205 484
q-62 0 -62 -97q0 -107 62 -107t62 105q0 99 -62 99z" />
    <glyph glyph-name="sevensuperior" unicode="&#x2077;" horiz-adv-x="404" 
d="M379 660l-9 -55q-3 -18 -28 -45q-59 -64 -77 -104t-25 -120.5t-62 -80.5q-59 0 -59 54q0 49 36.5 110.5t93.5 108.5q26 17 76 54h-202q-18 0 -24 -16l-15 -41h-20l20 135h295z" />
    <glyph glyph-name="eightsuperior" unicode="&#x2078;" horiz-adv-x="404" 
d="M136 473q-88 24 -88 90q0 106 154 106q153 0 153 -106q0 -65 -87 -90q101 -28 101 -106q0 -53 -44 -82.5t-124 -29.5q-79 0 -122.5 29.5t-43.5 82.5q0 76 101 106zM202 645q-62 0 -62 -77q0 -80 62 -80q28 0 44.5 21.5t16.5 57.5q0 78 -61 78zM202 459q-31 0 -49 -24.5
t-18 -65.5q0 -89 66 -89q67 0 67 88q0 41 -18 66t-48 25z" />
    <glyph glyph-name="ninesuperior" unicode="&#x2079;" horiz-adv-x="404" 
d="M261 443v6q-38 -32 -92 -32q-59 0 -96 34t-37 89q0 60 41.5 94.5t113.5 34.5q89 0 130.5 -46t41.5 -146q0 -117 -55 -172q-50 -50 -138 -50q-54 0 -87.5 21.5t-33.5 55.5q0 21 15.5 35.5t38.5 14.5q48 0 48 -42q0 -17 -22 -37q-4 -3 -4 -7q0 -17 43 -17q93 0 93 164z
M197 643q-62 0 -62 -95q0 -100 62 -100t62 99q0 96 -62 96z" />
    <glyph glyph-name="plussuperior" unicode="&#x207a;" horiz-adv-x="335" 
d="M12 513h114v111h83v-111h114v-75h-114v-111h-83v111h-114v75z" />
    <glyph glyph-name="minussuperior" unicode="&#x207b;" horiz-adv-x="335" 
d="M12 513h311v-75h-311v75z" />
    <glyph glyph-name="parenleftsuperior" unicode="&#x207d;" horiz-adv-x="221" 
d="M184 183l-17 -16q-136 105 -136 262t136 262l17 -16q-41 -48 -57.5 -102t-16.5 -144t16.5 -144.5t57.5 -101.5z" />
    <glyph glyph-name="parenrightsuperior" unicode="&#x207e;" horiz-adv-x="221" 
d="M37 675l17 16q136 -105 136 -262t-136 -262l-17 16q41 48 57 102t16 144t-16 144t-57 102z" />
    <glyph glyph-name="nsuperior" unicode="&#x207f;" horiz-adv-x="451" 
d="M165 560v-44q45 44 104 44q80 0 104 -55q10 -21 10 -67v-93q0 -35 5 -44t28 -12l15 -2v-23h-187v23l12 2q22 4 27 12.5t5 43.5v87q0 47 -10 66q-13 24 -46 24q-38 0 -54 -33q-9 -18 -9 -57v-87q0 -35 5 -43.5t27 -12.5l12 -2v-23h-186v23l14 2q23 3 28 12t5 44v126
q0 30 -3 38q-6 17 -30 20l-17 2v23z" />
    <glyph glyph-name="zeroinferior" unicode="&#x2080;" horiz-adv-x="404" 
d="M202 405q86 0 125.5 -48.5t39.5 -156.5q0 -110 -38.5 -159.5t-125.5 -49.5q-89 0 -127.5 49.5t-38.5 161.5q0 106 39.5 154.5t125.5 48.5zM203 381q-38 0 -53 -39.5t-15 -142.5t14.5 -143.5t52.5 -40.5t52.5 40t14.5 142q0 104 -14.5 144t-51.5 40z" />
    <glyph glyph-name="oneinferior" unicode="&#x2081;" horiz-adv-x="404" 
d="M272 401v-316q0 -39 15 -50q12 -9 58 -11v-24h-253v24q48 3 59 10q18 10 18 49v205q0 17 -3.5 21t-19.5 4l-62 1v22q91 9 129 65h59z" />
    <glyph glyph-name="twoinferior" unicode="&#x2082;" horiz-adv-x="404" 
d="M350 134l-20 -134h-292q8 101 110 165q52 33 71 61.5t19 72.5q0 79 -67 79q-21 0 -39 -10t-18 -22q0 -7 19 -9q26 -3 26 -35q0 -21 -15 -35t-37 -14q-24 0 -40 16.5t-16 41.5q0 42 40 68t105 26q149 0 149 -109q0 -53 -37 -88q-28 -26 -102 -53q-83 -30 -105 -76h184
q22 0 30 19l15 36h20z" />
    <glyph glyph-name="threeinferior" unicode="&#x2083;" horiz-adv-x="419" 
d="M116 193v31q23 -3 33 -3q82 0 82 85q0 73 -58 73q-43 0 -44 -28q0 -5 7 -5q37 -1 37 -36q0 -20 -15 -34t-36 -14q-23 0 -38.5 16t-15.5 40q0 40 34.5 63.5t91.5 23.5q139 0 139 -93q0 -40 -31 -66.5t-84 -31.5v-4h14q56 0 88 -25t32 -69q0 -56 -48 -90.5t-125 -34.5
q-57 0 -92 22t-35 58q0 24 16 39t41 15q49 0 49 -43q0 -23 -19 -34q-13 -8 -13 -12q0 -19 36 -19q77 0 77 96q0 82 -84 82q-3 0 -39 -2z" />
    <glyph glyph-name="fourinferior" unicode="&#x2084;" horiz-adv-x="404" 
d="M298 401v-248h81l-16 -46h-65v-38q0 -29 12 -37q9 -6 44 -8v-24h-216v24q35 0 48 9.5t13 35.5v38h-170v43l193 251h76zM199 328l-129 -175h129v175z" />
    <glyph glyph-name="fiveinferior" unicode="&#x2085;" horiz-adv-x="404" 
d="M66 191l23 205h160q26 0 37.5 5.5t19.5 27.5h20l-17 -111h-198l-12 -94q48 29 106 29q67 0 108 -35.5t41 -94.5q0 -61 -45 -96.5t-121 -35.5q-65 0 -103.5 22.5t-38.5 59.5q0 22 14.5 36t37.5 14q20 0 33.5 -11.5t13.5 -29.5q0 -21 -21 -36q-6 -6 -6 -10q0 -8 15 -14
t34 -6q82 0 82 103q0 98 -82 98q-40 0 -82 -35z" />
    <glyph glyph-name="sixinferior" unicode="&#x2086;" horiz-adv-x="404" 
d="M142 219q44 30 92 30q59 0 96.5 -34.5t37.5 -89.5q0 -61 -43 -97.5t-116 -36.5q-169 0 -169 191q0 108 48.5 165.5t139.5 57.5q53 0 85 -19.5t32 -50.5q0 -22 -14.5 -36t-37.5 -14q-20 0 -33.5 12t-13.5 30q0 14 12 27q8 9 8 13q0 14 -34 14q-90 0 -90 -162zM205 220
q-62 0 -62 -97q0 -107 62 -107t62 105q0 99 -62 99z" />
    <glyph glyph-name="seveninferior" unicode="&#x2087;" horiz-adv-x="404" 
d="M379 396l-9 -55q-3 -18 -28 -45q-59 -64 -77 -104.5t-25 -120.5t-62 -80q-59 0 -59 54q0 49 36.5 110.5t93.5 108.5q26 17 76 54h-202q-18 0 -24 -16l-15 -41h-20l20 135h295z" />
    <glyph glyph-name="eightinferior" unicode="&#x2088;" horiz-adv-x="404" 
d="M136 209q-88 24 -88 90q0 106 154 106q153 0 153 -106q0 -66 -87 -90q101 -29 101 -106q0 -53 -44 -82.5t-124 -29.5q-79 0 -122.5 29.5t-43.5 82.5q0 75 101 106zM202 381q-62 0 -62 -77q0 -80 62 -80q28 0 44.5 21.5t16.5 57.5q0 78 -61 78zM202 195q-31 0 -49 -24.5
t-18 -65.5q0 -89 66 -89q67 0 67 88q0 41 -18 66t-48 25z" />
    <glyph glyph-name="nineinferior" unicode="&#x2089;" horiz-adv-x="404" 
d="M261 179v5q-38 -32 -92 -32q-59 0 -96 34.5t-37 88.5q0 61 41 95.5t114 34.5q89 0 130.5 -46t41.5 -146q0 -117 -55 -172q-50 -50 -138 -50q-54 0 -87.5 21.5t-33.5 55.5q0 21 15.5 35.5t38.5 14.5q48 0 48 -42q0 -17 -22 -37q-4 -3 -4 -7q0 -17 43 -17q93 0 93 164z
M197 379q-62 0 -62 -95q0 -101 62 -101t62 99q0 97 -62 97z" />
    <glyph glyph-name="lira" unicode="&#x20a4;" horiz-adv-x="628" 
d="M254 272h-191v38h158q-30 37 -46 62h-112v37h89q-24 49 -24 96q0 80 56 125.5t155 45.5q82 0 130 -33.5t48 -91.5q0 -38 -23 -63t-59 -25q-29 0 -48.5 17.5t-19.5 44.5q0 20 9 32q5 7 26 24q9 9 9 19q0 20 -21 33t-53 13q-42 0 -66.5 -22.5t-24.5 -62.5t43 -99
q11 -15 37 -53h166v-37h-147q12 -20 18 -62h129v-38h-130q-3 -62 -54 -129q96 -44 137 -44q50 0 80 33.5t30 91.5q0 10 -1 20l22 3q13 -51 13 -84q0 -80 -41 -129t-109 -49q-35 0 -71.5 13.5t-120.5 58.5q-68 -71 -137 -71q-40 0 -65 24.5t-25 63.5q0 50 36.5 80.5
t96.5 30.5q52 0 122 -30q16 24 16 45q0 24 -30 63zM219 73q-83 42 -112 42q-22 0 -37 -14t-15 -34q0 -21 17 -36.5t42 -15.5q51 0 105 58z" />
    <glyph glyph-name="peseta" unicode="&#x20a7;" horiz-adv-x="838" 
d="M268 290v-161q0 -56 11 -69q13 -20 55 -25l25 -3v-32h-325v32l21 3q39 6 52 24q10 14 10 70v403q0 55 -10 69q-13 18 -52 24l-21 3v32h326q102 0 153 -36q71 -50 71 -147q0 -68 -39.5 -114t-111.5 -62q-45 -10 -165 -11zM267 327h30q70 0 102 34.5t32 111.5q0 98 -47 132
q-25 18 -83 18h-34v-296zM806 280v-34h-100v-64q0 -62 15 -90q22 -42 63 -42q18 0 37 9l8 -23q-8 -4 -17 -9q-64 -35 -118 -35q-85 0 -109 53q-13 29 -13 101v100h-79v34h79v64l99 67h35v-131h100z" />
    <glyph glyph-name="Euro" unicode="&#x20ac;" horiz-adv-x="799" 
d="M299 394h277l-16 -38h-264q-1 -10 -1 -32h251l-16 -38h-234q6 -94 31 -148q52 -113 174 -113q101 0 207 110l40 -42q-60 -59 -118.5 -83.5t-141.5 -24.5q-116 0 -205 40t-129 110q-32 55 -42 151h-61l16 38h43v32h-59l16 38h46q28 288 368 288q53 0 184 -32q6 -2 14 -2
q15 0 32 25h26l2 -236l-46 -1q-24 97 -52 137q-49 69 -142 69q-111 0 -163 -102q-25 -48 -37 -146z" />
    <glyph glyph-name="aslashs" unicode="&#x2101;" horiz-adv-x="1021" 
d="M274 667l116 -302q18 -47 28 -58t39 -15v-25h-212v25q47 6 47 22q0 9 -10 37l-20 55h-142l-20 -51q-9 -23 -9 -36q0 -21 50 -27v-25h-157v25q32 4 49 24t43 82l96 229q7 17 14 40h88zM193 597l-62 -160h120zM799 667l-409 -667h-45l408 667h46zM968 404l1 -137l-31 -2
q-10 55 -31 80q-30 36 -80 36q-28 0 -45.5 -15t-17.5 -38q0 -29 29 -49q23 -16 77 -34q59 -20 84 -39q39 -30 39 -84q0 -61 -44.5 -95.5t-122.5 -34.5q-46 0 -95 15q-16 5 -22 5q-9 0 -22 -16h-20l-1 155l31 1q12 -45 30 -74q35 -57 101 -57q33 0 53 16.5t20 43.5
q0 28 -23 43q-8 5 -82 35q-121 44 -121 131q0 56 38 87.5t105 31.5q44 0 98 -17q10 -2 12 -2q9 0 20 14h20z" />
    <glyph glyph-name="liter" unicode="&#x2113;" 
d="M110 142v9q-28 -34 -37 -34q-7 0 -14 12t-7 26q0 18 35 58q12 14 31 40q70 414 220 414q42 0 67.5 -29t25.5 -76q0 -64 -45 -144q-24 -42 -39.5 -61t-85.5 -89q-1 -2 -11 -12q-19 -136 -19 -168q0 -25 12 -25q11 0 32 42q12 23 26 23q22 0 22 -27q0 -46 -36.5 -85.5
t-77.5 -39.5q-99 0 -99 166zM261 339q40 45 70.5 109.5t30.5 102.5q0 32 -20 32q-46 0 -81 -244z" />
    <glyph glyph-name="Ohm" unicode="&#x2126;" horiz-adv-x="762" 
d="M42 0l-12 196h19l16 -47q11 -33 24.5 -44t44.5 -11h130q-77 37 -117 84q-69 81 -69 201q0 136 82 217t220 81q139 0 218 -76.5t79 -210.5t-88 -226q-41 -42 -105 -70h132q35 0 53 12t27 43l14 47h19l-12 -196h-306v90q58 11 91 50q59 69 59 229q0 273 -182 273
q-91 0 -139.5 -73t-48.5 -210q0 -237 150 -269v-90h-299z" />
    <glyph glyph-name="onethird" unicode="&#x2153;" horiz-adv-x="933" 
d="M272 665v-316q0 -39 15 -50q12 -9 58 -11v-24h-252v24q47 3 59 10q17 10 17 49v205q0 17 -3.5 21t-19.5 4l-62 1v22q91 9 129 65h59zM691 660l-404 -660h-46l404 660h46zM629 193v31q23 -3 33 -3q82 0 82 85q0 73 -58 73q-43 0 -44 -28q0 -5 7 -5q37 -1 37 -36
q0 -20 -15 -34t-36 -14q-23 0 -38.5 16t-15.5 40q0 40 34.5 63.5t91.5 23.5q139 0 139 -93q0 -40 -31 -66.5t-84 -31.5v-4h14q56 0 88 -25t32 -69q0 -56 -48 -90.5t-125 -34.5q-57 0 -92 22t-35 58q0 24 16 39t41 15q49 0 49 -43q0 -23 -19 -34q-13 -8 -13 -12q0 -19 36 -19
q77 0 77 96q0 82 -84 82q-3 0 -39 -2z" />
    <glyph glyph-name="twothirds" unicode="&#x2154;" horiz-adv-x="933" 
d="M350 398l-20 -134h-292q8 101 110 165q52 33 71 61.5t19 72.5q0 79 -67 79q-21 0 -39 -10t-18 -22q0 -7 19 -9q26 -3 26 -35q0 -21 -15 -35t-37 -14q-24 0 -40 16.5t-16 41.5q0 42 40 68t105 26q149 0 149 -109q0 -53 -37 -88q-28 -26 -102 -53q-83 -30 -105 -76h184
q22 0 30 19l15 36h20zM692 660l-405 -660h-45l404 660h46zM630 193v31q23 -3 33 -3q82 0 82 85q0 73 -58 73q-43 0 -44 -28q0 -5 7 -5q37 -1 37 -36q0 -20 -15 -34t-36 -14q-23 0 -38.5 16t-15.5 40q0 40 34.5 63.5t91.5 23.5q139 0 139 -93q0 -40 -31 -66.5t-84 -31.5v-4
h14q56 0 88 -25t32 -69q0 -56 -48 -90.5t-125 -34.5q-57 0 -92 22t-35 58q0 24 16 39t41 15q49 0 49 -43q0 -23 -19 -34q-13 -8 -13 -12q0 -19 36 -19q77 0 77 96q0 82 -84 82q-3 0 -39 -2z" />
    <glyph glyph-name="onefifth" unicode="&#x2155;" horiz-adv-x="933" 
d="M272 665v-316q0 -39 15 -50q12 -9 58 -11v-24h-252v24q47 3 59 10q17 10 17 49v205q0 17 -3.5 21t-19.5 4l-62 1v22q91 9 129 65h59zM691 660l-404 -660h-46l404 660h46zM594 191l23 205h160q26 0 37.5 5.5t19.5 27.5h20l-17 -111h-198l-12 -94q48 29 106 29
q68 0 108.5 -35.5t40.5 -94.5q0 -61 -45 -96.5t-121 -35.5q-65 0 -103.5 22.5t-38.5 59.5q0 22 14.5 36t37.5 14q20 0 33.5 -11.5t13.5 -29.5q0 -21 -21 -36q-6 -6 -6 -10q0 -8 15 -14t34 -6q82 0 82 103q0 98 -82 98q-42 0 -82 -35z" />
    <glyph glyph-name="twofifths" unicode="&#x2156;" horiz-adv-x="933" 
d="M350 398l-20 -134h-292q8 101 110 165q52 33 71 61.5t19 72.5q0 79 -67 79q-21 0 -39 -10t-18 -22q0 -7 19 -9q26 -3 26 -35q0 -21 -15 -35t-37 -14q-24 0 -40 16.5t-16 41.5q0 42 40 68t105 26q149 0 149 -109q0 -53 -37 -88q-28 -26 -102 -53q-83 -30 -105 -76h184
q22 0 30 19l15 36h20zM692 660l-405 -660h-45l404 660h46zM594 191l23 205h161q26 0 37.5 5.5t19.5 27.5h20l-18 -111h-198l-12 -94q48 29 107 29q68 0 108.5 -35.5t40.5 -94.5q0 -61 -45 -96.5t-121 -35.5q-65 0 -103.5 22.5t-38.5 59.5q0 22 14.5 36t37.5 14
q20 0 33.5 -11.5t13.5 -29.5q0 -21 -21 -36q-6 -6 -6 -10q0 -8 15 -14t34 -6q82 0 82 103q0 98 -82 98q-42 0 -82 -35z" />
    <glyph glyph-name="threefifths" unicode="&#x2157;" horiz-adv-x="933" 
d="M691 660l-404 -660h-46l405 660h45zM594 191l23 205h160q27 0 36 4q13 6 21 29h20l-17 -111h-198l-12 -94q48 29 106 29q67 0 108 -35.5t41 -94.5q0 -61 -45 -96.5t-121 -35.5q-65 0 -103.5 22.5t-38.5 59.5q0 22 14.5 36t37.5 14q20 0 33.5 -11.5t13.5 -29.5
q0 -21 -21 -36q-6 -6 -6 -10q0 -8 15 -14t34 -6q82 0 82 103q0 98 -82 98q-40 0 -82 -35zM116 457v31q23 -3 33 -3q82 0 82 85q0 73 -59 73q-42 0 -43 -28q0 -5 7 -5q37 -1 37 -36q0 -20 -15 -34t-36 -14q-23 0 -38.5 16t-15.5 40q0 40 34.5 63.5t92.5 23.5q138 0 138 -93
q0 -40 -31 -66t-84 -32v-4q5 1 13 1q121 0 121 -95q0 -56 -48 -90.5t-126 -34.5q-56 0 -91 22t-35 58q0 23 16 38.5t41 15.5q49 0 49 -43q0 -21 -19 -34q-13 -9 -13 -13q0 -18 35 -18q78 0 78 96q0 82 -85 82q-4 0 -38 -2z" />
    <glyph glyph-name="fourfifths" unicode="&#x2158;" horiz-adv-x="933" 
d="M298 665v-248h80l-16 -46h-64v-38q0 -29 12 -37q9 -6 43 -8v-24h-215v24q35 0 48 10t13 36v37h-170v43l193 251h76zM199 592l-129 -175h129v175zM691 660l-404 -660h-45l404 660h45zM594 191l23 205h160q27 0 36 4q13 6 22 29h20l-18 -111h-198l-12 -94q48 29 106 29
q68 0 109 -35.5t41 -94.5q0 -61 -45 -96.5t-122 -35.5q-65 0 -103.5 22.5t-38.5 59.5q0 22 15 36t38 14q20 0 33.5 -11.5t13.5 -29.5q0 -19 -21 -36q-7 -6 -7 -10q0 -8 15.5 -14t34.5 -6q82 0 82 103q0 98 -82 98q-42 0 -82 -35z" />
    <glyph glyph-name="onesixth" unicode="&#x2159;" horiz-adv-x="933" 
d="M272 665v-316q0 -39 15 -50q12 -9 58 -11v-24h-252v24q47 3 59 10q17 10 17 49v205q0 17 -3.5 21t-19.5 4l-62 1v22q91 9 129 65h59zM691 660l-404 -660h-46l404 660h46zM670 219q44 30 92 30q60 0 97.5 -34.5t37.5 -89.5q0 -61 -43 -97.5t-116 -36.5q-170 0 -170 191
q0 108 48.5 165.5t139.5 57.5q53 0 85 -19.5t32 -50.5q0 -22 -14.5 -36t-37.5 -14q-20 0 -33.5 12t-13.5 30q0 14 12 27q8 9 8 13q0 14 -34 14q-90 0 -90 -162zM734 220q-63 0 -63 -97q0 -107 63 -107q62 0 62 105q0 99 -62 99z" />
    <glyph glyph-name="fivesixths" unicode="&#x215a;" horiz-adv-x="933" 
d="M66 456l23 204h160q26 0 37.5 5.5t19.5 27.5h20l-17 -111h-198l-12 -94q46 30 106 30q67 0 108 -35.5t41 -94.5q0 -61 -44.5 -97t-121.5 -36q-64 0 -103 22.5t-39 60.5q0 22 14.5 36t37.5 14q47 0 47 -42q0 -19 -21 -36q-6 -6 -6 -9q0 -8 15 -14.5t34 -6.5q82 0 82 104
q0 98 -82 98q-41 0 -82 -36zM691 660l-404 -660h-46l405 660h45zM670 219q44 30 93 30q59 0 96.5 -34.5t37.5 -89.5q0 -61 -43 -97.5t-116 -36.5q-170 0 -170 191q0 108 48.5 165.5t139.5 57.5q53 0 85 -19.5t32 -50.5q0 -22 -14.5 -36t-37.5 -14q-20 0 -33.5 12t-13.5 30
q0 14 12 27q8 9 8 13q0 14 -34 14q-90 0 -90 -162zM734 220q-63 0 -63 -97q0 -107 63 -107q62 0 62 105q0 99 -62 99z" />
    <glyph glyph-name="oneeighth" unicode="&#x215b;" horiz-adv-x="933" 
d="M272 665v-316q0 -39 15 -50q12 -9 58 -11v-24h-252v24q47 3 59 10q17 10 17 49v205q0 17 -3.5 21t-19.5 4l-62 1v22q91 9 129 65h59zM691 660l-404 -660h-46l404 660h46zM664 209q-88 24 -88 90q0 106 154 106t154 -106q0 -66 -88 -90q101 -27 101 -106q0 -53 -44 -82.5
t-124 -29.5q-79 0 -122.5 29.5t-43.5 82.5q0 75 101 106zM730 381q-62 0 -62 -77q0 -80 62 -80q28 0 45 21.5t17 57.5q0 78 -62 78zM730 195q-31 0 -49 -24.5t-18 -65.5q0 -89 66 -89q67 0 67 88q0 41 -18 66t-48 25z" />
    <glyph glyph-name="threeeighths" unicode="&#x215c;" horiz-adv-x="933" 
d="M691 660l-404 -660h-46l405 660h45zM664 209q-88 24 -88 90q0 106 154 106t154 -106q0 -66 -88 -90q101 -29 101 -106q0 -53 -44 -82.5t-124 -29.5q-79 0 -122.5 29.5t-43.5 82.5q0 75 101 106zM730 381q-62 0 -62 -77q0 -80 62 -80q28 0 45 21.5t17 57.5q0 78 -62 78z
M730 195q-31 0 -49 -24.5t-18 -65.5q0 -89 66 -89q67 0 67 88q0 41 -18 66t-48 25zM116 457v31q23 -3 33 -3q82 0 82 85q0 73 -59 73q-42 0 -43 -28q0 -5 7 -5q37 -1 37 -36q0 -20 -15 -34t-36 -14q-23 0 -38.5 16t-15.5 40q0 40 34.5 63.5t92.5 23.5q138 0 138 -93
q0 -40 -31 -66t-84 -32v-4q5 1 13 1q121 0 121 -95q0 -56 -48 -90.5t-126 -34.5q-56 0 -91 22t-35 58q0 23 16 38.5t41 15.5q49 0 49 -43q0 -21 -19 -34q-13 -9 -13 -13q0 -18 35 -18q78 0 78 96q0 82 -85 82q-4 0 -38 -2z" />
    <glyph glyph-name="fiveeighths" unicode="&#x215d;" horiz-adv-x="933" 
d="M66 456l23 204h160q26 0 37.5 5.5t19.5 27.5h20l-17 -111h-198l-12 -94q46 30 106 30q67 0 108 -35.5t41 -94.5q0 -61 -44.5 -97t-121.5 -36q-64 0 -103 22.5t-39 60.5q0 22 14.5 36t37.5 14q47 0 47 -42q0 -19 -21 -36q-6 -6 -6 -9q0 -8 15 -14.5t34 -6.5q82 0 82 104
q0 98 -82 98q-41 0 -82 -36zM691 660l-404 -660h-46l405 660h45zM664 209q-88 24 -88 90q0 106 154 106t154 -106q0 -66 -88 -90q101 -29 101 -106q0 -53 -44 -82.5t-124 -29.5q-79 0 -122.5 29.5t-43.5 82.5q0 75 101 106zM730 381q-62 0 -62 -77q0 -80 62 -80
q28 0 45 21.5t17 57.5q0 78 -62 78zM730 195q-31 0 -49 -24.5t-18 -65.5q0 -89 66 -89q67 0 67 88q0 41 -18 66t-48 25z" />
    <glyph glyph-name="seveneighths" unicode="&#x215e;" horiz-adv-x="933" 
d="M671 660l-404 -660h-46l405 660h45zM664 209q-88 24 -88 90q0 106 154 106t154 -106q0 -66 -88 -90q101 -29 101 -106q0 -53 -44 -82.5t-124 -29.5q-79 0 -122.5 29.5t-43.5 82.5q0 75 101 106zM730 381q-62 0 -62 -77q0 -80 62 -80q28 0 45 21.5t17 57.5q0 78 -62 78z
M730 195q-31 0 -49 -24.5t-18 -65.5q0 -89 66 -89q67 0 67 88q0 41 -18 66t-48 25zM379 660l-9 -55q-3 -18 -28 -45q-59 -64 -77 -104t-25 -120.5t-62 -80.5q-59 0 -59 54q0 49 36.5 110.5t93.5 108.5q26 17 76 54h-202q-18 0 -24 -16l-15 -41h-20l20 135h295z" />
    <glyph glyph-name="arrowleft" unicode="&#x2190;" horiz-adv-x="667" 
d="M653 310h-500q52 -77 52 -104q0 -14 -15 -14q-9 0 -23 17q-47 56 -131 103q-23 13 -23 24q0 10 31 28q76 44 128 104q10 12 18 12q15 0 15 -14q0 -28 -52 -105h500v-51z" />
    <glyph glyph-name="arrowup" unicode="&#x2191;" horiz-adv-x="667" 
d="M308 13v501q-76 -53 -104 -53q-14 0 -14 15q0 7 31 35q45 41 89 120q13 23 24 23q10 0 23 -23q47 -86 103 -132q17 -14 17 -23q0 -15 -14 -15q-27 0 -104 53v-501h-51z" />
    <glyph glyph-name="arrowright" unicode="&#x2192;" horiz-adv-x="667" 
d="M13 361h500q-52 78 -52 105q0 14 15 14q7 0 35 -32q42 -47 119 -89q23 -12 23 -24q0 -10 -23 -23q-84 -47 -131 -103q-14 -17 -23 -17q-15 0 -15 14q0 24 52 104h-500v51z" />
    <glyph glyph-name="arrowdown" unicode="&#x2193;" horiz-adv-x="667" 
d="M359 653v-500q78 52 104 52q14 0 14 -15q0 -7 -31 -35q-47 -43 -89 -119q-13 -23 -24 -23q-10 0 -23 23q-46 83 -103 131q-17 14 -17 23q0 15 14 15q25 0 104 -52v500h51z" />
    <glyph glyph-name="arrowboth" unicode="&#x2194;" horiz-adv-x="667" 
d="M513 310h-360q52 -77 52 -104q0 -14 -15 -14q-9 0 -23 17q-47 56 -131 103q-23 13 -23 24q0 10 31 28q76 44 128 104q10 12 18 12q15 0 15 -14q0 -28 -52 -105h360q-52 78 -52 105q0 14 15 14q7 0 35 -32q42 -47 119 -89q23 -12 23 -24q0 -10 -23 -23q-84 -47 -131 -103
q-14 -17 -23 -17q-15 0 -15 14q0 24 52 104z" />
    <glyph glyph-name="arrowupdn" unicode="&#x2195;" horiz-adv-x="667" 
d="M308 154v360q-76 -53 -104 -53q-14 0 -14 15q0 7 31 35q45 41 89 120q13 23 24 23q10 0 23 -23q47 -86 103 -132q17 -14 17 -23q0 -15 -14 -15q-27 0 -104 53v-360q78 52 104 52q14 0 14 -15q0 -7 -31 -35q-46 -42 -89 -120q-13 -23 -24 -23q-10 0 -23 23
q-47 86 -103 132q-17 14 -17 23q0 15 14 15q25 0 104 -52z" />
    <glyph glyph-name="arrowupdnbse" unicode="&#x21a8;" horiz-adv-x="667" 
d="M200 -68h266v-43h-266v43zM308 154v360q-76 -53 -104 -53q-14 0 -14 15q0 7 31 35q45 41 89 120q13 23 24 23q10 0 23 -23q47 -86 103 -132q17 -14 17 -23q0 -15 -14 -15q-27 0 -104 53v-360q78 52 104 52q14 0 14 -15q0 -7 -31 -35q-46 -42 -89 -120q-13 -23 -24 -23
q-10 0 -23 23q-47 86 -103 132q-17 14 -17 23q0 15 14 15q25 0 104 -52z" />
    <glyph glyph-name="emptyset" unicode="&#x2205;" horiz-adv-x="618" 
d="M496 655l-53 -105q109 -75 109 -203q0 -100 -71 -171.5t-172 -71.5q-43 0 -84 15l-53 -106l-49 25l53 106q-109 74 -109 203q0 100 71.5 171t171.5 71q43 0 85 -15l53 106zM417 499l-166 -330q33 -9 58 -9q77 0 132 54.5t55 132.5q0 95 -79 152zM202 194l167 330
q-28 9 -59 9q-77 0 -132 -54.5t-55 -131.5q0 -94 79 -153z" />
    <glyph glyph-name="Delta" unicode="&#x394;" horiz-adv-x="670" 
d="M24 0l317 683l304 -683h-621zM109 96h390l-192 439z" />
    <glyph glyph-name="Delta" unicode="&#x2206;" horiz-adv-x="670" 
d="M24 0l317 683l304 -683h-621zM109 96h390l-192 439z" />
    <glyph glyph-name="intersection" unicode="&#x2229;" horiz-adv-x="628" 
d="M97 0h-37v426q0 58 6 88q8 44 35 78q67 86 207 86q133 0 202 -65q58 -55 58 -166v-447h-176v452q0 89 -19 121q-36 61 -113 61q-69 0 -115 -48q-34 -36 -44 -89q-4 -22 -4 -84v-413z" />
    <glyph glyph-name="union" unicode="&#x222a;" horiz-adv-x="628" 
d="M60 667h176v-452q0 -89 19 -121q36 -61 113 -61q69 0 115 48q34 36 44 89q4 22 4 84v413h37v-426q0 -58 -6 -88q-8 -44 -35 -78q-67 -86 -207 -86q-133 0 -202 65q-58 55 -58 166v447z" />
    <glyph glyph-name="contintegral" unicode="&#x222e;" 
d="M161 -122v159q-66 18 -110 80t-44 137q0 76 43.5 136.5t110.5 79.5v79q0 88 57.5 139.5t156.5 51.5q85 0 136 -34t51 -91q0 -36 -24.5 -60.5t-59.5 -24.5q-32 0 -56.5 22.5t-24.5 52.5q0 22 26 52q6 7 6 17q0 12 -12 21.5t-28 9.5q-28 0 -41 -26q-11 -21 -11 -83v-126
q68 -20 111 -80t43 -136t-44 -138t-110 -79v-51q0 -76 -5 -103.5t-24 -55.5q-54 -80 -185 -80q-86 0 -136.5 34.5t-50.5 92.5q0 34 24.5 58.5t59.5 24.5q32 0 56.5 -22.5t24.5 -52.5q0 -22 -26 -53q-6 -7 -6 -16q0 -13 12 -22t28 -9q52 0 52 96zM337 394v-278
q35 16 57.5 54.5t22.5 84.5q0 45 -23 85.5t-57 53.5zM161 116v278q-34 -14 -57 -54t-23 -85t22.5 -84t57.5 -55z" />
    <glyph glyph-name="equivalence" unicode="&#x2261;" horiz-adv-x="628" 
d="M97 532h433v-83h-433v83zM97 222h433v-83h-433v83zM97 379h433v-87h-433v87z" />
    <glyph glyph-name="house" unicode="&#x2302;" horiz-adv-x="751" 
d="M84 0v401l291 328l292 -328v-401h-583zM135 51h481v328l-241 270l-240 -270v-328z" />
    <glyph glyph-name="turnednot" unicode="&#x2319;" 
d="M205 267v-192h266v-75h-443v267h177z" />
    <glyph glyph-name="integraltp" unicode="&#x2320;" 
d="M275 -238h-176v735q0 81 4.5 108t24.5 56q54 80 187 80q84 0 134.5 -34.5t50.5 -91.5q0 -36 -24.5 -60.5t-59.5 -24.5q-32 0 -56.5 22.5t-24.5 52.5q0 24 26 54q6 7 6 16q0 13 -12 22t-28 9q-32 0 -44 -34q-8 -23 -8 -111v-799z" />
    <glyph glyph-name="integralbt" unicode="&#x2321;" 
d="M225 741h176v-736q0 -77 -3 -95q-25 -148 -213 -148q-84 0 -134.5 34.5t-50.5 90.5q0 36 24.5 60.5t59.5 24.5q32 0 56.5 -22.5t24.5 -52.5q0 -22 -26 -53q-6 -7 -6 -16q0 -13 12 -22t28 -9q33 0 45 34q7 20 7 110v800z" />
    <glyph glyph-name="SF100000" unicode="&#x2500;" horiz-adv-x="1000" 
d="M0 217v66h1000v-66h-1000z" />
    <glyph glyph-name="SF110000" unicode="&#x2502;" horiz-adv-x="1000" 
d="M467 -250v1000h66v-1000h-66z" />
    <glyph glyph-name="SF010000" unicode="&#x250c;" horiz-adv-x="1000" 
d="M1000 283v-66h-467v-467h-66v533h533z" />
    <glyph glyph-name="SF030000" unicode="&#x2510;" horiz-adv-x="1000" 
d="M467 217h-467v66h533v-533h-66v467z" />
    <glyph glyph-name="SF020000" unicode="&#x2514;" horiz-adv-x="1000" 
d="M533 283h467v-66h-533v533h66v-467z" />
    <glyph glyph-name="SF040000" unicode="&#x2518;" horiz-adv-x="1000" 
d="M0 217v66h467v467h66v-533h-533z" />
    <glyph glyph-name="SF080000" unicode="&#x251c;" horiz-adv-x="1000" 
d="M533 283h467v-66h-467v-467h-66v1000h66v-467z" />
    <glyph glyph-name="SF090000" unicode="&#x2524;" horiz-adv-x="1000" 
d="M467 217h-467v66h467v467h66v-1000h-66v467z" />
    <glyph glyph-name="SF060000" unicode="&#x252c;" horiz-adv-x="1000" 
d="M533 217v-467h-66v467h-467v66h1000v-66h-467z" />
    <glyph glyph-name="SF070000" unicode="&#x2534;" horiz-adv-x="1000" 
d="M467 283v467h66v-467h467v-66h-1000v66h467z" />
    <glyph glyph-name="SF050000" unicode="&#x253c;" horiz-adv-x="1000" 
d="M467 217h-467v66h467v467h66v-467h467v-66h-467v-467h-66v467z" />
    <glyph glyph-name="SF430000" unicode="&#x2550;" horiz-adv-x="1000" 
d="M0 151v66h1000v-66h-1000zM0 283v66h1000v-66h-1000z" />
    <glyph glyph-name="SF240000" unicode="&#x2551;" horiz-adv-x="1000" 
d="M401 -250v1000h66v-1000h-66zM533 -250v1000h66v-1000h-66z" />
    <glyph glyph-name="SF510000" unicode="&#x2552;" horiz-adv-x="1000" 
d="M467 -250v599h533v-66h-467v-66h467v-66h-467v-401h-66z" />
    <glyph glyph-name="SF520000" unicode="&#x2553;" horiz-adv-x="1000" 
d="M533 217h-66v-467h-66v533h599v-66h-401v-467h-66v467z" />
    <glyph glyph-name="SF390000" unicode="&#x2554;" horiz-adv-x="1000" 
d="M467 283v-533h-66v599h599v-66h-533zM599 151v-401h-66v467h467v-66h-401z" />
    <glyph glyph-name="SF220000" unicode="&#x2555;" horiz-adv-x="1000" 
d="M467 151h-467v66h467v66h-467v66h533v-599h-66v401z" />
    <glyph glyph-name="SF210000" unicode="&#x2556;" horiz-adv-x="1000" 
d="M467 217v-467h-66v467h-401v66h599v-533h-66v467h-66z" />
    <glyph glyph-name="SF250000" unicode="&#x2557;" horiz-adv-x="1000" 
d="M533 283h-533v66h599v-599h-66v533zM401 151h-401v66h467v-467h-66v401z" />
    <glyph glyph-name="SF500000" unicode="&#x2558;" horiz-adv-x="1000" 
d="M467 750h66v-401h467v-66h-467v-66h467v-66h-533v599z" />
    <glyph glyph-name="SF490000" unicode="&#x2559;" horiz-adv-x="1000" 
d="M533 283v467h66v-467h401v-66h-599v533h66v-467h66z" />
    <glyph glyph-name="SF380000" unicode="&#x255a;" horiz-adv-x="1000" 
d="M467 217h533v-66h-599v599h66v-533zM599 349h401v-66h-467v467h66v-401z" />
    <glyph glyph-name="SF280000" unicode="&#x255b;" horiz-adv-x="1000" 
d="M467 349v401h66v-599h-533v66h467v66h-467v66h467z" />
    <glyph glyph-name="SF270000" unicode="&#x255c;" horiz-adv-x="1000" 
d="M467 283h66v467h66v-533h-599v66h401v467h66v-467z" />
    <glyph glyph-name="SF260000" unicode="&#x255d;" horiz-adv-x="1000" 
d="M533 217v533h66v-599h-599v66h533zM401 349v401h66v-467h-467v66h401z" />
    <glyph glyph-name="SF360000" unicode="&#x255e;" horiz-adv-x="1000" 
d="M467 750h66v-401h467v-66h-467v-66h467v-66h-467v-401h-66v1000z" />
    <glyph glyph-name="SF370000" unicode="&#x255f;" horiz-adv-x="1000" 
d="M599 217v-467h-66v1000h66v-467h401v-66h-401zM467 -250h-66v1000h66v-1000z" />
    <glyph glyph-name="SF420000" unicode="&#x2560;" horiz-adv-x="1000" 
d="M401 -250v1000h66v-1000h-66zM599 349h401v-66h-467v467h66v-401zM599 151v-401h-66v467h467v-66h-401z" />
    <glyph glyph-name="SF190000" unicode="&#x2561;" horiz-adv-x="1000" 
d="M467 349v401h66v-1000h-66v401h-467v66h467v66h-467v66h467z" />
    <glyph glyph-name="SF200000" unicode="&#x2562;" horiz-adv-x="1000" 
d="M401 217h-401v66h401v467h66v-1000h-66v467zM533 -250v1000h66v-1000h-66z" />
    <glyph glyph-name="SF230000" unicode="&#x2563;" horiz-adv-x="1000" 
d="M599 -250h-66v1000h66v-1000zM401 349v401h66v-467h-467v66h401zM401 151h-401v66h467v-467h-66v401z" />
    <glyph glyph-name="SF470000" unicode="&#x2564;" horiz-adv-x="1000" 
d="M0 349h1000v-66h-1000v66zM467 151h-467v66h1000v-66h-467v-401h-66v401z" />
    <glyph glyph-name="SF480000" unicode="&#x2565;" horiz-adv-x="1000" 
d="M401 217h-401v66h1000v-66h-401v-467h-66v467h-66v-467h-66v467z" />
    <glyph glyph-name="SF410000" unicode="&#x2566;" horiz-adv-x="1000" 
d="M0 349h1000v-66h-1000v66zM599 151v-401h-66v467h467v-66h-401zM401 151h-401v66h467v-467h-66v401z" />
    <glyph glyph-name="SF450000" unicode="&#x2567;" horiz-adv-x="1000" 
d="M0 151v66h1000v-66h-1000zM467 349v401h66v-401h467v-66h-1000v66h467z" />
    <glyph glyph-name="SF460000" unicode="&#x2568;" horiz-adv-x="1000" 
d="M0 217v66h401v467h66v-467h66v467h66v-467h401v-66h-1000z" />
    <glyph glyph-name="SF400000" unicode="&#x2569;" horiz-adv-x="1000" 
d="M0 151v66h1000v-66h-1000zM599 349h401v-66h-467v467h66v-401zM401 349v401h66v-467h-467v66h401z" />
    <glyph glyph-name="SF540000" unicode="&#x256a;" horiz-adv-x="1000" 
d="M467 217v66h-467v66h467v401h66v-401h467v-66h-467v-66h467v-66h-467v-401h-66v401h-467v66h467z" />
    <glyph glyph-name="SF530000" unicode="&#x256b;" horiz-adv-x="1000" 
d="M401 217h-401v66h401v467h66v-467h66v467h66v-467h401v-66h-401v-467h-66v467h-66v-467h-66v467z" />
    <glyph glyph-name="SF440000" unicode="&#x256c;" horiz-adv-x="1000" 
d="M599 349h401v-66h-467v467h66v-401zM401 349v401h66v-467h-467v66h401zM599 151v-401h-66v467h467v-66h-401zM401 151h-401v66h467v-467h-66v401z" />
    <glyph glyph-name="upblock" unicode="&#x2580;" horiz-adv-x="1000" 
d="M0 250v500h1000v-500h-1000z" />
    <glyph glyph-name="dnblock" unicode="&#x2584;" horiz-adv-x="1000" 
d="M0 -250v500h1000v-500h-1000z" />
    <glyph glyph-name="block" unicode="&#x2588;" horiz-adv-x="1000" 
d="M0 -250v1000h1000v-1000h-1000z" />
    <glyph glyph-name="lfblock" unicode="&#x258c;" horiz-adv-x="1000" 
d="M0 -250v1000h500v-1000h-500z" />
    <glyph glyph-name="rtblock" unicode="&#x2590;" horiz-adv-x="1000" 
d="M500 -250v1000h500v-1000h-500z" />
    <glyph glyph-name="ltshade" unicode="&#x2591;" horiz-adv-x="1000" 
d="M0 750h100v-100h-100v100zM200 750h100v-100h-100v100zM800 750h100v-100h-100v100zM400 750h100v-100h-100v100zM600 750h100v-100h-100v100zM0 550h100v-100h-100v100zM0 350h100v-100h-100v100zM0 150h100v-100h-100v100zM0 -50h100v-100h-100v100zM200 550h100v-100
h-100v100zM200 350h100v-100h-100v100zM200 150h100v-100h-100v100zM200 -50h100v-100h-100v100zM400 550h100v-100h-100v100zM400 350h100v-100h-100v100zM400 150h100v-100h-100v100zM400 -50h100v-100h-100v100zM600 550h100v-100h-100v100zM600 350h100v-100h-100v100z
M600 150h100v-100h-100v100zM600 -50h100v-100h-100v100zM800 550h100v-100h-100v100zM800 350h100v-100h-100v100zM800 150h100v-100h-100v100zM800 -50h100v-100h-100v100z" />
    <glyph glyph-name="shade" unicode="&#x2592;" horiz-adv-x="1000" 
d="M900 -150h100v-100h-100v100h-100v-100h-100v100h-100v-100h-100v100h-100v-100h-100v100h-100v-100h-100v100h-100v100h100v-100h100v100h100v-100h100v100h100v-100h100v100h100v-100h100v100h100v100h-100v-100h-100v100h-100v-100h-100v100h-100v-100h-100v100h-100
v-100h-100v100h-100v100h100v-100h100v100h100v-100h100v100h100v-100h100v100h100v-100h100v100h100v100h-100v-100h-100v100h-100v-100h-100v100h-100v-100h-100v100h-100v-100h-100v100h-100v100h100v-100h100v100h100v-100h100v100h100v-100h100v100h100v-100h100v100
h100v100h-100v-100h-100v100h-100v-100h-100v100h-100v-100h-100v100h-100v-100h-100v100h-100v100h100v-100h100v100h100v-100h100v100h100v-100h100v100h100v-100h100v100h100v100h-100v-100h-100v100h-100v-100h-100v100h-100v-100h-100v100h-100v-100h-100v100h-100v100
h100v-100h100v100h100v-100h100v100h100v-100h100v100h100v-100h100v100h100v-100h100v-100h-100v-100h100v-100h-100v-100h100v-100h-100v-100h100v-100h-100v-100z" />
    <glyph glyph-name="dkshade" unicode="&#x2593;" horiz-adv-x="1000" 
d="M1000 -250h-1000v100h100v100h-100v100h100v100h-100v100h100v100h-100v100h100v100h-100v100h100v100h100v-100h100v100h100v-100h100v100h100v-100h100v100h100v-100h100v100h100v-1000zM900 550h-100v-100h100v100zM700 550h-100v-100h100v100zM500 550h-100v-100h100
v100zM300 550h-100v-100h100v100zM900 350h-100v-100h100v100zM700 350h-100v-100h100v100zM500 350h-100v-100h100v100zM300 350h-100v-100h100v100zM900 150h-100v-100h100v100zM700 150h-100v-100h100v100zM500 150h-100v-100h100v100zM300 150h-100v-100h100v100z
M900 -50h-100v-100h100v100zM700 -50h-100v-100h100v100zM500 -50h-100v-100h100v100zM300 -50h-100v-100h100v100z" />
    <glyph glyph-name="filledbox" unicode="&#x25a0;" horiz-adv-x="667" 
d="M667 0h-667v667h667v-667z" />
    <glyph glyph-name="outlinedbox" unicode="&#x25a1;" horiz-adv-x="667" 
d="M667 0h-667v667h667v-667zM620 47v573h-573v-573h573z" />
    <glyph glyph-name="triagup" unicode="&#x25b2;" 
d="M466 147h-433l217 405z" />
    <glyph glyph-name="triagrt" unicode="&#x25b6;" 
d="M71 119v433l405 -217z" />
    <glyph glyph-name="triagdn" unicode="&#x25bc;" 
d="M33 520h433l-216 -405z" />
    <glyph glyph-name="triaglt" unicode="&#x25c0;" 
d="M428 119l-405 216l405 217v-433z" />
    <glyph glyph-name="diamondrhombsolid" unicode="&#x25c6;" horiz-adv-x="667" 
d="M80 333q54 60 130 167t124 193q49 -87 124 -194t129 -166q-54 -58 -129 -165t-124 -194q-50 88 -125.5 194.5t-128.5 164.5z" />
    <glyph glyph-name="diamondrhomb" unicode="&#x25c7;" horiz-adv-x="667" 
d="M334 693l259 -360l-259 -359l-260 359zM334 604l-197 -271l197 -270l197 270z" />
    <glyph glyph-name="circle" unicode="&#x25cb;" horiz-adv-x="667" 
d="M333 589q109 0 185 -75.5t76 -183.5q0 -103 -77.5 -178t-183.5 -75q-107 0 -183.5 75.5t-76.5 180.5t76.5 180.5t183.5 75.5zM333 543q-88 0 -150.5 -61.5t-62.5 -148.5t62.5 -148.5t150.5 -61.5t151 61t63 146q0 89 -62 151t-152 62z" />
    <glyph glyph-name="invbullet" unicode="&#x25d8;" horiz-adv-x="667" 
d="M0 0v667h667v-667h-667zM335 473q-58 0 -98.5 -40.5t-40.5 -99.5q0 -58 40.5 -99t97.5 -41q56 0 96.5 41t40.5 99q0 57 -40.5 98.5t-95.5 41.5z" />
    <glyph glyph-name="invcircle" unicode="&#x25d9;" horiz-adv-x="667" 
d="M333 543q90 0 152 -61.5t62 -151.5q0 -85 -63 -146t-151 -61t-150.5 61.5t-62.5 148.5t62.5 148.5t150.5 61.5zM667 0h-667v667h667v-667zM333 590q-107 0 -183.5 -75.5t-76.5 -180.5q0 -106 76.5 -181.5t183.5 -75.5q106 0 183.5 75t77.5 178q0 109 -76 184.5t-185 75.5
z" />
    <glyph glyph-name="smileface" unicode="&#x263a;" horiz-adv-x="667" 
d="M241 466q17 0 30 -13t13 -31t-13 -31t-31 -13t-31 13t-13 31t13 31t32 13zM429 466q17 0 30 -13t13 -31t-13 -31t-31 -13t-31 13t-13 31t13 31t32 13zM128 372q37 -159 206 -159q170 0 206 159q-8 -110 -50 -161q-57 -70 -156 -70q-109 0 -165 82q-33 47 -41 149z
M337 650q128 0 220.5 -93.5t92.5 -223.5t-92.5 -223t-223.5 -93t-224 92.5t-93 223.5q0 133 93 225t227 92zM337 609q-117 0 -198 -80t-81 -196q0 -113 81 -194t195 -81q113 0 194 81t81 194t-80.5 194.5t-191.5 81.5z" />
    <glyph glyph-name="invsmileface" unicode="&#x263b;" horiz-adv-x="667" 
d="M337 650q128 0 220.5 -93t92.5 -223q0 -131 -92.5 -224t-223.5 -93t-224 92.5t-93 223.5q0 133 93 225t227 92zM241 466q-19 0 -32 -13t-13 -31t13 -31t31 -13t31 13t13 31t-13 31t-30 13zM428 466q-18 0 -31 -13t-13 -31t13 -31t30 -13q18 0 31 13t13 31t-13 31t-30 13z
M128 372q8 -107 51 -161q56 -70 155 -70q109 0 165 82q34 50 41 149q-36 -159 -206 -159q-169 0 -206 159z" />
    <glyph glyph-name="sun" unicode="&#x263c;" horiz-adv-x="667" 
d="M159 473l-75 74l35 35l75 -75q51 40 114 48v105h50v-105q67 -8 113 -48l75 75l35 -35l-74 -74q38 -48 47 -114h105v-51h-105q-9 -64 -47 -113l74 -75l-35 -35l-75 74q-50 -40 -113 -47v-105h-50v105q-58 6 -114 47l-75 -74l-35 35l74 74q-40 49 -46 114h-105v51h105
q7 63 47 114zM336 493q-69 0 -116 -46t-47 -112q0 -67 46.5 -114t113.5 -47q65 0 112 47t47 113q0 65 -46 112t-110 47z" />
    <glyph glyph-name="female" unicode="&#x2640;" horiz-adv-x="667" 
d="M357 0h-48v166h-162v43h162v106q-68 11 -112 61.5t-44 119.5q0 76 53 129.5t127 53.5t127 -53.5t53 -129.5q0 -69 -44 -119.5t-112 -61.5v-106h162v-43h-162v-166zM333 632q-55 0 -94 -39.5t-39 -94.5q0 -58 38.5 -98t94.5 -40q55 0 94 40t39 96t-39 96t-94 40z" />
    <glyph glyph-name="male" unicode="&#x2642;" horiz-adv-x="667" 
d="M385 382l151 151q-53 12 -106 40q-21 11 -21 23t13 12q6 0 20 -3q41 -9 83 -9q54 0 106 14l10 1q10 0 10 -11q0 -12 -8 -49t-8 -60q0 -39 10 -85q3 -14 3 -19q0 -14 -13 -14q-14 0 -34.5 39.5t-31.5 86.5l-151 -151q35 -52 35 -109q0 -76 -53 -129.5t-127 -53.5
t-127 53.5t-53 129.5q0 75 53 128.5t127 53.5q60 0 112 -39zM273 374q-55 0 -94 -39.5t-39 -94.5q0 -57 39 -97t94 -40t94 40t39 96t-39 95.5t-94 39.5z" />
    <glyph glyph-name="spade" unicode="&#x2660;" horiz-adv-x="667" 
d="M561 0h-455v18q82 14 122.5 39.5t71.5 81.5q26 46 27 116q-44 -102 -140 -102q-51 0 -87 37t-36 89q0 46 26.5 85.5t99.5 100.5q122 102 144 221q21 -119 143 -221q72 -60 99 -100t27 -86q0 -52 -36 -89t-87 -37q-96 0 -140 102q1 -78 35 -131q31 -49 70 -70.5t116 -35.5
v-18z" />
    <glyph glyph-name="club" unicode="&#x2663;" horiz-adv-x="667" 
d="M561 0h-455v18q221 31 221 256q-72 -127 -177 -127q-62 0 -104.5 44t-42.5 108q0 62 38.5 104.5t93.5 42.5q29 0 71 -21q4 -2 15 -8q-36 55 -36 100q0 59 44 101t105 42t104.5 -42t43.5 -101q0 -47 -36 -100l15 8q39 21 71 21q55 0 93.5 -43t38.5 -104q0 -64 -42.5 -108
t-104.5 -44q-105 0 -177 127q0 -225 221 -256v-18z" />
    <glyph glyph-name="heart" unicode="&#x2665;" horiz-adv-x="667" 
d="M333 -11q-16 66 -52.5 128t-133.5 193q-54 73 -72.5 112t-18.5 82q0 57 37.5 96t92.5 39q105 0 147 -130q37 131 146 131q56 0 94 -39.5t38 -97.5q0 -61 -48 -139q-19 -31 -89 -120q-117 -148 -141 -255z" />
    <glyph glyph-name="diamond" unicode="&#x2666;" horiz-adv-x="667" 
d="M80 333q54 60 130 167t124 193q49 -87 124 -194t129 -166q-54 -58 -129 -165t-124 -194q-50 88 -125.5 194.5t-128.5 164.5z" />
    <glyph glyph-name="musicalnote" unicode="&#x266a;" horiz-adv-x="667" 
d="M306 667h46v-61q7 -8 15 -18l52 -63q91 -110 91 -224q0 -94 -57 -163h-28q33 79 33 145q0 68 -31 119.5t-75 57.5v-297q0 -68 -29 -108q-46 -64 -121 -64q-32 0 -51.5 16.5t-19.5 44.5q0 46 36.5 80.5t85.5 34.5q28 0 53 -11v511z" />
    <glyph glyph-name="musicalnotedbl" unicode="&#x266b;" horiz-adv-x="667" 
d="M195 587l421 107v-495q0 -68 -29 -108q-46 -64 -121 -64q-32 0 -51.5 16.5t-19.5 44.5q0 46 36.5 80.5t85.5 34.5q25 0 53 -11v270l-329 -90v-229q0 -68 -29 -108q-46 -64 -121 -64q-32 0 -51.5 16.5t-19.5 44.5q0 46 36.5 80.5t85.5 34.5q28 0 53 -11v451zM241 448
l329 90v70l-329 -90v-70z" />
    <glyph glyph-name="nmacron" unicode="&#xe00c;" horiz-adv-x="703" 
d="M249 491v-82q45 47 81.5 64.5t91.5 17.5q114 0 158 -77q23 -38 23 -125v-157q0 -59 8.5 -74.5t48.5 -24.5l20 -2v-31h-296v31l18 2q38 9 46.5 25t8.5 74v147q0 82 -16 113q-23 44 -78 44q-64 0 -92 -58q-14 -29 -14 -98v-148q0 -59 8.5 -74.5t46.5 -24.5l18 -2v-31h-295
v31l20 2q39 9 48 24.5t9 74.5v213q0 50 -4 65q-10 35 -53 38l-25 2v31zM500 655v-58h-305v58h305z" />
    <glyph glyph-name="ahungarumlaut" unicode="&#xeb01;" horiz-adv-x="587" 
d="M570 68l11 -20q-83 -56 -138 -56q-39 0 -65 28q-13 14 -25 52q-83 -82 -171 -82q-65 0 -102.5 36.5t-37.5 98.5q0 87 80 124q30 14 150 34l77 13q-1 96 -11 119q-18 43 -79 43q-24 0 -43.5 -8.5t-19.5 -19.5q0 -4 15 -22q11 -11 11 -31q0 -29 -21.5 -47.5t-54.5 -18.5
t-53 19t-20 51q0 110 211 110q142 0 186 -69q22 -35 22 -120v-160q0 -87 38 -87q14 0 40 13zM350 164v99q-92 -13 -125 -36t-33 -74q0 -40 21.5 -65.5t55.5 -25.5q39 0 65 34q16 21 16 68zM208 536l-14 14l130 161q22 27 42 27q14 0 25.5 -13t11.5 -30q0 -24 -29 -44z
M367 536l-14 14l130 161q22 27 42 27q14 0 25.5 -13t11.5 -30q0 -24 -29 -44z" />
    <glyph glyph-name="Dbreve" unicode="&#xeb06;" horiz-adv-x="814" 
d="M132 131v405q0 56 -10 70q-13 18 -52 24l-27 4v33h379q160 0 236 -62q113 -92 113 -269q0 -199 -129 -287q-72 -49 -220 -49h-379v33l27 4q39 6 52 24q10 14 10 70zM299 41h58q122 0 176.5 68.5t54.5 223.5q0 157 -54.5 225.5t-179.5 68.5h-55v-586zM527 892h35
q-7 -175 -172 -175q-164 0 -171 175h34q19 -107 137 -107t137 107z" />
    <glyph glyph-name="gcommamirror" unicode="&#xeb0c;" horiz-adv-x="584" 
d="M160 200q-99 38 -99 133q0 76 55 117t166 41q98 0 149 -31q-3 29 -3 37q0 43 25.5 71t64.5 28q29 0 48 -18.5t19 -46.5q0 -26 -16 -43t-40 -17q-38 0 -44 35q-2 12 -10 12q-20 0 -20 -39q0 -24 25 -56q29 -37 29 -83q0 -100 -99 -136q-45 -16 -184 -17q-63 0 -63 -38
q0 -21 23 -31q18 -8 145 -15q111 -6 157 -30q66 -35 66 -119q0 -83 -74.5 -132t-202.5 -49q-111 0 -177.5 37.5t-66.5 100.5q0 58 85 96q-60 29 -60 84q0 75 102 109zM286 459q-43 0 -67.5 -32t-24.5 -88q0 -57 24.5 -89t67.5 -32t67 31.5t24 87.5q0 58 -24 90t-67 32z
M156 -8l-6 -4l-3 -3q-30 -23 -30 -52q0 -50 51 -87t119 -37q62 0 101 26t39 68q0 33 -22 48.5t-75 18.5q-106 7 -174 22zM331 742l9 -22q-63 -20 -74 -74l4 -3q17 8 30 8q22 0 36 -14t14 -36q0 -23 -17.5 -39t-42.5 -16q-30 0 -49.5 21t-19.5 53q0 89 110 122z" />
    <glyph glyph-name="ocommaaccent" unicode="&#xeb15;" horiz-adv-x="616" 
d="M308 491q270 0 270 -251q0 -122 -69 -186t-200 -64q-271 0 -271 254q0 127 76 190q68 57 194 57zM306 457q-60 0 -86 -49.5t-26 -163.5q0 -121 26 -170.5t90 -49.5q60 0 86 50t26 166q0 118 -26.5 167.5t-89.5 49.5zM267 -243l-9 22q64 20 73 74l-4 3q-16 -8 -29 -8
q-22 0 -36 14t-14 36q0 23 17 39t43 16q30 0 49 -21t19 -53q0 -89 -109 -122z" />
    <glyph glyph-name="Sbreve" unicode="&#xeb1e;" horiz-adv-x="625" 
d="M533 673l2 -223l-42 -2q-19 95 -51 135q-50 62 -133 62q-47 0 -77 -26t-30 -67q0 -55 48 -89q33 -24 127 -57q98 -35 135 -65q61 -50 61 -138q0 -57 -27 -106t-72 -73q-68 -37 -172 -37q-67 0 -146 24q-30 9 -37 9q-15 0 -38 -26h-25l-3 252l43 2q21 -79 47 -123
q59 -99 168 -99q55 0 88.5 29t33.5 76q0 49 -40 77q-20 14 -36 21q-19 9 -98 39q-100 39 -146 90.5t-46 126.5q0 92 60.5 144.5t166.5 52.5q69 0 158 -28q13 -4 21 -4q14 0 34 23h26zM446 892h34q-6 -175 -171 -175q-163 0 -172 175h35q18 -107 136 -107q119 0 138 107z" />
    <glyph glyph-name="Tcaron_1" unicode="&#xeb22;" horiz-adv-x="918" 
d="M684 667l5 -229h-44l-18 50q-29 80 -68 115q-27 24 -86 24h-41v-496q0 -55 10 -70q12 -18 53 -24l29 -4v-33h-353v33l29 4q40 5 52 24q10 15 10 70v496h-41q-65 0 -97 -35t-57 -104l-18 -50h-44l5 229h674zM767 474l-9 24q68 22 78 79l-4 3q-18 -9 -32 -9q-23 0 -38 15
t-15 38q0 26 18 43t46 17q32 0 52.5 -22t20.5 -57q0 -96 -117 -131z" />
    <glyph glyph-name="tcaron_1" unicode="&#xeb23;" horiz-adv-x="390" 
d="M362 481v-35h-123v-255q0 -71 17 -99q25 -42 69 -42q15 0 48 9l9 -24q-89 -45 -168 -45q-84 0 -108 54q-13 29 -13 101v301h-94v35h94v89l111 77h35v-166h123zM172 679l-178 173l20 23l158 -108l157 108l20 -23z" />
    <glyph glyph-name="ucommaaccent" unicode="&#xeb26;" horiz-adv-x="695" 
d="M448 0v68q-74 -78 -176 -78q-100 0 -145 68q-29 44 -29 125l-1 190q-1 38 -12.5 53.5t-43.5 21.5l-25 2v31l227 10v-310q0 -71 22 -103t72 -32q79 0 100 74q7 23 7 69v156q0 49 -4 65q-9 34 -53 38l-25 2v31l227 10v-359q0 -60 8.5 -75t48.5 -24l20 -2v-31h-218z
M298 -243l-9 22q64 20 73 74l-3 3q-17 -8 -30 -8q-22 0 -36 14t-14 36q0 23 17 39t43 16q30 0 49 -21t19 -53q0 -89 -109 -122z" />
    <glyph glyph-name="yhungarumlaut" unicode="&#xeb2b;" horiz-adv-x="565" 
d="M334 103l97 270q10 28 10 40q0 34 -60 37v31h194v-31q-36 -4 -54.5 -24t-45.5 -85l-142 -338q-58 -138 -79 -167q-45 -63 -123 -63q-52 0 -83.5 25.5t-31.5 66.5q0 31 19 50.5t50 19.5q25 0 42 -15.5t17 -38.5q0 -18 -12 -34t-12 -22q0 -19 32 -19q37 0 64 35
q22 28 51 100q9 22 26 59h-67l-148 366q-23 56 -35 67.5t-49 16.5v31h299v-31q-64 -4 -64 -38q0 -16 18 -66zM237 536l-14 14l130 161q22 27 42 27q14 0 25.5 -13t11.5 -30q0 -24 -29 -44zM396 536l-14 14l130 161q22 27 42 27q14 0 25.5 -13t11.5 -30q0 -24 -29 -44z" />
    <glyph glyph-name="dcaron_1" unicode="&#xeb30;" horiz-adv-x="664" 
d="M565 700v-568q0 -59 9 -74.5t48 -24.5l20 -2v-31h-219v72q-60 -82 -162 -82q-100 0 -161.5 69.5t-61.5 183.5q0 112 63 180t167 68q96 0 152 -66v148q0 40 -15.5 57.5t-54.5 17.5h-17v33zM310 449q-59 0 -85.5 -49.5t-26.5 -151.5q0 -205 111 -205q76 0 100 79
q11 37 11 117q0 109 -19 152q-25 58 -91 58zM492 725l-177 173l20 23l157 -108l158 108l20 -23z" />
    <glyph glyph-name="Lcaron_1" unicode="&#xeb31;" horiz-adv-x="661" 
d="M642 246l-24 -246h-575v33l26 4q40 6 53 24q10 14 10 70v405q0 56 -10 70q-13 18 -53 24l-26 4v33h350v-33l-32 -4q-46 -6 -57 -33q-5 -14 -5 -61v-495h81q69 0 108 29t78 110l32 66h44zM474 474l-9 24q66 21 78 79l-5 3q-17 -9 -31 -9q-23 0 -38 15t-15 38q0 26 18 43
t46 17q32 0 52.5 -22t20.5 -57q0 -96 -117 -131z" />
    <glyph glyph-name="Commaaccent" unicode="&#xeb86;" 
d="M202 474l-9 24q66 21 78 79l-5 3q-17 -9 -31 -9q-23 0 -38 15t-15 38q0 26 18 43t46 17q32 0 52.5 -22t20.5 -57q0 -96 -117 -131z" />
    <glyph glyph-name="commaaccent" unicode="&#xeb87;" 
d="M205 503l-9 22q64 20 73 74l-4 4q-15 -9 -29 -9q-22 0 -36 14t-14 36q0 24 17 40t43 16q30 0 49 -21t19 -53q0 -90 -109 -123z" />
    <glyph glyph-name="commamirror" unicode="&#xeb9d;" 
d="M283 742l8 -22q-64 -20 -73 -74l4 -3q16 8 29 8q22 0 36 -14t14 -36q0 -23 -17 -39t-43 -16q-30 0 -49 21t-19 53q0 89 110 122z" />
    <glyph glyph-name="Slashstroke" unicode="&#xeb9e;" 
d="M340 514v-57l-374 -279v58z" />
    <glyph glyph-name="slashstroke" unicode="&#xeb9f;" 
d="M396 490v-45l-292 -221v44z" />
    <glyph glyph-name="Dieresisnarrow" unicode="&#xebce;" 
d="M150 866q32 0 54 -20t22 -49t-22 -48.5t-54 -19.5t-53.5 20t-21.5 50q0 28 22 47.5t53 19.5zM350 866q32 0 54 -20t22 -49t-22 -48.5t-54 -19.5t-53.5 20t-21.5 50q0 28 22 47.5t53 19.5z" />
    <glyph glyph-name="dieresisnarrow" unicode="&#xebcf;" 
d="M157 695q31 0 52.5 -19t21.5 -48t-21.5 -48t-52.5 -19t-52 19.5t-21 48.5q0 28 21.5 47t51.5 19zM343 695q31 0 52.5 -19t21.5 -48t-21.5 -48t-53.5 -19q-31 0 -52 19.5t-21 48.5q0 28 21.5 47t52.5 19z" />
    <glyph glyph-name="Pts" unicode="&#xec00;" horiz-adv-x="1169" 
d="M268 290v-161q0 -56 11 -69q13 -20 55 -25l25 -3v-32h-325v32l21 3q39 6 52 24q10 14 10 70v403q0 55 -10 69q-13 18 -52 24l-21 3v32h326q102 0 153 -36q71 -50 71 -147q0 -68 -39.5 -114t-111.5 -62q-45 -10 -165 -11zM267 327h30q70 0 102 34.5t32 111.5q0 98 -47 132
q-25 18 -83 18h-34v-296zM806 280v-34h-100v-64q0 -62 15 -90q22 -42 63 -42q18 0 37 9l8 -23q-8 -4 -17 -9q-64 -35 -118 -35q-85 0 -109 53q-13 29 -13 101v100h-79v34h79v64l99 67h35v-131h100zM1109 302l2 -96l-25 -1q-22 73 -90 73q-41 0 -41 -31q0 -16 14 -26.5
t59 -28.5q64 -26 78 -40q22 -23 22 -60q0 -100 -127 -100q-45 0 -83 13q-9 3 -12 3q-6 0 -17 -12h-20l-1 116l25 2q21 -52 43 -72.5t55 -20.5q49 0 49 37q0 16 -10.5 23t-55.5 24q-99 37 -99 106q0 95 116 95q39 0 76 -11q7 -2 9 -2q6 0 14 9h19z" />
    <glyph glyph-name="peseta2" unicode="&#xec01;" horiz-adv-x="628" 
d="M123 453h-83v38h83v41q0 55 -10 69q-13 18 -52 24l-21 3v32h326q207 0 222 -169h77v-38h-77q-12 -99 -83.5 -139t-230.5 -36v-149q0 -56 11 -69q13 -20 55 -25l25 -3v-32h-325v32l21 3q39 6 52 24q10 14 10 70v324zM273 453v-137q13 -1 35 -1q86 0 114 65q11 27 14 73
h-163zM273 491h163q-3 59 -27 95.5t-102 36.5h-34v-132z" />
    <glyph glyph-name="onenarrow" unicode="&#xec02;" horiz-adv-x="493" 
d="M356 668v-529q0 -65 20.5 -84t97.5 -23v-32h-400v32q73 5 98.5 22t25.5 82v345q0 31 -7 39.5t-34 8.5l-97 1v29q145 16 208 109h88z" />
    <glyph glyph-name="oneone" unicode="&#xec03;" horiz-adv-x="933" 
d="M272 665v-316q0 -39 15 -50q12 -9 58 -11v-24h-252v24q47 3 59 10q17 10 17 49v205q0 17 -3.5 21t-19.5 4l-62 1v22q91 9 129 65h59zM704 660l-404 -660h-45l404 660h45zM800 401v-316q0 -39 15 -50q12 -9 58 -11v-24h-253v24q48 3 59 10q18 10 18 49v205q0 17 -3.5 21
t-19.5 4l-62 1v22q91 9 129 65h59z" />
    <glyph glyph-name="space10mm" unicode="&#xec05;" horiz-adv-x="67" 
 />
    <glyph glyph-name="space5mm" unicode="&#xec06;" horiz-adv-x="33" 
 />
    <glyph glyph-name="space2mm" unicode="&#xec07;" horiz-adv-x="13" 
 />
    <glyph glyph-name="space1mm" unicode="&#xec08;" horiz-adv-x="7" 
 />
    <glyph glyph-name="spacehalfmm" unicode="&#xec09;" horiz-adv-x="3" 
 />
    <glyph glyph-name="eightperemspace" unicode="&#xec04;" horiz-adv-x="125" 
 />
    <glyph glyph-name="ft" unicode="&#xec0a;" horiz-adv-x="727" 
d="M35 446v35h77l-1 41q-2 81 46.5 129.5t130.5 48.5q54 0 87.5 -25t33.5 -65q0 -30 -19 -50t-47 -20q-26 0 -42.5 16t-16.5 41q0 17 15 40q5 8 5 12q0 19 -34 19q-26 0 -43 -19.5t-17 -49.5q0 -66 47 -118h174v83l111 83h35v-166h122v-35h-122v-255q0 -70 17 -99
q25 -42 69 -42q14 0 47 9l9 -24q-87 -45 -166 -45q-84 0 -109 54q-13 29 -13 101v301h-174v-314q0 -59 9 -74.5t48 -23.5l29 -3v-31h-308v31l20 2q39 9 48 24.5t9 74.5v314h-77z" />
    <glyph glyph-name="fff" unicode="&#xec0b;" horiz-adv-x="1055" 
d="M35 446v35h77q1 110 48 157q60 61 212 61q62 0 139 -22q6 -2 22 -6q64 29 151 29q69 0 151 -24q42 24 107 24q62 0 99 -24.5t37 -65.5q0 -31 -19.5 -51t-48.5 -20q-26 0 -43 16.5t-17 41.5q0 19 15 41q4 10 4 11q0 19 -37 19q-27 0 -44.5 -20.5t-17.5 -53.5
q0 -38 24 -113h121v-35h-121v-314q0 -59 9 -74.5t48 -23.5l29 -3v-31h-301v31l16 2q38 11 46 26t8 73v314h-174v-314q0 -60 9 -76.5t47 -21.5l23 -3v-31h-294v31l16 2q38 11 46 26t8 73v314h-173v-314q0 -60 9 -76.5t47 -21.5l23 -3v-31h-301v31l20 2q39 9 48 24.5t9 74.5
v314h-77zM257 481h173q0 112 46 156q-50 30 -95 30q-125 0 -125 -162q0 -14 1 -24zM749 481v31q0 79 38 130q-47 25 -87 25q-126 0 -126 -162q0 -14 1 -24h174z" />
    <glyph glyph-name="fft" unicode="&#xec0c;" horiz-adv-x="1046" 
d="M35 446v35h77q1 109 48 157q59 61 211 61q61 0 141 -22q38 23 95 23q53 0 86.5 -25t33.5 -65q0 -30 -19 -50t-47 -20q-25 0 -42 16t-17 40q0 18 15 41q5 8 5 12q0 19 -34 19q-26 0 -43 -19.5t-17 -49.5q0 -66 47 -118h174v83l111 83h35v-166h123v-35h-123v-255
q0 -70 17 -99q25 -42 70 -42q14 0 47 9l9 -24q-87 -45 -167 -45q-85 0 -109 54q-13 30 -13 101v301h-174v-314q0 -59 9 -74.5t48 -23.5l29 -3v-31h-301v31l16 2q38 11 46 26t8 73v314h-173v-314q0 -60 9 -76.5t47 -21.5l23 -3v-31h-301v31l20 2q39 9 48 24.5t9 74.5v314h-77
zM430 481l-1 39q-2 67 37 122q-46 25 -85 25q-125 0 -125 -162q0 -14 1 -24h173z" />
    <glyph glyph-name="currency_2" unicode="&#xec13;" horiz-adv-x="528" 
d="M24 429l46 47l102 -103q48 28 91 28q42 0 90 -27l101 100l44 -45l-100 -100q27 -45 27 -92q0 -48 -27 -89l102 -106l-46 -44l-101 104q-41 -27 -88 -27q-46 0 -94 29l-102 -105l-45 46l104 103q-28 47 -28 92t28 88zM263 343q-43 0 -74 -30.5t-31 -72.5q0 -45 31 -76.5
t75 -31.5q43 0 73.5 31t30.5 75t-30.5 74.5t-74.5 30.5z" />
    <glyph glyph-name="Dotaccent" unicode="&#xefed;" 
d="M250 868q34 0 57.5 -20.5t23.5 -49.5q0 -31 -23 -51t-58 -20q-34 0 -57 20.5t-23 51.5q0 28 23.5 48.5t56.5 20.5z" />
    <glyph glyph-name="Breve" unicode="&#xefee;" 
d="M387 892h35q-7 -175 -171 -175q-165 0 -172 175h34q19 -107 137 -107t137 107z" />
    <glyph glyph-name="Ogonek" unicode="&#xeff1;" 
d="M441 0h41q-54 -39 -54 -93q0 -29 17.5 -47t46.5 -18q20 0 47 12l13 -26q-43 -23 -91 -23q-55 0 -86.5 23.5t-31.5 63.5q0 71 98 108z" />
    <glyph glyph-name="Cedilla" unicode="&#xeff2;" 
d="M278 4l-21 -59q15 2 28 2q36 0 59.5 -17.5t23.5 -45.5q0 -37 -35 -60.5t-90 -23.5q-30 0 -72 9l5 30q25 -4 39 -4q31 0 50 13.5t19 35.5q0 34 -50 34l-26 -2l31 88h39z" />
    <glyph glyph-name="Ring" unicode="&#xeff3;" 
d="M250 891q54 0 86.5 -25.5t32.5 -67.5q0 -41 -33 -67t-85 -26q-55 0 -87.5 26t-32.5 69q0 41 33 66t86 25zM250 860q-27 0 -44 -17t-17 -44q0 -28 17 -45.5t44 -17.5q26 0 43.5 18t17.5 45t-17 44t-44 17z" />
    <glyph glyph-name="Tilde" unicode="&#xeff5;" 
d="M407 864l34 -2q-7 -129 -93 -129q-31 0 -142 45q-37 15 -63 15q-21 0 -32 -13.5t-19 -49.5l-34 4q4 51 18 79q23 46 77 46q35 0 115 -31q70 -27 90 -27q23 0 34 13.5t15 49.5z" />
    <glyph glyph-name="Circumflex" unicode="&#xeff7;" 
d="M250 901l185 -173l-20 -23l-165 108l-164 -108l-20 23z" />
    <glyph glyph-name="Commabelow" unicode="&#xf634;" 
d="M202 -257l-9 24q67 21 78 79l-5 4q-17 -9 -31 -9q-23 0 -38 15t-15 38q0 26 18 42.5t46 16.5q32 0 52.5 -22t20.5 -57q0 -95 -117 -131z" />
    <glyph glyph-name="zeronarrow" unicode="&#xf639;" horiz-adv-x="628" 
d="M314 675q128 0 190 -67q73 -79 73 -278q0 -198 -73 -278q-61 -67 -189 -67q-130 0 -191 67q-73 80 -73 284q0 178 62.5 258.5t200.5 80.5zM316 643q-71 0 -92 -72q-23 -80 -23 -240q0 -158 23 -241q20 -73 91 -73q69 0 89 73q23 83 23 238q0 170 -23 245q-22 70 -88 70z
" />
    <glyph glyph-name="twonarrow" unicode="&#xf63a;" horiz-adv-x="568" 
d="M517 217l-31 -217h-464q8 89 49.5 151.5t126 118.5t116 105.5t31.5 124.5q0 139 -112 139q-37 0 -66.5 -18t-29.5 -40q0 -16 20 -18q51 -6 51 -58q0 -33 -22.5 -55t-56.5 -22q-37 0 -61.5 27t-24.5 67q0 69 63.5 111t167.5 42q114 0 175 -46.5t61 -132.5q0 -87 -59 -146
q-28 -28 -57.5 -44t-106 -45t-116 -59.5t-59.5 -77.5h305q23 0 33.5 6t18.5 28l23 59h25z" />
    <glyph glyph-name="threenarrow" unicode="&#xf63b;" horiz-adv-x="556" 
d="M137 327v40q29 -4 46 -4q135 0 135 150q0 131 -98 131q-32 0 -53.5 -15.5t-21.5 -38.5q0 -17 23 -17q20 0 33.5 -15t13.5 -38q0 -31 -21.5 -53t-53.5 -22q-34 0 -56.5 25.5t-22.5 63.5q0 64 52.5 102.5t140.5 38.5q100 0 156 -40t56 -112q0 -136 -186 -165v-10h21
q95 0 145.5 -41t50.5 -117q0 -92 -73 -148.5t-194 -56.5q-88 0 -141 35t-53 93q0 38 23.5 62t60.5 24q31 0 51 -18.5t20 -47.5q0 -34 -27 -53q-22 -16 -22 -26q0 -16 17.5 -26.5t44.5 -10.5q60 0 94.5 45t34.5 124q0 144 -139 144q-10 0 -57 -3z" />
    <glyph glyph-name="fournarrow" unicode="&#xf63c;" horiz-adv-x="597" 
d="M448 668v-418h130l-24 -69h-106v-69q0 -48 16 -62t75 -19v-31h-341v31q56 1 77.5 19t21.5 63v68h-275v66l310 421h116zM297 563l-222 -313h222v313z" />
    <glyph glyph-name="fivenarrow" unicode="&#xf63d;" horiz-adv-x="574" 
d="M70 321l37 339h255q44 0 60 8q22 10 36 48h24l-27 -179h-321l-20 -172q79 54 177 54q107 0 172 -59t65 -156q0 -101 -71.5 -160t-192.5 -59q-103 0 -164.5 36.5t-61.5 97.5q0 35 23 57.5t57 22.5q32 0 52 -18.5t20 -48.5q0 -29 -32 -56q-12 -10 -12 -19q0 -16 25 -27.5
t59 -11.5q65 0 100.5 46.5t35.5 132.5q0 81 -35.5 125.5t-100.5 44.5q-67 0 -133 -59z" />
    <glyph glyph-name="sixnarrow" unicode="&#xf63e;" horiz-adv-x="609" 
d="M202 355q71 56 155 56q95 0 154 -56.5t59 -147.5q0 -104 -74 -167q-65 -55 -178 -55q-139 0 -205 78t-66 244q0 195 91 289q77 80 208 80q83 0 134 -31.5t51 -83.5q0 -34 -22.5 -57t-56.5 -23q-31 0 -51.5 19t-20.5 47q0 23 16 43t16 25q0 12 -17.5 20.5t-41.5 8.5
q-151 0 -151 -289zM310 371q-105 0 -105 -169q0 -184 105 -184t105 181q0 172 -105 172z" />
    <glyph glyph-name="sevennarrow" unicode="&#xf63f;" horiz-adv-x="555" 
d="M551 660l-15 -88l-22 -36q-1 -2 -56 -77q-69 -95 -95 -164t-37 -189q-7 -72 -29.5 -96t-60.5 -24q-94 0 -94 93q0 92 64 185q25 36 54 65t132 119q52 46 86 89h-338q-32 0 -42 -30l-23 -66h-25l31 219h470z" />
    <glyph glyph-name="eightnarrow" unicode="&#xf640;" horiz-adv-x="600" 
d="M216 349q-161 27 -161 152q0 83 63.5 128.5t181.5 45.5q117 0 180.5 -45.5t63.5 -128.5q0 -127 -161 -152q87 -16 135 -63.5t48 -115.5q0 -88 -69.5 -136.5t-197.5 -48.5q-127 0 -196 48.5t-69 136.5q0 141 182 179zM300 644q-49 0 -77 -36t-28 -98q0 -64 28.5 -102
t76.5 -38t76.5 37.5t28.5 100.5q0 64 -28 100t-77 36zM300 330q-52 0 -82.5 -42.5t-30.5 -113.5q0 -74 29.5 -114.5t82.5 -40.5t83 41t30 112q0 72 -30.5 115t-81.5 43z" />
    <glyph glyph-name="ninenarrow" unicode="&#xf641;" horiz-adv-x="609" 
d="M405 318q-66 -60 -154 -60q-94 0 -152.5 56.5t-58.5 147.5q0 105 77 166q61 48 170 48q143 0 208.5 -77t65.5 -243q0 -199 -87 -288q-81 -83 -222 -83q-85 0 -137.5 34.5t-52.5 90.5q0 34 23.5 57t58.5 23q33 0 53 -18t20 -48q0 -18 -6 -28.5t-29 -31.5q-7 -6 -7 -14
q0 -14 21.5 -24t51.5 -10q81 0 119 73t38 229zM296 642q-105 0 -105 -167q0 -175 106 -175q105 0 105 172q0 170 -106 170z" />
    <glyph glyph-name="dotlessj" unicode="&#xf6be;" horiz-adv-x="334" 
d="M258 491v-493q0 -105 -58.5 -165t-161.5 -60q-58 0 -92.5 24.5t-34.5 65.5q0 30 19.5 50t49.5 20q26 0 43 -16.5t17 -41.5q0 -20 -21 -41q-7 -7 -7 -12q0 -17 32 -17q45 0 61 46q8 22 8 86v412q0 60 -9.5 75.5t-50.5 23.5l-27 2v31z" />
    <glyph glyph-name="Scedilla1" unicode="&#xf6c1;" horiz-adv-x="625" 
d="M308 -13l-16 -42q23 3 29 3q36 0 59.5 -17.5t23.5 -45.5q0 -37 -35 -61t-90 -24q-30 0 -72 9l5 30q25 -4 39 -4q31 0 50 14t19 36q0 34 -50 34q-6 0 -26 -3l26 71q-55 6 -114 24q-29 9 -37 9q-16 0 -38 -26h-25l-3 253l43 1q21 -80 47 -123q59 -99 168 -99q55 0 88.5 29
t33.5 76q0 49 -40 77q-20 14 -36 21q-19 9 -98 39q-100 39 -146 90.5t-46 126.5q0 92 60.5 144.5t166.5 52.5q70 0 158 -28q13 -4 21 -4q14 0 34 23h26l2 -223l-42 -2q-19 95 -51 135q-50 62 -133 62q-47 0 -77 -26t-30 -67q0 -55 48 -89q34 -24 127 -57q97 -34 135 -65
q61 -50 61 -138q0 -90 -62 -152t-203 -64z" />
    <glyph glyph-name="scedilla1" unicode="&#xf6c2;" horiz-adv-x="485" 
d="M247 -10l-17 -45q20 2 25 2q33 0 54 -17t21 -43q0 -35 -33.5 -56.5t-89.5 -21.5q-23 0 -58 8l6 26q23 -4 37 -4q29 0 47.5 13.5t18.5 35.5q0 33 -44 33q-11 0 -31 -4l27 74q-45 7 -95 20q-11 3 -21 3q-12 0 -26 -18h-19l-2 182l31 1q52 -157 159 -157q37 0 60.5 19
t23.5 49q0 34 -31 53q-18 11 -90 38q-144 54 -144 161q0 149 180 149q64 0 119 -17q10 -3 16 -3q11 0 21 14h19l2 -149l-31 -2q-19 57 -46 84q-43 43 -96 43q-33 0 -53 -16.5t-20 -42.5q0 -30 26.5 -51t100.5 -50q83 -32 110 -55q40 -34 40 -99q0 -107 -94 -143
q-37 -14 -103 -14z" />
    <glyph glyph-name="Acute" unicode="&#xf6c9;" 
d="M199 709l-11 18l189 150q24 19 42 19q16 0 27.5 -12.5t11.5 -30.5q0 -30 -38 -47z" />
    <glyph glyph-name="Caron" unicode="&#xf6ca;" 
d="M250 708l-184 174l20 22l164 -108l165 108l20 -22z" />
    <glyph glyph-name="Dieresis" unicode="&#xf6cb;" 
d="M119 868q34 0 57.5 -20.5t23.5 -49.5q0 -31 -23 -51t-58 -20q-34 0 -57 20.5t-23 51.5q0 28 23.5 48.5t56.5 20.5zM380 868q34 0 57.5 -20.5t23.5 -49.5q0 -31 -23 -51t-58 -20q-34 0 -57 20.5t-23 51.5q0 28 23.5 48.5t56.5 20.5z" />
    <glyph glyph-name="Grave" unicode="&#xf6ce;" 
d="M301 709l-221 97q-38 17 -38 47q0 18 11.5 30.5t27.5 12.5q19 0 43 -19l188 -150z" />
    <glyph glyph-name="Hungarumlaut" unicode="&#xf6cf;" 
d="M131 709l-13 16l127 147q21 24 43 24q16 0 27.5 -13t11.5 -31q0 -26 -33 -46zM300 709l-12 16l126 147q21 24 43 24q16 0 27.5 -13t11.5 -31q0 -27 -32 -46z" />
    <glyph glyph-name="Macron" unicode="&#xf6d0;" 
d="M412 823v-60h-325v60h325z" />
    <glyph glyph-name="onefitted" unicode="&#xf6dc;" horiz-adv-x="493" 
d="M356 668v-529q0 -65 20.5 -83.5t97.5 -23.5v-32h-400v32q73 5 98.5 22t25.5 82v345q0 31 -7 39.5t-34 8.5l-97 1v29q145 16 208 109h88z" />
    <glyph glyph-name="centsuperior" unicode="&#xf6e0;" horiz-adv-x="404" 
d="M205 675h30v-58q54 -1 85.5 -20.5t31.5 -51.5q0 -20 -13.5 -32.5t-34.5 -12.5q-45 0 -45 38q0 13 14 29q2 4 2 6q0 19 -43 19q-75 0 -75 -116q0 -121 90 -121q43 0 87 37l17 -18q-52 -50 -116 -57v-62h-30v61q-70 2 -109.5 42t-39.5 109q0 139 149 150v58z" />
    <glyph glyph-name="commasuperior" unicode="&#xf6e2;" horiz-adv-x="192" 
d="M50 177l-8 20q62 18 67 69q-12 -6 -23 -6q-19 0 -32.5 13t-13.5 32q0 21 15.5 35.5t38.5 14.5q57 0 57 -65q0 -88 -101 -113z" />
    <glyph glyph-name="dollarsuperior" unicode="&#xf6e4;" horiz-adv-x="404" 
d="M185 724h30v-55q113 -5 113 -76q0 -21 -14 -35.5t-36 -14.5q-17 0 -29 11t-12 27q0 12 11 23t11 15q0 11 -16.5 18.5t-38.5 7.5q-68 0 -68 -54q0 -50 86 -84q72 -28 101 -57t29 -72q0 -52 -36.5 -85t-100.5 -38v-59h-30v58q-130 6 -130 77q0 22 14.5 36t36.5 14
q44 0 44 -40q0 -11 -13 -30q-3 -3 -3 -7q0 -25 56 -25q80 0 80 62q0 25 -18.5 40.5t-78.5 41.5q-111 48 -111 128q0 104 123 118v55z" />
    <glyph glyph-name="hyphensuperior" unicode="&#xf6e6;" horiz-adv-x="186" 
d="M181 433v-41h-175v41h175z" />
    <glyph glyph-name="periodsuperior" unicode="&#xf6e8;" horiz-adv-x="193" 
d="M95 360q21 0 36 -15t15 -35q0 -21 -15 -36t-35 -15q-21 0 -36 15t-15 36q0 20 15 35t35 15z" />
    <glyph glyph-name="asuperior" unicode="&#xf6e9;" horiz-adv-x="379" 
d="M362 310l9 -16q-54 -35 -89 -35q-41 0 -56 45q-52 -46 -104 -46q-41 0 -65.5 22.5t-24.5 60.5q0 53 51 75q23 10 93 21l45 7q0 53 -6 67q-10 24 -46 24t-36 -14q0 -1 8 -10.5t8 -21.5q0 -17 -14 -29t-36 -12q-48 0 -48 44q0 68 134 68q89 0 116 -42q14 -22 14 -73v-94
q0 -49 21 -49q6 0 26 8zM222 363v56q-53 -7 -72.5 -20t-19.5 -41q0 -52 44 -52q48 0 48 57z" />
    <glyph glyph-name="esuperior" unicode="&#xf6ec;" horiz-adv-x="368" 
d="M318 338l17 -17q-64 -63 -145 -63q-77 0 -119 40t-42 113q0 71 42.5 110t120.5 39q150 0 149 -148h-208q0 -114 89 -114q52 0 96 40zM133 438h118q-6 97 -59 97q-52 0 -59 -97z" />
    <glyph glyph-name="isuperior" unicode="&#xf6ed;" horiz-adv-x="240" 
d="M169 560v-215q0 -35 5 -43t28 -13l15 -2v-23h-190v23l14 2q23 3 28 11.5t5 44.5v125q0 30 -3 39q-7 17 -30 20l-17 2v23zM121 686q22 0 37 -12.5t15 -30.5q0 -19 -15 -31.5t-37 -12.5t-36.5 12.5t-14.5 31.5q0 18 15 30.5t36 12.5z" />
    <glyph glyph-name="lsuperior" unicode="&#xf6ee;" horiz-adv-x="233" 
d="M164 684v-339q0 -36 5 -44.5t28 -11.5l14 -2v-23h-190v23l15 2q23 5 28 13.5t5 42.5v247q0 31 -5 40q-7 14 -35 16l-14 1v23z" />
    <glyph glyph-name="msuperior" unicode="&#xf6ef;" horiz-adv-x="658" 
d="M167 560v-43q42 43 104 43t100 -47q43 47 105 47q73 0 101 -49q13 -23 13 -77v-89q0 -34 5 -42.5t28 -13.5l15 -2v-23h-187v23l12 2q22 4 27 13t5 43v94q0 42 -11 60q-14 23 -43 23q-43 0 -56 -37q-5 -13 -5 -47v-93q0 -34 5 -43t27 -13l12 -2v-23h-183v23l12 2
q22 4 27 12.5t5 43.5v90q0 47 -9 62q-15 24 -45 24q-28 0 -45 -19.5t-17 -51.5v-105q0 -35 5 -43.5t27 -12.5l12 -2v-23h-186v23l14 2q23 3 28 12t5 44v126q0 30 -3 38q-6 17 -30 20l-17 2v23z" />
    <glyph glyph-name="osuperior" unicode="&#xf6f0;" horiz-adv-x="397" 
d="M199 560q169 0 169 -151t-169 -151q-170 0 -170 153q0 72 44 110.5t126 38.5zM198 534q-36 0 -51.5 -28.5t-15.5 -94.5q0 -70 15.5 -98.5t52.5 -28.5q36 0 51.5 28.5t15.5 96.5t-15.5 96.5t-52.5 28.5z" />
    <glyph glyph-name="rsuperior" unicode="&#xf6f1;" horiz-adv-x="322" 
d="M166 560v-50q35 51 85 51q25 0 44.5 -14t19.5 -40q0 -19 -15 -33.5t-35 -14.5q-13 0 -26 12t-13 25q0 7 6 17.5t6 11.5q0 5 -10 5q-21 0 -40 -30t-19 -88v-67q0 -35 5 -43t28 -12l19 -3v-23h-194v23l14 2q23 3 28 11.5t5 44.5v127q0 29 -3 38q-6 16 -30 19l-17 2v23z" />
    <glyph glyph-name="ssuperior" unicode="&#xf6f2;" horiz-adv-x="316" 
d="M264 556l1 -91l-24 -2q-25 74 -85 74q-43 0 -43 -32q0 -30 77 -58q50 -19 69 -33q26 -20 26 -61q0 -96 -123 -96q-37 0 -84 13q-7 2 -12 2q-7 0 -15 -11h-16l-1 110l25 1q28 -90 95 -90q50 0 50 38q0 17 -12 25t-62 26q-91 32 -91 98q0 91 115 91q36 0 73 -10q7 -2 10 -2
q6 0 11 8h16z" />
    <glyph glyph-name="tsuperior" unicode="&#xf6f3;" horiz-adv-x="258" 
d="M234 554v-26h-75v-148q0 -42 10 -57q13 -24 40 -24q9 0 31 6l7 -19q-56 -28 -106 -28q-44 0 -61 20.5t-17 74.5v175h-58v26h58v52l71 47h25v-99h75z" />
    <glyph glyph-name="ff" unicode="&#xfb00;" horiz-adv-x="737" 
d="M35 446v35h77q1 110 48 157q60 61 211 61q68 0 146 -23q45 24 107 24t98.5 -24.5t36.5 -65.5q0 -31 -19.5 -51t-48.5 -20q-26 0 -43 16.5t-17 41.5q0 19 15 41q4 10 4 11q0 19 -36 19q-28 0 -45 -21t-17 -53q0 -38 24 -113h120v-35h-120v-314q0 -59 9 -74.5t48 -23.5
l29 -3v-31h-301v31l16 2q38 11 46 26t8 73v314h-174v-314q0 -60 9 -76.5t47 -21.5l23 -3v-31h-301v31l20 2q39 9 48 24.5t9 74.5v314h-77zM431 481v31q0 80 38 130q-47 25 -87 25q-126 0 -126 -162q0 -14 1 -24h174z" />
    <glyph glyph-name="ffi" unicode="&#xfb03;" horiz-adv-x="999" 
d="M894 481v-349q0 -52 5 -66q10 -29 52 -33l20 -2v-31h-295v31l19 2q36 8 45 24.5t9 74.5v221q0 58 -14.5 75.5t-62.5 17.5h-97v-314q0 -58 9 -74.5t45 -24.5l24 -2v-31h-297v31l9 1q45 5 55 21.5t10 78.5v314h-173v-314q0 -62 10.5 -78t58.5 -22l8 -1v-31h-299v31l20 2
q39 9 48 24.5t9 74.5v314h-77v35h77q1 110 48 157q60 61 212 61q60 0 139 -22q6 -2 22 -6q69 29 163 29q188 0 188 -95q0 -31 -20.5 -50t-55.5 -19q-33 0 -52.5 16.5t-19.5 44.5q0 10 7 29q4 11 4 15q0 28 -55 28q-74 0 -100 -64q-16 -38 -17 -124h319zM430 481l1 15
q7 103 46 141q-52 30 -96 30q-125 0 -125 -162q0 -14 1 -24h173z" />
    </font>
</defs>
</svg>
