<?xml version="1.0" standalone="no"?>
<!DOCTYPE svg PUBLIC "-//W3C//DTD SVG 1.1//EN" "http://www.w3.org/Graphics/SVG/1.1/DTD/svg11.dtd" >
<svg>
<metadata>
Created by FontForge 20110222 at Sun Jul  8 15:14:38 2012
 By Stefan Warting
(c) Copyright SoftMaker Software GmbH and its licensors
</metadata>
<defs>
<font id="AntiquaItalic" horiz-adv-x="500" >
  <font-face 
    font-family="Antiqua"
    font-weight="400"
    font-style="italic"
    font-stretch="normal"
    units-per-em="1000"
    panose-1="0 0 4 0 0 0 0 0 0 0"
    ascent="800"
    descent="-200"
    x-height="477"
    cap-height="667"
    bbox="-152 -261 1029 871"
    underline-thickness="43"
    underline-position="-65"
    slope="-11"
    unicode-range="U+0020-FB04"
  />
<missing-glyph 
d="M63 0v798h375v-798h-375zM125 63h250v673h-250v-673z" />
    <glyph glyph-name=".notdef" 
d="M63 0v798h375v-798h-375zM125 63h250v673h-250v-673z" />
    <glyph glyph-name="NULL" horiz-adv-x="0" 
 />
    <glyph glyph-name="nonmarkingreturn" horiz-adv-x="250" 
 />
    <glyph glyph-name="space" unicode=" " horiz-adv-x="250" 
 />
    <glyph glyph-name="exclam" unicode="!" horiz-adv-x="286" 
d="M150 201h-24q24 95 29.5 145.5t8.5 196.5q1 34 3 53q3 32 13 49q18 32 51 32q49 0 49 -52q0 -41 -35 -117q-39 -86 -57 -143t-38 -164zM113 120q57 0 57 -61q0 -30 -19 -49.5t-48 -19.5q-26 0 -42.5 16.5t-16.5 43.5q0 30 19.5 50t49.5 20z" />
    <glyph glyph-name="quotedbl" unicode="&#x22;" horiz-adv-x="395" 
d="M208 399h-40l-25 268h91zM372 399h-40l-25 268h91z" />
    <glyph glyph-name="numbersign" unicode="#" horiz-adv-x="428" 
d="M90 0l32 158h-79l12 60h79l52 253h-84l12 60h84l28 136h33l-27 -136h97l28 136h33l-27 -136h75l-12 -60h-76l-51 -253h80l-13 -60h-80l-32 -158h-33l32 158h-97l-33 -158h-33zM168 218h97l52 253h-98z" />
    <glyph glyph-name="dollar" unicode="$" horiz-adv-x="527" 
d="M367 763h30l-18 -85q136 -14 136 -106q0 -25 -16.5 -42.5t-40.5 -17.5q-21 0 -35.5 13.5t-14.5 33.5q0 15 22 44q6 8 6 18q0 27 -62 35l-57 -272q70 -51 93 -74q54 -55 54 -120q0 -83 -62 -136.5t-169 -62.5l-19 -91h-30l19 92q-155 21 -155 114q0 28 17 46.5t43 18.5
q22 0 36.5 -14.5t14.5 -36.5t-27 -50q-6 -6 -6 -15q0 -32 82 -39l61 287q-78 55 -106 94t-28 89q0 80 59.5 133.5t154.5 58.5zM290 399l54 257q-43 -4 -68 -19q-64 -38 -64 -114q0 -64 78 -124zM296 287l-58 -271q53 6 82 23q68 39 68 111q0 40 -20 70t-72 67z" />
    <glyph glyph-name="percent" unicode="%" horiz-adv-x="592" 
d="M521 700h39l-443 -733h-38zM231 674q45 0 71 -25t26 -69q0 -77 -44.5 -131t-108.5 -54q-44 0 -70.5 28.5t-24.5 72.5q4 87 57 140q38 38 94 38zM226 652q-34 0 -57 -42q-34 -63 -34 -125q0 -69 43 -69q35 0 62 51q31 59 31 114q0 71 -45 71zM464 272q44 0 70.5 -25
t26.5 -68q0 -77 -44 -131.5t-106 -54.5q-45 0 -71.5 27.5t-26.5 75.5q0 83 57 138q39 38 94 38zM460 250q-36 1 -58 -42q-34 -66 -34 -125q0 -69 43 -69q35 0 62 51q31 59 31 114q0 69 -44 71z" />
    <glyph glyph-name="ampersand" unicode="&#x26;" horiz-adv-x="833" 
d="M817 403l-5 -25q-70 -7 -98 -24.5t-67.5 -79t-65.5 -92.5t-80 -82q67 -71 137 -71q32 0 55 13t23 32q0 10 -19 23.5t-19 38.5q0 24 17.5 41t41.5 17q22 0 37.5 -15t15.5 -37q0 -47 -45 -91q-62 -61 -162 -61q-79 0 -156 57q-108 -57 -202 -57q-82 0 -130.5 42.5
t-48.5 115.5q0 102 85 171q41 33 136 75l-2 25q-3 37 -3 41q0 102 70 169q50 48 125 48q105 0 105 -75q0 -63 -79 -125q-37 -29 -131 -72q35 -155 130 -281q62 55 87 96t25 88q0 35 -22 48.5t-90 21.5l5 25h330zM346 430q16 7 42 20q101 54 101 143q0 26 -14 42t-37 16
q-37 0 -67 -29q-36 -35 -36 -99q0 -35 11 -93zM272 368q-49 -25 -75 -53q-55 -59 -55 -136q0 -62 41 -105t100 -43q47 0 122 37q-103 137 -133 300z" />
    <glyph glyph-name="quotesingle" unicode="'" horiz-adv-x="235" 
d="M211 399h-43l-25 268h94z" />
    <glyph glyph-name="parenleft" unicode="(" horiz-adv-x="342" 
d="M223 -100l-17 -17q-67 60 -94 111q-41 77 -41 185q0 97 31.5 196.5t86.5 174.5q61 84 174 160l14 -19q-88 -69 -137 -156q-46 -82 -73.5 -194.5t-27.5 -216.5q0 -73 19 -123.5t65 -100.5z" />
    <glyph glyph-name="parenright" unicode=")" horiz-adv-x="342" 
d="M151 694l17 16q66 -58 94 -111q41 -77 41 -184q0 -98 -31.5 -197.5t-86.5 -174.5q-62 -85 -175 -160l-13 19q88 68 137 156q46 81 73.5 194t27.5 217q0 73 -19 124t-65 101z" />
    <glyph glyph-name="asterisk" unicode="*" horiz-adv-x="468" 
d="M286 520q3 29 3 37q0 11 -6 57q-1 4 -1 11q0 23 11.5 38t28.5 15q38 0 38 -37q0 -17 -4 -26t-25 -44q-12 -19 -23 -56q29 6 40.5 10t47.5 22q16 8 34 8q41 0 41 -38q0 -40 -49 -40q-9 0 -52 11q-20 5 -45 5q-8 0 -15 -1q17 -31 58 -74q20 -21 20 -46q0 -15 -11 -26
t-27 -11q-19 0 -32 20q-8 12 -10 22t-5 47q-2 28 -14 59q-20 -22 -27 -32t-26.5 -45.5t-48.5 -35.5q-14 0 -25.5 11t-11.5 25q0 18 16 34q6 5 56 29q23 10 52 31q-32 15 -90 26q-22 4 -36.5 17.5t-14.5 29.5q0 14 11.5 25.5t24.5 11.5q20 0 40 -17q3 -2 31 -34
q14 -17 46 -39z" />
    <glyph glyph-name="plus" unicode="+" horiz-adv-x="520" 
d="M25 254h220l48 225h48l-48 -225h223l-9 -44h-223l-48 -223h-48l48 223h-220z" />
    <glyph glyph-name="comma" unicode="," horiz-adv-x="260" 
d="M-13 -134l-3 18q63 22 92 55q23 26 23 42q0 13 -18 13q-53 1 -53 58q0 29 20 48.5t49 19.5q30 0 48 -20t18 -53q0 -72 -71 -131q-37 -31 -105 -50z" />
    <glyph glyph-name="hyphen" unicode="-" horiz-adv-x="252" 
d="M262 266l-11 -53h-252l11 53h252z" />
    <glyph glyph-name="period" unicode="." horiz-adv-x="260" 
d="M102 120q25 0 40.5 -16t15.5 -42q0 -31 -19.5 -51.5t-49.5 -20.5q-57 0 -57 57q0 30 20.5 51.5t49.5 21.5z" />
    <glyph glyph-name="slash" unicode="/" horiz-adv-x="368" 
d="M403 697l-351 -800h-47l350 800h48z" />
    <glyph glyph-name="zero" unicode="0" horiz-adv-x="527" 
d="M362 680q71 0 112.5 -49.5t41.5 -134.5q0 -76 -20.5 -172t-51.5 -163q-80 -174 -230 -174q-154 0 -154 200q0 75 24 173.5t58 163.5q82 156 220 156zM354 653q-96 0 -160 -215q-51 -171 -51 -303q0 -121 75 -121t127 107q33 67 60.5 199.5t27.5 222.5q0 110 -79 110z" />
    <glyph glyph-name="one" unicode="1" horiz-adv-x="527" 
d="M430 680l-116 -546q-6 -28 -6 -44q0 -29 25 -45q21 -14 92 -20l-5 -25h-365l5 25q100 10 128 36t50 131l62 290q5 23 5 36q0 25 -51 25h-92l5 24q84 6 138.5 30.5t111.5 82.5h13z" />
    <glyph glyph-name="two" unicode="2" horiz-adv-x="527" 
d="M443 185l-40 -185h-409q6 78 55 140t159 133q84 54 133 114q59 72 59 141q0 58 -33 91.5t-90 33.5q-37 0 -64.5 -12.5t-27.5 -29.5q0 -9 19 -22q16 -14 16 -36q0 -25 -17.5 -42.5t-41.5 -17.5q-23 0 -39 16.5t-16 40.5q0 49 51 88q55 42 145 42q93 0 146.5 -39t53.5 -107
q0 -99 -97 -179q-32 -27 -56 -41.5t-131 -74.5q-71 -39 -103.5 -70t-51.5 -76h249q52 0 66.5 12.5t41.5 79.5h23z" />
    <glyph glyph-name="three" unicode="3" horiz-adv-x="527" 
d="M166 348l5 23q13 -1 29 -1q80 0 130 34q35 24 57 65t22 84q0 46 -28 73t-75 27q-34 0 -58 -12.5t-24 -30.5q0 -7 17 -20t17 -38q0 -24 -17 -41.5t-42 -17.5q-23 0 -38.5 16.5t-15.5 40.5q0 53 56.5 91.5t135.5 38.5q78 0 123.5 -36.5t45.5 -100.5q0 -99 -98 -148
q-42 -21 -134 -35q79 -10 117 -31q66 -37 66 -119q0 -94 -78 -158.5t-192 -64.5q-78 0 -128 33t-50 85q0 30 18.5 49.5t46.5 19.5q50 0 50 -52q0 -22 -31 -51q-7 -7 -7 -16q0 -17 24 -29t58 -12q77 0 130 60t53 147q0 99 -95 120q-26 6 -90 7z" />
    <glyph glyph-name="four" unicode="4" horiz-adv-x="527" 
d="M480 673l-90 -424h92l-28 -57h-76l-41 -192l-88 -20l45 212h-272l5 22q174 208 323 388q15 19 60 71h70zM306 249l73 344l-130 -160q-27 -34 -82 -103l-67 -81h206z" />
    <glyph glyph-name="five" unicode="5" horiz-adv-x="527" 
d="M111 334l80 336q98 -19 209 -19q55 0 79 4q40 6 72 28l6 -5q-34 -69 -79 -92.5t-145 -23.5q-53 0 -133 8l-54 -207q73 53 151 53t125 -44.5t47 -118.5q0 -58 -25 -113t-68 -91q-73 -62 -180 -62q-74 0 -124 34t-50 85q0 29 17.5 48t43.5 19q23 0 38 -14.5t15 -36.5
t-30 -52q-6 -4 -6 -14q0 -18 23.5 -30t58.5 -12q75 0 123 59q64 78 64 183q0 59 -29 92.5t-80 33.5q-71 0 -130 -67z" />
    <glyph glyph-name="six" unicode="6" horiz-adv-x="527" 
d="M186 357q79 67 157 67q66 0 105 -42t39 -113q0 -92 -53 -172q-73 -110 -205 -110q-166 0 -166 188q0 115 39 225.5t107 189.5q79 91 198 91q56 0 89 -23.5t33 -63.5q0 -29 -18.5 -48t-46.5 -19q-49 0 -49 44q0 19 13 36q16 21 16 26q0 21 -42 21q-81 0 -142 -90
q-39 -57 -74 -207zM308 389q-66 0 -113 -70.5t-47 -169.5q0 -136 92 -136q55 0 93 57q61 91 61 204q0 52 -23.5 83.5t-62.5 31.5z" />
    <glyph glyph-name="seven" unicode="7" horiz-adv-x="527" 
d="M118 484l36 183l57 -4q66 -5 136 -5q83 0 195 9q-15 -75 -45.5 -131.5t-93.5 -124.5q-83 -90 -115.5 -164.5t-41.5 -193.5q-5 -66 -58 -66q-50 0 -50 55q0 132 190 325q127 128 156 214q-99 -4 -135 -4q-62 0 -96 2t-35 2q-29 0 -42.5 -16.5t-37.5 -80.5h-20z" />
    <glyph glyph-name="eight" unicode="8" horiz-adv-x="527" 
d="M365 353q57 -20 82 -54t25 -90q0 -97 -70.5 -159.5t-179.5 -62.5q-83 0 -127.5 39t-44.5 111q0 108 88 172q36 26 101 44q-98 40 -98 129q0 100 83 159q56 40 140 40q76 0 118.5 -37t42.5 -104q0 -77 -57 -131q-33 -31 -103 -56zM362 654q-52 0 -90 -49q-48 -62 -48 -139
q0 -49 21 -76.5t58 -27.5q56 0 97.5 57t41.5 134q0 46 -21.5 73.5t-58.5 27.5zM295 335q-67 0 -110 -69q-41 -65 -41 -148q0 -105 86 -105q62 0 105.5 63.5t43.5 155.5q0 103 -84 103z" />
    <glyph glyph-name="nine" unicode="9" horiz-adv-x="527" 
d="M382 321q-71 -71 -151 -71q-66 0 -105.5 42t-39.5 113q0 117 73 196t180 79q165 0 165 -185q0 -94 -28.5 -194.5t-74.5 -170.5q-95 -143 -229 -143q-61 0 -99 31t-38 81q0 30 17.5 49.5t44.5 19.5q22 0 36 -14t14 -35q0 -15 -5 -23t-27 -28q-10 -9 -10 -18
q0 -14 21 -25.5t48 -11.5q120 0 182 203q10 32 26 105zM338 653q-55 0 -94 -52q-65 -86 -65 -199q0 -118 86 -118q64 0 102 60q52 82 52 184q0 125 -81 125z" />
    <glyph glyph-name="colon" unicode=":" horiz-adv-x="260" 
d="M102 120q25 0 40.5 -16t15.5 -42q0 -31 -19.5 -51.5t-49.5 -20.5q-57 0 -57 57q0 30 20.5 51.5t49.5 21.5zM176 467q25 0 40.5 -16t15.5 -42q0 -31 -19.5 -51.5t-49.5 -20.5q-57 0 -57 57q0 30 20.5 51.5t49.5 21.5z" />
    <glyph glyph-name="semicolon" unicode=";" horiz-adv-x="260" 
d="M-13 -134l-3 18q63 22 92 55q23 26 23 42q0 13 -18 13q-53 1 -53 58q0 29 20 48.5t49 19.5q30 0 48 -20t18 -53q0 -72 -71 -131q-37 -31 -105 -50zM174 467q25 0 40.5 -16t15.5 -42q0 -31 -19.5 -51.5t-49.5 -20.5q-57 0 -57 57q0 30 20.5 51.5t49.5 21.5z" />
    <glyph glyph-name="less" unicode="&#x3c;" horiz-adv-x="513" 
d="M-1 204v35l462 182l23 -36l-411 -164l411 -163l-34 -39z" />
    <glyph glyph-name="equal" unicode="=" horiz-adv-x="540" 
d="M44 322h501l-9 -44h-502zM15 189h502l-9 -44h-502z" />
    <glyph glyph-name="greater" unicode="&#x3e;" horiz-adv-x="513" 
d="M514 236v-35l-451 -186l-34 40l411 162l-411 164l23 37z" />
    <glyph glyph-name="question" unicode="?" horiz-adv-x="420" 
d="M148 161h-21q6 78 30.5 123t95.5 108q92 82 92 153q0 47 -24.5 77.5t-62.5 30.5q-22 0 -39 -10.5t-17 -24.5q0 -8 9 -21q12 -17 12 -33q0 -21 -17.5 -36.5t-41.5 -15.5q-22 0 -36.5 14.5t-14.5 36.5q0 49 47.5 81.5t119.5 32.5q156 0 156 -129q0 -68 -41 -122
q-18 -23 -35.5 -36t-90.5 -58q-76 -46 -93 -71t-28 -100zM134 118q57 0 57 -58q0 -70 -66 -70q-60 0 -60 58q0 31 19.5 50.5t49.5 19.5z" />
    <glyph glyph-name="at" unicode="@" horiz-adv-x="677" 
d="M463 469l60 12l-51 -231q-9 -41 -9 -55q0 -40 39 -40q51 0 89 64.5t38 152.5q0 100 -63 152t-162 52q-134 0 -216 -86.5t-82 -226.5q0 -120 65 -184q68 -67 178 -67q111 0 225 85l-7 -25q-106 -85 -228 -85q-116 0 -194 64q-91 74 -91 211q0 147 97 242t248 95
q122 0 195.5 -63t73.5 -167q0 -92 -57 -167t-127 -75t-70 87q-52 -83 -116 -83q-95 0 -95 122q0 98 62 170q48 56 115 56q55 0 77 -44zM389 458q-47 0 -84 -63.5t-37 -145.5q0 -88 56 -88q44 0 75 64q15 30 29 89t14 88q0 25 -14.5 40.5t-38.5 15.5z" />
    <glyph glyph-name="A" unicode="A" horiz-adv-x="644" 
d="M466 667l81 -512q12 -77 29 -101.5t61 -26.5l-6 -27h-264l6 27q56 9 71.5 17.5t15.5 30.5q0 28 -13 107l-10 61h-239l-72 -134q-22 -41 -22 -53q0 -22 69 -29l-6 -27h-220l6 27q35 2 67 21q20 12 48 54q21 33 92 154q47 81 86 147l75 127q13 24 42 73l38 64h65zM386 580
l-169 -304h215z" />
    <glyph glyph-name="B" unicode="B" horiz-adv-x="651" 
d="M135 667h317q175 0 175 -127q0 -87 -83 -141q-39 -26 -117 -46q70 -9 104 -29q63 -37 63 -114q0 -118 -121 -177q-68 -33 -181 -33h-298l6 27l20 2q54 5 67.5 23t31.5 102l77 361q2 9 5 25q9 45 9 53q0 37 -49 43l-32 4zM261 367h35q60 0 85 4q46 6 77 30q66 50 66 139
q0 71 -70 87q-31 7 -136 7zM254 334l-64 -301q98 1 134 4q32 4 60 15q49 20 78 66t29 104q0 66 -39.5 90.5t-145.5 22.5z" />
    <glyph glyph-name="C" unicode="C" horiz-adv-x="697" 
d="M725 667l-49 -233h-27q-15 216 -174 216q-112 0 -185 -90q-56 -68 -88.5 -161.5t-32.5 -183.5q0 -86 52 -142t132 -56q55 0 108 28.5t127 97.5l35 -34q-119 -122 -280 -122q-133 0 -205 65.5t-72 185.5q0 104 45 201t121 156q109 85 252 85q89 0 185 -44l36 31h20z" />
    <glyph glyph-name="D" unicode="D" horiz-adv-x="740" 
d="M135 667h319q262 0 262 -237q0 -109 -47 -208.5t-125 -156.5q-89 -65 -232 -65h-318l6 26l20 3q55 8 68 25t31 100l77 361q4 16 10 48q4 19 4 31q0 36 -49 42l-32 4zM190 33h46q94 0 145.5 12t89.5 42q65 52 103.5 149.5t38.5 208.5q0 142 -117 176q-45 13 -140 13h-38z
" />
    <glyph glyph-name="E" unicode="E" horiz-adv-x="632" 
d="M646 667l-43 -204h-27q-14 102 -37 135q-26 36 -84 36h-137l-56 -262h80q25 0 36.5 5.5t25.5 26.5q18 26 38 79h27l-58 -271h-26l-1 39l-1 39q-1 30 -8 40t-35 10h-85l-65 -307h126q102 0 156 57q31 32 85 137h30l-49 -227h-542l6 26l18 3q55 9 68 25.5t31 99.5l77 361
q3 13 8.5 39.5t5.5 39.5q0 34 -50 42l-31 5l6 26h511z" />
    <glyph glyph-name="F" unicode="F" horiz-adv-x="583" 
d="M632 667l-44 -204h-26q-16 105 -39 135q-28 36 -101 36h-104l-56 -262h79q25 0 36.5 5.5t25.5 26.5q19 28 38 79h27l-58 -271h-26l-2 78q-1 30 -8 40t-35 10h-84l-40 -188q-13 -61 -13 -78q0 -37 49 -43l31 -4l-6 -27h-280l6 27l18 2q55 6 68 23t31 102l77 361
q13 61 13 79q0 34 -49 42l-31 5l6 26h497z" />
    <glyph glyph-name="G" unicode="G" horiz-adv-x="771" 
d="M740 667l-50 -233h-26q-8 112 -50.5 164t-125.5 52q-76 0 -140 -43q-68 -46 -117.5 -163.5t-49.5 -232.5q0 -195 175 -195q96 0 155 50q24 20 42 76q17 52 17 84q0 23 -24 32q-17 7 -81 15l6 27h304l-6 -27q-60 -7 -79.5 -21t-28.5 -58l-44 -206h-21l-12 20
q-17 28 -25 28q-6 0 -17 -5q-97 -45 -197 -45q-127 0 -197 67t-70 188q0 146 86 272q54 79 141 123t188 44q103 0 191 -44l36 31h20z" />
    <glyph glyph-name="H" unicode="H" horiz-adv-x="780" 
d="M261 367h320l32 148q13 60 13 78q0 37 -49 43l-31 4l6 27h280l-6 -27l-18 -2q-55 -6 -68 -23t-31 -102l-77 -361q-14 -66 -14 -79q0 -36 50 -42l31 -4l-6 -27h-280l6 27l18 2q54 6 67.5 23.5t31.5 101.5l38 180h-320l-39 -182q-3 -13 -5 -26q-9 -47 -9 -53q0 -36 50 -42
l31 -4l-6 -27h-280l6 27l18 2q55 6 68 23t31 102l77 361q13 61 13 78q0 37 -49 43l-31 4l6 27h280l-6 -27l-18 -2q-54 -6 -67.5 -23.5t-31.5 -101.5z" />
    <glyph glyph-name="I" unicode="I" horiz-adv-x="363" 
d="M282 27l-6 -27h-280l6 27l18 2q55 6 68 23t31 102l77 361q13 61 13 78q0 37 -49 43l-31 4l6 27h280l-6 -27l-18 -2q-55 -6 -68 -23t-31 -102l-77 -361q-13 -61 -13 -78q0 -37 49 -43z" />
    <glyph glyph-name="J" unicode="J" horiz-adv-x="348" 
d="M-102 -148l5 20h7q83 0 130 60q43 56 72 190l84 393q13 61 13 79q0 35 -49 41l-44 5l5 27h289l-6 -27l-13 -2q-37 -6 -49 -10q-8 -4 -18.5 -17t-14.5 -25q-5 -17 -17 -73l-66 -310q-20 -93 -22 -102q-5 -21 -15 -50q-35 -100 -98 -146q-76 -55 -159 -55q-4 0 -34 2z" />
    <glyph glyph-name="K" unicode="K" horiz-adv-x="668" 
d="M650 27l-6 -27h-196l5 21q1 2 1 7q0 13 -11 35l-136 277l-62 -48l-30 -140q-13 -61 -13 -79q0 -36 49 -42l31 -4l-6 -27h-280l6 27l18 2q55 6 68 23t31 102l77 361q13 61 13 78q0 37 -49 43l-31 4l6 27h280l-6 -27l-18 -2q-54 -6 -67.5 -23t-31.5 -102l-37 -172
q189 151 247 203t58 70q0 23 -51 26l6 27h226l-6 -27q-52 -5 -136 -71l-218 -172l142 -274q29 -56 51 -72.5t76 -23.5z" />
    <glyph glyph-name="L" unicode="L" horiz-adv-x="569" 
d="M553 227l-48 -227h-509l6 26l18 3q55 9 68 25.5t31 99.5l77 361q13 61 13 78q0 37 -49 43l-31 4l6 27h280l-6 -27l-18 -2q-54 -6 -67.5 -23.5t-31.5 -101.5l-102 -480h100q101 0 151 58q28 32 82 136h30z" />
    <glyph glyph-name="M" unicode="M" horiz-adv-x="891" 
d="M334 667l93 -547l316 547h196l-5 -27q-66 -8 -80.5 -22t-29.5 -85l-81 -381q-14 -66 -14 -79q0 -36 49 -42l31 -4l-5 -27h-276l6 27l20 2q54 5 67.5 23t31.5 102l99 463q-114 -205 -360 -617h-43l-100 607l-86 -432q-15 -75 -15 -93q0 -25 16.5 -36t62.5 -19l-6 -27h-237
l6 27q72 8 94.5 38.5t49.5 155.5l68 321q7 33 7 48q0 24 -17.5 34t-71.5 16l6 27h208z" />
    <glyph glyph-name="N" unicode="N" horiz-adv-x="741" 
d="M329 667l225 -541l51 243q36 172 36 215q0 25 -13 38t-70 18l6 27h237l-5 -27q-70 -8 -88 -28.5t-37 -110.5q-6 -27 -10 -46l-104 -455h-52l-254 606l-82 -414q-18 -91 -18 -113q0 -27 22 -37q13 -6 61 -15l-6 -27h-237l6 27q72 12 89 32.5t40 126.5l76 347q10 46 10 58
q0 25 -21 35q-12 6 -66 14l5 27h199z" />
    <glyph glyph-name="O" unicode="O" horiz-adv-x="780" 
d="M488 680q118 0 191 -54q82 -60 82 -196q0 -199 -131 -330q-113 -113 -290 -113q-132 0 -201.5 66.5t-69.5 193.5q0 88 41.5 182t106.5 153q107 98 271 98zM483 650q-122 0 -208 -117q-41 -56 -71.5 -151t-30.5 -167q0 -198 177 -198q150 0 232 154q76 143 76 294
q0 185 -175 185z" />
    <glyph glyph-name="P" unicode="P" horiz-adv-x="609" 
d="M241 274l-26 -122q-14 -66 -14 -78q0 -38 50 -43l37 -4l-5 -27h-287l6 27l18 2q55 6 68 23t31 102l77 361q13 61 13 79q0 34 -49 42l-31 5l6 26h305q84 0 124 -26q61 -39 61 -114q0 -69 -39 -128t-103 -88q-77 -34 -242 -37zM318 634l-71 -331q96 7 138 22
q74 27 105.5 84t31.5 119q0 63 -40 88q-31 18 -98 18h-66z" />
    <glyph glyph-name="Q" unicode="Q" horiz-adv-x="783" 
d="M782 -47l14 -12q-95 -126 -200 -126q-43 0 -77 19t-94 77q-52 50 -75 63t-68 18q-104 12 -158 79t-54 164q0 98 40 192.5t107 154.5q110 98 272 98q132 0 202.5 -63t70.5 -181q0 -99 -37 -191t-101 -155t-176 -91q71 -59 116.5 -82t91.5 -23q74 0 126 59zM484 650
q-123 0 -209 -117q-41 -56 -71.5 -151t-30.5 -167q0 -198 177 -198q151 0 233 154q76 143 76 294q0 185 -175 185z" />
    <glyph glyph-name="R" unicode="R" horiz-adv-x="644" 
d="M253 329l-38 -177q-14 -65 -14 -78q0 -38 50 -43l37 -4l-5 -27h-287l6 27l18 2q55 6 68 23t31 102l77 361q13 61 13 79q0 34 -49 42l-31 5l6 26h283q101 0 142 -20q64 -32 64 -102q0 -90 -84 -150q-45 -33 -142 -58q72 -19 94.5 -51t23.5 -117q1 -79 9 -103
q10 -29 35 -29q20 0 48 16l8 -23q-50 -37 -99 -37q-53 0 -76.5 34.5t-22.5 111.5l1 73q1 79 -46 101q-32 15 -120 16zM260 362h47q91 0 137 31q77 51 77 147q0 94 -125 94h-78z" />
    <glyph glyph-name="S" unicode="S" horiz-adv-x="539" 
d="M547 667l-44 -204h-26q-6 187 -146 187q-58 0 -94.5 -35.5t-36.5 -91.5q0 -47 30 -78q27 -28 106 -68q92 -47 126.5 -84.5t34.5 -91.5q0 -92 -71 -153t-180 -61q-80 0 -172 38l-38 -25h-23l49 227h27q9 -93 35 -136q44 -74 135 -74q66 0 110 40t44 101q0 43 -28.5 71.5
t-111.5 68.5q-86 42 -117 79q-34 41 -34 99q0 88 60.5 146t152.5 58q64 0 167 -32l25 19h20z" />
    <glyph glyph-name="T" unicode="T" horiz-adv-x="582" 
d="M671 667l-43 -204h-27q-13 109 -36 139.5t-93 30.5h-47l-102 -481q-14 -66 -14 -78q0 -37 49 -43l31 -4l-5 -27h-280l5 27l18 2q55 6 68.5 23.5t31.5 101.5l101 479q-15 1 -34 1q-74 0 -110 -29.5t-98 -141.5h-27l43 204h569z" />
    <glyph glyph-name="U" unicode="U" horiz-adv-x="737" 
d="M802 667l-5 -27q-54 -4 -74.5 -24.5t-35.5 -86.5l-62 -272q-34 -149 -93 -201q-78 -69 -199 -69q-133 0 -184 68q-31 41 -31 98q0 27 6 55l65 307q14 66 14 78q0 37 -49 43l-31 4l5 27h284l-6 -27l-21 -2q-55 -5 -68 -22.5t-31 -102.5l-56 -262q-12 -56 -12 -80
q0 -60 48 -98.5t122 -38.5q100 0 155 85q19 30 29 65.5t40 180.5l18 87q20 103 20 132q0 25 -16.5 36.5t-65.5 19.5l6 27h228z" />
    <glyph glyph-name="V" unicode="V" horiz-adv-x="631" 
d="M293 -12h-57l-91 549q-11 65 -24 80.5t-65 22.5l6 27h258l-5 -27q-44 -5 -60 -16.5t-16 -38.5q0 -19 4 -45l70 -461l180 328q14 26 52 91q50 86 50 108q0 14 -12.5 20.5t-51.5 13.5l6 27h216l-6 -27q-45 -4 -74.5 -34t-103.5 -150q-36 -58 -154 -260q-25 -42 -73 -123z
" />
    <glyph glyph-name="W" unicode="W" horiz-adv-x="914" 
d="M249 -12h-57l-45 563q-5 59 -17 72t-67 17l6 27h257l-6 -27q-46 -4 -62 -17t-16 -47q0 -10 2 -40l29 -430q176 382 266 561h62l45 -561l166 356q56 120 56 146q0 15 -11.5 21t-48.5 11l6 27h215l-5 -27q-45 -4 -71.5 -30.5t-76.5 -119.5q-22 -41 -90 -175
q-39 -81 -57 -115q-25 -47 -67 -132l-40 -80h-63l-42 541z" />
    <glyph glyph-name="X" unicode="X" horiz-adv-x="611" 
d="M583 27l-5 -27h-273l6 27q75 9 75 44q0 23 -24 82l-57 141l-143 -179q-31 -39 -31 -53q0 -24 48 -33q3 0 15 -2l-5 -27h-236l6 27q67 11 96 32.5t127 136.5l111 131l-86 211q-26 63 -44 80.5t-61 21.5l5 27h244l-6 -27q-59 -11 -59 -33q0 -10 9 -32q4 -8 15 -37l52 -131
q35 40 103 125q53 67 53 85q0 16 -51 23l5 27h211l-5 -23q-52 -10 -83 -31.5t-89 -88.5l-129 -150l108 -265q18 -45 36.5 -60.5t61.5 -21.5z" />
    <glyph glyph-name="Y" unicode="Y" horiz-adv-x="574" 
d="M495 667h201l-6 -27q-37 -2 -60 -19t-79 -84l-210 -254l-28 -131q-13 -61 -13 -79q0 -37 49 -42l41 -4l-6 -27h-297l6 27l25 2q54 4 67 22t32 103l28 129l-101 280q-17 48 -32 61t-56 16l6 27h257l-5 -27q-21 -4 -53 -13q-20 -10 -20 -34q0 -15 6 -32l83 -242
q70 87 113 144q23 32 70 95q29 39 29 57q0 22 -53 25z" />
    <glyph glyph-name="Z" unicode="Z" horiz-adv-x="631" 
d="M595 227l-48 -227h-560l6 30l532 604h-141q-98 0 -140 -34.5t-89 -136.5h-27l44 204h493l-5 -21l-532 -613h211q60 0 101 21q28 15 49.5 42t55.5 93q6 11 20 38h30z" />
    <glyph glyph-name="bracketleft" unicode="[" horiz-adv-x="330" 
d="M181 697h200l-7 -33l-135 -5l-154 -724l133 -5l-7 -33h-200z" />
    <glyph glyph-name="backslash" unicode="\" horiz-adv-x="490" 
d="M166 697l203 -800h-47l-203 800h47z" />
    <glyph glyph-name="bracketright" unicode="]" horiz-adv-x="330" 
d="M181 -103h-200l7 33l135 5l154 724l-133 5l7 33h200z" />
    <glyph glyph-name="asciicircum" unicode="^" horiz-adv-x="433" 
d="M141 439l-45 15l151 243h32l158 -243l-45 -15l-127 201z" />
    <glyph glyph-name="underscore" unicode="_" horiz-adv-x="542" 
d="M-53 -65h543v-43h-543v43z" />
    <glyph glyph-name="grave" unicode="`" 
d="M368 534l-13 -13l-126 97l-16 12t-16 23q0 13 10.5 24t22.5 11q13 0 33 -25z" />
    <glyph glyph-name="a" unicode="a" horiz-adv-x="597" 
d="M517 467l-49 -233q-29 -138 -29 -166q0 -49 30 -49q48 0 95 113l20 -4q-29 -67 -49 -93q-37 -46 -89 -46q-49 0 -76 41q-15 22 -15 65q-66 -105 -159 -105q-78 0 -115 53q-33 48 -33 115q0 71 28 140.5t77 118.5q60 60 149 60q91 0 117 -78l15 68h83zM320 450
q-67 0 -108 -70q-29 -49 -48.5 -121t-19.5 -127q0 -56 16.5 -85.5t50.5 -29.5q81 0 139 127q49 108 49 203q0 48 -21 75.5t-58 27.5z" />
    <glyph glyph-name="b" unicode="b" horiz-adv-x="515" 
d="M244 700l-67 -317q41 53 75.5 73.5t82.5 20.5q69 0 106.5 -40.5t37.5 -115.5q0 -76 -29 -148t-78 -120q-65 -63 -169 -63q-74 0 -115 35t-41 99q0 41 31 188l44 208q15 71 15 90t-19 28q-12 6 -80 9l4 17zM320 450q-36 4 -76.5 -32t-66.5 -94q-20 -44 -35.5 -110.5
t-15.5 -107.5q0 -93 79 -93q82 0 133 119q45 104 45 200q0 112 -63 118z" />
    <glyph glyph-name="c" unicode="c" horiz-adv-x="444" 
d="M389 134l19 -10q-44 -72 -92.5 -103t-116.5 -31q-72 0 -113 45t-41 124q0 155 94 253q62 65 171 65q123 0 123 -71q0 -31 -18.5 -51.5t-46.5 -20.5q-22 0 -36 13t-14 32q0 17 23 45q7 8 7 12q0 18 -34 18q-54 0 -96 -62q-77 -114 -77 -268q0 -107 81 -107q88 0 167 117z
" />
    <glyph glyph-name="d" unicode="d" horiz-adv-x="593" 
d="M563 700l-99 -466q-29 -137 -29 -167q0 -48 30 -48q48 0 95 113l20 -4q-30 -69 -50 -94q-36 -45 -88 -45q-49 0 -76 41q-15 23 -15 65q-37 -58 -73 -81.5t-87 -23.5q-77 0 -114 53q-33 48 -33 115q0 71 28.5 140.5t76.5 117.5q62 61 147 61q49 0 76 -17.5t43 -60.5
l26 121q14 65 14 90q0 19 -18 28q-12 6 -80 9l3 17zM316 450q-67 0 -108 -70q-29 -49 -48.5 -121t-19.5 -127q0 -56 16.5 -85.5t50.5 -29.5q81 0 139 127q49 108 49 203q0 48 -21 75.5t-58 27.5z" />
    <glyph glyph-name="e" unicode="e" horiz-adv-x="463" 
d="M389 134l18 -10q-40 -64 -75 -90q-58 -44 -135 -44q-71 0 -111.5 44.5t-40.5 123.5q0 73 25 141t68 112q64 66 172 66q126 0 126 -97q0 -96 -113 -154q-65 -33 -179 -44q-5 -36 -5 -60q0 -105 79 -105q51 0 102 39q32 25 69 78zM147 204l40 8q75 15 122 68t47 120
q0 54 -48 54q-59 0 -103 -79q-34 -62 -58 -171z" />
    <glyph glyph-name="f" unicode="f" horiz-adv-x="360" 
d="M47 420l6 27h109q34 123 74 174q62 80 138 80q41 0 66 -21t25 -55q0 -29 -16 -48.5t-41 -19.5q-20 0 -34.5 13t-14.5 32q0 21 23 43q8 8 8 14q0 7 -8.5 13t-18.5 6q-39 0 -63 -48q-31 -61 -46 -138l-9 -45h142l-5 -27h-141l-29 -166q-25 -141 -40 -195
q-38 -132 -90 -190.5t-132 -58.5q-43 0 -70 20.5t-27 53.5q0 26 16.5 44t41.5 18q45 0 45 -44q0 -14 -15 -34q-3 -4 -3 -12q0 -23 30 -23q61 0 91 75q13 33 33 144l65 368h-110z" />
    <glyph glyph-name="g" unicode="g" horiz-adv-x="536" 
d="M513 467l-79 -374q-17 -81 -27 -109.5t-31 -58.5q-82 -115 -231 -115q-64 0 -101.5 26.5t-37.5 72.5q0 28 16 46t40 18q21 0 36 -14t15 -34q0 -22 -30 -51q-6 -5 -6 -9q0 -13 23 -22.5t52 -9.5q47 0 87 23t62 63q19 34 35 112l12 58q-38 -55 -74 -77t-87 -22
q-65 0 -104 45.5t-39 122.5q0 71 28 140.5t77 118.5q60 60 150 60q89 0 117 -76l14 66h83zM316 450q-67 0 -108 -70q-29 -49 -48.5 -121.5t-19.5 -127.5t16.5 -84.5t50.5 -29.5q81 0 139 127q49 108 49 203q0 48 -21 75.5t-58 27.5z" />
    <glyph glyph-name="h" unicode="h" horiz-adv-x="560" 
d="M102 0h-83l111 520q14 66 14 90q0 20 -18 28q-12 6 -81 9l4 17l202 36l-83 -393q48 95 89.5 132.5t98.5 37.5q45 0 72.5 -28.5t27.5 -75.5q0 -30 -9 -68l-17 -71q-29 -121 -29 -166q0 -49 30 -49q47 0 96 113l21 -4q-28 -67 -49 -93q-36 -45 -86 -45q-41 0 -69.5 32
t-28.5 78t20 119l34 116q12 41 12 70q0 19 -11.5 32t-28.5 13q-60 0 -122.5 -104t-96.5 -256z" />
    <glyph glyph-name="i" unicode="i" horiz-adv-x="325" 
d="M246 474l-51 -240q-29 -136 -29 -166q0 -49 30 -49q47 0 96 113l20 -4q-27 -66 -48 -93q-35 -45 -92 -45q-39 0 -63.5 25t-24.5 65q0 24 13 86l27 128q15 71 15 89q0 21 -19 29q-11 5 -80 8l4 17zM231 667q22 0 37.5 -15.5t15.5 -37.5q0 -23 -17.5 -41t-40.5 -18
q-22 0 -38 16t-16 39q0 22 18 39.5t41 17.5z" />
    <glyph glyph-name="j" unicode="j" horiz-adv-x="295" 
d="M269 474l-67 -348q-28 -145 -85 -221q-71 -95 -167 -95q-46 0 -74 21.5t-28 56.5q0 26 17 44.5t42 18.5q20 0 33.5 -12.5t13.5 -30.5q0 -19 -24 -40q-7 -6 -7 -13q0 -22 33 -22q60 0 97 68q18 34 39 131l56 262q14 65 14 89q0 19 -18 29q-13 5 -81 8l4 17zM253 667
q22 0 37.5 -15.5t15.5 -37.5q0 -23 -17.5 -41t-40.5 -18q-22 0 -38 16t-16 39q0 22 18 39.5t41 17.5z" />
    <glyph glyph-name="k" unicode="k" horiz-adv-x="532" 
d="M99 0h-83l111 520q14 66 14 90q0 20 -18 28q-12 6 -81 9l4 17l202 36l-81 -380q39 71 77 106q56 51 129 51q41 0 65.5 -19.5t24.5 -52.5q0 -66 -78 -117q-51 -33 -123 -45q68 -7 97 -23t29 -47q0 -18 -4.5 -54t-4.5 -54q0 -46 30 -46q49 0 96 113l20 -4
q-32 -81 -62 -109.5t-83 -28.5q-95 0 -95 97q0 17 5 50t5 48q0 46 -77 46q-24 0 -71 -8zM153 251q22 0 53 2q87 6 130 39t43 78q0 22 -16.5 36.5t-41.5 14.5q-63 0 -109 -62q-25 -33 -59 -108z" />
    <glyph glyph-name="l" unicode="l" horiz-adv-x="281" 
d="M251 700l-99 -467q-29 -137 -29 -165q0 -49 30 -49q47 0 96 113l20 -4q-26 -65 -48 -93q-35 -45 -88 -45q-40 0 -64 27.5t-24 73.5q0 31 10 78l74 351q15 71 15 89q0 20 -19 29q-12 6 -80 9l4 16z" />
    <glyph glyph-name="m" unicode="m" horiz-adv-x="893" 
d="M35 337l-20 6q58 134 134 134q41 0 66.5 -31t25.5 -83q0 -16 -2 -60q44 82 69 114q48 60 111 60q44 0 70.5 -29.5t26.5 -77.5q0 -32 -7 -67q46 87 81 125q45 49 102 49q43 0 69.5 -31t26.5 -81q0 -28 -9 -65l-16 -66q-29 -120 -29 -166q0 -49 30 -49q47 0 96 113l20 -4
q-26 -65 -48 -93q-35 -45 -88 -45q-40 0 -68 32.5t-28 78.5q0 43 54 239q11 40 11 69q0 17 -10 29t-24 12q-59 0 -126 -114q-58 -98 -82 -212l-26 -124h-83l71 334q8 38 8 72q0 44 -38 44q-50 0 -106 -92q-32 -52 -60.5 -123.5t-37.5 -119.5l-21 -115h-83l51 240
q28 132 28 169q0 41 -33 41q-48 0 -106 -113z" />
    <glyph glyph-name="n" unicode="n" horiz-adv-x="637" 
d="M178 0h-83l51 240q28 132 28 169q0 41 -33 41q-48 0 -106 -113l-20 6q32 72 63.5 103t74.5 31q92 0 92 -118q0 -33 -1 -52q49 95 90 132.5t98 37.5q46 0 72.5 -29t26.5 -78q0 -32 -8 -65l-17 -71q-29 -121 -29 -166q0 -49 30 -49q49 0 96 113l21 -4q-26 -64 -49 -93
q-36 -45 -86 -45q-41 0 -69.5 32t-28.5 79q0 46 54 234q12 42 12 70q0 19 -11.5 32t-28.5 13q-71 0 -145 -144q-46 -90 -74 -216z" />
    <glyph glyph-name="o" unicode="o" horiz-adv-x="528" 
d="M322 477q165 0 165 -167q0 -135 -90 -238q-72 -82 -192 -82q-161 0 -161 170q0 68 30.5 140t78.5 116q66 61 169 61zM313 454q-74 0 -124 -116q-19 -43 -34 -113t-15 -113q0 -99 77 -99q66 0 114 83q25 43 42.5 117t17.5 134q0 107 -78 107z" />
    <glyph glyph-name="p" unicode="p" horiz-adv-x="599" 
d="M139 -186l-85 -7l92 433q28 132 28 169q0 41 -33 41q-48 0 -106 -113l-20 6q31 72 64 103t77 31q60 0 81 -48q11 -26 14 -82q37 70 75 100t91 30q142 0 142 -160q0 -136 -74.5 -232t-178.5 -96q-74 0 -118 56zM399 450q-69 4 -137 -130q-54 -106 -54 -196q0 -49 21 -78.5
t56 -29.5q68 0 123 99t55 223q0 108 -64 112z" />
    <glyph glyph-name="q" unicode="q" horiz-adv-x="536" 
d="M374 -186l-84 -7l58 272q-43 -51 -75.5 -70t-78.5 -19q-69 0 -107.5 44t-38.5 123q0 134 74.5 227t180.5 93q38 0 95 -26q17 -8 28 -8q18 0 70 41q4 4 15 11h8zM320 450q-85 4 -136 -130q-40 -105 -40 -194q0 -109 66 -109q30 0 61.5 21.5t52.5 55.5q71 117 71 256
q0 96 -75 100z" />
    <glyph glyph-name="r" unicode="r" horiz-adv-x="478" 
d="M178 0h-83l52 244q27 127 27 165q0 41 -33 41q-48 0 -106 -113l-20 6q32 73 63.5 103.5t74.5 30.5q90 0 90 -130q0 -23 -1 -42q44 97 79.5 134.5t86.5 37.5q38 0 61 -22t23 -58q0 -29 -17 -47.5t-44 -18.5q-22 0 -35.5 12.5t-13.5 32.5q0 22 28 45q8 7 8 13q0 17 -23 17
q-44 0 -90 -78q-71 -120 -107 -282z" />
    <glyph glyph-name="s" unicode="s" horiz-adv-x="464" 
d="M271 477q76 0 118.5 -25t42.5 -69q0 -56 -58 -56q-43 0 -43 35q0 9 4.5 24t4.5 22q0 18 -23.5 31.5t-54.5 13.5q-95 0 -95 -74q0 -38 28 -59q22 -16 85 -44q75 -33 102 -59.5t27 -68.5q0 -68 -61 -113t-154 -45q-75 0 -122.5 33.5t-47.5 85.5q0 27 15.5 44t40.5 17
q20 0 34.5 -12.5t14.5 -30.5q0 -12 -8.5 -32.5t-8.5 -29.5q0 -20 27.5 -36t62.5 -16q55 0 89.5 28.5t34.5 72.5q0 32 -21 53t-81 46q-64 27 -92 49q-39 31 -39 86q0 61 46.5 95t131.5 34z" />
    <glyph glyph-name="t" unicode="t" horiz-adv-x="347" 
d="M354 447l-6 -27h-114l-39 -187q-29 -139 -29 -165q0 -49 30 -49q47 0 96 113l20 -4q-26 -64 -48 -92q-37 -46 -89 -46q-37 0 -62.5 27t-25.5 66q0 37 17 117l47 220h-110l6 27h35q72 0 105 33t68 139h22l-37 -172h114z" />
    <glyph glyph-name="u" unicode="u" horiz-adv-x="639" 
d="M476 467h83l-50 -233q-29 -135 -29 -166q0 -49 30 -49q47 0 96 113l21 -4q-31 -78 -61 -108t-76 -30q-40 0 -63.5 27.5t-23.5 73.5q0 29 7 65q-50 -94 -90.5 -130t-94.5 -36q-50 0 -78 29t-28 80q0 31 10 72l17 69q33 134 33 169q0 41 -35 41q-49 0 -108 -113l-19 6
q32 73 64.5 103.5t78.5 30.5q44 0 70.5 -29t26.5 -77q0 -52 -32 -166q-30 -107 -30 -139q0 -49 45 -49q60 0 119 98q65 109 88 216z" />
    <glyph glyph-name="v" unicode="v" horiz-adv-x="532" 
d="M41 335l-23 6q22 50 44 78q44 58 105 58q41 0 66 -31t25 -80q0 -29 -4 -48t-27 -104q-31 -113 -31 -154q0 -43 44 -43q74 0 143 89.5t69 186.5q0 43 -36 74q-32 28 -32 55q0 24 16.5 39.5t41.5 15.5q64 0 64 -92q0 -76 -32 -161.5t-84 -150.5q-67 -83 -162 -83
q-108 0 -108 116q0 28 8 61l25 102q28 114 28 136q0 45 -30 45q-56 0 -110 -115z" />
    <glyph glyph-name="w" unicode="w" horiz-adv-x="812" 
d="M464 457h83l-48 -223q-27 -125 -27 -162q0 -55 49 -55q73 0 142 90t69 185q0 43 -36 75q-32 28 -32 55q0 24 16.5 39.5t41.5 15.5q64 0 64 -93q0 -75 -32 -160.5t-84 -150.5q-67 -83 -166 -83q-108 0 -108 111q0 26 4 55q-50 -94 -90 -130t-96 -36q-44 0 -69 29.5
t-25 80.5q0 34 9 71l17 69q34 138 34 169q0 41 -35 41q-51 0 -108 -113l-20 5q32 73 65 104t79 31q43 0 70 -29.5t27 -76.5q0 -52 -32 -166q-30 -107 -30 -139q0 -49 40 -49q55 0 114 98q63 104 87 216z" />
    <glyph glyph-name="x" unicode="x" horiz-adv-x="621" 
d="M585 131l19 -11q-91 -130 -204 -130q-80 0 -122 50q-26 31 -34 97q-49 -84 -85.5 -115.5t-84.5 -31.5q-38 0 -61.5 22t-23.5 57q0 28 17.5 48t43.5 20q20 0 33.5 -12.5t13.5 -30.5q0 -20 -22 -45q-9 -10 -9 -16q0 -16 24 -16q61 0 117 104t56 216q0 110 -53 110
q-51 0 -108 -110l-19 6q32 64 56 90q40 44 102 44q47 0 75 -31.5t28 -84.5q0 -11 -2 -47q43 88 85 125.5t97 37.5q39 0 64.5 -21t25.5 -54q0 -28 -19 -48.5t-45 -20.5q-20 0 -34.5 14t-14.5 34q0 17 23 39q7 5 7 13q0 17 -23 17q-62 0 -120.5 -98t-58.5 -201q0 -131 88 -131
q84 0 168 111z" />
    <glyph glyph-name="y" unicode="y" horiz-adv-x="582" 
d="M559 467l-77 -363q-30 -142 -87 -205q-80 -89 -209 -89q-61 0 -99.5 28.5t-38.5 74.5q0 28 16 45.5t42 17.5q51 0 51 -48q0 -22 -28 -47q-6 -5 -6 -11q0 -15 22.5 -26t52.5 -11q91 0 139 71q21 31 32 64.5t28 123.5q3 17 12 61q-37 -73 -74 -110q-53 -53 -112 -53
q-47 0 -75 29t-28 77q0 22 6 50l20 94q29 136 29 169q0 41 -33 41q-49 0 -107 -113l-20 5q32 74 65 104.5t80 30.5q96 0 96 -121q0 -46 -28 -147q-33 -119 -33 -150q0 -42 38 -42q68 0 128 102q24 40 51.5 111t37.5 117l26 120h83z" />
    <glyph glyph-name="z" unicode="z" horiz-adv-x="445" 
d="M421 456l-319 -356q29 11 47 11q19 0 71.5 -15.5t80.5 -15.5q49 0 77 35q17 21 37 80l18 -2q-23 -99 -52 -144q-39 -60 -96 -60q-26 0 -109 32q-57 22 -82 22q-37 0 -89 -52l-17 17l326 371q-16 -3 -26 -3q-24 0 -107 22q-15 4 -30 4q-29 0 -51 -27q-8 -10 -30 -45l-15 6
q33 78 58.5 109.5t54.5 31.5q19 0 70 -13l32 -7q39 -10 58 -10q45 0 80 29z" />
    <glyph glyph-name="braceleft" unicode="{" horiz-adv-x="330" 
d="M49 296l6 28q48 4 67.5 27.5t30.5 89.5q26 159 61.5 207t127.5 48h40l6 1l-6 -30q-72 -1 -101 -30.5t-46 -117.5q-18 -97 -27 -125q-8 -24 -24 -43q-28 -32 -77 -41q65 -11 65 -68q0 -26 -29 -157q-15 -67 -15 -91q0 -35 21 -50t75 -17l-6 -30h-5l-42 1q-111 3 -111 83
q0 35 47 241q2 16 2 25q0 47 -60 49z" />
    <glyph glyph-name="bar" unicode="|" horiz-adv-x="543" 
d="M255 667h45v-834h-45v834z" />
    <glyph glyph-name="braceright" unicode="}" horiz-adv-x="330" 
d="M320 324l-6 -28q-51 0 -76 -38q-10 -20 -18 -58q-2 -22 -35 -171q-19 -80 -61 -106t-144 -26h-5l7 30q85 3 114 48q13 20 21 52l12 54q5 21 15 69q16 85 39.5 117t78.5 43q-65 14 -65 68q0 23 27 141q13 57 13 79q0 37 -22 52.5t-76 16.5l6 30l6 -1h40q43 0 69 -10
q43 -16 43 -74q0 -43 -31 -171q-13 -54 -13 -69q0 -44 61 -48z" />
    <glyph glyph-name="asciitilde" unicode="~" horiz-adv-x="443" 
d="M118 600l-8 40q59 53 113 53q30 0 93 -26q58 -24 89 -24q48 0 103 54l8 -39q-56 -62 -123 -62q-23 0 -39 4.5t-90 31.5q-41 15 -56 15q-40 0 -90 -47z" />
    <glyph glyph-name="Adieresis" unicode="&#xc4;" horiz-adv-x="644" 
d="M466 667l81 -512q12 -77 29 -101.5t61 -26.5l-6 -27h-264l6 27q56 9 71.5 17.5t15.5 30.5q0 28 -13 107l-10 61h-239l-72 -134q-22 -41 -22 -53q0 -22 69 -29l-6 -27h-220l6 27q35 2 67 21q20 12 48 54q21 33 92 154q47 81 86 147l75 127q13 24 42 73l38 64h65zM386 580
l-169 -304h215zM344 833q23 0 39 -16t16 -39q0 -25 -18.5 -43.5t-42.5 -18.5q-22 0 -39 17t-17 40t19 41.5t43 18.5zM577 833q23 0 39 -16t16 -39q0 -25 -18.5 -43.5t-42.5 -18.5q-22 0 -39 17t-17 40t19 41.5t43 18.5z" />
    <glyph glyph-name="Aring" unicode="&#xc5;" horiz-adv-x="644" 
d="M466 667l81 -512q12 -77 29 -101.5t61 -26.5l-6 -27h-264l6 27q56 9 71.5 17.5t15.5 30.5q0 28 -13 107l-10 61h-239l-72 -134q-22 -41 -22 -53q0 -22 69 -29l-6 -27h-220l6 27q35 2 67 21q20 12 48 54q21 33 92 154q47 81 86 147l75 127q13 24 42 73l38 64h65zM386 580
l-169 -304h215zM462 866q86 0 86 -70q0 -41 -28.5 -68.5t-71.5 -27.5q-40 0 -64 21.5t-24 56.5q0 38 29.5 63t72.5 25zM462 841q-25 0 -41.5 -18.5t-16.5 -46.5q0 -50 42 -50q25 0 41.5 19.5t16.5 48.5q0 47 -42 47z" />
    <glyph glyph-name="Ccedilla" unicode="&#xc7;" horiz-adv-x="697" 
d="M588 143l35 -34q-117 -127 -283 -122q-3 -10 -3 -15q0 -10 7 -14.5t36 -14.5q45 -15 45 -49q0 -43 -46 -61.5t-99 -18.5q-14 0 -46 3l3 18q22 -2 24 -2q38 0 65.5 17.5t27.5 41.5q0 12 -4.5 17.5t-32.5 24.5q-10 5 -10 11q0 4 3 9q6 10 14 33q-258 17 -258 250
q0 104 45 201.5t121 156.5q109 85 252 85q89 0 185 -44l36 31h20l-49 -233h-27q-15 216 -174 216q-112 0 -185 -90q-56 -68 -88.5 -161.5t-32.5 -183.5q0 -86 52 -142t132 -56q55 0 108 28.5t127 97.5z" />
    <glyph glyph-name="Eacute" unicode="&#xc9;" horiz-adv-x="632" 
d="M646 667l-43 -204h-27q-14 102 -37 135q-26 36 -84 36h-137l-56 -262h80q25 0 36.5 5.5t25.5 26.5q18 26 38 79h27l-58 -271h-26l-1 39l-1 39q-1 30 -8 40t-35 10h-85l-65 -307h126q102 0 156 57q31 32 85 137h30l-49 -227h-542l6 26l18 3q55 9 68 25.5t31 99.5l77 361
q3 13 8.5 39.5t5.5 39.5q0 34 -50 42l-31 5l6 26h511zM397 708l-7 18l148 95q33 21 43 21t17.5 -10t7.5 -22q0 -17 -41 -34z" />
    <glyph glyph-name="Ntilde" unicode="&#xd1;" horiz-adv-x="741" 
d="M329 667l225 -541l51 243q36 172 36 215q0 25 -13 38t-70 18l6 27h237l-5 -27q-70 -8 -88 -28.5t-37 -110.5q-6 -27 -10 -46l-104 -455h-52l-254 606l-82 -414q-18 -91 -18 -113q0 -27 22 -37q13 -6 61 -15l-6 -27h-237l6 27q72 12 89 32.5t40 126.5l76 347q10 46 10 58
q0 25 -21 35q-12 6 -66 14l5 27h199zM666 822l19 -5q-42 -95 -93 -95q-24 0 -67 28q-48 31 -71 31q-45 0 -74 -63l-19 5q36 107 106 107q26 0 73 -28.5t68 -28.5q30 0 58 49z" />
    <glyph glyph-name="Odieresis" unicode="&#xd6;" horiz-adv-x="780" 
d="M390 833q23 0 39 -16t16 -39q0 -25 -18.5 -43.5t-42.5 -18.5q-22 0 -39 17t-17 40t19 41.5t43 18.5zM663 833q23 0 39 -16t16 -39q0 -25 -18.5 -43.5t-42.5 -18.5q-22 0 -39 17t-17 40t19 41.5t43 18.5zM488 680q118 0 191 -54q82 -60 82 -196q0 -199 -131 -330
q-113 -113 -290 -113q-132 0 -201.5 66.5t-69.5 193.5q0 88 41.5 182t106.5 153q107 98 271 98zM483 650q-122 0 -208 -117q-41 -56 -71.5 -151t-30.5 -167q0 -198 177 -198q150 0 232 154q76 143 76 294q0 185 -175 185z" />
    <glyph glyph-name="Udieresis" unicode="&#xdc;" horiz-adv-x="737" 
d="M802 667l-5 -27q-54 -4 -74.5 -24.5t-35.5 -86.5l-62 -272q-34 -149 -93 -201q-78 -69 -199 -69q-133 0 -184 68q-31 41 -31 98q0 27 6 55l65 307q14 66 14 78q0 37 -49 43l-31 4l5 27h284l-6 -27l-21 -2q-55 -5 -68 -22.5t-31 -102.5l-56 -262q-12 -56 -12 -80
q0 -60 48 -98.5t122 -38.5q100 0 155 85q19 30 29 65.5t40 180.5l18 87q20 103 20 132q0 25 -16.5 36.5t-65.5 19.5l6 27h228zM384 833q23 0 39 -16t16 -39q0 -25 -18.5 -43.5t-42.5 -18.5q-22 0 -39 17t-17 40t19 41.5t43 18.5zM617 833q23 0 39 -16t16 -39
q0 -25 -18.5 -43.5t-42.5 -18.5q-22 0 -39 17t-17 40t19 41.5t43 18.5z" />
    <glyph glyph-name="aacute" unicode="&#xe1;" horiz-adv-x="597" 
d="M517 467l-49 -233q-29 -138 -29 -166q0 -49 30 -49q48 0 95 113l20 -4q-29 -67 -49 -93q-37 -46 -89 -46q-49 0 -76 41q-15 22 -15 65q-66 -105 -159 -105q-78 0 -115 53q-33 48 -33 115q0 71 28 140.5t77 118.5q60 60 149 60q91 0 117 -78l15 68h83zM320 450
q-67 0 -108 -70q-29 -49 -48.5 -121t-19.5 -127q0 -56 16.5 -85.5t50.5 -29.5q81 0 139 127q49 108 49 203q0 48 -21 75.5t-58 27.5zM348 536l-12 15l131 121q30 28 44 28q9 0 17.5 -10t8.5 -21q0 -15 -35 -37z" />
    <glyph glyph-name="agrave" unicode="&#xe0;" horiz-adv-x="597" 
d="M517 467l-49 -233q-29 -138 -29 -166q0 -49 30 -49q48 0 95 113l20 -4q-29 -67 -49 -93q-37 -46 -89 -46q-49 0 -76 41q-15 22 -15 65q-66 -105 -159 -105q-78 0 -115 53q-33 48 -33 115q0 71 28 140.5t77 118.5q60 60 149 60q91 0 117 -78l15 68h83zM320 450
q-67 0 -108 -70q-29 -49 -48.5 -121t-19.5 -127q0 -56 16.5 -85.5t50.5 -29.5q81 0 139 127q49 108 49 203q0 48 -21 75.5t-58 27.5zM368 534l-13 -13l-126 97l-16 12t-16 23q0 13 10.5 24t22.5 11q13 0 33 -25z" />
    <glyph glyph-name="acircumflex" unicode="&#xe2;" horiz-adv-x="597" 
d="M517 467l-49 -233q-29 -138 -29 -166q0 -49 30 -49q48 0 95 113l20 -4q-29 -67 -49 -93q-37 -46 -89 -46q-49 0 -76 41q-15 22 -15 65q-66 -105 -159 -105q-78 0 -115 53q-33 48 -33 115q0 71 28 140.5t77 118.5q60 60 149 60q91 0 117 -78l15 68h83zM320 450
q-67 0 -108 -70q-29 -49 -48.5 -121t-19.5 -127q0 -56 16.5 -85.5t50.5 -29.5q81 0 139 127q49 108 49 203q0 48 -21 75.5t-58 27.5zM414 691l113 -155l-15 -14l-111 105l-178 -105l-10 18z" />
    <glyph glyph-name="adieresis" unicode="&#xe4;" horiz-adv-x="597" 
d="M517 467l-49 -233q-29 -138 -29 -166q0 -49 30 -49q48 0 95 113l20 -4q-29 -67 -49 -93q-37 -46 -89 -46q-49 0 -76 41q-15 22 -15 65q-66 -105 -159 -105q-78 0 -115 53q-33 48 -33 115q0 71 28 140.5t77 118.5q60 60 149 60q91 0 117 -78l15 68h83zM320 450
q-67 0 -108 -70q-29 -49 -48.5 -121t-19.5 -127q0 -56 16.5 -85.5t50.5 -29.5q81 0 139 127q49 108 49 203q0 48 -21 75.5t-58 27.5zM281 667q22 0 37.5 -15.5t15.5 -37.5q0 -23 -17.5 -41t-40.5 -18q-22 0 -38 16t-16 39q0 22 18 39.5t41 17.5zM474 667q22 0 37.5 -15.5
t15.5 -37.5q0 -23 -17.5 -41t-40.5 -18q-22 0 -38 16t-16 39q0 22 18 39.5t41 17.5z" />
    <glyph glyph-name="atilde" unicode="&#xe3;" horiz-adv-x="597" 
d="M517 467l-49 -233q-29 -138 -29 -166q0 -49 30 -49q48 0 95 113l20 -4q-29 -67 -49 -93q-37 -46 -89 -46q-49 0 -76 41q-15 22 -15 65q-66 -105 -159 -105q-78 0 -115 53q-33 48 -33 115q0 71 28 140.5t77 118.5q60 60 149 60q91 0 117 -78l15 68h83zM320 450
q-67 0 -108 -70q-29 -49 -48.5 -121t-19.5 -127q0 -56 16.5 -85.5t50.5 -29.5q81 0 139 127q49 108 49 203q0 48 -21 75.5t-58 27.5zM532 662l18 -4q-40 -113 -93 -113q-25 0 -68 37q-48 41 -73 41q-40 0 -73 -79l-19 3q18 61 40 90q27 35 66 35q29 0 75 -38t69 -38
q27 0 58 66z" />
    <glyph glyph-name="aring" unicode="&#xe5;" horiz-adv-x="597" 
d="M517 467l-49 -233q-29 -138 -29 -166q0 -49 30 -49q48 0 95 113l20 -4q-29 -67 -49 -93q-37 -46 -89 -46q-49 0 -76 41q-15 22 -15 65q-66 -105 -159 -105q-78 0 -115 53q-33 48 -33 115q0 71 28 140.5t77 118.5q60 60 149 60q91 0 117 -78l15 68h83zM320 450
q-67 0 -108 -70q-29 -49 -48.5 -121t-19.5 -127q0 -56 16.5 -85.5t50.5 -29.5q81 0 139 127q49 108 49 203q0 48 -21 75.5t-58 27.5zM368 708q92 0 92 -75q0 -44 -30.5 -73t-76.5 -29q-42 0 -67.5 23t-25.5 60q0 40 30.5 67t77.5 27zM369 683q-27 0 -45 -20.5t-18 -50.5
q0 -55 46 -55q27 0 45 21t18 54q0 51 -46 51z" />
    <glyph glyph-name="ccedilla" unicode="&#xe7;" horiz-adv-x="444" 
d="M201 -10h-6q-4 -12 -4 -17q0 -13 44 -26.5t44 -45.5q0 -40 -45 -57t-101 -17q-14 0 -46 3l4 16q10 -1 23 -1q37 0 65 16.5t28 38.5q0 11 -5 16t-32 22q-10 8 -10 11q0 4 3 8t8 15l8 19q-134 14 -134 168q0 155 94 253q62 65 171 65q123 0 123 -71q0 -31 -18.5 -51.5
t-46.5 -20.5q-22 0 -36 13t-14 32q0 17 23 45q7 8 7 12q0 18 -34 18q-54 0 -96 -62q-77 -114 -77 -268q0 -107 81 -107q88 0 167 117l19 -10q-38 -63 -74 -90q-58 -44 -133 -44z" />
    <glyph glyph-name="eacute" unicode="&#xe9;" horiz-adv-x="463" 
d="M389 134l18 -10q-40 -64 -75 -90q-58 -44 -135 -44q-71 0 -111.5 44.5t-40.5 123.5q0 73 25 141t68 112q64 66 172 66q126 0 126 -97q0 -96 -113 -154q-65 -33 -179 -44q-5 -36 -5 -60q0 -105 79 -105q51 0 102 39q32 25 69 78zM147 204l40 8q75 15 122 68t47 120
q0 54 -48 54q-59 0 -103 -79q-34 -62 -58 -171zM299 536l-12 15l131 121q30 28 44 28q9 0 17.5 -10t8.5 -21q0 -15 -35 -37z" />
    <glyph glyph-name="egrave" unicode="&#xe8;" horiz-adv-x="463" 
d="M389 134l18 -10q-40 -64 -75 -90q-58 -44 -135 -44q-71 0 -111.5 44.5t-40.5 123.5q0 73 25 141t68 112q64 66 172 66q126 0 126 -97q0 -96 -113 -154q-65 -33 -179 -44q-5 -36 -5 -60q0 -105 79 -105q51 0 102 39q32 25 69 78zM147 204l40 8q75 15 122 68t47 120
q0 54 -48 54q-59 0 -103 -79q-34 -62 -58 -171zM349 534l-13 -13l-126 97l-16 12t-16 23q0 13 10.5 24t22.5 11q13 0 33 -25z" />
    <glyph glyph-name="ecircumflex" unicode="&#xea;" horiz-adv-x="463" 
d="M389 134l18 -10q-40 -64 -75 -90q-58 -44 -135 -44q-71 0 -111.5 44.5t-40.5 123.5q0 73 25 141t68 112q64 66 172 66q126 0 126 -97q0 -96 -113 -154q-65 -33 -179 -44q-5 -36 -5 -60q0 -105 79 -105q51 0 102 39q32 25 69 78zM147 204l40 8q75 15 122 68t47 120
q0 54 -48 54q-59 0 -103 -79q-34 -62 -58 -171zM359 691l113 -155l-15 -14l-111 105l-178 -105l-10 18z" />
    <glyph glyph-name="edieresis" unicode="&#xeb;" horiz-adv-x="463" 
d="M389 134l18 -10q-40 -64 -75 -90q-58 -44 -135 -44q-71 0 -111.5 44.5t-40.5 123.5q0 73 25 141t68 112q64 66 172 66q126 0 126 -97q0 -96 -113 -154q-65 -33 -179 -44q-5 -36 -5 -60q0 -105 79 -105q51 0 102 39q32 25 69 78zM147 204l40 8q75 15 122 68t47 120
q0 54 -48 54q-59 0 -103 -79q-34 -62 -58 -171zM234 667q22 0 37.5 -15.5t15.5 -37.5q0 -23 -17.5 -41t-40.5 -18q-22 0 -38 16t-16 39q0 22 18 39.5t41 17.5zM427 667q22 0 37.5 -15.5t15.5 -37.5q0 -23 -17.5 -41t-40.5 -18q-22 0 -38 16t-16 39q0 22 18 39.5t41 17.5z
" />
    <glyph glyph-name="iacute" unicode="&#xed;" horiz-adv-x="337" 
d="M258 474l-51 -240q-29 -136 -29 -166q0 -49 30 -49q49 0 96 113l21 -4q-26 -63 -49 -93q-35 -45 -92 -45q-39 0 -63.5 25t-24.5 65q0 20 14 86l27 128q14 66 14 88t-21 30q-11 4 -91 8l4 17zM210 536l-12 15l131 121q30 28 44 28q9 0 17.5 -10t8.5 -21q0 -15 -35 -37z
" />
    <glyph glyph-name="igrave" unicode="&#xec;" horiz-adv-x="337" 
d="M258 474l-51 -240q-29 -136 -29 -166q0 -49 30 -49q49 0 96 113l21 -4q-26 -63 -49 -93q-35 -45 -92 -45q-39 0 -63.5 25t-24.5 65q0 20 14 86l27 128q14 66 14 88t-21 30q-11 4 -91 8l4 17zM250 534l-13 -13l-126 97l-16 12t-16 23q0 13 10.5 24t22.5 11q13 0 33 -25z
" />
    <glyph glyph-name="icircumflex" unicode="&#xee;" horiz-adv-x="337" 
d="M258 474l-51 -240q-29 -136 -29 -166q0 -49 30 -49q49 0 96 113l21 -4q-26 -63 -49 -93q-35 -45 -92 -45q-39 0 -63.5 25t-24.5 65q0 20 14 86l27 128q14 66 14 88t-21 30q-11 4 -91 8l4 17zM257 691l113 -155l-15 -14l-111 105l-178 -105l-10 18z" />
    <glyph glyph-name="idieresis" unicode="&#xef;" horiz-adv-x="325" 
d="M246 474l-51 -240q-29 -136 -29 -166q0 -49 30 -49q47 0 96 113l20 -4q-27 -66 -48 -93q-35 -45 -92 -45q-39 0 -63.5 25t-24.5 65q0 24 13 86l27 128q15 71 15 89q0 21 -19 29q-11 5 -80 8l4 17zM146 667q22 0 37.5 -15.5t15.5 -37.5q0 -23 -17.5 -41t-40.5 -18
q-22 0 -38 16t-16 39q0 22 18 39.5t41 17.5zM306 667q22 0 37.5 -15.5t15.5 -37.5q0 -23 -17.5 -41t-40.5 -18q-22 0 -38 16t-16 39q0 22 18 39.5t41 17.5z" />
    <glyph glyph-name="ntilde" unicode="&#xf1;" horiz-adv-x="637" 
d="M178 0h-83l51 240q28 132 28 169q0 41 -33 41q-48 0 -106 -113l-20 6q32 72 63.5 103t74.5 31q92 0 92 -118q0 -33 -1 -52q49 95 90 132.5t98 37.5q46 0 72.5 -29t26.5 -78q0 -32 -8 -65l-17 -71q-29 -121 -29 -166q0 -49 30 -49q49 0 96 113l21 -4q-26 -64 -49 -93
q-36 -45 -86 -45q-41 0 -69.5 32t-28.5 79q0 46 54 234q12 42 12 70q0 19 -11.5 32t-28.5 13q-71 0 -145 -144q-46 -90 -74 -216zM552 662l18 -4q-40 -113 -93 -113q-25 0 -68 37q-48 41 -73 41q-40 0 -73 -79l-19 3q18 61 40 90q27 35 66 35q29 0 75 -38t69 -38q27 0 58 66
z" />
    <glyph glyph-name="oacute" unicode="&#xf3;" horiz-adv-x="528" 
d="M322 477q165 0 165 -167q0 -135 -90 -238q-72 -82 -192 -82q-161 0 -161 170q0 68 30.5 140t78.5 116q66 61 169 61zM313 454q-74 0 -124 -116q-19 -43 -34 -113t-15 -113q0 -99 77 -99q66 0 114 83q25 43 42.5 117t17.5 134q0 107 -78 107zM321 536l-12 15l131 121
q30 28 44 28q9 0 17.5 -10t8.5 -21q0 -15 -35 -37z" />
    <glyph glyph-name="ograve" unicode="&#xf2;" horiz-adv-x="528" 
d="M322 477q165 0 165 -167q0 -135 -90 -238q-72 -82 -192 -82q-161 0 -161 170q0 68 30.5 140t78.5 116q66 61 169 61zM313 454q-74 0 -124 -116q-19 -43 -34 -113t-15 -113q0 -99 77 -99q66 0 114 83q25 43 42.5 117t17.5 134q0 107 -78 107zM371 534l-13 -13l-126 97
l-16 12t-16 23q0 13 10.5 24t22.5 11q13 0 33 -25z" />
    <glyph glyph-name="ocircumflex" unicode="&#xf4;" horiz-adv-x="528" 
d="M322 477q165 0 165 -167q0 -135 -90 -238q-72 -82 -192 -82q-161 0 -161 170q0 68 30.5 140t78.5 116q66 61 169 61zM313 454q-74 0 -124 -116q-19 -43 -34 -113t-15 -113q0 -99 77 -99q66 0 114 83q25 43 42.5 117t17.5 134q0 107 -78 107zM381 691l113 -155l-15 -14
l-111 105l-178 -105l-10 18z" />
    <glyph glyph-name="odieresis" unicode="&#xf6;" horiz-adv-x="528" 
d="M322 477q165 0 165 -167q0 -135 -90 -238q-72 -82 -192 -82q-161 0 -161 170q0 68 30.5 140t78.5 116q66 61 169 61zM313 454q-74 0 -124 -116q-19 -43 -34 -113t-15 -113q0 -99 77 -99q66 0 114 83q25 43 42.5 117t17.5 134q0 107 -78 107zM262 667q22 0 37.5 -15.5
t15.5 -37.5q0 -23 -17.5 -41t-40.5 -18q-22 0 -38 16t-16 39q0 22 18 39.5t41 17.5zM455 667q22 0 37.5 -15.5t15.5 -37.5q0 -23 -17.5 -41t-40.5 -18q-22 0 -38 16t-16 39q0 22 18 39.5t41 17.5z" />
    <glyph glyph-name="otilde" unicode="&#xf5;" horiz-adv-x="528" 
d="M322 477q165 0 165 -167q0 -135 -90 -238q-72 -82 -192 -82q-161 0 -161 170q0 68 30.5 140t78.5 116q66 61 169 61zM313 454q-74 0 -124 -116q-19 -43 -34 -113t-15 -113q0 -99 77 -99q66 0 114 83q25 43 42.5 117t17.5 134q0 107 -78 107zM518 662l18 -4
q-40 -113 -93 -113q-25 0 -68 37q-48 41 -73 41q-40 0 -73 -79l-19 3q18 61 40 90q27 35 66 35q29 0 75 -38t69 -38q27 0 58 66z" />
    <glyph glyph-name="uacute" unicode="&#xfa;" horiz-adv-x="639" 
d="M476 467h83l-50 -233q-29 -135 -29 -166q0 -49 30 -49q47 0 96 113l21 -4q-31 -78 -61 -108t-76 -30q-40 0 -63.5 27.5t-23.5 73.5q0 29 7 65q-50 -94 -90.5 -130t-94.5 -36q-50 0 -78 29t-28 80q0 31 10 72l17 69q33 134 33 169q0 41 -35 41q-49 0 -108 -113l-19 6
q32 73 64.5 103.5t78.5 30.5q44 0 70.5 -29t26.5 -77q0 -52 -32 -166q-30 -107 -30 -139q0 -49 45 -49q60 0 119 98q65 109 88 216zM372 536l-12 15l131 121q30 28 44 28q9 0 17.5 -10t8.5 -21q0 -15 -35 -37z" />
    <glyph glyph-name="ugrave" unicode="&#xf9;" horiz-adv-x="639" 
d="M476 467h83l-50 -233q-29 -135 -29 -166q0 -49 30 -49q47 0 96 113l21 -4q-31 -78 -61 -108t-76 -30q-40 0 -63.5 27.5t-23.5 73.5q0 29 7 65q-50 -94 -90.5 -130t-94.5 -36q-50 0 -78 29t-28 80q0 31 10 72l17 69q33 134 33 169q0 41 -35 41q-49 0 -108 -113l-19 6
q32 73 64.5 103.5t78.5 30.5q44 0 70.5 -29t26.5 -77q0 -52 -32 -166q-30 -107 -30 -139q0 -49 45 -49q60 0 119 98q65 109 88 216zM424 534l-13 -13l-126 97l-16 12t-16 23q0 13 10.5 24t22.5 11q13 0 33 -25z" />
    <glyph glyph-name="ucircumflex" unicode="&#xfb;" horiz-adv-x="639" 
d="M476 467h83l-50 -233q-29 -135 -29 -166q0 -49 30 -49q47 0 96 113l21 -4q-31 -78 -61 -108t-76 -30q-40 0 -63.5 27.5t-23.5 73.5q0 29 7 65q-50 -94 -90.5 -130t-94.5 -36q-50 0 -78 29t-28 80q0 31 10 72l17 69q33 134 33 169q0 41 -35 41q-49 0 -108 -113l-19 6
q32 73 64.5 103.5t78.5 30.5q44 0 70.5 -29t26.5 -77q0 -52 -32 -166q-30 -107 -30 -139q0 -49 45 -49q60 0 119 98q65 109 88 216zM427 691l113 -155l-15 -14l-111 105l-178 -105l-10 18z" />
    <glyph glyph-name="udieresis" unicode="&#xfc;" horiz-adv-x="639" 
d="M476 467h83l-50 -233q-29 -135 -29 -166q0 -49 30 -49q47 0 96 113l21 -4q-31 -78 -61 -108t-76 -30q-40 0 -63.5 27.5t-23.5 73.5q0 29 7 65q-50 -94 -90.5 -130t-94.5 -36q-50 0 -78 29t-28 80q0 31 10 72l17 69q33 134 33 169q0 41 -35 41q-49 0 -108 -113l-19 6
q32 73 64.5 103.5t78.5 30.5q44 0 70.5 -29t26.5 -77q0 -52 -32 -166q-30 -107 -30 -139q0 -49 45 -49q60 0 119 98q65 109 88 216zM301 667q22 0 37.5 -15.5t15.5 -37.5q0 -23 -17.5 -41t-40.5 -18q-22 0 -38 16t-16 39q0 22 18 39.5t41 17.5zM494 667q22 0 37.5 -15.5
t15.5 -37.5q0 -23 -17.5 -41t-40.5 -18q-22 0 -38 16t-16 39q0 22 18 39.5t41 17.5z" />
    <glyph glyph-name="dagger" unicode="&#x2020;" horiz-adv-x="511" 
d="M311 408h12q34 0 73 11t57 11q41 0 41 -37q0 -44 -44 -44q-16 0 -51 14q-47 19 -93 19q-30 -176 -45 -307q-18 -154 -28 -182q-13 -36 -46 -36q-17 0 -29 11.5t-12 28.5q0 12 13 55q27 89 49 168l53 192q11 41 18 70q-27 0 -40 -3q-6 0 -34 -8l-41 -11q-22 -6 -38 -6
t-26.5 11t-10.5 27q0 17 12 29t31 12q17 0 76 -15q39 -10 77 -10q8 39 9 123t10 110q12 36 47 36q37 0 37 -34q0 -21 -54 -155q-13 -31 -23 -80z" />
    <glyph glyph-name="degree" unicode="&#xb0;" horiz-adv-x="294" 
d="M225 677q38 0 64.5 -26.5t26.5 -64.5t-27 -65t-66 -27q-37 0 -63.5 27t-26.5 65t27 64.5t65 26.5zM225 654q-28 0 -48.5 -20t-20.5 -48t20 -48.5t48 -20.5q29 0 49 20.5t20 48.5t-20 48t-48 20z" />
    <glyph glyph-name="cent" unicode="&#xa2;" horiz-adv-x="527" 
d="M377 673h30l-20 -92q126 -1 126 -75q0 -29 -19 -48.5t-47 -19.5q-22 0 -36.5 13t-14.5 33q0 21 21 38q14 12 14 17q0 19 -44 19h-5l-93 -436q91 4 167 118l19 -10q-71 -126 -191 -135l-21 -95h-30l21 95q-77 6 -118 51.5t-41 124.5q0 92 41.5 170t108.5 112q47 24 112 28
zM260 125l91 428q-71 -24 -116.5 -114.5t-45.5 -205.5q0 -92 71 -108z" />
    <glyph glyph-name="sterling" unicode="&#xa3;" horiz-adv-x="527" 
d="M476 373l-7 -30h-149q3 -25 3 -38q0 -58 -73 -172q84 -53 130 -53q106 0 134 160l15 1q-5 -107 -36 -163q-50 -91 -141 -91q-77 0 -152 86q-76 -87 -152 -87q-34 0 -55.5 23t-21.5 59q0 50 36.5 80.5t94.5 30.5t131 -33q29 53 29 83q0 50 -52 114h-134l7 30h110
q-24 59 -24 104q0 89 60.5 146.5t154.5 57.5q52 0 82 -20.5t30 -57.5q0 -27 -18 -45t-45 -18q-21 0 -35 12t-14 30q0 15 10.5 34t10.5 24q0 14 -34 14q-53 0 -90 -35.5t-37 -87.5q0 -37 22 -83q4 -7 43 -75h167zM187 89q-59 64 -107 64q-31 0 -52.5 -18.5t-21.5 -44.5
t18.5 -42t48.5 -16q58 0 114 57z" />
    <glyph glyph-name="section" unicode="&#xa7;" horiz-adv-x="557" 
d="M178 436q-13 33 -13 66q0 79 56 127t147 48q70 0 115 -29t45 -74q0 -29 -18 -47.5t-46 -18.5q-46 0 -46 40q0 12 9 29q5 10 5 20q0 23 -24.5 39t-60.5 16q-56 0 -89 -30.5t-33 -81.5q0 -38 23.5 -64t104 -77.5t103.5 -74.5q37 -37 37 -86q0 -77 -103 -143q29 -41 29 -81
q0 -70 -60 -118.5t-148 -48.5q-82 0 -136.5 40.5t-54.5 101.5q0 32 17 51.5t46 19.5q24 0 40 -13.5t16 -33.5q0 -19 -17 -38t-17 -36q0 -28 30.5 -47.5t73.5 -19.5q59 0 96 30t37 79q0 44 -37 77q-9 8 -90 59q-61 37 -92 69q-37 39 -37 100q0 92 92 150zM190 415
q-51 -41 -51 -88q0 -48 56 -91q21 -16 97 -60q50 -29 84 -64q54 43 54 87q0 43 -60 81q-5 2 -92 56q-56 35 -88 79z" />
    <glyph glyph-name="bullet" unicode="&#x2022;" horiz-adv-x="667" 
d="M336 477q56 0 96.5 -41t40.5 -98t-40.5 -97.5t-97.5 -40.5q-58 0 -98.5 40.5t-40.5 97.5q0 58 40.5 98.5t99.5 40.5z" />
    <glyph glyph-name="paragraph" unicode="&#xb6;" horiz-adv-x="433" 
d="M540 667l-21 -30l-141 -9l-124 -582q-26 -120 -64 -174q-47 -65 -129 -65q-47 0 -77.5 23.5t-30.5 60.5q0 25 15 40.5t39 15.5q20 0 33.5 -12t13.5 -30q0 -12 -14 -34q-3 -5 -3 -11q0 -26 42 -26q100 0 140 186l56 261q-62 5 -102 17q-108 32 -108 142q0 93 64 161
q34 36 78.5 51t118.5 15h214z" />
    <glyph glyph-name="germandbls" unicode="&#xdf;" horiz-adv-x="602" 
d="M59 421l5 26h105q35 124 72 173q62 81 157 81q115 0 115 -80q0 -37 -49 -72q-18 -13 -36 -29q-32 -28 -32 -56q0 -19 25 -55q4 -6 48 -57q82 -95 82 -163q0 -83 -58.5 -141t-141.5 -58q-57 0 -93 24.5t-36 62.5q0 25 15.5 41t38.5 16q48 0 48 -49q0 -8 -4.5 -21.5
t-4.5 -19.5q0 -11 15.5 -19t36.5 -8q46 0 71.5 31t25.5 86q0 61 -53 139q-69 102 -69 146q0 43 68 119q38 43 38 75q0 65 -61 65q-89 0 -118 -149l-65 -339q-28 -148 -61 -227q-63 -153 -185 -153q-43 0 -68.5 20.5t-25.5 55.5q0 26 16 42t42 16q19 0 32 -11.5t13 -27.5
t-10 -32l-1 -2q-8 -12 -8 -15q0 -19 31 -19q56 0 82 72q8 22 29 130l74 382h-105z" />
    <glyph glyph-name="registered" unicode="&#xae;" horiz-adv-x="777" 
d="M600 168l4 -23q-32 -7 -53 -7q-39 0 -56 24q-14 20 -27 70q-16 62 -30.5 77.5t-56.5 14.5l-35 -1v-101q0 -33 5.5 -41t31.5 -11l24 -3v-24h-186v24l24 3q25 3 30.5 11t5.5 41v222q0 33 -5.5 41t-30.5 11l-24 3v24h203q137 0 137 -91q0 -74 -96 -97q35 -10 48 -28t25 -72
q15 -69 42 -69q-4 0 20 2zM346 352h43q46 0 73.5 21t27.5 55q0 66 -103 66q-24 0 -41 -1v-141zM417 682q141 0 242.5 -102.5t101.5 -245.5q0 -145 -102 -247t-246 -102t-246.5 102t-102.5 246q0 146 102.5 247.5t250.5 101.5zM416 648q-133 0 -225.5 -91.5t-92.5 -223.5
q0 -130 92.5 -222t222.5 -92t222 92t92 222q0 129 -92 222t-219 93z" />
    <glyph glyph-name="copyright" unicode="&#xa9;" horiz-adv-x="777" 
d="M591 523l2 -133l-31 -1q-15 54 -30 72q-35 42 -102 42q-70 0 -109 -45.5t-39 -125.5q0 -78 39.5 -124t106.5 -46q63 0 139 68l26 -28q-76 -68 -167 -68q-102 0 -158.5 52.5t-56.5 146.5q0 96 56.5 147t163.5 51q53 0 114 -23q8 -2 10 -2q7 0 19 17h17zM417 682
q141 0 242.5 -102.5t101.5 -245.5q0 -145 -102 -247t-246 -102t-246.5 102t-102.5 246q0 146 102.5 247.5t250.5 101.5zM416 648q-133 0 -225.5 -91.5t-92.5 -223.5q0 -130 92.5 -222t222.5 -92t222 92t92 222q0 129 -92 222t-219 93z" />
    <glyph glyph-name="trademark" unicode="&#x2122;" horiz-adv-x="862" 
d="M435 667l-25 -121h-22q-7 61 -20.5 78t-53.5 17h-24l-57 -266q-7 -33 -7 -43q0 -17 27 -21l21 -3l-5 -21h-170l4 21l14 2q31 4 39 16q4 4 8 22l63 293q-54 1 -76 -14t-60 -81h-21l26 121h339zM578 667l56 -301l179 301h120l-5 -21q-37 -5 -45 -10q-10 -8 -18 -47
l-45 -214q0 3 -3 -14q-5 -23 -5 -29q0 -17 27 -21l21 -3l-4 -21h-168l4 21l15 2q31 4 37.5 12.5t16.5 53.5l51 240q-59 -101 -198 -329h-30l-59 325l-44 -223q-8 -41 -8 -51q0 -22 47 -30l-5 -21h-145l4 21q43 5 55.5 20.5t27.5 85.5l38 179q4 19 4 26q0 17 -19 22
q-4 2 -34 5l4 21h128z" />
    <glyph glyph-name="acute" unicode="&#xb4;" 
d="M292 536l-12 15l131 121q30 28 44 28q9 0 17.5 -10t8.5 -21q0 -15 -35 -37z" />
    <glyph glyph-name="dieresis" unicode="&#xa8;" 
d="M240 667q22 0 37.5 -15.5t15.5 -37.5q0 -23 -17.5 -41t-40.5 -18q-22 0 -38 16t-16 39q0 22 18 39.5t41 17.5zM433 667q22 0 37.5 -15.5t15.5 -37.5q0 -23 -17.5 -41t-40.5 -18q-22 0 -38 16t-16 39q0 22 18 39.5t41 17.5z" />
    <glyph glyph-name="notequal" unicode="&#x2260;" horiz-adv-x="540" 
d="M25 321h296l108 134l32 -30l-84 -104h150v-44h-186l-70 -90h256v-44h-291l-104 -131l-34 27l84 104h-157v44h194l69 90h-263v44z" />
    <glyph glyph-name="AE" unicode="&#xc6;" horiz-adv-x="898" 
d="M912 667l-44 -204h-26q-15 105 -37 135q-26 36 -85 36h-137l-55 -262h79q25 0 36.5 5.5t25.5 26.5q17 25 39 79h26l-57 -271h-27v38v27q-1 13 -1 12q0 36 -10.5 43.5t-33.5 7.5h-84l-65 -307h125q103 0 157 57q29 30 84 137h30l-48 -227h-536l6 26l18 3q55 9 68 25.5
t31 99.5l15 69h-221q-8 -10 -69 -97q-37 -54 -37 -70q0 -11 9.5 -15t56.5 -15l-6 -26h-226l6 26q58 11 81 28.5t77 93.5q25 35 76 103l100 132q58 78 107 140q63 79 63 93q0 11 -15 15q-5 2 -65 10l6 26h563zM493 630h-17l-266 -374h203z" />
    <glyph glyph-name="Oslash" unicode="&#xd8;" horiz-adv-x="780" 
d="M710 787l-82 -132q133 -55 133 -224q0 -200 -131 -331q-113 -113 -288 -113q-64 0 -119 16l-74 -118h-44l83 133q-119 66 -119 220q0 96 40.5 190.5t107.5 153.5q110 98 272 98q54 0 103 -13l75 120h43zM602 613l-355 -571q44 -25 102 -25q151 0 233 154q76 143 76 295
q0 99 -56 147zM218 66l353 567q-38 17 -89 17q-122 0 -207 -117q-44 -60 -73 -154t-29 -176q0 -86 45 -137z" />
    <glyph glyph-name="infinity" unicode="&#x221e;" horiz-adv-x="721" 
d="M369 274q44 58 65 80q43 44 109 44q64 0 102.5 -40t38.5 -106q0 -74 -46.5 -122t-116.5 -48q-48 0 -87.5 25t-89.5 87q-48 -61 -80 -83t-75 -22q-63 0 -105.5 44.5t-42.5 111.5q0 65 40.5 108.5t101.5 43.5q69 0 118 -46q17 -16 68 -77zM327 217l-53 75q-55 75 -103 75
q-38 0 -63.5 -34.5t-25.5 -86.5q0 -56 30.5 -91t79.5 -35t86 36q13 13 49 61zM386 250q27 -38 72 -96q36 -40 82 -40t74.5 36.5t28.5 95.5q0 57 -28 89.5t-78 32.5q-51 0 -91 -43q-18 -19 -60 -75z" />
    <glyph glyph-name="plusminus" unicode="&#xb1;" horiz-adv-x="527" 
d="M43 343h227l47 222h40l-47 -222h226l-8 -40h-227l-48 -228h-40l48 228h-227zM-21 40h493l-9 -40h-493z" />
    <glyph glyph-name="lessequal" unicode="&#x2264;" horiz-adv-x="533" 
d="M468 464l27 -35l-416 -163l409 -168l-30 -35l-457 186v36zM1 43h499v-43h-499v43z" />
    <glyph glyph-name="greaterequal" unicode="&#x2265;" horiz-adv-x="533" 
d="M512 285v-36l-457 -186l-30 35l409 168l-416 163l27 35zM512 43v-43h-499v43h499z" />
    <glyph glyph-name="yen" unicode="&#xa5;" horiz-adv-x="527" 
d="M43 263l6 30h181l-21 81h-146l7 30h131l-42 159q-11 43 -26 58t-49 19l6 27h223l-5 -27q-18 -4 -46 -13q-18 -9 -18 -28q0 -12 6 -38l56 -243q52 72 132 189q53 85 53 110q0 20 -46 23l6 27h181l-6 -27q-33 -1 -57.5 -21.5t-68.5 -81.5l-96 -133h145l-6 -30h-161l-57 -81
h197l-6 -30h-203l-24 -111q-13 -60 -13 -79q0 -37 49 -42l41 -4l-6 -27h-284l6 27l24 2q54 4 67 22t32 103l24 109h-186z" />
    <glyph glyph-name="partialdiff" unicode="&#x2202;" horiz-adv-x="497" 
d="M-2 564l-8 15q50 93 161 93q120 0 209.5 -109t89.5 -255q0 -133 -73.5 -225.5t-179.5 -92.5q-145 0 -145 161q0 82 35.5 150t99 107t162.5 52q-40 84 -90 126q-68 57 -139 57q-82 0 -122 -79zM356 439q-55 -7 -90 -22q-65 -28 -105.5 -106.5t-40.5 -176.5q0 -124 79 -124
q71 0 126 91.5t55 209.5q0 80 -24 128z" />
    <glyph glyph-name="summation" unicode="&#x2211;" horiz-adv-x="666" 
d="M274 328l-126 326l3 13h502l-22 -199h-25l-1 59q-1 64 -24 86t-91 22h-241l99 -265l-256 -298h304q59 0 89.5 15.5t56.5 58.5l39 65h23l-73 -211h-536l2 9z" />
    <glyph glyph-name="product" unicode="&#x220f;" horiz-adv-x="761" 
d="M625 634h-304l-107 -506q-10 -47 -10 -57q0 -36 56 -42l35 -4l-5 -25h-283l5 25l37 4q46 5 60.5 22t27.5 77l88 412q9 42 9 57q0 35 -55 41l-36 4l6 25h663l-6 -25l-37 -4q-46 -5 -60.5 -22t-27.5 -76l-87 -412q-10 -47 -10 -57q0 -36 56 -42l35 -4l-5 -25h-283l5 25
l37 4q46 5 60.5 22t27.5 77z" />
    <glyph glyph-name="integral" unicode="&#x222b;" horiz-adv-x="283" 
d="M10 -114q27 0 38 -37q8 -26 28 -26q53 0 53 153q0 47 -12 234q-10 156 -10 223q0 126 41 187q38 57 102 57q28 0 45.5 -15t17.5 -38q0 -19 -11.5 -31.5t-28.5 -12.5q-20 0 -27 14q-2 3 -6.5 27t-26.5 24q-51 0 -51 -133q0 -39 13 -170t13 -249q0 -299 -148 -299
q-30 0 -48.5 15t-18.5 39q0 38 37 38z" />
    <glyph glyph-name="ordfeminine" unicode="&#xaa;" horiz-adv-x="384" 
d="M367 549l-30 -141q-16 -75 -16 -97q0 -27 16 -27q27 0 55 68l18 -3q-15 -40 -31 -60q-23 -29 -58 -29q-24 0 -40.5 15.5t-17.5 40.5q-39 -55 -96 -55q-44 0 -69 27.5t-25 75.5q0 72 43 129q46 62 116 62q54 0 71 -38l6 32h58zM241 533q-38 0 -62 -40q-40 -67 -40 -143
q0 -67 39 -67q47 0 81 73q29 62 29 117q0 60 -47 60z" />
    <glyph glyph-name="ordmasculine" unicode="&#xba;" horiz-adv-x="341" 
d="M244 555q105 0 105 -102q0 -81 -55 -142q-45 -50 -121 -50q-103 0 -103 105q0 40 19 83t48 69q41 37 107 37zM237 535q-44 0 -72.5 -66.5t-28.5 -130.5q0 -57 46 -57q41 0 71 57.5t30 135.5q0 61 -46 61z" />
    <glyph glyph-name="Omega" unicode="&#x3a9;" horiz-adv-x="750" 
d="M-10 0l25 164h15l7 -53q4 -29 12 -37.5t35 -8.5h129q-48 25 -73 56q-52 64 -52 161q0 85 37.5 166.5t102.5 139.5q101 89 237 89q113 0 180 -62t67 -168q0 -150 -101 -269q-65 -77 -160 -113h131q31 0 48 10t31 36l28 53h17l-46 -164h-302l12 55q121 24 189 139
q34 56 55 133.5t21 144.5q0 177 -175 177q-124 0 -191 -85q-50 -63 -80.5 -150.5t-30.5 -167.5q0 -101 61 -157q30 -28 75 -34l-12 -55h-292z" />
    <glyph glyph-name="ae" unicode="&#xe6;" horiz-adv-x="756" 
d="M499 480l-25 -71q76 68 146 68q49 0 78.5 -26.5t29.5 -70.5q0 -96 -113 -154q-65 -33 -178 -44q-6 -35 -6 -60q0 -105 79 -105q50 0 102 39q32 24 69 78l19 -10q-40 -63 -76 -90q-58 -44 -134 -44q-136 0 -142 154q-49 -64 -94 -98q-75 -56 -143 -56q-38 0 -60 28.5
t-22 77.5q0 82 47 156.5t132 125.5q60 37 212 80q34 10 70 29zM369 274l39 153q-108 -28 -158 -56q-62 -35 -97 -92.5t-35 -124.5q0 -94 64 -94q63 0 114 59q48 56 73 155zM440 204q15 3 39 8q76 18 122 69.5t46 117.5q0 54 -45 54q-61 0 -105 -79q-32 -57 -57 -170z" />
    <glyph glyph-name="oslash" unicode="&#xf8;" horiz-adv-x="528" 
d="M51 -93l62 103q-69 42 -69 141q0 76 29.5 147.5t79.5 118.5q64 60 167 60q38 0 69 -8l57 94h36l-64 -106q69 -39 69 -147q0 -134 -90 -238q-71 -82 -190 -82q-38 0 -66 8l-54 -91h-36zM384 401l-221 -367q21 -21 54 -21q66 0 113 83q25 44 43 117.5t18 133.5q0 29 -7 54z
M145 64l222 369q-19 21 -54 21q-74 0 -124 -116q-20 -46 -34.5 -115t-14.5 -118q0 -21 5 -41z" />
    <glyph glyph-name="questiondown" unicode="&#xbf;" horiz-adv-x="420" 
d="M277 296h20q-6 -78 -30.5 -122.5t-95.5 -108.5q-92 -83 -92 -153q0 -47 24.5 -77.5t62.5 -30.5q23 0 40 10.5t17 24.5q0 6 -11 22.5t-11 31.5q0 21 17.5 36.5t41.5 15.5q23 0 37 -14.5t14 -36.5q0 -49 -47.5 -81.5t-119.5 -32.5q-156 0 -156 129q0 67 42 122
q18 23 36.5 37.5t88.5 56.5q76 46 93.5 71t28.5 100zM300 467q59 0 59 -58q0 -31 -19.5 -50.5t-49.5 -19.5q-56 0 -56 58q0 70 66 70z" />
    <glyph glyph-name="exclamdown" unicode="&#xa1;" horiz-adv-x="286" 
d="M139 255h25q-24 -95 -30 -146.5t-8 -195.5q-1 -73 -17 -102q-18 -32 -50 -32q-49 0 -49 52q0 41 35 117q40 87 57.5 143.5t36.5 163.5zM186 467q27 0 43.5 -16.5t16.5 -43.5q0 -30 -20 -50t-49 -20q-58 0 -58 61q0 30 19 49.5t48 19.5z" />
    <glyph glyph-name="logicalnot" unicode="&#xac;" horiz-adv-x="533" 
d="M-16 238h490v-267h-47v223h-443v44z" />
    <glyph glyph-name="radical" unicode="&#x221a;" horiz-adv-x="393" 
d="M8 326l-3 23l115 18l107 -272l215 602h166v-27h-141l-240 -670h-35l-128 330z" />
    <glyph glyph-name="florin" unicode="&#x192;" horiz-adv-x="527" 
d="M475 403l-7 -30h-146l-44 -244q-27 -148 -76 -218q-65 -93 -167 -93q-39 0 -65 21.5t-26 54.5q0 25 17 42.5t40 17.5q20 0 33 -12.5t13 -32.5q0 -12 -6 -23q-11 -20 -11 -23q0 -8 9.5 -15t21.5 -7q17 0 38 13t33 31q26 40 48 164l57 324h-123l6 30h124q32 148 92 214
q58 63 125 63q43 0 69 -19.5t26 -51.5q0 -29 -18 -49t-44 -20q-20 0 -34 12t-14 30t13 35q16 21 16 26q0 15 -25 15q-67 0 -101 -158l-21 -97h147z" />
    <glyph glyph-name="approxequal" unicode="&#x2248;" horiz-adv-x="443" 
d="M27 238l-8 40q59 52 113 52q30 0 93 -25q60 -24 89 -24q47 0 103 53l8 -38q-56 -62 -123 -62q-22 0 -38.5 4.5t-90.5 31.5q-38 14 -56 14q-41 0 -90 -46zM37 103l-10 38q65 62 127 62q25 0 83.5 -21.5t82.5 -21.5q48 0 100 56l8 -41q-55 -65 -121 -65q-15 0 -114 32
q-34 11 -58 11q-49 0 -98 -50z" />
    <glyph glyph-name="approxequal" unicode="&#x22f2;" horiz-adv-x="443" 
d="M27 238l-8 40q59 52 113 52q30 0 93 -25q60 -24 89 -24q47 0 103 53l8 -38q-56 -62 -123 -62q-22 0 -38.5 4.5t-90.5 31.5q-38 14 -56 14q-41 0 -90 -46zM37 103l-10 38q65 62 127 62q25 0 83.5 -21.5t82.5 -21.5q48 0 100 56l8 -41q-55 -65 -121 -65q-15 0 -114 32
q-34 11 -58 11q-49 0 -98 -50z" />
    <glyph glyph-name="guillemotleft" unicode="&#xab;" horiz-adv-x="383" 
d="M160 17h-30l-15 40l-78 180q14 16 33 37q15 16 59 68q53 63 101 115h30q-19 -28 -42 -63q-15 -21 -45 -65q-12 -18 -60 -92q13 -75 47 -220zM286 17h-29q-7 23 -10 40l-21 69l-17 60q-4 14 -15 51q12 16 27 37q20 26 50 68q43 61 86 115h30l-34 -63q-12 -21 -36 -65
q-7 -14 -47 -92q2 -26 7 -102z" />
    <glyph glyph-name="guillemotright" unicode="&#xbb;" horiz-adv-x="383" 
d="M231 457h30q7 -17 14 -40l56 -129q3 -8 23 -51q-12 -13 -31.5 -35.5t-60.5 -69.5q-48 -56 -101 -115h-30q31 48 42 63q1 1 44 65q10 14 61 92q-21 111 -47 220zM104 457h30q7 -31 10 -40l20 -69q6 -20 17 -60q4 -13 16 -51l-28 -37q-12 -17 -49 -68q-42 -58 -86 -115h-30
q14 26 34 63q16 30 35 65q7 13 48 92q-1 12 -8 102z" />
    <glyph glyph-name="ellipsis" unicode="&#x2026;" horiz-adv-x="699" 
d="M88 120q25 0 40.5 -16t15.5 -42q0 -31 -19.5 -51.5t-49.5 -20.5q-57 0 -57 57q0 30 20.5 51.5t49.5 21.5zM321 120q25 0 40.5 -16t15.5 -42q0 -31 -19.5 -51.5t-49.5 -20.5q-57 0 -57 57q0 30 20.5 51.5t49.5 21.5zM554 120q25 0 40.5 -16t15.5 -42q0 -31 -20 -51.5
t-50 -20.5q-57 0 -57 57q0 30 21 51.5t50 21.5z" />
    <glyph glyph-name="nonbreakingspace" unicode="&#xa0;" horiz-adv-x="250" 
 />
    <glyph glyph-name="Agrave" unicode="&#xc0;" horiz-adv-x="644" 
d="M466 667l81 -512q12 -77 29 -101.5t61 -26.5l-6 -27h-264l6 27q56 9 71.5 17.5t15.5 30.5q0 28 -13 107l-10 61h-239l-72 -134q-22 -41 -22 -53q0 -22 69 -29l-6 -27h-220l6 27q35 2 67 21q20 12 48 54q21 33 92 154q47 81 86 147l75 127q13 24 42 73l38 64h65zM386 580
l-169 -304h215zM449 719l-12 -16l-139 75q-1 0 -18 8q-20 9 -20 25q0 13 9.5 24.5t19.5 11.5q12 0 34 -19z" />
    <glyph glyph-name="Atilde" unicode="&#xc3;" horiz-adv-x="644" 
d="M466 667l81 -512q12 -77 29 -101.5t61 -26.5l-6 -27h-264l6 27q56 9 71.5 17.5t15.5 30.5q0 28 -13 107l-10 61h-239l-72 -134q-22 -41 -22 -53q0 -22 69 -29l-6 -27h-220l6 27q35 2 67 21q20 12 48 54q21 33 92 154q47 81 86 147l75 127q13 24 42 73l38 64h65zM386 580
l-169 -304h215zM609 822l19 -5q-42 -95 -93 -95q-24 0 -67 28q-48 31 -71 31q-45 0 -74 -63l-19 5q36 107 106 107q26 0 73 -28.5t68 -28.5q30 0 58 49z" />
    <glyph glyph-name="Otilde" unicode="&#xd5;" horiz-adv-x="780" 
d="M488 680q118 0 191 -54q82 -60 82 -196q0 -199 -131 -330q-113 -113 -290 -113q-132 0 -201.5 66.5t-69.5 193.5q0 88 41.5 182t106.5 153q107 98 271 98zM483 650q-122 0 -208 -117q-41 -56 -71.5 -151t-30.5 -167q0 -198 177 -198q150 0 232 154q76 143 76 294
q0 185 -175 185zM688 822l19 -5q-42 -95 -93 -95q-24 0 -67 28q-48 31 -71 31q-45 0 -74 -63l-19 5q36 107 106 107q26 0 73 -28.5t68 -28.5q30 0 58 49z" />
    <glyph glyph-name="OE" unicode="&#x152;" horiz-adv-x="990" 
d="M1003 667l-43 -204h-27q-14 104 -37.5 137t-83.5 33h-137l-55 -261h79q25 0 36.5 5.5t25.5 26.5q18 26 38 79h27l-57 -271h-27q0 34 -1 39v39q0 34 -10 42t-34 8h-84l-65 -307h125q102 0 156 57q31 32 85 137h30l-48 -227h-432q14 0 -93 -6q-28 -1 -58 -1
q-245 0 -245 252q0 106 45.5 200t124.5 153q103 76 239 76q43 0 111 -5q27 -2 30 -2h385zM464 63l112 533q4 13 4 18q0 29 -97 29q-163 0 -253 -173q-59 -113 -59 -239q0 -101 45 -154.5t130 -53.5q45 0 95 16q14 4 17 7.5t6 16.5z" />
    <glyph glyph-name="oe" unicode="&#x153;" horiz-adv-x="792" 
d="M717 134l19 -10q-40 -63 -76 -90q-58 -44 -135 -44q-91 0 -133 75q-71 -75 -188 -75q-160 0 -160 161q0 75 29.5 146.5t79.5 118.5q65 61 169 61t142 -68q65 68 175 68q125 0 125 -97q0 -96 -113 -154q-65 -33 -178 -44q-5 -36 -5 -60q0 -105 79 -105q51 0 102 39
q30 23 68 78zM313 454q-74 0 -124 -116q-19 -43 -34 -113t-15 -113q0 -99 78 -99q66 0 114 83q25 43 43 117t18 134q0 107 -80 107zM476 204q15 3 39 8q76 18 122.5 70t46.5 118q0 54 -48 54q-59 0 -103 -79q-34 -62 -57 -171z" />
    <glyph glyph-name="endash" unicode="&#x2013;" horiz-adv-x="448" 
d="M417 264l-10 -47h-368l10 47h368z" />
    <glyph glyph-name="emdash" unicode="&#x2014;" horiz-adv-x="623" 
d="M632 264l-10 -47h-623l10 47h623z" />
    <glyph glyph-name="quotedblleft" unicode="&#x201c;" horiz-adv-x="490" 
d="M514 677l3 -18q-62 -21 -92 -55q-23 -25 -23 -42q0 -13 18 -13q53 -1 53 -58q0 -29 -20 -48.5t-49 -19.5q-30 0 -48 20t-18 53q0 72 71 131q37 31 105 50zM303 677l2 -18q-63 -22 -92 -55q-23 -26 -23 -42q0 -13 18 -13q53 -1 53 -58q0 -29 -20 -48.5t-49 -19.5
q-30 0 -48 20t-18 53q0 72 71 131q37 31 106 50z" />
    <glyph glyph-name="quotedblright" unicode="&#x201d;" horiz-adv-x="490" 
d="M117 423l-3 18q62 21 92 55q23 25 23 42q0 13 -18 13q-53 1 -53 58q0 29 20 48.5t49 19.5q30 0 48 -20t18 -53q0 -71 -71 -130q-39 -32 -105 -51zM328 423l-2 18q62 21 92 55q23 25 23 42q0 13 -18 13q-53 1 -53 58q0 29 20 48.5t49 19.5q30 0 48 -20t18 -53
q0 -71 -71 -130q-39 -33 -106 -51z" />
    <glyph glyph-name="quoteleft" unicode="&#x2018;" horiz-adv-x="279" 
d="M303 677l2 -18q-63 -22 -92 -55q-23 -26 -23 -42q0 -13 18 -13q53 -1 53 -58q0 -29 -20 -48.5t-49 -19.5q-30 0 -48 20t-18 53q0 72 71 131q37 31 106 50z" />
    <glyph glyph-name="quoteright" unicode="&#x2019;" horiz-adv-x="279" 
d="M117 423l-3 18q62 21 92 55q23 25 23 42q0 13 -18 13q-53 1 -53 58q0 29 20 48.5t49 19.5q30 0 48 -20t18 -53q0 -71 -71 -130q-39 -32 -105 -51z" />
    <glyph glyph-name="divide" unicode="&#xf7;" horiz-adv-x="520" 
d="M315 465q40 0 40 -40q0 -23 -19 -41t-43 -18q-17 0 -28 11.5t-11 28.5q0 22 19 40.5t42 18.5zM238 101q40 0 40 -40q0 -23 -19 -41t-43 -18q-17 0 -28 11.5t-11 28.5q0 22 19 40.5t42 18.5zM25 255h491l-9 -44h-491z" />
    <glyph glyph-name="lozenge" unicode="&#x25ca;" horiz-adv-x="667" 
d="M334 693l259 -360l-259 -359l-260 359zM334 604l-197 -271l197 -270l197 270z" />
    <glyph glyph-name="ydieresis" unicode="&#xff;" horiz-adv-x="582" 
d="M559 467l-77 -363q-30 -142 -87 -205q-80 -89 -209 -89q-61 0 -99.5 28.5t-38.5 74.5q0 28 16 45.5t42 17.5q51 0 51 -48q0 -22 -28 -47q-6 -5 -6 -11q0 -15 22.5 -26t52.5 -11q91 0 139 71q21 31 32 64.5t28 123.5q3 17 12 61q-37 -73 -74 -110q-53 -53 -112 -53
q-47 0 -75 29t-28 77q0 22 6 50l20 94q29 136 29 169q0 41 -33 41q-49 0 -107 -113l-20 5q32 74 65 104.5t80 30.5q96 0 96 -121q0 -46 -28 -147q-33 -119 -33 -150q0 -42 38 -42q68 0 128 102q24 40 51.5 111t37.5 117l26 120h83zM287 667q22 0 37.5 -15.5t15.5 -37.5
q0 -23 -17.5 -41t-40.5 -18q-22 0 -38 16t-16 39q0 22 18 39.5t41 17.5zM480 667q22 0 37.5 -15.5t15.5 -37.5q0 -23 -17.5 -41t-40.5 -18q-22 0 -38 16t-16 39q0 22 18 39.5t41 17.5z" />
    <glyph glyph-name="Ydieresis" unicode="&#x178;" horiz-adv-x="574" 
d="M495 667h201l-6 -27q-37 -2 -60 -19t-79 -84l-210 -254l-28 -131q-13 -61 -13 -79q0 -37 49 -42l41 -4l-6 -27h-297l6 27l25 2q54 4 67 22t32 103l28 129l-101 280q-17 48 -32 61t-56 16l6 27h257l-5 -27q-21 -4 -53 -13q-20 -10 -20 -34q0 -15 6 -32l83 -242
q70 87 113 144q23 32 70 95q29 39 29 57q0 22 -53 25zM298 833q23 0 39 -16t16 -39q0 -25 -18.5 -43.5t-42.5 -18.5q-22 0 -39 17t-17 40t19 41.5t43 18.5zM531 833q23 0 39 -16t16 -39q0 -25 -18.5 -43.5t-42.5 -18.5q-22 0 -39 17t-17 40t19 41.5t43 18.5z" />
    <glyph glyph-name="fraction" unicode="&#x2044;" horiz-adv-x="152" 
d="M334 667l-428 -667h-39l428 667h39z" />
    <glyph glyph-name="currency" unicode="&#xa4;" horiz-adv-x="799" 
d="M260 381h291l-20 -32h-281l-7 -32h267l-20 -32h-253q-5 -40 -5 -64q0 -91 51 -147.5t133 -56.5q55 0 108 28.5t127 97.5l35 -34q-118 -122 -280 -122q-133 0 -205 65.5t-72 185.5q0 20 3 47h-72l20 32h56q2 15 7 32h-69l20 32h58q46 141 151 220t244 79q89 0 186 -44
l35 31h20l-49 -233h-27q-13 216 -173 216q-94 0 -166.5 -70.5t-112.5 -198.5z" />
    <glyph glyph-name="guilsinglleft" unicode="&#x2039;" horiz-adv-x="258" 
d="M160 17h-30l-15 40l-55 129q-7 17 -23 51q22 25 92 105q29 34 103 115h30q-78 -109 -149 -220q12 -72 47 -220z" />
    <glyph glyph-name="guilsinglright" unicode="&#x203a;" horiz-adv-x="258" 
d="M106 457h30l15 -40l45 -105q14 -35 19 -45l14 -30q-22 -25 -92 -105q-28 -34 -103 -115h-30q78 109 149 220q-12 72 -47 220z" />
    <glyph glyph-name="fi" unicode="&#xf001;" horiz-adv-x="597" 
d="M47 420l6 27h109q33 122 81 175q71 78 190 78q132 0 132 -81q0 -27 -17 -44.5t-43 -17.5q-23 0 -37.5 13t-14.5 33q0 17 18 40q7 7 7 14q0 20 -48 20q-139 0 -176 -185l-9 -45h129q77 0 158 27l-51 -241q-29 -137 -29 -163q0 -51 32 -51q48 0 98 121l14 -15
q-27 -66 -47 -91q-35 -44 -91 -44q-40 0 -64 25t-24 66q0 24 13 85l27 127q15 71 15 88q0 29 -38 37q-13 2 -61 2h-85l-29 -166q-25 -141 -40 -195q-38 -132 -90 -190.5t-132 -58.5q-43 0 -70 20.5t-27 53.5q0 26 16.5 44t40.5 18q46 0 46 -44q0 -14 -15 -34q-3 -4 -3 -12
q0 -23 30 -23q60 0 90 75q15 37 34 144l65 368h-110z" />
    <glyph glyph-name="fl" unicode="&#xf002;" horiz-adv-x="611" 
d="M47 420l6 27h109q34 116 84 174q68 79 157 79q41 0 81 -17l96 17l-99 -467q-29 -137 -29 -163q0 -51 31 -51q49 0 99 121l14 -15q-27 -66 -47 -91q-35 -44 -87 -44q-41 0 -64.5 27.5t-23.5 73.5q0 31 10 78l67 318q16 76 16 107q0 83 -67 83q-48 0 -88.5 -50.5
t-57.5 -134.5l-9 -45h136l-6 -27h-134l-29 -166q-25 -141 -40 -195q-38 -132 -90 -190.5t-132 -58.5q-43 0 -70 20.5t-27 53.5q0 26 16.5 44t40.5 18q46 0 46 -44q0 -14 -15 -34q-3 -4 -3 -12q0 -23 30 -23q60 0 90 75q15 37 34 144l65 368h-110z" />
    <glyph glyph-name="daggerdbl" unicode="&#x2021;" horiz-adv-x="539" 
d="M319 398l-50 -237q3 0 37 3l13 3l46 11q38 9 54 9q37 0 37 -37q0 -42 -41 -42q-20 0 -65 14q-48 15 -81 15q-3 0 -5 -1q-16 -65 -19 -177q-1 -56 -14 -79t-42 -23q-37 0 -37 35q0 20 35 99q33 74 48 145q-3 1 -6 1q-27 0 -103 -21q-25 -7 -39 -7q-35 0 -35 36q0 41 43 41
q15 0 107 -19q11 -2 38 -6l50 237l-12 -2q-14 -1 -68 -14l-14 -4q-38 -10 -53 -10t-26 10.5t-11 24.5q0 17 12.5 30t29.5 13q16 0 71 -13q41 -10 77 -11q6 38 9 59l1 45v65q0 86 55 86q36 0 36 -35q0 -25 -31.5 -97.5t-41.5 -122.5q40 2 84 14q37 10 62 10q42 0 42 -37
q0 -41 -48 -41q-13 0 -61 15q-39 12 -84 15z" />
    <glyph glyph-name="periodcentered" unicode="&#x2219;" horiz-adv-x="273" 
d="M149 318q28 0 45 -17.5t17 -46.5q0 -34 -21.5 -56.5t-54.5 -22.5q-63 0 -63 63q0 33 22.5 56.5t54.5 23.5z" />
    <glyph glyph-name="quotesinglbase" unicode="&#x201a;" horiz-adv-x="279" 
d="M-2 -134l-3 18q63 22 92 55q23 26 23 42q0 13 -18 13q-53 1 -53 58q0 29 20 48.5t49 19.5q30 0 48 -20t18 -53q0 -72 -71 -131q-37 -31 -105 -50z" />
    <glyph glyph-name="quotedblbase" unicode="&#x201e;" horiz-adv-x="490" 
d="M-2 -134l-3 18q63 22 92 55q23 26 23 42q0 13 -18 13q-53 1 -53 58q0 29 20 48.5t49 19.5q30 0 48 -20t18 -53q0 -72 -71 -131q-37 -31 -105 -50zM209 -134l-2 18q63 22 92 55q23 26 23 42q0 13 -18 13q-53 1 -53 58q0 29 20 48.5t49 19.5q30 0 48 -20t18 -53
q0 -72 -71 -131q-37 -31 -106 -50z" />
    <glyph glyph-name="perthousand" unicode="&#x2030;" horiz-adv-x="901" 
d="M521 700h39l-443 -733h-38zM231 674q45 0 71 -25t26 -69q0 -77 -44.5 -131t-108.5 -54q-44 0 -70.5 28.5t-24.5 72.5q4 87 57 140q38 38 94 38zM226 652q-34 0 -57 -42q-34 -63 -34 -125q0 -69 43 -69q35 0 62 51q31 59 31 114q0 71 -45 71zM464 272q44 0 70.5 -25
t26.5 -68q0 -77 -44 -131.5t-106 -54.5q-45 0 -71.5 27.5t-26.5 75.5q0 83 57 138q39 38 94 38zM460 250q-36 1 -58 -42q-34 -66 -34 -125q0 -69 43 -69q35 0 62 51q31 59 31 114q0 69 -44 71zM773 272q44 0 70.5 -25t26.5 -68q0 -77 -44 -131.5t-105 -54.5q-46 0 -72 27.5
t-26 75.5q0 83 57 138q39 38 93 38zM769 250q-35 1 -58 -42q-33 -62 -33 -125q0 -69 42 -69q36 0 63 51q30 56 30 114q0 69 -44 71z" />
    <glyph glyph-name="Acircumflex" unicode="&#xc2;" horiz-adv-x="644" 
d="M466 667l81 -512q12 -77 29 -101.5t61 -26.5l-6 -27h-264l6 27q56 9 71.5 17.5t15.5 30.5q0 28 -13 107l-10 61h-239l-72 -134q-22 -41 -22 -53q0 -22 69 -29l-6 -27h-220l6 27q35 2 67 21q20 12 48 54q21 33 92 154q47 81 86 147l75 127q13 24 42 73l38 64h65zM386 580
l-169 -304h215zM478 851l111 -139l-15 -13l-109 88l-178 -88l-8 18z" />
    <glyph glyph-name="Ecircumflex" unicode="&#xca;" horiz-adv-x="632" 
d="M646 667l-43 -204h-27q-14 102 -37 135q-26 36 -84 36h-137l-56 -262h80q25 0 36.5 5.5t25.5 26.5q18 26 38 79h27l-58 -271h-26l-1 39l-1 39q-1 30 -8 40t-35 10h-85l-65 -307h126q102 0 156 57q31 32 85 137h30l-49 -227h-542l6 26l18 3q55 9 68 25.5t31 99.5l77 361
q3 13 8.5 39.5t5.5 39.5q0 34 -50 42l-31 5l6 26h511zM467 851l111 -139l-15 -13l-109 88l-178 -88l-8 18z" />
    <glyph glyph-name="Aacute" unicode="&#xc1;" horiz-adv-x="644" 
d="M466 667l81 -512q12 -77 29 -101.5t61 -26.5l-6 -27h-264l6 27q56 9 71.5 17.5t15.5 30.5q0 28 -13 107l-10 61h-239l-72 -134q-22 -41 -22 -53q0 -22 69 -29l-6 -27h-220l6 27q35 2 67 21q20 12 48 54q21 33 92 154q47 81 86 147l75 127q13 24 42 73l38 64h65zM386 580
l-169 -304h215zM434 708l-7 18l148 95q33 21 43 21t17.5 -10t7.5 -22q0 -17 -41 -34z" />
    <glyph glyph-name="Edieresis" unicode="&#xcb;" horiz-adv-x="632" 
d="M646 667l-43 -204h-27q-14 102 -37 135q-26 36 -84 36h-137l-56 -262h80q25 0 36.5 5.5t25.5 26.5q18 26 38 79h27l-58 -271h-26l-1 39l-1 39q-1 30 -8 40t-35 10h-85l-65 -307h126q102 0 156 57q31 32 85 137h30l-49 -227h-542l6 26l18 3q55 9 68 25.5t31 99.5l77 361
q3 13 8.5 39.5t5.5 39.5q0 34 -50 42l-31 5l6 26h511zM329 833q23 0 39 -16t16 -39q0 -25 -18.5 -43.5t-42.5 -18.5q-22 0 -39 17t-17 40t19 41.5t43 18.5zM556 833q23 0 39 -16t16 -39q0 -25 -18.5 -43.5t-42.5 -18.5q-22 0 -39 17t-17 40t19 41.5t43 18.5z" />
    <glyph glyph-name="Egrave" unicode="&#xc8;" horiz-adv-x="632" 
d="M646 667l-43 -204h-27q-14 102 -37 135q-26 36 -84 36h-137l-56 -262h80q25 0 36.5 5.5t25.5 26.5q18 26 38 79h27l-58 -271h-26l-1 39l-1 39q-1 30 -8 40t-35 10h-85l-65 -307h126q102 0 156 57q31 32 85 137h30l-49 -227h-542l6 26l18 3q55 9 68 25.5t31 99.5l77 361
q3 13 8.5 39.5t5.5 39.5q0 34 -50 42l-31 5l6 26h511zM468 719l-12 -16l-139 75q-1 0 -18 8q-20 9 -20 25q0 13 9.5 24.5t19.5 11.5q12 0 34 -19z" />
    <glyph glyph-name="Iacute" unicode="&#xcd;" horiz-adv-x="363" 
d="M282 27l-6 -27h-280l6 27l18 2q55 6 68 23t31 102l77 361q13 61 13 78q0 37 -49 43l-31 4l6 27h280l-6 -27l-18 -2q-55 -6 -68 -23t-31 -102l-77 -361q-13 -61 -13 -78q0 -37 49 -43zM277 708l-7 18l148 95q33 21 43 21t17.5 -10t7.5 -22q0 -17 -41 -34z" />
    <glyph glyph-name="Icircumflex" unicode="&#xce;" horiz-adv-x="363" 
d="M282 27l-6 -27h-280l6 27l18 2q55 6 68 23t31 102l77 361q13 61 13 78q0 37 -49 43l-31 4l6 27h280l-6 -27l-18 -2q-55 -6 -68 -23t-31 -102l-77 -361q-13 -61 -13 -78q0 -37 49 -43zM325 851l111 -139l-15 -13l-109 88l-178 -88l-8 18z" />
    <glyph glyph-name="Idieresis" unicode="&#xcf;" horiz-adv-x="363" 
d="M282 27l-6 -27h-280l6 27l18 2q55 6 68 23t31 102l77 361q13 61 13 78q0 37 -49 43l-31 4l6 27h280l-6 -27l-18 -2q-55 -6 -68 -23t-31 -102l-77 -361q-13 -61 -13 -78q0 -37 49 -43zM223 833q23 0 39 -16t16 -39q0 -25 -18.5 -43.5t-42.5 -18.5q-22 0 -39 17t-17 40
t19 41.5t43 18.5zM390 833q23 0 39 -16t16 -39q0 -25 -18.5 -43.5t-42.5 -18.5q-22 0 -39 17t-17 40t19 41.5t43 18.5z" />
    <glyph glyph-name="Igrave" unicode="&#xcc;" horiz-adv-x="363" 
d="M282 27l-6 -27h-280l6 27l18 2q55 6 68 23t31 102l77 361q13 61 13 78q0 37 -49 43l-31 4l6 27h280l-6 -27l-18 -2q-55 -6 -68 -23t-31 -102l-77 -361q-13 -61 -13 -78q0 -37 49 -43zM319 719l-12 -16l-139 75q-1 0 -18 8q-20 9 -20 25q0 13 9.5 24.5t19.5 11.5
q12 0 34 -19z" />
    <glyph glyph-name="Oacute" unicode="&#xd3;" horiz-adv-x="780" 
d="M488 680q118 0 191 -54q82 -60 82 -196q0 -199 -131 -330q-113 -113 -290 -113q-132 0 -201.5 66.5t-69.5 193.5q0 88 41.5 182t106.5 153q107 98 271 98zM483 650q-122 0 -208 -117q-41 -56 -71.5 -151t-30.5 -167q0 -198 177 -198q150 0 232 154q76 143 76 294
q0 185 -175 185zM490 708l-7 18l148 95q33 21 43 21t17.5 -10t7.5 -22q0 -17 -41 -34z" />
    <glyph glyph-name="Ocircumflex" unicode="&#xd4;" horiz-adv-x="780" 
d="M488 680q118 0 191 -54q82 -60 82 -196q0 -199 -131 -330q-113 -113 -290 -113q-132 0 -201.5 66.5t-69.5 193.5q0 88 41.5 182t106.5 153q107 98 271 98zM483 650q-122 0 -208 -117q-41 -56 -71.5 -151t-30.5 -167q0 -198 177 -198q150 0 232 154q76 143 76 294
q0 185 -175 185zM568 851l111 -139l-15 -13l-109 88l-178 -88l-8 18z" />
    <glyph glyph-name="apple" unicode="&#xf000;" horiz-adv-x="667" 
d="M480 691q2 -69 -41 -119.5t-107 -53.5q-1 69 40 117t108 56zM623 457q-81 -61 -81 -140q0 -105 100 -148q-37 -92 -82 -144t-86 -52q-25 0 -65 19q-23 11 -51 11q-39 0 -87 -20q-27 -11 -46 -11q-65 0 -129 112t-64 225q0 95 52.5 156t133.5 61q28 0 91 -23q22 -7 35 -7
q16 0 59 16t75 16q92 0 145 -71z" />
    <glyph glyph-name="Ograve" unicode="&#xd2;" horiz-adv-x="780" 
d="M488 680q118 0 191 -54q82 -60 82 -196q0 -199 -131 -330q-113 -113 -290 -113q-132 0 -201.5 66.5t-69.5 193.5q0 88 41.5 182t106.5 153q107 98 271 98zM483 650q-122 0 -208 -117q-41 -56 -71.5 -151t-30.5 -167q0 -198 177 -198q150 0 232 154q76 143 76 294
q0 185 -175 185zM559 719l-12 -16l-139 75q-1 0 -18 8q-20 9 -20 25q0 13 9.5 24.5t19.5 11.5q12 0 34 -19z" />
    <glyph glyph-name="Uacute" unicode="&#xda;" horiz-adv-x="737" 
d="M802 667l-5 -27q-54 -4 -74.5 -24.5t-35.5 -86.5l-62 -272q-34 -149 -93 -201q-78 -69 -199 -69q-133 0 -184 68q-31 41 -31 98q0 27 6 55l65 307q14 66 14 78q0 37 -49 43l-31 4l5 27h284l-6 -27l-21 -2q-55 -5 -68 -22.5t-31 -102.5l-56 -262q-12 -56 -12 -80
q0 -60 48 -98.5t122 -38.5q100 0 155 85q19 30 29 65.5t40 180.5l18 87q20 103 20 132q0 25 -16.5 36.5t-65.5 19.5l6 27h228zM489 708l-7 18l148 95q33 21 43 21t17.5 -10t7.5 -22q0 -17 -41 -34z" />
    <glyph glyph-name="Ucircumflex" unicode="&#xdb;" horiz-adv-x="737" 
d="M802 667l-5 -27q-54 -4 -74.5 -24.5t-35.5 -86.5l-62 -272q-34 -149 -93 -201q-78 -69 -199 -69q-133 0 -184 68q-31 41 -31 98q0 27 6 55l65 307q14 66 14 78q0 37 -49 43l-31 4l5 27h284l-6 -27l-21 -2q-55 -5 -68 -22.5t-31 -102.5l-56 -262q-12 -56 -12 -80
q0 -60 48 -98.5t122 -38.5q100 0 155 85q19 30 29 65.5t40 180.5l18 87q20 103 20 132q0 25 -16.5 36.5t-65.5 19.5l6 27h228zM546 851l111 -139l-15 -13l-109 88l-178 -88l-8 18z" />
    <glyph glyph-name="Ugrave" unicode="&#xd9;" horiz-adv-x="737" 
d="M802 667l-5 -27q-54 -4 -74.5 -24.5t-35.5 -86.5l-62 -272q-34 -149 -93 -201q-78 -69 -199 -69q-133 0 -184 68q-31 41 -31 98q0 27 6 55l65 307q14 66 14 78q0 37 -49 43l-31 4l5 27h284l-6 -27l-21 -2q-55 -5 -68 -22.5t-31 -102.5l-56 -262q-12 -56 -12 -80
q0 -60 48 -98.5t122 -38.5q100 0 155 85q19 30 29 65.5t40 180.5l18 87q20 103 20 132q0 25 -16.5 36.5t-65.5 19.5l6 27h228zM534 719l-12 -16l-139 75q-1 0 -18 8q-20 9 -20 25q0 13 9.5 24.5t19.5 11.5q12 0 34 -19z" />
    <glyph glyph-name="dotlessi" unicode="&#x131;" horiz-adv-x="337" 
d="M258 474l-51 -240q-29 -136 -29 -166q0 -49 30 -49q49 0 96 113l21 -4q-26 -63 -49 -93q-35 -45 -92 -45q-39 0 -63.5 25t-24.5 65q0 20 14 86l27 128q14 66 14 88t-21 30q-11 4 -91 8l4 17z" />
    <glyph glyph-name="circumflex" unicode="&#x2c6;" 
d="M362 691l113 -155l-15 -14l-111 105l-178 -105l-10 18z" />
    <glyph glyph-name="tilde" unicode="&#x2dc;" 
d="M476 662l18 -4q-40 -113 -93 -113q-25 0 -68 37q-48 41 -73 41q-40 0 -73 -79l-19 3q18 61 40 90q27 35 66 35q29 0 75 -38t69 -38q27 0 58 66z" />
    <glyph glyph-name="macron" unicode="&#x2c9;" 
d="M485 631l-8 -37h-295l8 37h295z" />
    <glyph glyph-name="breve" unicode="&#x2d8;" 
d="M473 675h23q-40 -62 -82 -92q-61 -44 -131 -44q-93 0 -93 83q0 15 7 53h22q0 -34 7 -48q13 -37 81 -37q46 0 79.5 17t86.5 68z" />
    <glyph glyph-name="dotaccent" unicode="&#x2d9;" 
d="M337 667q22 0 37.5 -15.5t15.5 -37.5q0 -23 -17.5 -41t-40.5 -18q-22 0 -38 16t-16 39q0 22 18 39.5t41 17.5z" />
    <glyph glyph-name="ring" unicode="&#x2da;" 
d="M343 708q92 0 92 -75q0 -44 -30.5 -73t-76.5 -29q-42 0 -67.5 23t-25.5 60q0 40 30.5 67t77.5 27zM344 683q-27 0 -45 -20.5t-18 -50.5q0 -55 46 -55q27 0 45 21t18 54q0 51 -46 51z" />
    <glyph glyph-name="cedilla" unicode="&#xb8;" 
d="M209 0h15q-8 -20 -8 -26q0 -9 7.5 -13.5t35.5 -13.5q45 -14 45 -46q0 -40 -45 -57t-101 -17q-14 0 -46 3l4 16q10 -1 23 -1q38 0 65.5 16.5t27.5 38.5q0 11 -5 16t-32 22q-10 6 -10 11q0 3 3 9q4 3 8 14q1 4 13 28z" />
    <glyph glyph-name="hungarumlaut" unicode="&#x2dd;" 
d="M221 534l-13 13l106 121q25 29 38 29q9 0 17 -9.5t8 -19.5q0 -11 -28 -33zM381 534l-13 13l106 121q25 29 38 29q9 0 17 -9.5t8 -19.5q0 -11 -28 -33z" />
    <glyph glyph-name="ogonek" unicode="&#x2db;" 
d="M255 0h27q-4 -7 -11 -15q-33 -43 -33 -65q0 -21 20.5 -35t50.5 -14q6 0 28 2l-3 -16q-48 -11 -75 -11q-38 0 -62.5 17t-24.5 42t17 44.5t66 50.5z" />
    <glyph glyph-name="caron" unicode="&#x2c7;" 
d="M483 691l11 -15l-169 -154l-124 156l14 13l115 -105z" />
    <glyph glyph-name="Lslash" unicode="&#x141;" horiz-adv-x="569" 
d="M553 227l-48 -227h-509l6 26l18 3q55 9 68 25.5t31 99.5l31 144l-105 -62l9 44l105 62l37 173q1 8 5 26q9 38 9 52q0 37 -50 43l-31 4l6 27h280l-6 -27l-18 -2q-55 -6 -68 -23.5t-31 -101.5l-25 -119l145 87l-9 -44l-145 -86l-68 -318h100q101 0 151 58q28 32 82 136h30z
" />
    <glyph glyph-name="lslash" unicode="&#x142;" horiz-adv-x="317" 
d="M280 700l-57 -265l109 64l-9 -38l-108 -63l-35 -165q-28 -132 -28 -165q0 -49 30 -49q47 0 95 113l21 -4q-26 -65 -48 -93q-35 -45 -88 -45q-40 0 -64 27.5t-24 73.5q0 30 10 78l39 186l-106 -62l8 36l106 63l27 128q14 66 14 89q0 21 -18 29q-12 6 -80 9l3 16z" />
    <glyph glyph-name="Scaron" unicode="&#x160;" horiz-adv-x="539" 
d="M547 667l-44 -204h-26q-6 187 -146 187q-58 0 -94.5 -35.5t-36.5 -91.5q0 -47 30 -78q27 -28 106 -68q92 -47 126.5 -84.5t34.5 -91.5q0 -92 -71 -153t-180 -61q-80 0 -172 38l-38 -25h-23l49 227h27q9 -93 35 -136q44 -74 135 -74q66 0 110 40t44 101q0 43 -28.5 71.5
t-111.5 68.5q-86 42 -117 79q-34 41 -34 99q0 88 60.5 146t152.5 58q64 0 167 -32l25 19h20zM524 858l9 -17l-168 -136l-123 138l14 15l114 -92z" />
    <glyph glyph-name="scaron" unicode="&#x161;" horiz-adv-x="464" 
d="M271 477q76 0 118.5 -25t42.5 -69q0 -56 -58 -56q-43 0 -43 35q0 9 4.5 24t4.5 22q0 18 -23.5 31.5t-54.5 13.5q-95 0 -95 -74q0 -38 28 -59q22 -16 85 -44q75 -33 102 -59.5t27 -68.5q0 -68 -61 -113t-154 -45q-75 0 -122.5 33.5t-47.5 85.5q0 27 15.5 44t40.5 17
q20 0 34.5 -12.5t14.5 -30.5q0 -12 -8.5 -32.5t-8.5 -29.5q0 -20 27.5 -36t62.5 -16q55 0 89.5 28.5t34.5 72.5q0 32 -21 53t-81 46q-64 27 -92 49q-39 31 -39 86q0 61 46.5 95t131.5 34zM447 691l12 -15l-170 -154l-124 156l14 13l115 -105z" />
    <glyph glyph-name="Zcaron" unicode="&#x17d;" horiz-adv-x="631" 
d="M595 227l-48 -227h-560l6 30l532 604h-141q-98 0 -140 -34.5t-89 -136.5h-27l44 204h493l-5 -21l-532 -613h211q60 0 101 21q28 15 49.5 42t55.5 93q6 11 20 38h30zM586 851l10 -17l-168 -135l-124 138l14 14l115 -92z" />
    <glyph glyph-name="zcaron" unicode="&#x17e;" horiz-adv-x="445" 
d="M421 456l-319 -356q29 11 47 11q19 0 71.5 -15.5t80.5 -15.5q49 0 77 35q17 21 37 80l18 -2q-23 -99 -52 -144q-39 -60 -96 -60q-26 0 -109 32q-57 22 -82 22q-37 0 -89 -52l-17 17l326 371q-16 -3 -26 -3q-24 0 -107 22q-15 4 -30 4q-29 0 -51 -27q-8 -10 -30 -45l-15 6
q33 78 58.5 109.5t54.5 31.5q19 0 70 -13l32 -7q39 -10 58 -10q45 0 80 29zM446 691l12 -15l-170 -154l-124 156l14 13l115 -105z" />
    <glyph glyph-name="brokenbar" unicode="&#xa6;" 
d="M225 667h63v-339h-63v339zM225 153h63v-320h-63v320z" />
    <glyph glyph-name="Eth" unicode="&#xd0;" horiz-adv-x="740" 
d="M135 667h319q262 0 262 -237q0 -109 -47 -208.5t-125 -156.5q-89 -65 -232 -65h-318l6 26l20 3q55 8 68 25t31 100l40 186h-93l6 32h94l30 143q14 67 14 79q0 36 -49 42l-32 4zM190 33h46q94 0 145.5 12t89.5 42q65 52 103.5 149.5t38.5 207.5q0 143 -117 177
q-45 13 -140 13h-38l-56 -262h148l-6 -32h-148z" />
    <glyph glyph-name="eth" unicode="&#xf0;" horiz-adv-x="528" 
d="M74 687l57 12l116 -86l130 32l17 -23l-119 -30l70 -53q25 -19 72 -61q67 -73 67 -183q0 -147 -100 -241q-68 -64 -174 -64q-167 0 -167 159q0 74 27 143t72 109q66 58 173 67l-114 105l-130 -35l-18 23l121 35zM330 451q-4 0 -8 -1q-53 -5 -99.5 -56t-71.5 -150
q-18 -72 -18 -131q0 -104 77 -104q70 0 123 86t53 199q0 88 -56 157z" />
    <glyph glyph-name="Yacute" unicode="&#xdd;" horiz-adv-x="574" 
d="M495 667h201l-6 -27q-37 -2 -60 -19t-79 -84l-210 -254l-28 -131q-13 -61 -13 -79q0 -37 49 -42l41 -4l-6 -27h-297l6 27l25 2q54 4 67 22t32 103l28 129l-101 280q-17 48 -32 61t-56 16l6 27h257l-5 -27q-21 -4 -53 -13q-20 -10 -20 -34q0 -15 6 -32l83 -242
q70 87 113 144q23 32 70 95q29 39 29 57q0 22 -53 25zM391 708l-7 18l148 95q33 21 43 21t17.5 -10t7.5 -22q0 -17 -41 -34z" />
    <glyph glyph-name="yacute" unicode="&#xfd;" horiz-adv-x="582" 
d="M559 467l-77 -363q-30 -142 -87 -205q-80 -89 -209 -89q-61 0 -99.5 28.5t-38.5 74.5q0 28 16 45.5t42 17.5q51 0 51 -48q0 -22 -28 -47q-6 -5 -6 -11q0 -15 22.5 -26t52.5 -11q91 0 139 71q21 31 32 64.5t28 123.5q3 17 12 61q-37 -73 -74 -110q-53 -53 -112 -53
q-47 0 -75 29t-28 77q0 22 6 50l20 94q29 136 29 169q0 41 -33 41q-49 0 -107 -113l-20 5q32 74 65 104.5t80 30.5q96 0 96 -121q0 -46 -28 -147q-33 -119 -33 -150q0 -42 38 -42q68 0 128 102q24 40 51.5 111t37.5 117l26 120h83zM355 536l-12 15l131 121q30 28 44 28
q9 0 17.5 -10t8.5 -21q0 -15 -35 -37z" />
    <glyph glyph-name="Thorn" unicode="&#xde;" horiz-adv-x="609" 
d="M221 181l-6 -29q-2 -10 -5 -26q-9 -40 -9 -53q0 -37 50 -42l37 -4l-5 -27h-287l6 27l18 2q55 6 68 23t31 102l77 361q13 61 13 78q0 34 -49 42l-31 5l6 27h280l-6 -27l-18 -2q-44 -5 -59 -17t-27 -48h115q84 0 124 -26q61 -39 61 -113q0 -70 -39 -129t-103 -88
q-78 -35 -242 -36zM298 540l-71 -330q89 5 138 22q74 26 105.5 83t31.5 119q0 63 -40 88q-31 18 -98 18h-66z" />
    <glyph glyph-name="thorn" unicode="&#xfe;" horiz-adv-x="599" 
d="M139 -186l-85 -7l152 713q14 66 14 90q0 20 -18 28q-12 6 -81 9l4 17l202 36l-75 -353q37 70 75 100t90 30q142 0 142 -160q0 -136 -74.5 -232t-178.5 -96q-74 0 -118 56zM399 450q-69 4 -137 -130q-54 -106 -54 -196q0 -49 21 -78.5t56 -29.5q68 0 123 99t55 223
q0 108 -64 112z" />
    <glyph glyph-name="minus" unicode="&#x2212;" horiz-adv-x="520" 
d="M25 255h491l-9 -44h-491z" />
    <glyph glyph-name="multiply" unicode="&#xd7;" horiz-adv-x="567" 
d="M124 483l172 -221l268 221l22 -31l-266 -221l172 -216l-39 -31l-170 217l-260 -217l-21 31l256 216l-170 221z" />
    <glyph glyph-name="onesuperior" unicode="&#xb9;" horiz-adv-x="340" 
d="M312 675l-69 -326q-4 -19 -4 -24q0 -18 15.5 -25.5t58.5 -11.5l-5 -21h-231l4 21q63 6 79 20t29 75l37 171q3 14 3 21q0 12 -29 12h-60l4 21q95 5 155 67h13z" />
    <glyph glyph-name="twosuperior" unicode="&#xb2;" horiz-adv-x="341" 
d="M323 382l-25 -115h-258q3 48 33 86t100 81q115 71 115 147q0 33 -20 52.5t-54 19.5q-21 0 -37 -6.5t-16 -14.5q0 -3 11 -11t11 -24t-11.5 -28t-28.5 -12q-37 0 -37 37q0 34 35.5 57.5t88.5 23.5q59 0 93 -24t34 -66q0 -60 -60 -108q-23 -18 -116 -69q-71 -39 -90 -80h149
q30 0 38 7t25 47h20z" />
    <glyph glyph-name="threesuperior" unicode="&#xb3;" horiz-adv-x="345" 
d="M145 471l4 23l19 -1h6q53 0 86 28.5t33 73.5q0 55 -60 55q-44 0 -44 -19q0 -3 10.5 -10.5t10.5 -24.5q0 -16 -12.5 -28t-29.5 -12q-37 0 -37 37q0 34 36 58t87 24q50 0 79 -23t29 -62q0 -84 -115 -107q86 -15 86 -88q0 -58 -49 -97t-120 -39q-49 0 -81 20.5t-32 52.5
q0 20 13 33t32 13q34 0 34 -34q0 -15 -19 -34q-3 -1 -3 -6q0 -7 14.5 -13.5t31.5 -6.5q44 0 74.5 33t30.5 82q0 57 -56 68q-20 4 -58 4z" />
    <glyph glyph-name="onehalf" unicode="&#xbd;" horiz-adv-x="833" 
d="M312 675l-69 -326q-4 -19 -4 -24q0 -18 15.5 -25.5t58.5 -11.5l-5 -21h-231l4 21q63 6 79 20t29 75l37 171q3 14 3 21q0 12 -29 12h-60l4 21q95 5 155 67h13zM674 667l-428 -667h-39l427 667h40zM758 116l-25 -116h-257q3 48 33.5 86.5t99.5 81.5q115 71 115 146
q0 33 -20 52.5t-54 19.5q-21 0 -37 -6.5t-16 -14.5q0 -3 11 -11t11 -24t-12 -27.5t-28 -11.5t-26.5 10.5t-10.5 25.5q0 34 35.5 57.5t88.5 23.5q59 0 93 -24t34 -66q0 -61 -60 -108q-21 -17 -116 -68q-73 -39 -91 -81h149q30 0 38 7t25 48h20z" />
    <glyph glyph-name="onequarter" unicode="&#xbc;" horiz-adv-x="833" 
d="M312 675l-69 -326q-4 -19 -4 -24q0 -18 15.5 -25.5t58.5 -11.5l-5 -21h-231l4 21q63 6 79 20t29 75l37 171q3 14 3 21q0 12 -29 12h-60l4 21q95 5 155 67h13zM694 667l-428 -667h-39l427 667h40zM779 404l-53 -251h57l-19 -40h-47l-23 -112l-62 -14l27 126h-167l3 17
q119 136 198 230q10 12 38 44h48zM550 153h118l39 188q-2 -2 -23 -27q-28 -35 -77 -94l-20 -24q-9 -11 -37 -43z" />
    <glyph glyph-name="threequarters" unicode="&#xbe;" horiz-adv-x="833" 
d="M144 472l5 21l17 -1h7q53 0 86.5 29t33.5 76q0 56 -61 56q-18 0 -32 -6.5t-14 -14.5q0 -3 11 -11t11 -24t-12 -27.5t-28 -11.5t-26.5 10.5t-10.5 25.5q0 34 35.5 57.5t85.5 23.5q49 0 78.5 -23t29.5 -61q0 -85 -123 -108q95 -15 95 -89q0 -57 -49 -96t-120 -39
q-50 0 -81.5 20.5t-31.5 52.5q0 19 12 31.5t31 12.5q34 0 34 -34q0 -14 -20 -33q-3 -1 -3 -6q0 -22 48 -22q46 0 77 34t31 84q0 58 -57 69q-20 4 -59 4zM695 667l-428 -667h-39l427 667h40zM780 404l-53 -251h57l-20 -40h-46l-24 -112l-61 -14l27 126h-167l3 17
q46 52 197 230q10 12 38 44h49zM551 153h117l40 188l-23 -27q-45 -52 -78 -94q-11 -14 -34 -41z" />
    <glyph glyph-name="franc" unicode="&#x20a3;" horiz-adv-x="815" 
d="M568 667l-42 -200h-27q-15 103 -39 134q-28 36 -101 36h-84l-57 -267h52q25 0 37 5.5t27 28t37 77.5h23l-57 -268h-23v39v26q-1 14 -1 13q0 34 -10 42t-34 8h-57l-40 -190q-14 -67 -14 -77q0 -23 14 -32q9 -7 35 -11l27 -4l-6 -27h-258l6 27l13 2q37 6 47 10t22 16
q13 19 30 98l77 362q13 61 13 78q0 23 -14 32q-9 7 -35 11l-26 4l6 27h459zM539 0h-74l39 180q27 125 27 166q0 43 -32 43q-42 0 -91 -116l-18 6q28 72 55 103t64 31q81 0 81 -131q0 -5 -2 -41q41 99 73 135.5t78 36.5q37 0 60 -22t23 -58q0 -29 -17 -47.5t-44 -18.5
q-22 0 -35.5 12.5t-13.5 32.5q0 21 28 45q8 7 8 15q0 17 -20 17q-39 0 -80 -78q-80 -153 -104 -284z" />
    <glyph glyph-name="Gbreve" unicode="&#x11e;" horiz-adv-x="771" 
d="M740 667l-50 -233h-26q-8 112 -50.5 164t-125.5 52q-76 0 -140 -43q-68 -46 -117.5 -163.5t-49.5 -232.5q0 -195 175 -195q96 0 155 50q24 20 42 76q17 52 17 84q0 23 -24 32q-17 7 -81 15l6 27h304l-6 -27q-60 -7 -79.5 -21t-28.5 -58l-44 -206h-21l-12 20
q-17 28 -25 28q-6 0 -17 -5q-97 -45 -197 -45q-127 0 -197 67t-70 188q0 146 86 272q54 79 141 123t188 44q103 0 191 -44l36 31h20zM667 836h24q-87 -123 -209 -123q-93 0 -93 78q0 19 6 45h22q0 -72 90 -72q43 0 76.5 15t83.5 57z" />
    <glyph glyph-name="gbreve" unicode="&#x11f;" horiz-adv-x="536" 
d="M513 467l-79 -374q-17 -81 -27 -109.5t-31 -58.5q-82 -115 -231 -115q-64 0 -101.5 26.5t-37.5 72.5q0 28 16 46t40 18q21 0 36 -14t15 -34q0 -22 -30 -51q-6 -5 -6 -9q0 -13 23 -22.5t52 -9.5q47 0 87 23t62 63q19 34 35 112l12 58q-38 -55 -74 -77t-87 -22
q-65 0 -104 45.5t-39 122.5q0 71 28 140.5t77 118.5q60 60 150 60q89 0 117 -76l14 66h83zM316 450q-67 0 -108 -70q-29 -49 -48.5 -121.5t-19.5 -127.5t16.5 -84.5t50.5 -29.5q81 0 139 127q49 108 49 203q0 48 -21 75.5t-58 27.5zM508 675h23q-43 -64 -82 -92
q-62 -44 -131 -44q-93 0 -93 83q0 15 7 53h22v-7q0 -42 20.5 -60t67.5 -18t80.5 17t85.5 68z" />
    <glyph glyph-name="Scedilla" unicode="&#x15e;" horiz-adv-x="539" 
d="M246 -13h-23q-3 -11 -3 -15q0 -10 7 -14.5t36 -14.5q45 -15 45 -49q0 -43 -46 -61.5t-100 -18.5q-14 0 -46 3l4 18q20 -2 23 -2q38 0 66 17.5t28 41.5q0 12 -5 17.5t-33 24.5q-10 5 -10 11q0 4 2.5 8.5t15.5 35.5q-68 7 -133 36l-38 -25h-23l49 227h27q9 -93 35 -136
q44 -74 135 -74q66 0 110 40t44 101q0 43 -28.5 71.5t-111.5 68.5q-86 42 -117 79q-34 41 -34 99q0 88 60.5 146t152.5 58q64 0 167 -32l25 19h20l-44 -204h-26q-6 187 -146 187q-58 0 -94.5 -35.5t-36.5 -91.5q0 -47 30 -78q27 -28 106 -68q92 -47 126.5 -84.5t34.5 -91.5
q0 -92 -71 -153t-180 -61z" />
    <glyph glyph-name="scedilla" unicode="&#x15f;" horiz-adv-x="464" 
d="M196 -10h-8q-4 -12 -4 -17q0 -13 44 -26.5t44 -45.5q0 -40 -45 -57t-101 -17q-14 0 -46 3l4 16q11 -1 23 -1q38 0 65.5 16.5t27.5 38.5q0 11 -5 16t-32 22q-9 7 -9 11q0 3 3 9q2 2 7 14q2 3 4 9l5 10q-69 6 -109 37.5t-40 80.5q0 27 15.5 44t40.5 17q20 0 34.5 -12.5
t14.5 -30.5q0 -12 -8.5 -32.5t-8.5 -29.5q0 -20 27.5 -36t62.5 -16q55 0 89.5 28.5t34.5 72.5q0 32 -21 52.5t-81 46.5q-69 29 -93 49q-38 31 -38 85q0 62 46.5 96t131.5 34q76 0 118.5 -25t42.5 -69q0 -56 -58 -56q-43 0 -43 35q0 9 4.5 24t4.5 22q0 18 -23.5 31.5
t-54.5 13.5q-95 0 -95 -74q0 -37 28 -59q19 -15 85 -44q75 -33 102 -59.5t27 -68.5q0 -68 -60.5 -113t-152.5 -45z" />
    <glyph glyph-name="Cacute" unicode="&#x106;" horiz-adv-x="697" 
d="M725 667l-49 -233h-27q-15 216 -174 216q-112 0 -185 -90q-56 -68 -88.5 -161.5t-32.5 -183.5q0 -86 52 -142t132 -56q55 0 108 28.5t127 97.5l35 -34q-119 -122 -280 -122q-133 0 -205 65.5t-72 185.5q0 104 45 201t121 156q109 85 252 85q89 0 185 -44l36 31h20z
M489 708l-9 15l124 100q27 22 40 22q8 0 15.5 -9.5t7.5 -19.5q0 -13 -34 -31z" />
    <glyph glyph-name="cacute" unicode="&#x107;" horiz-adv-x="444" 
d="M389 134l19 -10q-44 -72 -92.5 -103t-116.5 -31q-72 0 -113 45t-41 124q0 155 94 253q62 65 171 65q123 0 123 -71q0 -31 -18.5 -51.5t-46.5 -20.5q-22 0 -36 13t-14 32q0 17 23 45q7 8 7 12q0 18 -34 18q-54 0 -96 -62q-77 -114 -77 -268q0 -107 81 -107q88 0 167 117z
M315 534l-13 13l106 121q25 29 38 29q10 0 18 -9t8 -20t-28 -33z" />
    <glyph glyph-name="Ccaron" unicode="&#x10c;" horiz-adv-x="697" 
d="M725 667l-49 -233h-27q-15 216 -174 216q-112 0 -185 -90q-56 -68 -88.5 -161.5t-32.5 -183.5q0 -86 52 -142t132 -56q55 0 108 28.5t127 97.5l35 -34q-119 -122 -280 -122q-133 0 -205 65.5t-72 185.5q0 104 45 201t121 156q109 85 252 85q89 0 185 -44l36 31h20z
M645 851l10 -17l-168 -135l-124 138l14 14l115 -92z" />
    <glyph glyph-name="ccaron" unicode="&#x10d;" horiz-adv-x="444" 
d="M389 134l19 -10q-44 -72 -92.5 -103t-116.5 -31q-72 0 -113 45t-41 124q0 155 94 253q62 65 171 65q123 0 123 -71q0 -31 -18.5 -51.5t-46.5 -20.5q-22 0 -36 13t-14 32q0 17 23 45q7 8 7 12q0 18 -34 18q-54 0 -96 -62q-77 -114 -77 -268q0 -107 81 -107q88 0 167 117z
M481 691l11 -15l-169 -154l-124 156l14 13l115 -105z" />
    <glyph glyph-name="sfthyphen" unicode="&#xad;" horiz-adv-x="252" 
d="M262 266l-11 -53h-252l11 53h252z" />
    <glyph glyph-name="overscore.001" unicode="&#xaf;" 
d="M147 843h460v-49h-460v49z" />
    <glyph glyph-name="mu1" unicode="&#xb5;" horiz-adv-x="548" 
d="M53 -154l-63 -13q1 17 19 105q23 110 35 192q2 12 7 46l46 279l78 10q-69 -248 -69 -377q0 -74 49 -74q41 0 80 44q89 101 124 259l31 139l72 8q-83 -254 -83 -380q0 -68 45 -68q33 0 81 35l3 -19q-58 -42 -110 -42q-78 0 -78 113q0 18 4 50q-84 -164 -185 -164
q-40 0 -58.5 21t-22.5 70q-11 -83 -11 -139q0 -45 6 -95z" />
    <glyph glyph-name="mu1" unicode="&#x3bc;" horiz-adv-x="548" 
d="M53 -154l-63 -13q1 17 19 105q23 110 35 192q2 12 7 46l46 279l78 10q-69 -248 -69 -377q0 -74 49 -74q41 0 80 44q89 101 124 259l31 139l72 8q-83 -254 -83 -380q0 -68 45 -68q33 0 81 35l3 -19q-58 -42 -110 -42q-78 0 -78 113q0 18 4 50q-84 -164 -185 -164
q-40 0 -58.5 21t-22.5 70q-11 -83 -11 -139q0 -45 6 -95z" />
    <glyph glyph-name="middot.001" unicode="&#xb7;" horiz-adv-x="273" 
d="M149 318q28 0 45 -17.5t17 -46.5q0 -34 -21.5 -56.5t-54.5 -22.5q-63 0 -63 63q0 33 22.5 56.5t54.5 23.5z" />
    <glyph glyph-name="Amacron" unicode="&#x100;" horiz-adv-x="644" 
d="M466 667l81 -512q12 -77 29 -101.5t61 -26.5l-6 -27h-264l6 27q56 9 71.5 17.5t15.5 30.5q0 28 -13 107l-10 61h-239l-72 -134q-22 -41 -22 -53q0 -22 69 -29l-6 -27h-220l6 27q35 2 67 21q20 12 48 54q21 33 92 154q47 81 86 147l75 127q13 24 42 73l38 64h65zM386 580
l-169 -304h215zM606 794l-8 -37h-295l8 37h295z" />
    <glyph glyph-name="amacron" unicode="&#x101;" horiz-adv-x="597" 
d="M517 467l-49 -233q-29 -138 -29 -166q0 -49 30 -49q48 0 95 113l20 -4q-29 -67 -49 -93q-37 -46 -89 -46q-49 0 -76 41q-15 22 -15 65q-66 -105 -159 -105q-78 0 -115 53q-33 48 -33 115q0 71 28 140.5t77 118.5q60 60 149 60q91 0 117 -78l15 68h83zM320 450
q-67 0 -108 -70q-29 -49 -48.5 -121t-19.5 -127q0 -56 16.5 -85.5t50.5 -29.5q81 0 139 127q49 108 49 203q0 48 -21 75.5t-58 27.5zM534 631l-8 -37h-295l8 37h295z" />
    <glyph glyph-name="Abreve" unicode="&#x102;" horiz-adv-x="644" 
d="M466 667l81 -512q12 -77 29 -101.5t61 -26.5l-6 -27h-264l6 27q56 9 71.5 17.5t15.5 30.5q0 28 -13 107l-10 61h-239l-72 -134q-22 -41 -22 -53q0 -22 69 -29l-6 -27h-220l6 27q35 2 67 21q20 12 48 54q21 33 92 154q47 81 86 147l75 127q13 24 42 73l38 64h65zM386 580
l-169 -304h215zM621 836h24q-87 -123 -209 -123q-93 0 -93 78q0 19 6 45h22q0 -72 90 -72q43 0 76.5 15t83.5 57z" />
    <glyph glyph-name="abreve" unicode="&#x103;" horiz-adv-x="597" 
d="M517 467l-49 -233q-29 -138 -29 -166q0 -49 30 -49q48 0 95 113l20 -4q-29 -67 -49 -93q-37 -46 -89 -46q-49 0 -76 41q-15 22 -15 65q-66 -105 -159 -105q-78 0 -115 53q-33 48 -33 115q0 71 28 140.5t77 118.5q60 60 149 60q91 0 117 -78l15 68h83zM320 450
q-67 0 -108 -70q-29 -49 -48.5 -121t-19.5 -127q0 -56 16.5 -85.5t50.5 -29.5q81 0 139 127q49 108 49 203q0 48 -21 75.5t-58 27.5zM532 675h23q-40 -62 -82 -92q-61 -44 -131 -44q-93 0 -93 83q0 15 7 53h22q0 -34 7 -48q13 -37 81 -37q46 0 79.5 17t86.5 68z" />
    <glyph glyph-name="Aogonek" unicode="&#x104;" horiz-adv-x="644" 
d="M538 0l-12 -16q-34 -45 -34 -72q0 -22 20 -37.5t49 -15.5q13 0 29 3l-4 -18q-48 -12 -74 -12q-37 0 -61.5 18t-24.5 45q0 44 52 82q4 2 32 23h-143l6 27q55 8 71 17t16 31q0 28 -13 107l-10 61h-239l-72 -134q-22 -41 -22 -53q0 -22 69 -29l-6 -27h-220l6 27q35 2 67 21
q20 12 48 54q21 33 92 154q47 81 86 147l75 127q13 24 42 73l38 64h65l81 -512q12 -77 29 -101.5t61 -26.5l-6 -27h-93zM386 580l-169 -304h215z" />
    <glyph glyph-name="aogonek" unicode="&#x105;" horiz-adv-x="597" 
d="M564 132l20 -4q-29 -67 -49 -93q-37 -46 -89 -46q-9 0 -21 3q-39 -51 -39 -72t20.5 -35t50.5 -14q7 0 29 2l-4 -16q-48 -11 -75 -11q-38 0 -62.5 17t-24.5 42t17 44.5t66 50.5q-49 29 -48 95q-66 -105 -159 -105q-78 0 -115 53q-33 48 -33 115q0 71 28 140.5t77 118.5
q60 60 149 60q91 0 117 -78l15 68h83l-49 -233q-29 -138 -29 -165q0 -50 30 -50q48 0 95 113zM320 450q-67 0 -108 -70q-29 -49 -48.5 -121t-19.5 -127q0 -56 16.5 -85.5t50.5 -29.5q81 0 139 127q49 108 49 203q0 48 -21 75.5t-58 27.5z" />
    <glyph glyph-name="Ccircumflex" unicode="&#x108;" horiz-adv-x="697" 
d="M725 667l-49 -233h-27q-15 216 -174 216q-112 0 -185 -90q-56 -68 -88.5 -161.5t-32.5 -183.5q0 -86 52 -142t132 -56q55 0 108 28.5t127 97.5l35 -34q-119 -122 -280 -122q-133 0 -205 65.5t-72 185.5q0 104 45 201t121 156q109 85 252 85q89 0 185 -44l36 31h20z
M527 851l111 -139l-14 -13l-109 88l-178 -88l-9 18z" />
    <glyph glyph-name="Cdotaccent" unicode="&#x10a;" horiz-adv-x="697" 
d="M725 667l-49 -233h-27q-15 216 -174 216q-112 0 -185 -90q-56 -68 -88.5 -161.5t-32.5 -183.5q0 -86 52 -142t132 -56q55 0 108 28.5t127 97.5l35 -34q-119 -122 -280 -122q-133 0 -205 65.5t-72 185.5q0 104 45 201t121 156q109 85 252 85q89 0 185 -44l36 31h20z
M506 833q23 0 39 -16t16 -39q0 -25 -18.5 -43.5t-42.5 -18.5q-22 0 -39 17t-17 40t19 41.5t43 18.5z" />
    <glyph glyph-name="cdotaccent" unicode="&#x10b;" horiz-adv-x="444" 
d="M389 134l19 -10q-44 -72 -92.5 -103t-116.5 -31q-72 0 -113 45t-41 124q0 155 94 253q62 65 171 65q123 0 123 -71q0 -31 -18.5 -51.5t-46.5 -20.5q-22 0 -36 13t-14 32q0 17 23 45q7 8 7 12q0 18 -34 18q-54 0 -96 -62q-77 -114 -77 -268q0 -107 81 -107q88 0 167 117z
M329 667q22 0 37.5 -15.5t15.5 -37.5q0 -23 -17.5 -41t-40.5 -18q-22 0 -38 16t-16 39q0 22 18 39.5t41 17.5z" />
    <glyph glyph-name="Dcaron" unicode="&#x10e;" horiz-adv-x="740" 
d="M135 667h319q262 0 262 -237q0 -109 -47 -208.5t-125 -156.5q-89 -65 -232 -65h-318l6 26l20 3q55 8 68 25t31 100l77 361q4 16 10 48q4 19 4 31q0 36 -49 42l-32 4zM190 33h46q94 0 145.5 12t89.5 42q65 52 103.5 149.5t38.5 208.5q0 142 -117 176q-45 13 -140 13h-38z
M597 848l10 -17l-168 -135l-124 138l14 14l115 -92z" />
    <glyph glyph-name="dcaron" unicode="&#x10f;" horiz-adv-x="740" 
d="M563 700l-99 -466q-29 -137 -29 -167q0 -48 30 -48q48 0 95 113l20 -4q-30 -69 -50 -94q-36 -45 -88 -45q-49 0 -76 41q-15 23 -15 65q-37 -58 -73 -81.5t-87 -23.5q-77 0 -114 53q-33 48 -33 115q0 71 28.5 140.5t76.5 117.5q62 61 147 61q49 0 76 -17.5t43 -60.5
l26 121q14 65 14 90q0 19 -18 28q-12 6 -80 9l3 17zM316 450q-67 0 -108 -70q-29 -49 -48.5 -121t-19.5 -127q0 -56 16.5 -85.5t50.5 -29.5q81 0 139 127q49 108 49 203q0 48 -21 75.5t-58 27.5zM611 500l-1 13q45 13 69 40q21 24 21 36q0 3 -3 3h-2q-6 -1 -15 -1
q-15 0 -26 12t-11 29q0 20 15.5 34t37.5 14q50 0 50 -52q0 -51 -54 -93q-30 -23 -81 -35z" />
    <glyph glyph-name="Dcroat" unicode="&#x110;" horiz-adv-x="740" 
d="M135 667h319q262 0 262 -237q0 -109 -47 -208.5t-125 -156.5q-89 -65 -232 -65h-318l6 26l20 3q55 8 68 25t31 100l40 186h-93l6 32h94l30 143q14 67 14 79q0 36 -49 42l-32 4zM190 33h46q94 0 145.5 12t89.5 42q65 52 103.5 149.5t38.5 207.5q0 143 -117 177
q-45 13 -140 13h-38l-56 -262h148l-6 -32h-148z" />
    <glyph glyph-name="dcroat" unicode="&#x111;" horiz-adv-x="593" 
d="M563 700l-29 -133h120l-6 -27h-119l-65 -306q-29 -137 -29 -167q0 -48 30 -48q48 0 95 113l20 -4q-30 -69 -50 -94q-36 -45 -88 -45q-49 0 -76 41q-15 23 -15 65q-37 -58 -73 -81.5t-87 -23.5q-77 0 -114 53q-33 48 -33 115q0 71 28 141t77 118q61 60 147 60
q49 0 76 -17.5t43 -60.5l30 141h-132l6 27h131q5 24 5 40q0 23 -18 31q-12 6 -80 9l3 17zM316 450q-67 0 -108 -70q-29 -49 -48.5 -121t-19.5 -127q0 -56 16.5 -85.5t50.5 -29.5q81 0 139 127q49 108 49 203q0 48 -21 75.5t-58 27.5z" />
    <glyph glyph-name="Emacron" unicode="&#x112;" horiz-adv-x="632" 
d="M646 667l-43 -204h-27q-14 102 -37 135q-26 36 -84 36h-137l-56 -262h80q25 0 36.5 5.5t25.5 26.5q18 26 38 79h27l-58 -271h-26l-1 39l-1 39q-1 30 -8 40t-35 10h-85l-65 -307h126q102 0 156 57q31 32 85 137h30l-49 -227h-542l6 26l18 3q55 9 68 25.5t31 99.5l77 361
q3 13 8.5 39.5t5.5 39.5q0 34 -50 42l-31 5l6 26h511zM595 794l-8 -37h-294l8 37h294z" />
    <glyph glyph-name="emacron" unicode="&#x113;" horiz-adv-x="463" 
d="M389 134l18 -10q-40 -64 -75 -90q-58 -44 -135 -44q-71 0 -111.5 44.5t-40.5 123.5q0 73 25 141t68 112q64 66 172 66q126 0 126 -97q0 -96 -113 -154q-65 -33 -179 -44q-5 -36 -5 -60q0 -105 79 -105q51 0 102 39q32 25 69 78zM147 204l40 8q75 15 122 68t47 120
q0 54 -48 54q-59 0 -103 -79q-34 -62 -58 -171zM480 631l-8 -37h-295l8 37h295z" />
    <glyph glyph-name="Ebreve" unicode="&#x114;" horiz-adv-x="632" 
d="M646 667l-43 -204h-27q-14 102 -37 135q-26 36 -84 36h-137l-56 -262h80q25 0 36.5 5.5t25.5 26.5q18 26 38 79h27l-58 -271h-26l-1 39l-1 39q-1 30 -8 40t-35 10h-85l-65 -307h126q102 0 156 57q31 32 85 137h30l-49 -227h-542l6 26l18 3q55 9 68 25.5t31 99.5l77 361
q3 13 8.5 39.5t5.5 39.5q0 34 -50 42l-31 5l6 26h511zM598 836h24q-87 -123 -209 -123q-93 0 -93 78q0 16 5 45h22q1 -72 91 -72q43 0 76.5 15t83.5 57z" />
    <glyph glyph-name="ebreve" unicode="&#x115;" horiz-adv-x="463" 
d="M389 134l18 -10q-40 -64 -75 -90q-58 -44 -135 -44q-71 0 -111.5 44.5t-40.5 123.5q0 73 25 141t68 112q64 66 172 66q126 0 126 -97q0 -96 -113 -154q-65 -33 -179 -44q-5 -36 -5 -60q0 -105 79 -105q51 0 102 39q32 25 69 78zM147 204l40 8q75 15 122 68t47 120
q0 54 -48 54q-59 0 -103 -79q-34 -62 -58 -171zM485 675h23q-40 -62 -82 -92q-61 -44 -131 -44q-93 0 -93 83q0 15 7 53h22q0 -34 7 -48q13 -37 81 -37q46 0 79.5 17t86.5 68z" />
    <glyph glyph-name="Edotaccent" unicode="&#x116;" horiz-adv-x="632" 
d="M646 667l-43 -204h-27q-14 102 -37 135q-26 36 -84 36h-137l-56 -262h80q25 0 36.5 5.5t25.5 26.5q18 26 38 79h27l-58 -271h-26l-1 39l-1 39q-1 30 -8 40t-35 10h-85l-65 -307h126q102 0 156 57q31 32 85 137h30l-49 -227h-542l6 26l18 3q55 9 68 25.5t31 99.5l77 361
q3 13 8.5 39.5t5.5 39.5q0 34 -50 42l-31 5l6 26h511zM447 833q23 0 39 -16t16 -39q0 -25 -18.5 -43.5t-42.5 -18.5q-22 0 -39 17t-17 40t19 41.5t43 18.5z" />
    <glyph glyph-name="edotaccent" unicode="&#x117;" horiz-adv-x="463" 
d="M389 134l18 -10q-40 -64 -75 -90q-58 -44 -135 -44q-71 0 -111.5 44.5t-40.5 123.5q0 73 25 141t68 112q64 66 172 66q126 0 126 -97q0 -96 -113 -154q-65 -33 -179 -44q-5 -36 -5 -60q0 -105 79 -105q51 0 102 39q32 25 69 78zM147 204l40 8q75 15 122 68t47 120
q0 54 -48 54q-59 0 -103 -79q-34 -62 -58 -171zM332 667q22 0 37.5 -15.5t15.5 -37.5q0 -23 -17.5 -41t-40.5 -18q-22 0 -38 16t-16 39q0 22 18 39.5t41 17.5z" />
    <glyph glyph-name="Eogonek" unicode="&#x118;" horiz-adv-x="632" 
d="M538 0h-68q-3 -4 -11 -16q-35 -46 -35 -72q0 -23 20 -38t50 -15q11 0 29 3l-4 -18q-49 -12 -75 -12q-37 0 -61.5 18t-24.5 45q0 45 52 82q5 3 33 23h-447l6 26l18 3q55 9 68 26t31 99l77 361q14 66 14 79q0 34 -50 42l-31 5l6 26h511l-43 -204h-27q-14 102 -37 135
q-26 36 -84 36h-137l-56 -262h80q25 0 36.5 5.5t25.5 26.5q18 26 38 79h27l-58 -271h-26l-1 39l-1 39q-1 30 -8 40t-35 10h-85l-65 -307h126q102 0 156 57q31 33 85 137h30z" />
    <glyph glyph-name="eogonek" unicode="&#x119;" horiz-adv-x="463" 
d="M389 134l18 -10q-36 -57 -79 -92q-59 -47 -76 -68.5t-17 -44.5q0 -20 20.5 -34t50.5 -14q6 0 28 2l-3 -16q-48 -11 -75 -11q-38 0 -62.5 17t-24.5 43q0 43 56 86q-10 -2 -28 -2q-71 0 -111.5 44.5t-40.5 123.5q0 73 25 141t68 112q64 66 172 66q126 0 126 -97
q0 -96 -113 -154q-65 -33 -179 -44q-5 -36 -5 -60q0 -105 79 -105q51 0 102 39q32 25 69 78zM147 204q50 10 71 17q59 19 98.5 70t39.5 109q0 54 -48 54q-59 0 -103 -79q-34 -62 -58 -171z" />
    <glyph glyph-name="Ecaron" unicode="&#x11a;" horiz-adv-x="632" 
d="M646 667l-43 -204h-27q-14 102 -37 135q-26 36 -84 36h-137l-56 -262h80q25 0 36.5 5.5t25.5 26.5q18 26 38 79h27l-58 -271h-26l-1 39l-1 39q-1 30 -8 40t-35 10h-85l-65 -307h126q102 0 156 57q31 32 85 137h30l-49 -227h-542l6 26l18 3q55 9 68 25.5t31 99.5l77 361
q3 13 8.5 39.5t5.5 39.5q0 34 -50 42l-31 5l6 26h511zM593 851l10 -17l-168 -135l-124 138l14 14l115 -92z" />
    <glyph glyph-name="ecaron" unicode="&#x11b;" horiz-adv-x="463" 
d="M389 134l18 -10q-40 -64 -75 -90q-58 -44 -135 -44q-71 0 -111.5 44.5t-40.5 123.5q0 73 25 141t68 112q64 66 172 66q126 0 126 -97q0 -96 -113 -154q-65 -33 -179 -44q-5 -36 -5 -60q0 -105 79 -105q51 0 102 39q32 25 69 78zM147 204l40 8q75 15 122 68t47 120
q0 54 -48 54q-59 0 -103 -79q-34 -62 -58 -171zM474 691l11 -15l-169 -154l-124 156l14 13l115 -105z" />
    <glyph glyph-name="Gcircumflex" unicode="&#x11c;" horiz-adv-x="771" 
d="M740 667l-50 -233h-26q-8 112 -50.5 164t-125.5 52q-76 0 -140 -43q-68 -46 -117.5 -163.5t-49.5 -232.5q0 -195 175 -195q96 0 155 50q24 20 42 76q17 52 17 84q0 23 -24 32q-17 7 -81 15l6 27h304l-6 -27q-60 -7 -79.5 -21t-28.5 -58l-44 -206h-21l-12 20
q-17 28 -25 28q-6 0 -17 -5q-97 -45 -197 -45q-127 0 -197 67t-70 188q0 146 86 272q54 79 141 123t188 44q103 0 191 -44l36 31h20zM548 851l111 -139l-14 -13l-110 88l-177 -88l-9 18z" />
    <glyph glyph-name="gcircumflex" unicode="&#x11d;" horiz-adv-x="536" 
d="M513 467l-79 -374q-17 -81 -27 -109.5t-31 -58.5q-82 -115 -231 -115q-64 0 -101.5 26.5t-37.5 72.5q0 28 16 46t40 18q21 0 36 -14t15 -34q0 -22 -30 -51q-6 -5 -6 -9q0 -13 23 -22.5t52 -9.5q47 0 87 23t62 63q19 34 35 112l12 58q-38 -55 -74 -77t-87 -22
q-65 0 -104 45.5t-39 122.5q0 71 28 140.5t77 118.5q60 60 150 60q89 0 117 -76l14 66h83zM316 450q-67 0 -108 -70q-29 -49 -48.5 -121.5t-19.5 -127.5t16.5 -84.5t50.5 -29.5q81 0 139 127q49 108 49 203q0 48 -21 75.5t-58 27.5zM386 691l113 -155l-14 -14l-112 105
l-177 -105l-10 18z" />
    <glyph glyph-name="Gdotaccent" unicode="&#x120;" horiz-adv-x="771" 
d="M740 667l-50 -233h-26q-8 112 -50.5 164t-125.5 52q-76 0 -140 -43q-68 -46 -117.5 -163.5t-49.5 -232.5q0 -195 175 -195q96 0 155 50q24 20 42 76q17 52 17 84q0 23 -24 32q-17 7 -81 15l6 27h304l-6 -27q-60 -7 -79.5 -21t-28.5 -58l-44 -206h-21l-12 20
q-17 28 -25 28q-6 0 -17 -5q-97 -45 -197 -45q-127 0 -197 67t-70 188q0 146 86 272q54 79 141 123t188 44q103 0 191 -44l36 31h20zM514 833q23 0 39 -16t16 -39q0 -25 -18.5 -43.5t-42.5 -18.5q-22 0 -39 17t-17 40t19 41.5t43 18.5z" />
    <glyph glyph-name="gdotaccent" unicode="&#x121;" horiz-adv-x="536" 
d="M513 467l-79 -374q-17 -81 -27 -109.5t-31 -58.5q-82 -115 -231 -115q-64 0 -101.5 26.5t-37.5 72.5q0 28 16 46t40 18q21 0 36 -14t15 -34q0 -22 -30 -51q-6 -5 -6 -9q0 -13 23 -22.5t52 -9.5q47 0 87 23t62 63q19 34 35 112l12 58q-38 -55 -74 -77t-87 -22
q-65 0 -104 45.5t-39 122.5q0 71 28 140.5t77 118.5q60 60 150 60q89 0 117 -76l14 66h83zM316 450q-67 0 -108 -70q-29 -49 -48.5 -121.5t-19.5 -127.5t16.5 -84.5t50.5 -29.5q81 0 139 127q49 108 49 203q0 48 -21 75.5t-58 27.5zM352 667q22 0 37.5 -15.5t15.5 -37.5
q0 -23 -17.5 -41t-40.5 -18q-22 0 -38 16t-16 39q0 22 18 39.5t41 17.5z" />
    <glyph glyph-name="Gcommaaccent" unicode="&#x122;" horiz-adv-x="771" 
d="M740 667l-50 -233h-26q-8 112 -50.5 164t-125.5 52q-76 0 -140 -43q-68 -46 -117.5 -163.5t-49.5 -232.5q0 -195 175 -195q96 0 155 50q24 20 42 76q17 52 17 84q0 23 -24 32q-17 7 -81 15l6 27h304l-6 -27q-60 -7 -79.5 -21t-28.5 -58l-44 -206h-21l-12 20
q-17 28 -25 28q-6 0 -17 -5q-97 -45 -197 -45q-127 0 -197 67t-70 188q0 146 86 272q54 79 141 123t188 44q103 0 191 -44l36 31h20zM251 -239l-1 14q48 15 71 41t23 40q0 3 -3 3h-2q-16 -2 -17 -2q-16 0 -27 12.5t-11 30.5q0 22 16 36.5t39 14.5q53 0 53 -54t-57 -98
q-30 -23 -84 -38z" />
    <glyph glyph-name="gcommaaccent" unicode="&#x123;" horiz-adv-x="536" 
d="M513 467l-79 -374q-17 -81 -27 -109.5t-31 -58.5q-82 -115 -231 -115q-64 0 -101.5 26.5t-37.5 72.5q0 28 16 46t40 18q21 0 36 -14t15 -34q0 -22 -30 -51q-6 -5 -6 -9q0 -13 23 -22.5t52 -9.5q47 0 87 23t62 63q19 34 35 112l12 58q-38 -55 -74 -77t-87 -22
q-65 0 -104 45.5t-39 122.5q0 71 28 140.5t77 118.5q60 60 150 60q89 0 117 -76l14 66h83zM316 450q-67 0 -108 -70q-29 -49 -48.5 -121.5t-19.5 -127.5t16.5 -84.5t50.5 -29.5q81 0 139 127q49 108 49 203q0 48 -21 75.5t-58 27.5zM419 710l1 -13q-46 -13 -68 -38.5
t-22 -38.5q0 -3 3 -3h2q12 2 16 2q15 0 26 -12t11 -29q0 -21 -15 -35t-38 -14q-50 0 -50 52q0 51 54 93q29 23 80 36z" />
    <glyph glyph-name="Hcircumflex" unicode="&#x124;" horiz-adv-x="780" 
d="M261 367h320l32 148q13 60 13 78q0 37 -49 43l-31 4l6 27h280l-6 -27l-18 -2q-55 -6 -68 -23t-31 -102l-77 -361q-14 -66 -14 -79q0 -36 50 -42l31 -4l-6 -27h-280l6 27l18 2q54 6 67.5 23.5t31.5 101.5l38 180h-320l-39 -182q-3 -13 -5 -26q-9 -47 -9 -53q0 -36 50 -42
l31 -4l-6 -27h-280l6 27l18 2q55 6 68 23t31 102l77 361q13 61 13 78q0 37 -49 43l-31 4l6 27h280l-6 -27l-18 -2q-54 -6 -67.5 -23.5t-31.5 -101.5zM542 851l111 -139l-14 -13l-110 88l-177 -88l-9 18z" />
    <glyph glyph-name="Hbar" unicode="&#x126;" horiz-adv-x="780" 
d="M292 513h320q14 67 14 80q0 37 -49 43l-31 4l6 27h280l-6 -27l-18 -2q-55 -6 -68 -23t-31 -102h93l-7 -33h-93l-70 -328q-14 -66 -14 -79q0 -36 50 -42l31 -4l-6 -27h-280l6 27l18 2q54 6 67.5 23.5t31.5 101.5l38 180h-320l-39 -182q-3 -13 -5 -26q-9 -47 -9 -53
q0 -36 50 -42l31 -4l-6 -27h-280l6 27l18 2q55 6 68 23t31 102l69 326h-93l7 33h93q14 67 14 80q0 37 -49 43l-31 4l6 27h280l-6 -27l-18 -2q-55 -6 -68 -23t-31 -102zM605 480h-320l-24 -113h320z" />
    <glyph glyph-name="hbar" unicode="&#x127;" horiz-adv-x="560" 
d="M102 0h-83l114 540h-97l6 27h97l1 10q4 16 4 32q0 21 -18 29q-13 6 -81 9l4 17l202 36l-28 -133h153l-5 -27h-154l-49 -233q48 95 89.5 132.5t98.5 37.5q45 0 72.5 -28.5t27.5 -75.5q0 -30 -9 -68l-17 -71q-29 -121 -29 -166q0 -49 30 -49q47 0 96 113l21 -4
q-28 -67 -49 -93q-36 -45 -86 -45q-41 0 -69.5 32t-28.5 79q0 45 20 119q17 57 34 115q12 41 12 70q0 46 -40 46q-60 0 -122.5 -104.5t-96.5 -256.5z" />
    <glyph glyph-name="Imacron" unicode="&#x12a;" horiz-adv-x="363" 
d="M282 27l-6 -27h-280l6 27l18 2q55 6 68 23t31 102l77 361q13 61 13 78q0 37 -49 43l-31 4l6 27h280l-6 -27l-18 -2q-55 -6 -68 -23t-31 -102l-77 -361q-13 -61 -13 -78q0 -37 49 -43zM454 794l-8 -37h-295l8 37h295z" />
    <glyph glyph-name="imacron" unicode="&#x12b;" horiz-adv-x="337" 
d="M258 474l-51 -240q-29 -136 -29 -166q0 -49 30 -49q49 0 96 113l21 -4q-26 -63 -49 -93q-35 -45 -92 -45q-39 0 -63.5 25t-24.5 65q0 20 14 86l27 128q14 66 14 88t-21 30q-11 4 -91 8l4 17zM410 631l-8 -37h-295l8 37h295z" />
    <glyph glyph-name="ibreve" unicode="&#x12d;" horiz-adv-x="337" 
d="M258 474l-51 -240q-29 -136 -29 -166q0 -49 30 -49q49 0 96 113l21 -4q-26 -63 -49 -93q-35 -45 -92 -45q-39 0 -63.5 25t-24.5 65q0 20 14 86l27 128q14 66 14 88t-21 30q-11 4 -91 8l4 17zM402 675h22q-41 -63 -81 -92q-62 -44 -131 -44q-93 0 -93 83q0 15 7 53h22v-7
q0 -44 19.5 -61t68.5 -17q46 0 80 17t86 68z" />
    <glyph glyph-name="Iogonek" unicode="&#x12e;" horiz-adv-x="363" 
d="M164 0l-5 -8l-6 -8q-35 -47 -35 -72q0 -23 20 -38t50 -15q11 0 29 3l-4 -18q-49 -12 -75 -12q-37 0 -61.5 18t-24.5 45q0 43 52 82q5 3 33 23h-141l6 27l18 2q54 6 67.5 23.5t31.5 101.5l77 361q13 61 13 79q0 36 -49 42l-31 4l6 27h280l-6 -27l-18 -2
q-54 -6 -67.5 -23.5t-31.5 -101.5l-77 -361q-13 -61 -13 -78q0 -37 49 -43l31 -4l-6 -27h-112z" />
    <glyph glyph-name="iogonek" unicode="&#x12f;" horiz-adv-x="325" 
d="M168 -10l-4 -5q-33 -41 -33 -65q0 -21 20.5 -35t50.5 -14q6 0 28 2l-4 -16q-46 -11 -74 -11q-38 0 -62.5 17t-24.5 42q0 35 64 82l11 8q-56 18 -56 85q0 24 13 86l27 128q15 71 15 89q0 20 -18 29q-15 6 -81 8l4 17l202 37l-51 -240q-29 -136 -29 -165q0 -50 30 -50
q47 0 96 113l20 -4q-29 -77 -60.5 -107t-83.5 -31zM231 667q22 0 37.5 -15.5t15.5 -37.5q0 -23 -17.5 -41t-40.5 -18q-22 0 -38 16t-16 39q0 22 18 39.5t41 17.5z" />
    <glyph glyph-name="Idotaccent" unicode="&#x130;" horiz-adv-x="363" 
d="M282 27l-6 -27h-280l6 27l18 2q55 6 68 23t31 102l77 361q13 61 13 78q0 37 -49 43l-31 4l6 27h280l-6 -27l-18 -2q-55 -6 -68 -23t-31 -102l-77 -361q-13 -61 -13 -78q0 -37 49 -43zM306 833q23 0 39 -16t16 -39q0 -25 -18.5 -43.5t-42.5 -18.5q-22 0 -39 17t-17 40
t19 41.5t43 18.5z" />
    <glyph glyph-name="IJ" unicode="&#x132;" horiz-adv-x="712" 
d="M282 27l-6 -27h-280l6 27l18 2q55 6 68 23t31 102l77 361q13 61 13 78q0 37 -49 43l-31 4l6 27h280l-6 -27l-18 -2q-55 -6 -68 -23t-31 -102l-77 -361q-13 -61 -13 -78q0 -37 49 -43zM261 -148l5 20h7q84 0 130 60q43 56 72 190l84 393q3 13 5 26q9 47 9 53q0 36 -49 41
l-45 5l6 27h288l-6 -27l-13 -2q-37 -6 -47 -10t-20.5 -17t-14.5 -25q-5 -17 -17 -73l-66 -310q-20 -93 -22 -102q-5 -21 -15 -50q-35 -100 -98 -146q-76 -55 -159 -55q-4 0 -34 2z" />
    <glyph glyph-name="ij" unicode="&#x133;" horiz-adv-x="616" 
d="M246 474l-51 -240q-29 -136 -29 -166q0 -49 30 -49q47 0 96 113l20 -4q-27 -66 -48 -93q-35 -45 -92 -45q-39 0 -63.5 25t-24.5 65q0 24 13 86l27 128q15 71 15 89q0 21 -19 29q-11 5 -80 8l4 17zM231 667q22 0 37.5 -15.5t15.5 -37.5q0 -23 -17.5 -41t-40.5 -18
q-22 0 -38 16t-16 39q0 22 18 39.5t41 17.5zM590 474l-67 -348q-28 -145 -85 -221q-71 -95 -167 -95q-46 0 -74 21.5t-28 56.5q0 26 17 44.5t42 18.5q20 0 33.5 -12.5t13.5 -30.5q0 -19 -24 -40q-7 -6 -7 -13q0 -22 33 -22q60 0 97 68q18 34 39 131l56 262q14 65 14 89
q0 19 -18 29q-13 5 -81 8l4 17zM574 667q22 0 37.5 -15.5t15.5 -37.5q0 -23 -17.5 -41t-40.5 -18q-22 0 -38 16t-16 39q0 22 18 39.5t41 17.5z" />
    <glyph glyph-name="Kcommaaccent" unicode="&#x136;" horiz-adv-x="668" 
d="M650 27l-6 -27h-196l5 21q1 2 1 7q0 13 -11 35l-136 277l-62 -48l-30 -140q-13 -61 -13 -79q0 -36 49 -42l31 -4l-6 -27h-280l6 27l18 2q55 6 68 23t31 102l77 361q13 61 13 78q0 37 -49 43l-31 4l6 27h280l-6 -27l-18 -2q-54 -6 -67.5 -23t-31.5 -102l-37 -172
q189 151 247 203t58 70q0 23 -51 26l6 27h226l-6 -27q-52 -5 -136 -71l-218 -172l142 -274q29 -56 51 -72.5t76 -23.5zM216 -239l-1 14q48 15 71 41t23 40q0 3 -3 3h-2q-16 -2 -17 -2q-16 0 -27 12.5t-11 30.5q0 22 16 36.5t39 14.5q53 0 53 -54t-57 -98q-30 -23 -84 -38z
" />
    <glyph glyph-name="kcommaaccent" unicode="&#x137;" horiz-adv-x="532" 
d="M99 0h-83l111 520q14 66 14 90q0 20 -18 28q-12 6 -81 9l4 17l202 36l-81 -380q39 71 77 106q56 51 129 51q41 0 65.5 -19.5t24.5 -52.5q0 -66 -78 -117q-51 -33 -123 -45q68 -7 97 -23t29 -47q0 -18 -4.5 -54t-4.5 -54q0 -46 30 -46q49 0 96 113l20 -4
q-32 -81 -62 -109.5t-83 -28.5q-95 0 -95 97q0 17 5 50t5 48q0 46 -77 46q-24 0 -71 -8zM153 251q22 0 53 2q87 6 130 39t43 78q0 22 -16.5 36.5t-41.5 14.5q-63 0 -109 -62q-25 -33 -59 -108zM108 -234l-1 13q45 13 69 40q21 24 21 37q0 3 -3 3h-2q-12 -2 -15 -2
q-15 0 -26 12t-11 29q0 21 15 35t37 14q50 0 50 -52q0 -51 -54 -93q-29 -23 -80 -36z" />
    <glyph glyph-name="kgreenlandic" unicode="&#x138;" horiz-adv-x="612" 
d="M178 0h-83l51 240q28 132 28 165q0 45 -33 45q-48 0 -106 -113l-20 6q58 134 138 134q77 0 90 -91q4 -28 4 -66q40 73 76 106q55 51 129 51q41 0 65.5 -19.5t24.5 -52.5q0 -66 -78 -117q-51 -33 -123 -45q69 -7 98 -23t29 -47q0 -18 -5 -54t-5 -54q0 -46 30 -46
q49 0 96 113l20 -4q-32 -81 -62 -109.5t-83 -28.5q-95 0 -95 97q0 16 3 34q8 48 8 64q0 46 -78 46q-25 0 -71 -8zM232 251h7q46 0 97 9q56 10 89 39.5t33 70.5q0 22 -16.5 36.5t-41.5 14.5q-76 0 -135 -104q-11 -20 -33 -66z" />
    <glyph glyph-name="Lacute" unicode="&#x139;" horiz-adv-x="569" 
d="M553 227l-48 -227h-509l6 26l18 3q55 9 68 25.5t31 99.5l77 361q13 61 13 78q0 37 -49 43l-31 4l6 27h280l-6 -27l-18 -2q-54 -6 -67.5 -23.5t-31.5 -101.5l-102 -480h100q101 0 151 58q28 32 82 136h30zM293 708l-9 15l124 100q27 22 40 22q8 0 15.5 -9.5t7.5 -19.5
q0 -13 -34 -31z" />
    <glyph glyph-name="lacute" unicode="&#x13a;" horiz-adv-x="281" 
d="M251 700l-99 -467q-29 -137 -29 -165q0 -49 30 -49q47 0 96 113l20 -4q-26 -65 -48 -93q-35 -45 -88 -45q-40 0 -64 27.5t-24 73.5q0 31 10 78l74 351q15 71 15 89q0 20 -19 29q-12 6 -80 9l4 16zM210 730l-10 15l125 100q28 22 39 22q8 0 15.5 -9.5t7.5 -19.5
q0 -13 -33 -31z" />
    <glyph glyph-name="Lcommaaccent" unicode="&#x13b;" horiz-adv-x="569" 
d="M553 227l-48 -227h-509l6 26l18 3q55 9 68 25.5t31 99.5l77 361q13 61 13 78q0 37 -49 43l-31 4l6 27h280l-6 -27l-18 -2q-54 -6 -67.5 -23.5t-31.5 -101.5l-102 -480h100q101 0 151 58q28 32 82 136h30zM166 -239l-1 14q48 15 71 41t23 40q0 3 -3 3h-2q-16 -2 -17 -2
q-16 0 -27 12.5t-11 30.5q0 22 16 36.5t39 14.5q53 0 53 -54t-57 -98q-30 -23 -84 -38z" />
    <glyph glyph-name="lcommaaccent" unicode="&#x13c;" horiz-adv-x="281" 
d="M251 700l-100 -467q-28 -131 -28 -165q0 -49 30 -49q47 0 95 113l21 -4q-26 -65 -48 -93q-35 -45 -88 -45q-40 0 -64 27.5t-24 73.5q0 36 9 78l75 351q14 66 14 89q0 21 -18 29q-12 6 -80 9l3 16zM-14 -234l-1 13q45 13 69 40q21 24 21 37q0 3 -3 3h-2q-12 -2 -15 -2
q-15 0 -26 12t-11 29q0 21 15 35t37 14q50 0 50 -52q0 -51 -54 -93q-29 -23 -80 -36z" />
    <glyph glyph-name="Lcaron" unicode="&#x13d;" horiz-adv-x="569" 
d="M553 227l-48 -227h-509l6 26l18 3q55 9 68 25.5t31 99.5l77 361q13 61 13 78q0 37 -49 43l-31 4l6 27h280l-6 -27l-18 -2q-54 -6 -67.5 -23.5t-31.5 -101.5l-102 -480h100q101 0 151 58q28 32 82 136h30zM481 491l-1 14q47 13 73 41q22 24 22 39q0 3 -3 3h-2l-16 -2
q-16 0 -27.5 12.5t-11.5 30.5q0 22 16 36.5t39 14.5q52 0 52 -54t-57 -98q-31 -24 -84 -37z" />
    <glyph glyph-name="lcaron" unicode="&#x13e;" horiz-adv-x="428" 
d="M251 700l-99 -467q-29 -137 -29 -165q0 -49 30 -49q47 0 96 113l20 -4q-26 -65 -48 -93q-35 -45 -88 -45q-40 0 -64 27.5t-24 73.5q0 31 10 78l74 351q15 71 15 89q0 20 -19 29q-12 6 -80 9l4 16zM300 500l-1 13q44 13 69 40q21 23 21 36q0 3 -3 3h-2q-6 -1 -16 -1
q-15 0 -26 12t-11 29q0 20 15.5 34t37.5 14q50 0 50 -52q0 -51 -54 -93q-30 -23 -80 -35z" />
    <glyph glyph-name="Ldot" unicode="&#x13f;" horiz-adv-x="569" 
d="M553 227l-48 -227h-509l6 26l18 3q55 9 68 25.5t31 99.5l77 361q13 61 13 78q0 37 -49 43l-31 4l6 27h280l-6 -27l-18 -2q-54 -6 -67.5 -23.5t-31.5 -101.5l-102 -480h100q101 0 151 58q28 32 82 136h30zM483 421q29 0 46.5 -18.5t17.5 -48.5q0 -35 -22.5 -58.5
t-56.5 -23.5q-66 0 -66 66q0 35 23.5 59t57.5 24z" />
    <glyph glyph-name="ldot" unicode="&#x140;" horiz-adv-x="353" 
d="M251 700l-99 -467q-29 -137 -29 -165q0 -49 30 -49q47 0 96 113l20 -4q-26 -65 -48 -93q-35 -45 -88 -45q-40 0 -64 27.5t-24 73.5q0 31 10 78l74 351q15 71 15 89q0 20 -19 29q-12 6 -80 9l4 16zM319 418q28 0 45 -17.5t17 -46.5q0 -34 -21.5 -56.5t-54.5 -22.5
q-63 0 -63 63q0 33 22.5 56.5t54.5 23.5z" />
    <glyph glyph-name="Ncommaaccent" unicode="&#x145;" horiz-adv-x="741" 
d="M329 667l225 -541l51 243q36 172 36 215q0 25 -13 38t-70 18l6 27h237l-5 -27q-70 -8 -88 -28.5t-37 -110.5q-6 -27 -10 -46l-104 -455h-52l-254 606l-82 -414q-18 -91 -18 -113q0 -27 22 -37q13 -6 61 -15l-6 -27h-237l6 27q72 12 89 32.5t40 126.5l76 347q10 46 10 58
q0 25 -21 35q-12 6 -66 14l5 27h199zM236 -239l-1 14q48 15 71 41t23 40q0 3 -3 3h-2q-16 -2 -17 -2q-16 0 -27 12.5t-11 30.5q0 22 16 36.5t39 14.5q53 0 53 -54t-57 -98q-30 -23 -84 -38z" />
    <glyph glyph-name="ncommaaccent" unicode="&#x146;" horiz-adv-x="637" 
d="M178 0h-83l51 240q28 132 28 169q0 41 -33 41q-48 0 -106 -113l-20 6q32 72 63.5 103t74.5 31q92 0 92 -118q0 -33 -1 -52q49 95 90 132.5t98 37.5q46 0 72.5 -29t26.5 -78q0 -32 -8 -65l-17 -71q-29 -121 -29 -166q0 -49 30 -49q49 0 96 113l21 -4q-26 -64 -49 -93
q-36 -45 -86 -45q-41 0 -69.5 32t-28.5 79q0 46 54 234q12 42 12 70q0 19 -11.5 32t-28.5 13q-71 0 -145 -144q-46 -90 -74 -216zM200 -234l-1 13q45 13 69 40q21 24 21 37q0 3 -3 3h-2q-12 -2 -15 -2q-15 0 -26 12t-11 29q0 21 15 35t37 14q50 0 50 -52q0 -51 -54 -93
q-29 -23 -80 -36z" />
    <glyph glyph-name="Ncaron" unicode="&#x147;" horiz-adv-x="741" 
d="M329 667l225 -541l51 243q36 172 36 215q0 25 -13 38t-70 18l6 27h237l-5 -27q-70 -8 -88 -28.5t-37 -110.5q-6 -27 -10 -46l-104 -455h-52l-254 606l-82 -414q-18 -91 -18 -113q0 -27 22 -37q13 -6 61 -15l-6 -27h-237l6 27q72 12 89 32.5t40 126.5l76 347q10 46 10 58
q0 25 -21 35q-12 6 -66 14l5 27h199zM645 851l10 -17l-168 -135l-124 138l14 14l115 -92z" />
    <glyph glyph-name="ncaron" unicode="&#x148;" horiz-adv-x="637" 
d="M178 0h-83l51 240q28 132 28 169q0 41 -33 41q-48 0 -106 -113l-20 6q32 72 63.5 103t74.5 31q92 0 92 -118q0 -33 -1 -52q49 95 90 132.5t98 37.5q46 0 72.5 -29t26.5 -78q0 -32 -8 -65l-17 -71q-29 -121 -29 -166q0 -49 30 -49q49 0 96 113l21 -4q-26 -64 -49 -93
q-36 -45 -86 -45q-41 0 -69.5 32t-28.5 79q0 46 54 234q12 42 12 70q0 19 -11.5 32t-28.5 13q-71 0 -145 -144q-46 -90 -74 -216zM544 691l11 -15l-169 -154l-124 156l14 13l115 -105z" />
    <glyph glyph-name="napostrophe" unicode="&#x149;" horiz-adv-x="789" 
d="M57 423l-3 18q62 21 92 55q23 25 23 42q0 13 -18 13q-53 1 -53 58q0 29 20 48.5t49 19.5q30 0 48 -20t18 -53q0 -71 -71 -130q-39 -32 -105 -51zM331 0h-83l51 240q28 132 28 169q0 41 -33 41q-48 0 -106 -113l-21 6q59 134 139 134q92 0 92 -118q0 -14 -2 -52
q49 95 90 132.5t98 37.5q46 0 72.5 -29t26.5 -78q0 -29 -8 -65l-16 -71q-29 -129 -29 -166q0 -49 30 -49q47 0 96 113l20 -4q-26 -65 -48 -93q-35 -45 -86 -45q-41 0 -69.5 32t-28.5 79q0 49 53 234q12 42 12 70q0 19 -11.5 32t-28.5 13q-70 0 -144 -144q-50 -97 -75 -216z
" />
    <glyph glyph-name="Eng" unicode="&#x14a;" horiz-adv-x="774" 
d="M276 0h-280l6 27l18 2q55 6 68 23t31 102l77 361q13 61 13 78q0 37 -49 43l-31 4l6 27h190l-20 -90q87 103 248 103q81 0 126.5 -28.5t45.5 -78.5q0 -23 -9 -65l-83 -387q-32 -149 -84 -217q-72 -94 -179 -94q-49 0 -78.5 22t-29.5 59q0 27 17.5 45t43.5 18q23 0 38 -13
t15 -33q0 -22 -26 -43q-6 -5 -6 -10q0 -19 35 -19q54 0 85 43.5t54 151.5l90 424q23 108 23 132q0 63 -102 63q-60 0 -115.5 -27t-88.5 -72q-35 -48 -67 -197l-43 -202q-13 -61 -13 -78q0 -37 49 -43l31 -4z" />
    <glyph glyph-name="eng" unicode="&#x14b;" horiz-adv-x="610" 
d="M178 0h-83l51 240q28 132 28 169q0 41 -33 41q-48 0 -106 -113l-20 6q32 72 63.5 103t74.5 31q92 0 92 -118q0 -33 -1 -52q48 95 89.5 132.5t97.5 37.5q46 0 73 -28t27 -77q0 -20 -10 -67l-39 -184q-31 -148 -84 -217q-72 -94 -167 -94q-46 0 -74 21.5t-28 56.5
q0 26 17 44.5t42 18.5q20 0 33.5 -12.5t13.5 -30.5q0 -20 -25 -40q-6 -8 -6 -13q0 -22 35 -22q55 0 86 44t55 154l47 220q3 15 16 72q12 53 12 82q0 45 -38 45q-71 0 -145 -144q-46 -90 -74 -216z" />
    <glyph glyph-name="Omacron" unicode="&#x14c;" horiz-adv-x="780" 
d="M488 680q118 0 191 -54q82 -60 82 -196q0 -199 -131 -330q-113 -113 -290 -113q-132 0 -201.5 66.5t-69.5 193.5q0 88 41.5 182t106.5 153q107 98 271 98zM483 650q-122 0 -208 -117q-41 -56 -71.5 -151t-30.5 -167q0 -198 177 -198q150 0 232 154q76 143 76 294
q0 185 -175 185zM666 794l-8 -37h-295l8 37h295z" />
    <glyph glyph-name="omacron" unicode="&#x14d;" horiz-adv-x="528" 
d="M322 477q165 0 165 -167q0 -135 -90 -238q-72 -82 -192 -82q-161 0 -161 170q0 68 30.5 140t78.5 116q66 61 169 61zM313 454q-74 0 -124 -116q-19 -43 -34 -113t-15 -113q0 -99 77 -99q66 0 114 83q25 43 42.5 117t17.5 134q0 107 -78 107zM506 631l-8 -37h-295l8 37
h295z" />
    <glyph glyph-name="Ohungarumlaut" unicode="&#x150;" horiz-adv-x="780" 
d="M488 680q118 0 191 -54q82 -60 82 -196q0 -199 -131 -330q-113 -113 -290 -113q-132 0 -201.5 66.5t-69.5 193.5q0 88 41.5 182t106.5 153q107 98 271 98zM483 650q-122 0 -208 -117q-41 -56 -71.5 -151t-30.5 -167q0 -198 177 -198q150 0 232 154q76 143 76 294
q0 185 -175 185zM412 708l-9 15l124 100q27 22 40 22q8 0 15.5 -9.5t7.5 -19.5q0 -13 -34 -31zM592 708l-9 15l124 100q27 22 40 22q8 0 15.5 -9.5t7.5 -19.5q0 -13 -34 -31z" />
    <glyph glyph-name="ohungarumlaut" unicode="&#x151;" horiz-adv-x="528" 
d="M322 477q165 0 165 -167q0 -135 -90 -238q-72 -82 -192 -82q-161 0 -161 170q0 68 30.5 140t78.5 116q66 61 169 61zM313 454q-74 0 -124 -116q-19 -43 -34 -113t-15 -113q0 -99 77 -99q66 0 114 83q25 43 42.5 117t17.5 134q0 107 -78 107zM262 534l-13 13l106 121
q25 29 38 29q9 0 17 -9.5t8 -19.5q0 -11 -28 -33zM422 534l-13 13l106 121q25 29 38 29q9 0 17 -9.5t8 -19.5q0 -11 -28 -33z" />
    <glyph glyph-name="Rcommaaccent" unicode="&#x156;" horiz-adv-x="644" 
d="M253 329l-38 -177q-14 -65 -14 -78q0 -38 50 -43l37 -4l-5 -27h-287l6 27l18 2q55 6 68 23t31 102l77 361q13 61 13 79q0 34 -49 42l-31 5l6 26h283q101 0 142 -20q64 -32 64 -102q0 -90 -84 -150q-45 -33 -142 -58q72 -19 94.5 -51t23.5 -117q1 -79 9 -103
q10 -29 35 -29q20 0 48 16l8 -23q-50 -37 -99 -37q-53 0 -76.5 34.5t-22.5 111.5l1 73q1 79 -46 101q-32 15 -120 16zM260 362h47q91 0 137 31q77 51 77 147q0 94 -125 94h-78zM201 -239l-1 14q47 14 72 42q22 24 22 39q0 3 -3 3h-2q-16 -2 -17 -2q-16 0 -27 12.5t-11 30.5
q0 22 16 36.5t39 14.5q52 0 52 -54t-57 -98q-30 -23 -83 -38z" />
    <glyph glyph-name="rcommaaccent" unicode="&#x157;" horiz-adv-x="478" 
d="M178 0h-83l52 244q27 127 27 165q0 41 -33 41q-48 0 -106 -113l-20 6q32 73 63.5 103.5t74.5 30.5q90 0 90 -130q0 -23 -1 -42q44 97 79.5 134.5t86.5 37.5q38 0 61 -22t23 -58q0 -29 -17 -47.5t-44 -18.5q-22 0 -35.5 12.5t-13.5 32.5q0 22 28 45q8 7 8 13q0 17 -23 17
q-44 0 -90 -78q-71 -120 -107 -282zM36 -234l-1 13q44 13 69 40q21 23 21 37q0 3 -3 3h-2q-12 -2 -16 -2q-15 0 -26 12t-11 29q0 21 15 35t38 14q50 0 50 -52q0 -51 -54 -93q-29 -23 -80 -36z" />
    <glyph glyph-name="Rcaron" unicode="&#x158;" horiz-adv-x="644" 
d="M253 329l-38 -177q-14 -65 -14 -78q0 -38 50 -43l37 -4l-5 -27h-287l6 27l18 2q55 6 68 23t31 102l77 361q13 61 13 79q0 34 -49 42l-31 5l6 26h283q101 0 142 -20q64 -32 64 -102q0 -90 -84 -150q-45 -33 -142 -58q72 -19 94.5 -51t23.5 -117q1 -79 9 -103
q10 -29 35 -29q20 0 48 16l8 -23q-50 -37 -99 -37q-53 0 -76.5 34.5t-22.5 111.5l1 73q1 79 -46 101q-32 15 -120 16zM260 362h47q91 0 137 31q77 51 77 147q0 94 -125 94h-78zM562 851l10 -17l-168 -135l-124 138l14 14l115 -92z" />
    <glyph glyph-name="rcaron" unicode="&#x159;" horiz-adv-x="478" 
d="M178 0h-83l52 244q27 127 27 165q0 41 -33 41q-48 0 -106 -113l-20 6q32 73 63.5 103.5t74.5 30.5q90 0 90 -130q0 -23 -1 -42q44 97 79.5 134.5t86.5 37.5q38 0 61 -22t23 -58q0 -29 -17 -47.5t-44 -18.5q-22 0 -35.5 12.5t-13.5 32.5q0 22 28 45q8 7 8 13q0 17 -23 17
q-44 0 -90 -78q-71 -120 -107 -282zM458 691l11 -15l-170 -154l-123 156l14 13l115 -105z" />
    <glyph glyph-name="Sacute" unicode="&#x15a;" horiz-adv-x="539" 
d="M547 667l-44 -204h-26q-6 187 -146 187q-58 0 -94.5 -35.5t-36.5 -91.5q0 -47 30 -78q27 -28 106 -68q92 -47 126.5 -84.5t34.5 -91.5q0 -92 -71 -153t-180 -61q-80 0 -172 38l-38 -25h-23l49 227h27q9 -93 35 -136q44 -74 135 -74q66 0 110 40t44 101q0 43 -28.5 71.5
t-111.5 68.5q-86 42 -117 79q-34 41 -34 99q0 88 60.5 146t152.5 58q64 0 167 -32l25 19h20zM345 708l-7 18l147 95q32 21 44 21q10 0 17.5 -10t7.5 -22q0 -17 -41 -34z" />
    <glyph glyph-name="sacute" unicode="&#x15b;" horiz-adv-x="464" 
d="M271 477q76 0 118.5 -25t42.5 -69q0 -56 -58 -56q-43 0 -43 35q0 9 4.5 24t4.5 22q0 18 -23.5 31.5t-54.5 13.5q-95 0 -95 -74q0 -38 28 -59q22 -16 85 -44q75 -33 102 -59.5t27 -68.5q0 -68 -61 -113t-154 -45q-75 0 -122.5 33.5t-47.5 85.5q0 27 15.5 44t40.5 17
q20 0 34.5 -12.5t14.5 -30.5q0 -12 -8.5 -32.5t-8.5 -29.5q0 -20 27.5 -36t62.5 -16q55 0 89.5 28.5t34.5 72.5q0 32 -21 53t-81 46q-64 27 -92 49q-39 31 -39 86q0 61 46.5 95t131.5 34zM280 536l-12 15l131 121q30 28 44 28q9 0 17.5 -10t8.5 -21q0 -15 -35 -37z" />
    <glyph glyph-name="Scircumflex" unicode="&#x15c;" horiz-adv-x="539" 
d="M547 667l-44 -204h-26q-6 187 -146 187q-58 0 -94.5 -35.5t-36.5 -91.5q0 -47 30 -78q27 -28 106 -68q92 -47 126.5 -84.5t34.5 -91.5q0 -92 -71 -153t-180 -61q-80 0 -172 38l-38 -25h-23l49 227h27q9 -93 35 -136q44 -74 135 -74q66 0 110 40t44 101q0 43 -28.5 71.5
t-111.5 68.5q-86 42 -117 79q-34 41 -34 99q0 88 60.5 146t152.5 58q64 0 167 -32l25 19h20zM418 851l111 -139l-14 -13l-109 88l-178 -88l-8 18z" />
    <glyph glyph-name="scircumflex" unicode="&#x15d;" horiz-adv-x="464" 
d="M271 477q76 0 118.5 -25t42.5 -69q0 -56 -58 -56q-43 0 -43 35q0 9 4.5 24t4.5 22q0 18 -23.5 31.5t-54.5 13.5q-95 0 -95 -74q0 -38 28 -59q22 -16 85 -44q75 -33 102 -59.5t27 -68.5q0 -68 -61 -113t-154 -45q-75 0 -122.5 33.5t-47.5 85.5q0 27 15.5 44t40.5 17
q20 0 34.5 -12.5t14.5 -30.5q0 -12 -8.5 -32.5t-8.5 -29.5q0 -20 27.5 -36t62.5 -16q55 0 89.5 28.5t34.5 72.5q0 32 -21 53t-81 46q-64 27 -92 49q-39 31 -39 86q0 61 46.5 95t131.5 34zM343 691l113 -155l-14 -14l-112 105l-178 -105l-10 18z" />
    <glyph glyph-name="Tcaron" unicode="&#x164;" horiz-adv-x="582" 
d="M671 667l-43 -204h-27q-13 109 -36 139.5t-93 30.5h-47l-102 -481q-14 -66 -14 -78q0 -37 49 -43l31 -4l-5 -27h-280l5 27l18 2q55 6 68.5 23.5t31.5 101.5l101 479q-15 1 -34 1q-74 0 -110 -29.5t-98 -141.5h-27l43 204h569zM552 851l10 -17l-168 -135l-124 138l14 14
l115 -92z" />
    <glyph glyph-name="tcaron" unicode="&#x165;" horiz-adv-x="347" 
d="M354 447l-6 -27h-114l-39 -187q-29 -139 -29 -165q0 -49 30 -49q47 0 96 113l20 -4q-26 -64 -48 -92q-37 -46 -89 -46q-37 0 -62.5 27t-25.5 66q0 37 17 117l47 220h-110l6 27h35q72 0 105 33t68 139h22l-37 -172h114zM404 851l10 -17l-169 -135l-123 138l14 14l115 -92z
" />
    <glyph glyph-name="Tbar" unicode="&#x166;" horiz-adv-x="582" 
d="M378 414h172l-7 -33h-172l-49 -229q-14 -65 -14 -78q0 -37 49 -43l31 -4l-5 -27h-280l5 27l18 2q55 6 68.5 23.5t31.5 101.5l48 227h-154l8 33h153l46 219q-15 1 -34 1q-74 0 -110 -29.5t-98 -141.5h-27l43 204h569l-43 -204h-27q-13 109 -36 139.5t-93 30.5h-47z" />
    <glyph glyph-name="tbar" unicode="&#x167;" horiz-adv-x="347" 
d="M222 360h101l-6 -27h-100l-22 -100q-28 -127 -28 -165q0 -49 30 -49q47 0 95 113l21 -4q-28 -66 -49 -92q-38 -46 -88 -46q-37 0 -62.5 27t-25.5 66q0 36 17 117l28 133h-93l6 27h93l13 60h-110l5 27h35q73 0 106 33t67 139h22l-36 -172h114l-6 -27h-114z" />
    <glyph glyph-name="utilde" unicode="&#x169;" horiz-adv-x="639" 
d="M476 467h83l-50 -233q-29 -135 -29 -166q0 -49 30 -49q47 0 96 113l21 -4q-31 -78 -61 -108t-76 -30q-40 0 -63.5 27.5t-23.5 73.5q0 29 7 65q-50 -94 -90.5 -130t-94.5 -36q-50 0 -78 29t-28 80q0 31 10 72l17 69q33 134 33 169q0 41 -35 41q-49 0 -108 -113l-19 6
q32 73 64.5 103.5t78.5 30.5q44 0 70.5 -29t26.5 -77q0 -52 -32 -166q-30 -107 -30 -139q0 -49 45 -49q60 0 119 98q65 109 88 216zM562 662l19 -4q-42 -113 -93 -113q-25 0 -68 37q-48 41 -73 41q-41 0 -73 -79l-20 3q19 62 41 90q27 35 65 35q28 0 76 -39q45 -37 68 -37
q29 0 58 66z" />
    <glyph glyph-name="Umacron" unicode="&#x16a;" horiz-adv-x="737" 
d="M802 667l-5 -27q-54 -4 -74.5 -24.5t-35.5 -86.5l-62 -272q-34 -149 -93 -201q-78 -69 -199 -69q-133 0 -184 68q-31 41 -31 98q0 27 6 55l65 307q14 66 14 78q0 37 -49 43l-31 4l5 27h284l-6 -27l-21 -2q-55 -5 -68 -22.5t-31 -102.5l-56 -262q-12 -56 -12 -80
q0 -60 48 -98.5t122 -38.5q100 0 155 85q19 30 29 65.5t40 180.5l18 87q20 103 20 132q0 25 -16.5 36.5t-65.5 19.5l6 27h228zM658 794l-8 -37h-295l8 37h295z" />
    <glyph glyph-name="umacron" unicode="&#x16b;" horiz-adv-x="639" 
d="M476 467h83l-50 -233q-29 -135 -29 -166q0 -49 30 -49q47 0 96 113l21 -4q-31 -78 -61 -108t-76 -30q-40 0 -63.5 27.5t-23.5 73.5q0 29 7 65q-50 -94 -90.5 -130t-94.5 -36q-50 0 -78 29t-28 80q0 31 10 72l17 69q33 134 33 169q0 41 -35 41q-49 0 -108 -113l-19 6
q32 73 64.5 103.5t78.5 30.5q44 0 70.5 -29t26.5 -77q0 -52 -32 -166q-30 -107 -30 -139q0 -49 45 -49q60 0 119 98q65 109 88 216zM558 631l-8 -37h-295l8 37h295z" />
    <glyph glyph-name="ubreve" unicode="&#x16d;" horiz-adv-x="639" 
d="M476 467h83l-50 -233q-29 -135 -29 -166q0 -49 30 -49q47 0 96 113l21 -4q-31 -78 -61 -108t-76 -30q-40 0 -63.5 27.5t-23.5 73.5q0 29 7 65q-50 -94 -90.5 -130t-94.5 -36q-50 0 -78 29t-28 80q0 31 10 72l17 69q33 134 33 169q0 41 -35 41q-49 0 -108 -113l-19 6
q32 73 64.5 103.5t78.5 30.5q44 0 70.5 -29t26.5 -77q0 -52 -32 -166q-30 -107 -30 -139q0 -49 45 -49q60 0 119 98q65 109 88 216zM560 675h22q-41 -63 -81 -92q-62 -44 -131 -44q-93 0 -93 83q0 15 7 53h22v-7q0 -44 19.5 -61t68.5 -17q46 0 80 17t86 68z" />
    <glyph glyph-name="Uring" unicode="&#x16e;" horiz-adv-x="737" 
d="M802 667l-5 -27q-54 -4 -74.5 -24.5t-35.5 -86.5l-62 -272q-34 -149 -93 -201q-78 -69 -199 -69q-133 0 -184 68q-31 41 -31 98q0 27 6 55l65 307q14 66 14 78q0 37 -49 43l-31 4l5 27h284l-6 -27l-21 -2q-55 -5 -68 -22.5t-31 -102.5l-56 -262q-12 -56 -12 -80
q0 -60 48 -98.5t122 -38.5q100 0 155 85q19 30 29 65.5t40 180.5l18 87q20 103 20 132q0 25 -16.5 36.5t-65.5 19.5l6 27h228zM519 866q87 0 87 -70q0 -41 -29 -68.5t-72 -27.5q-40 0 -64 21.5t-24 56.5q0 38 29.5 63t72.5 25zM519 841q-25 0 -41.5 -18.5t-16.5 -46.5
q0 -50 42 -50q25 0 42 19.5t17 48.5q0 47 -43 47z" />
    <glyph glyph-name="uring" unicode="&#x16f;" horiz-adv-x="639" 
d="M476 467h83l-50 -233q-29 -135 -29 -166q0 -49 30 -49q47 0 96 113l21 -4q-31 -78 -61 -108t-76 -30q-40 0 -63.5 27.5t-23.5 73.5q0 29 7 65q-50 -94 -90.5 -130t-94.5 -36q-50 0 -78 29t-28 80q0 31 10 72l17 69q33 134 33 169q0 41 -35 41q-49 0 -108 -113l-19 6
q32 73 64.5 103.5t78.5 30.5q44 0 70.5 -29t26.5 -77q0 -52 -32 -166q-30 -107 -30 -139q0 -49 45 -49q60 0 119 98q65 109 88 216zM406 708q92 0 92 -75q0 -44 -30.5 -73t-76.5 -29q-42 0 -67.5 23t-25.5 60q0 40 30.5 67t77.5 27zM407 683q-27 0 -45 -20.5t-18 -50.5
q0 -55 46 -55q27 0 45 21t18 54q0 51 -46 51z" />
    <glyph glyph-name="Uhungarumlaut" unicode="&#x170;" horiz-adv-x="737" 
d="M802 667l-5 -27q-54 -4 -74.5 -24.5t-35.5 -86.5l-62 -272q-34 -149 -93 -201q-78 -69 -199 -69q-133 0 -184 68q-31 41 -31 98q0 27 6 55l65 307q14 66 14 78q0 37 -49 43l-31 4l5 27h284l-6 -27l-21 -2q-55 -5 -68 -22.5t-31 -102.5l-56 -262q-12 -56 -12 -80
q0 -60 48 -98.5t122 -38.5q100 0 155 85q19 30 29 65.5t40 180.5l18 87q20 103 20 132q0 25 -16.5 36.5t-65.5 19.5l6 27h228zM408 708l-10 15l125 100q28 22 39 22q8 0 15.5 -9.5t7.5 -19.5q0 -13 -33 -31zM588 708l-10 15l125 100q28 22 39 22q8 0 15.5 -9.5t7.5 -19.5
q0 -13 -33 -31z" />
    <glyph glyph-name="uhungarumlaut" unicode="&#x171;" horiz-adv-x="639" 
d="M476 467h83l-50 -233q-29 -135 -29 -166q0 -49 30 -49q47 0 96 113l21 -4q-31 -78 -61 -108t-76 -30q-40 0 -63.5 27.5t-23.5 73.5q0 29 7 65q-50 -94 -90.5 -130t-94.5 -36q-50 0 -78 29t-28 80q0 31 10 72l17 69q33 134 33 169q0 41 -35 41q-49 0 -108 -113l-19 6
q32 73 64.5 103.5t78.5 30.5q44 0 70.5 -29t26.5 -77q0 -52 -32 -166q-30 -107 -30 -139q0 -49 45 -49q60 0 119 98q65 109 88 216zM304 534l-13 13l106 121q25 29 38 29q10 0 18 -9t8 -20t-28 -33zM464 534l-13 13l106 121q25 29 38 29q10 0 18 -9t8 -20t-28 -33z" />
    <glyph glyph-name="Uogonek" unicode="&#x172;" horiz-adv-x="737" 
d="M417 -3l-5 -7l-4 -6q-35 -53 -35 -72q0 -23 20 -38t50 -15q11 0 29 3l-4 -18q-49 -12 -75 -12q-37 0 -61.5 18t-24.5 45q0 26 14.5 45.5t55.5 48.5q-24 -3 -45 -3q-132 0 -183 68q-31 42 -31 99q0 27 6 55l65 307q14 66 14 79q0 36 -49 42l-31 4l5 27h284l-6 -27l-21 -2
q-54 -5 -67.5 -23t-31.5 -102l-56 -262q-12 -56 -12 -81q0 -60 48 -98.5t122 -38.5q99 0 155 86q19 29 31 72q11 40 40 183q11 52 23 105q13 68 13 105q0 25 -16.5 36.5t-65.5 19.5l6 27h228l-5 -27q-54 -4 -74.5 -24.5t-35.5 -86.5l-62 -272q-28 -123 -71.5 -178
t-136.5 -82z" />
    <glyph glyph-name="uogonek" unicode="&#x173;" horiz-adv-x="639" 
d="M474 -9l-4 -6q-34 -51 -34 -65q0 -21 20.5 -35t50.5 -14q7 0 29 2l-4 -16q-48 -11 -75 -11q-38 0 -62.5 17t-24.5 42t16.5 43.5t64.5 49.5q-48 24 -48 93q0 29 7 65q-50 -94 -90.5 -130t-94.5 -36q-50 0 -78 29t-28 80q0 31 10 72l17 69q33 134 33 169q0 41 -35 41
q-49 0 -108 -113l-19 6q32 73 64.5 103.5t78.5 30.5q44 0 70.5 -29t26.5 -77q0 -52 -32 -166q-30 -107 -30 -139q0 -49 45 -49q60 0 119 98q65 109 88 216l29 136h83l-50 -233q-29 -135 -29 -165q0 -50 30 -50q47 0 96 113l21 -4q-26 -63 -49 -93q-35 -45 -87 -45
q-9 0 -17 1z" />
    <glyph glyph-name="Wcircumflex" unicode="&#x174;" horiz-adv-x="914" 
d="M249 -12h-57l-45 563q-5 59 -17 72t-67 17l6 27h257l-6 -27q-46 -4 -62 -17t-16 -47q0 -10 2 -40l29 -430q176 382 266 561h62l45 -561l166 356q56 120 56 146q0 15 -11.5 21t-48.5 11l6 27h215l-5 -27q-45 -4 -71.5 -30.5t-76.5 -119.5q-22 -41 -90 -175
q-39 -81 -57 -115q-25 -47 -67 -132l-40 -80h-63l-42 541zM620 851l111 -139l-15 -13l-109 88l-178 -88l-8 18z" />
    <glyph glyph-name="Ycircumflex" unicode="&#x176;" horiz-adv-x="574" 
d="M495 667h201l-6 -27q-37 -2 -60 -19t-79 -84l-210 -254l-28 -131q-13 -61 -13 -79q0 -37 49 -42l41 -4l-6 -27h-297l6 27l25 2q54 4 67 22t32 103l28 129l-101 280q-17 48 -32 61t-56 16l6 27h257l-5 -27q-21 -4 -53 -13q-20 -10 -20 -34q0 -15 6 -32l83 -242
q70 87 113 144q23 32 70 95q29 39 29 57q0 22 -53 25zM450 851l111 -139l-15 -13l-109 88l-178 -88l-8 18z" />
    <glyph glyph-name="ycircumflex" unicode="&#x177;" horiz-adv-x="582" 
d="M559 467l-77 -363q-30 -142 -87 -205q-80 -89 -209 -89q-61 0 -99.5 28.5t-38.5 74.5q0 28 16 45.5t42 17.5q51 0 51 -48q0 -22 -28 -47q-6 -5 -6 -11q0 -15 22.5 -26t52.5 -11q91 0 139 71q21 31 32 64.5t28 123.5q3 17 12 61q-37 -73 -74 -110q-53 -53 -112 -53
q-47 0 -75 29t-28 77q0 22 6 50l20 94q29 136 29 169q0 41 -33 41q-49 0 -107 -113l-20 5q32 74 65 104.5t80 30.5q96 0 96 -121q0 -46 -28 -147q-33 -119 -33 -150q0 -42 38 -42q68 0 128 102q24 40 51.5 111t37.5 117l26 120h83zM412 691l114 -155l-15 -14l-112 105
l-177 -105l-10 18z" />
    <glyph glyph-name="Zacute" unicode="&#x179;" horiz-adv-x="631" 
d="M595 227l-48 -227h-560l6 30l532 604h-141q-98 0 -140 -34.5t-89 -136.5h-27l44 204h493l-5 -21l-532 -613h211q60 0 101 21q28 15 49.5 42t55.5 93q6 11 20 38h30zM438 708l-10 15l124 100q27 22 40 22q8 0 15.5 -9.5t7.5 -19.5q0 -13 -34 -31z" />
    <glyph glyph-name="zacute" unicode="&#x17a;" horiz-adv-x="445" 
d="M421 456l-319 -356q29 11 47 11q19 0 71.5 -15.5t80.5 -15.5q49 0 77 35q17 21 37 80l18 -2q-23 -99 -52 -144q-39 -60 -96 -60q-26 0 -109 32q-57 22 -82 22q-37 0 -89 -52l-17 17l326 371q-16 -3 -26 -3q-24 0 -107 22q-15 4 -30 4q-29 0 -51 -27q-8 -10 -30 -45l-15 6
q33 78 58.5 109.5t54.5 31.5q19 0 70 -13l32 -7q39 -10 58 -10q45 0 80 29zM289 534l-12 13l106 121q25 29 37 29q10 0 18 -9t8 -20t-28 -33z" />
    <glyph glyph-name="Zdotaccent" unicode="&#x17b;" horiz-adv-x="631" 
d="M595 227l-48 -227h-560l6 30l532 604h-141q-98 0 -140 -34.5t-89 -136.5h-27l44 204h493l-5 -21l-532 -613h211q60 0 101 21q28 15 49.5 42t55.5 93q6 11 20 38h30zM441 833q23 0 39 -16t16 -39q0 -25 -18.5 -43.5t-42.5 -18.5q-22 0 -39 17t-17 40t19 41.5t43 18.5z" />
    <glyph glyph-name="zdotaccent" unicode="&#x17c;" horiz-adv-x="445" 
d="M421 456l-319 -356q29 11 47 11q19 0 71.5 -15.5t80.5 -15.5q49 0 77 35q17 21 37 80l18 -2q-23 -99 -52 -144q-39 -60 -96 -60q-26 0 -109 32q-57 22 -82 22q-37 0 -89 -52l-17 17l326 371q-16 -3 -26 -3q-24 0 -107 22q-15 4 -30 4q-29 0 -51 -27q-8 -10 -30 -45l-15 6
q33 78 58.5 109.5t54.5 31.5q19 0 70 -13l32 -7q39 -10 58 -10q45 0 80 29zM316 667q22 0 37.5 -15.5t15.5 -37.5q0 -23 -17.5 -41t-40.5 -18q-22 0 -38 16t-16 39q0 22 18 39.5t41 17.5z" />
    <glyph glyph-name="Acaron" unicode="&#x1cd;" horiz-adv-x="644" 
d="M466 667l81 -512q12 -77 29 -101.5t61 -26.5l-6 -27h-264l6 27q56 9 71.5 17.5t15.5 30.5q0 28 -13 107l-10 61h-239l-72 -134q-22 -41 -22 -53q0 -22 69 -29l-6 -27h-220l6 27q35 2 67 21q20 12 48 54q21 33 92 154q47 81 86 147l75 127q13 24 42 73l38 64h65zM386 580
l-169 -304h215zM603 851l10 -17l-168 -135l-124 138l14 14l115 -92z" />
    <glyph glyph-name="acaron" unicode="&#x1ce;" horiz-adv-x="597" 
d="M517 467l-49 -233q-29 -138 -29 -166q0 -49 30 -49q48 0 95 113l20 -4q-29 -67 -49 -93q-37 -46 -89 -46q-49 0 -76 41q-15 22 -15 65q-66 -105 -159 -105q-78 0 -115 53q-33 48 -33 115q0 71 28 140.5t77 118.5q60 60 149 60q91 0 117 -78l15 68h83zM320 450
q-67 0 -108 -70q-29 -49 -48.5 -121t-19.5 -127q0 -56 16.5 -85.5t50.5 -29.5q81 0 139 127q49 108 49 203q0 48 -21 75.5t-58 27.5zM508 691l11 -15l-169 -154l-124 156l14 13l115 -105z" />
    <glyph glyph-name="Ucaron" unicode="&#x1d3;" horiz-adv-x="737" 
d="M802 667l-5 -27q-54 -4 -74.5 -24.5t-35.5 -86.5l-62 -272q-34 -149 -93 -201q-78 -69 -199 -69q-133 0 -184 68q-31 41 -31 98q0 27 6 55l65 307q14 66 14 78q0 37 -49 43l-31 4l5 27h284l-6 -27l-21 -2q-55 -5 -68 -22.5t-31 -102.5l-56 -262q-12 -56 -12 -80
q0 -60 48 -98.5t122 -38.5q100 0 155 85q19 30 29 65.5t40 180.5l18 87q20 103 20 132q0 25 -16.5 36.5t-65.5 19.5l6 27h228zM655 851l10 -17l-168 -135l-124 138l14 14l115 -92z" />
    <glyph glyph-name="ucaron" unicode="&#x1d4;" horiz-adv-x="639" 
d="M476 467h83l-50 -233q-29 -135 -29 -166q0 -49 30 -49q47 0 96 113l21 -4q-31 -78 -61 -108t-76 -30q-40 0 -63.5 27.5t-23.5 73.5q0 29 7 65q-50 -94 -90.5 -130t-94.5 -36q-50 0 -78 29t-28 80q0 31 10 72l17 69q33 134 33 169q0 41 -35 41q-49 0 -108 -113l-19 6
q32 73 64.5 103.5t78.5 30.5q44 0 70.5 -29t26.5 -77q0 -52 -32 -166q-30 -107 -30 -139q0 -49 45 -49q60 0 119 98q65 109 88 216zM532 691l12 -15l-170 -154l-124 156l14 13l115 -105z" />
    <glyph glyph-name="Gcaron" unicode="&#x1e6;" horiz-adv-x="771" 
d="M740 667l-50 -233h-26q-8 112 -50.5 164t-125.5 52q-76 0 -140 -43q-68 -46 -117.5 -163.5t-49.5 -232.5q0 -195 175 -195q96 0 155 50q24 20 42 76q17 52 17 84q0 23 -24 32q-17 7 -81 15l6 27h304l-6 -27q-60 -7 -79.5 -21t-28.5 -58l-44 -206h-21l-12 20
q-17 28 -25 28q-6 0 -17 -5q-97 -45 -197 -45q-127 0 -197 67t-70 188q0 146 86 272q54 79 141 123t188 44q103 0 191 -44l36 31h20zM656 851l10 -17l-168 -135l-124 138l14 14l115 -92z" />
    <glyph glyph-name="gcaron" unicode="&#x1e7;" horiz-adv-x="536" 
d="M513 467l-79 -374q-17 -81 -27 -109.5t-31 -58.5q-82 -115 -231 -115q-64 0 -101.5 26.5t-37.5 72.5q0 28 16 46t40 18q21 0 36 -14t15 -34q0 -22 -30 -51q-6 -5 -6 -9q0 -13 23 -22.5t52 -9.5q47 0 87 23t62 63q19 34 35 112l12 58q-38 -55 -74 -77t-87 -22
q-65 0 -104 45.5t-39 122.5q0 71 28 140.5t77 118.5q60 60 150 60q89 0 117 -76l14 66h83zM316 450q-67 0 -108 -70q-29 -49 -48.5 -121.5t-19.5 -127.5t16.5 -84.5t50.5 -29.5q81 0 139 127q49 108 49 203q0 48 -21 75.5t-58 27.5zM504 691l11 -15l-169 -154l-124 156
l14 13l115 -105z" />
    <glyph glyph-name="Gacute" unicode="&#x1f4;" horiz-adv-x="771" 
d="M740 667l-50 -233h-26q-8 112 -50.5 164t-125.5 52q-76 0 -140 -43q-68 -46 -117.5 -163.5t-49.5 -232.5q0 -195 175 -195q96 0 155 50q24 20 42 76q17 52 17 84q0 23 -24 32q-17 7 -81 15l6 27h304l-6 -27q-60 -7 -79.5 -21t-28.5 -58l-44 -206h-21l-12 20
q-17 28 -25 28q-6 0 -17 -5q-97 -45 -197 -45q-127 0 -197 67t-70 188q0 146 86 272q54 79 141 123t188 44q103 0 191 -44l36 31h20zM475 708l-8 18l148 95q33 21 44 21q10 0 17.5 -10t7.5 -22q0 -17 -41 -34z" />
    <glyph glyph-name="Scommaaccent" unicode="&#x218;" horiz-adv-x="539" 
d="M547 667l-44 -204h-26q-6 187 -146 187q-58 0 -94.5 -35.5t-36.5 -91.5q0 -47 30 -78q27 -28 106 -68q92 -47 126.5 -84.5t34.5 -91.5q0 -92 -71 -153t-180 -61q-80 0 -172 38l-38 -25h-23l49 227h27q9 -93 35 -136q44 -74 135 -74q66 0 110 40t44 101q0 43 -28.5 71.5
t-111.5 68.5q-86 42 -117 79q-34 41 -34 99q0 88 60.5 146t152.5 58q64 0 167 -32l25 19h20zM148 -239l-1 14q48 15 71 41t23 40q0 3 -3 3h-2q-16 -2 -17 -2q-16 0 -27 12.5t-11 30.5q0 22 16 36.5t39 14.5q53 0 53 -54t-57 -98q-30 -23 -84 -38z" />
    <glyph glyph-name="scommaaccent" unicode="&#x219;" horiz-adv-x="464" 
d="M271 477q76 0 118.5 -25t42.5 -69q0 -56 -58 -56q-43 0 -43 35q0 9 4.5 24t4.5 22q0 18 -23.5 31.5t-54.5 13.5q-95 0 -95 -74q0 -38 28 -59q22 -16 85 -44q75 -33 102 -59.5t27 -68.5q0 -68 -61 -113t-154 -45q-75 0 -122.5 33.5t-47.5 85.5q0 27 15.5 44t40.5 17
q20 0 34.5 -12.5t14.5 -30.5q0 -12 -8.5 -32.5t-8.5 -29.5q0 -20 27.5 -36t62.5 -16q55 0 89.5 28.5t34.5 72.5q0 32 -21 53t-81 46q-64 27 -92 49q-39 31 -39 86q0 61 46.5 95t131.5 34zM97 -234l-1 13q47 13 68.5 39t21.5 38q0 3 -3 3h-2q-12 -2 -15 -2q-15 0 -26 12
t-11 29q0 21 15 35t37 14q50 0 50 -52q0 -51 -54 -93q-29 -23 -80 -36z" />
    <glyph glyph-name="Tcommaaccent" unicode="&#x162;" horiz-adv-x="582" 
d="M671 667l-43 -204h-27q-13 109 -36 139.5t-93 30.5h-47l-102 -481q-14 -66 -14 -78q0 -37 49 -43l31 -4l-5 -27h-280l5 27l18 2q55 6 68.5 23.5t31.5 101.5l101 479q-15 1 -34 1q-74 0 -110 -29.5t-98 -141.5h-27l43 204h569zM150 -239l-1 14q48 14 73 42q22 24 22 39
q0 3 -3 3h-2q-16 -2 -17 -2q-16 0 -27 12.5t-11 30.5q0 22 16 36.5t39 14.5q52 0 52 -54t-57 -98q-30 -24 -84 -38z" />
    <glyph glyph-name="tcommaaccent" unicode="&#x163;" horiz-adv-x="347" 
d="M354 447l-6 -27h-114l-39 -187q-29 -139 -29 -165q0 -49 30 -49q47 0 96 113l20 -4q-26 -64 -48 -92q-37 -46 -89 -46q-37 0 -62.5 27t-25.5 66q0 37 17 117l47 220h-110l6 27h35q72 0 105.5 33.5t67.5 138.5h22l-37 -172h114zM19 -234l-1 13q45 13 69 40q21 24 21 37
q0 3 -3 3h-2q-12 -2 -15 -2q-15 0 -26 12t-11 29q0 21 15 35t37 14q50 0 50 -52q0 -51 -54 -93q-29 -23 -80 -36z" />
    <glyph glyph-name="Adotaccent" unicode="&#x226;" horiz-adv-x="644" 
d="M466 667l81 -512q12 -77 29 -101.5t61 -26.5l-6 -27h-264l6 27q56 9 71.5 17.5t15.5 30.5q0 28 -13 107l-10 61h-239l-72 -134q-22 -41 -22 -53q0 -22 69 -29l-6 -27h-220l6 27q35 2 67 21q20 12 48 54q21 33 92 154q47 81 86 147l75 127q13 24 42 73l38 64h65zM386 580
l-169 -304h215zM457 833q23 0 39 -16t16 -39q0 -25 -18.5 -43.5t-42.5 -18.5q-22 0 -39 17t-17 40t19 41.5t43 18.5z" />
    <glyph glyph-name="adotaccent" unicode="&#x227;" horiz-adv-x="597" 
d="M517 467l-49 -233q-29 -138 -29 -166q0 -49 30 -49q48 0 95 113l20 -4q-29 -67 -49 -93q-37 -46 -89 -46q-49 0 -76 41q-15 22 -15 65q-66 -105 -159 -105q-78 0 -115 53q-33 48 -33 115q0 71 28 140.5t77 118.5q60 60 149 60q91 0 117 -78l15 68h83zM320 450
q-67 0 -108 -70q-29 -49 -48.5 -121t-19.5 -127q0 -56 16.5 -85.5t50.5 -29.5q81 0 139 127q49 108 49 203q0 48 -21 75.5t-58 27.5zM382 667q22 0 37.5 -15.5t15.5 -37.5q0 -23 -17.5 -41t-40.5 -18q-22 0 -38 16t-16 39q0 22 18 39.5t41 17.5z" />
    <glyph glyph-name="commabelow" unicode="&#x326;" 
d="M102 -234l-1 13q45 13 69 40q21 24 21 37q0 3 -3 3h-2q-12 -2 -15 -2q-15 0 -26 12t-11 29q0 21 15 35t37 14q50 0 50 -52q0 -51 -54 -93q-29 -23 -80 -36z" />
    <glyph glyph-name="Dcommaaccent" unicode="&#x1e10;" horiz-adv-x="740" 
d="M135 667h319q262 0 262 -237q0 -109 -47 -208.5t-125 -156.5q-89 -65 -232 -65h-318l6 26l20 3q55 8 68 25t31 100l77 361q4 16 10 48q4 19 4 31q0 36 -49 42l-32 4zM190 33h46q94 0 145.5 12t89.5 42q65 52 103.5 149.5t38.5 208.5q0 142 -117 176q-45 13 -140 13h-38z
M178 -239l-1 14q48 14 73 42q22 24 22 39q0 3 -3 3h-2q-16 -2 -17 -2q-16 0 -27 12.5t-11 30.5q0 22 16 36.5t39 14.5q52 0 52 -54t-57 -98q-30 -24 -84 -38z" />
    <glyph glyph-name="dcommaaccent" unicode="&#x1e11;" horiz-adv-x="593" 
d="M563 700l-99 -466q-29 -137 -29 -167q0 -48 30 -48q48 0 95 113l20 -4q-30 -69 -50 -94q-36 -45 -88 -45q-49 0 -76 41q-15 23 -15 65q-37 -58 -73 -81.5t-87 -23.5q-77 0 -114 53q-33 48 -33 115q0 71 28.5 140.5t76.5 117.5q62 61 147 61q49 0 76 -17.5t43 -60.5
l26 121q14 65 14 90q0 19 -18 28q-12 6 -80 9l3 17zM316 450q-67 0 -108 -70q-29 -49 -48.5 -121t-19.5 -127q0 -56 16.5 -85.5t50.5 -29.5q81 0 139 127q49 108 49 203q0 48 -21 75.5t-58 27.5zM120 -234l-1 13q45 13 69 40q21 24 21 37q0 3 -3 3h-2q-12 -2 -15 -2
q-15 0 -26 12t-11 29q0 21 15 35t38 14q50 0 50 -52q0 -51 -54 -93q-29 -22 -81 -36z" />
    <glyph glyph-name="Fdotaccent" unicode="&#x1e1e;" horiz-adv-x="583" 
d="M632 667l-44 -204h-26q-16 105 -39 135q-28 36 -101 36h-104l-56 -262h79q25 0 36.5 5.5t25.5 26.5q19 28 38 79h27l-58 -271h-26l-2 78q-1 30 -8 40t-35 10h-84l-40 -188q-13 -61 -13 -78q0 -37 49 -43l31 -4l-6 -27h-280l6 27l18 2q55 6 68 23t31 102l77 361
q13 61 13 79q0 34 -49 42l-31 5l6 26h497zM430 833q23 0 39 -16t16 -39q0 -25 -18.5 -43.5t-42.5 -18.5q-22 0 -39 17t-17 40t19 41.5t43 18.5z" />
    <glyph glyph-name="Wdieresis" unicode="&#x1e84;" horiz-adv-x="914" 
d="M249 -12h-57l-45 563q-5 59 -17 72t-67 17l6 27h257l-6 -27q-46 -4 -62 -17t-16 -47q0 -10 2 -40l29 -430q176 382 266 561h62l45 -561l166 356q56 120 56 146q0 15 -11.5 21t-48.5 11l6 27h215l-5 -27q-45 -4 -71.5 -30.5t-76.5 -119.5q-22 -41 -90 -175
q-39 -81 -57 -115q-25 -47 -67 -132l-40 -80h-63l-42 541zM466 833q23 0 39 -16t16 -39q0 -25 -18.5 -43.5t-42.5 -18.5q-22 0 -39 17t-17 40t19 41.5t43 18.5zM699 833q23 0 39 -16t16 -39q0 -25 -18.5 -43.5t-42.5 -18.5q-22 0 -39 17t-17 40t19 41.5t43 18.5z" />
    <glyph glyph-name="enquad" unicode="&#x2000;" 
 />
    <glyph glyph-name="enspace" unicode="&#x2002;" 
 />
    <glyph glyph-name="threeperemspace" unicode="&#x2004;" horiz-adv-x="333" 
 />
    <glyph glyph-name="fourperemspace" unicode="&#x2005;" horiz-adv-x="250" 
 />
    <glyph glyph-name="figurespace" unicode="&#x2007;" horiz-adv-x="527" 
 />
    <glyph glyph-name="hyphenminus" unicode="&#x2010;" horiz-adv-x="252" 
d="M262 266l-11 -53h-252l11 53h252z" />
    <glyph glyph-name="underscoredbl" unicode="&#x2017;" 
d="M-51 -36h460v-49h-460v49zM-51 -142h460v-49h-460v49z" />
    <glyph glyph-name="trianglebullet" unicode="&#x2023;" 
d="M71 119v433l405 -217z" />
    <glyph glyph-name="onedotlead" unicode="&#x2024;" horiz-adv-x="520" 
d="M232 117q50 0 50 -53q0 -27 -18 -45.5t-44 -18.5q-52 0 -52 52q0 27 18.5 46t45.5 19z" />
    <glyph glyph-name="twodotlead" unicode="&#x2025;" horiz-adv-x="1041" 
d="M232 117q50 0 50 -53q0 -27 -18 -45.5t-44 -18.5q-52 0 -52 52q0 27 18.5 46t45.5 19zM752 117q50 0 50 -53q0 -27 -18 -45.5t-44 -18.5q-52 0 -52 52q0 27 18.5 46t45.5 19z" />
    <glyph glyph-name="minute" unicode="&#x2032;" horiz-adv-x="235" 
d="M211 399h-43l-25 268h94z" />
    <glyph glyph-name="second" unicode="&#x2033;" horiz-adv-x="395" 
d="M208 399h-40l-25 268h91zM372 399h-40l-25 268h91z" />
    <glyph glyph-name="exclamdbl" unicode="&#x203c;" horiz-adv-x="572" 
d="M150 201h-24q24 95 29.5 145.5t8.5 196.5q1 34 3 53q3 32 13 49q18 32 51 32q49 0 49 -52q0 -41 -35 -117q-39 -86 -57 -143t-38 -164zM113 120q57 0 57 -61q0 -30 -19 -49.5t-48 -19.5q-26 0 -42.5 16.5t-16.5 43.5q0 30 19.5 50t49.5 20zM436 201h-24q24 95 29.5 145.5
t8.5 196.5q1 34 3 53q3 32 13 49q18 32 51 32q49 0 49 -52q0 -41 -35 -117q-39 -86 -57 -143t-38 -164zM399 120q57 0 57 -61q0 -30 -19 -49.5t-48 -19.5q-26 0 -42.5 16.5t-16.5 43.5q0 30 19.5 50t49.5 20z" />
    <glyph glyph-name="overscore2" unicode="&#x203e;" 
d="M147 843h460v-49h-460v49z" />
    <glyph glyph-name="zerosuperior" unicode="&#x2070;" horiz-adv-x="341" 
d="M267 675q46 0 72.5 -30.5t26.5 -83.5q0 -103 -43 -197q-48 -105 -144 -105q-99 0 -99 123q0 44 14.5 102.5t34.5 95.5q52 95 138 95zM261 653q-55 0 -93 -124q-30 -98 -30 -177q0 -71 44 -71t74 61q19 39 35.5 116t16.5 130q0 65 -47 65z" />
    <glyph glyph-name="foursuperior" unicode="&#x2074;" horiz-adv-x="341" 
d="M343 671l-53 -251h58l-20 -40h-46l-24 -113l-62 -13l27 126h-167l4 17l197 230q10 12 38 44h48zM114 420h118q24 117 40 188l-23 -27l-48 -57q-17 -20 -50 -61q-9 -11 -37 -43z" />
    <glyph glyph-name="fivesuperior" unicode="&#x2075;" horiz-adv-x="340" 
d="M110 466l49 204q65 -13 133 -13q62 0 91 20l7 -6q-21 -43 -49.5 -58t-91.5 -15q-35 0 -79 5l-30 -111q43 27 89 27q49 0 79 -27.5t30 -72.5q0 -68 -49 -114t-122 -46q-47 0 -78.5 21.5t-31.5 52.5q0 19 12 31t29 12q36 0 36 -33q0 -14 -20 -34q-2 -2 -2 -5q0 -23 48 -23
q46 0 78 40t32 97q0 74 -65 74q-44 0 -79 -41z" />
    <glyph glyph-name="sixsuperior" unicode="&#x2076;" horiz-adv-x="341" 
d="M165 489q45 34 92 34q42 0 67 -26t25 -69q0 -53 -33 -102q-45 -67 -128 -67q-106 0 -106 115q0 148 88 246q49 55 125 55q78 0 78 -54q0 -18 -12.5 -30.5t-31.5 -12.5q-33 0 -33 29q0 12 9 23t9 13q0 10 -23 10q-28 0 -55 -20.5t-41 -52.5q-17 -38 -30 -91zM234 496
q-38 0 -65.5 -40t-27.5 -96q0 -79 55 -79q35 0 62 45t27 104q0 29 -14 47.5t-37 18.5z" />
    <glyph glyph-name="sevensuperior" unicode="&#x2077;" horiz-adv-x="341" 
d="M114 552l23 115q69 -5 122 -5t123 5q-17 -84 -86 -157q-50 -53 -69.5 -95.5t-24.5 -112.5q-3 -43 -39 -43q-34 0 -34 35q0 80 116 194q76 75 93 121q-45 -2 -80 -2t-58 2q-12 1 -22 1q-19 0 -31 -20q-3 -5 -15 -38h-18z" />
    <glyph glyph-name="eightsuperior" unicode="&#x2078;" horiz-adv-x="340" 
d="M280 479q60 -22 60 -86q0 -58 -44.5 -96t-112.5 -38q-109 0 -109 92q0 97 108 128q-54 23 -54 75t40 86.5t101 34.5q102 0 102 -87q0 -77 -91 -109zM266 653q-31 0 -55.5 -32.5t-24.5 -74.5q0 -59 47 -59q32 0 56 32t24 76q0 58 -47 58zM227 464q-36 0 -62 -36.5
t-26 -86.5q0 -60 51 -60q36 0 61 36t25 88q0 59 -49 59z" />
    <glyph glyph-name="ninesuperior" unicode="&#x2079;" horiz-adv-x="341" 
d="M277 450q-42 -36 -89 -36q-41 0 -66.5 26.5t-25.5 69.5q0 70 45.5 117.5t112.5 47.5q105 0 105 -114q0 -125 -62 -216q-58 -86 -143 -86q-40 0 -64 19t-24 51q0 19 12 31.5t30 12.5q34 0 34 -32q0 -14 -21 -33q-5 -5 -5 -7q0 -7 12.5 -13.5t27.5 -6.5q82 0 118 160
q2 3 3 9zM252 653q-37 0 -64.5 -43t-27.5 -101q0 -69 51 -69q37 0 63 41t26 100q0 72 -48 72z" />
    <glyph glyph-name="plussuperior" unicode="&#x207a;" horiz-adv-x="343" 
d="M71 479h125v123h50v-123h126v-45h-126v-123h-50v123h-125v45z" />
    <glyph glyph-name="minussuperior" unicode="&#x207b;" horiz-adv-x="343" 
d="M71 479h301v-45h-301v45z" />
    <glyph glyph-name="parenleftsuperior" unicode="&#x207d;" horiz-adv-x="227" 
d="M190 211l-16 -14q-48 41 -67.5 81t-19.5 100q0 122 72 218q39 52 110 97l12 -15q-53 -39 -85 -94q-60 -104 -60 -237q0 -81 54 -136z" />
    <glyph glyph-name="parenrightsuperior" unicode="&#x207e;" horiz-adv-x="227" 
d="M132 679l16 14q49 -41 68.5 -81t19.5 -100q0 -122 -72 -218q-39 -52 -110 -97l-12 15q54 41 85 94q60 104 60 237q0 81 -55 136z" />
    <glyph glyph-name="nsuperior" unicode="&#x207f;" horiz-adv-x="408" 
d="M160 267h-58l31 145q17 80 17 98q0 23 -18 23q-28 0 -63 -68l-18 5q38 85 90 85q60 0 60 -73q0 -11 -1 -17q48 90 111 90q65 0 65 -67q0 -15 -5 -38l-9 -42q-17 -79 -17 -96q0 -27 16 -27q27 0 56 67l18 -3q-15 -39 -31 -60q-22 -28 -55 -28q-27 0 -45.5 20t-18.5 49
q0 25 32 138q7 25 7 41q0 24 -23 24q-34 0 -71 -61t-57 -148z" />
    <glyph glyph-name="zeroinferior" unicode="&#x2080;" horiz-adv-x="341" 
d="M211 408q46 0 72.5 -30.5t26.5 -83.5q0 -103 -43 -197q-48 -105 -144 -105q-99 0 -99 123q0 44 14.5 102.5t34.5 95.5q52 95 138 95zM205 386q-55 0 -93 -124q-30 -98 -30 -177q0 -71 44 -71t74 61q19 39 35.5 116t16.5 130q0 65 -47 65z" />
    <glyph glyph-name="oneinferior" unicode="&#x2081;" horiz-adv-x="340" 
d="M256 408l-69 -325q-4 -19 -4 -25q0 -18 15.5 -25.5t58.5 -11.5l-5 -21h-231l4 21q63 6 79 20t29 76l37 171q3 14 3 21q0 12 -29 12h-60l4 21q52 3 84 16q36 15 71 50h13z" />
    <glyph glyph-name="twoinferior" unicode="&#x2082;" horiz-adv-x="341" 
d="M266 116l-25 -116h-258q3 49 33.5 87t99.5 81q115 71 115 146q0 33 -20 52.5t-54 19.5q-21 0 -37 -6.5t-16 -14.5q0 -3 11 -11t11 -24t-12 -27.5t-28 -11.5t-26.5 10.5t-10.5 25.5q0 34 35.5 57.5t88.5 23.5q59 0 93 -24t34 -66q0 -60 -60 -108q-21 -17 -116 -68
q-71 -38 -90 -81h149q30 0 38 7t25 48h20z" />
    <glyph glyph-name="threeinferior" unicode="&#x2083;" horiz-adv-x="345" 
d="M89 204l4 23l19 -1h6q53 0 86 28.5t33 73.5q0 55 -60 55q-44 0 -44 -19q0 -3 10.5 -10.5t10.5 -24.5q0 -16 -12.5 -28t-29.5 -12q-37 0 -37 37q0 34 36 58t87 24q50 0 79 -23t29 -62q0 -84 -115 -107q86 -17 86 -88q0 -58 -49 -97t-120 -39q-49 0 -81 20.5t-32 52.5
q0 20 13 33t32 13q34 0 34 -35q0 -15 -19 -33q-3 -1 -3 -6q0 -8 14 -14t32 -6q45 0 75 33t30 82q0 57 -56 68q-20 4 -58 4z" />
    <glyph glyph-name="fourinferior" unicode="&#x2084;" horiz-adv-x="341" 
d="M287 404l-53 -251h58l-20 -40h-46l-24 -112l-62 -14l27 126h-167l4 17l197 230l38 44h48zM58 153h118q22 109 40 188l-23 -27l-98 -118q-9 -11 -37 -43z" />
    <glyph glyph-name="fiveinferior" unicode="&#x2085;" horiz-adv-x="340" 
d="M54 199l49 204q65 -13 133 -13q62 0 91 20l7 -6q-21 -43 -49.5 -58t-91.5 -15q-35 0 -79 5l-30 -111q43 27 89 27q49 0 79 -27.5t30 -72.5q0 -68 -49 -114t-122 -46q-47 0 -78.5 21.5t-31.5 52.5q0 19 12 31t29 12q36 0 36 -33q0 -14 -20 -34q-2 -2 -2 -5q0 -23 48 -23
q46 0 78 40t32 97q0 74 -65 74q-44 0 -79 -41z" />
    <glyph glyph-name="sixinferior" unicode="&#x2086;" horiz-adv-x="341" 
d="M108 222q45 34 92 34q42 0 67 -26t25 -69q0 -53 -33 -102q-45 -67 -128 -67q-106 0 -106 115q0 148 88 246q49 55 125 55q78 0 78 -54q0 -18 -12.5 -30.5t-31.5 -12.5q-33 0 -33 29q0 12 9 23t9 13q0 10 -23 10q-28 0 -55 -20.5t-41 -52.5q-17 -38 -30 -91zM177 229
q-38 0 -65.5 -40t-27.5 -96q0 -79 55 -79q35 0 62 45t27 104q0 29 -14 47.5t-37 18.5z" />
    <glyph glyph-name="seveninferior" unicode="&#x2087;" horiz-adv-x="341" 
d="M57 286l23 115q69 -5 122 -5t123 5q-17 -84 -86 -157q-50 -53 -69.5 -96t-24.5 -113q-3 -43 -39 -43q-34 0 -34 36q0 80 116 194q76 75 93 121q-54 -2 -80 -2l-58 1q-9 1 -22 1q-19 0 -31 -20q-2 -3 -15 -37h-18z" />
    <glyph glyph-name="eightinferior" unicode="&#x2088;" horiz-adv-x="340" 
d="M223 212q60 -22 60 -86q0 -58 -44.5 -96t-112.5 -38q-109 0 -109 92q0 97 108 128q-54 23 -54 75t40 86.5t101 34.5q102 0 102 -87q0 -77 -91 -109zM209 386q-31 0 -55.5 -32.5t-24.5 -74.5q0 -59 47 -59q32 0 56 32t24 76q0 58 -47 58zM170 197q-36 0 -62 -36.5
t-26 -86.5q0 -60 51 -60q36 0 61 36t25 88q0 59 -49 59z" />
    <glyph glyph-name="nineinferior" unicode="&#x2089;" horiz-adv-x="341" 
d="M220 183q-42 -36 -89 -36q-41 0 -66.5 26.5t-25.5 69.5q0 70 45.5 117.5t112.5 47.5q105 0 105 -114q0 -125 -62 -216q-58 -86 -143 -86q-40 0 -64 19t-24 51q0 19 12 31.5t30 12.5q34 0 34 -32q0 -14 -21 -33q-5 -5 -5 -7q0 -7 12.5 -13.5t27.5 -6.5q82 0 118 160
q2 3 3 9zM195 386q-37 0 -64.5 -43t-27.5 -101q0 -69 51 -69q37 0 63 41t26 100q0 72 -48 72z" />
    <glyph glyph-name="lira" unicode="&#x20a4;" horiz-adv-x="527" 
d="M245 289h-187l7 30h163q-33 47 -44 77h-103l6 30h88q-6 32 -6 50q0 90 60.5 147.5t154.5 57.5q52 0 82 -20.5t30 -57.5q0 -27 -18 -45t-45 -18q-21 0 -35 12t-14 30q0 15 10.5 34t10.5 24q0 14 -34 14q-53 0 -90 -35.5t-37 -87.5q0 -40 35 -105h201l-7 -30h-177
q24 -44 27 -77h135l-7 -30h-129q-7 -54 -72 -156q85 -53 130 -53q105 0 134 159l15 1q-5 -107 -36 -162q-50 -91 -141 -91q-77 0 -152 86q-76 -87 -152 -87q-34 0 -55.5 23t-21.5 59q0 50 36.5 80.5t94.5 30.5q59 0 131 -34q29 54 29 84q0 25 -17 60zM187 89q-35 38 -57 51
t-50 13q-31 0 -52.5 -18.5t-21.5 -44.5t18.5 -42t48.5 -16q58 0 114 57z" />
    <glyph glyph-name="peseta" unicode="&#x20a7;" horiz-adv-x="674" 
d="M200 284l-28 -132q-1 -7 -6 -25q-8 -39 -8 -54q0 -36 49 -42l33 -4l-6 -27h-264l6 27l13 2q37 6 47 10t22 16q13 19 30 99l77 361q13 61 13 78q0 23 -14 32q-9 7 -35 11l-26 4l6 27h243q75 0 110 -26q54 -41 54 -115q0 -68 -35.5 -124t-96.5 -84q-66 -30 -184 -34z
M275 637l-70 -327q65 4 108 23q52 23 82 74.5t30 119.5q0 60 -26.5 85t-90.5 25h-33zM462 249h-90l5 24h18q63 0 95.5 29.5t60.5 113.5h19l-30 -143h101l-5 -24h-101l-9 -43q-23 -110 -23 -138q0 -49 30 -49q38 0 75 95l20 -4q-45 -120 -118 -120q-34 0 -55 26.5t-21 67.5
q0 40 17 116z" />
    <glyph glyph-name="Euro" unicode="&#x20ac;" horiz-adv-x="799" 
d="M260 381h291l-20 -32h-281l-7 -32h267l-20 -32h-253q-5 -40 -5 -64q0 -91 51 -147.5t133 -56.5q55 0 108 28.5t127 97.5l35 -34q-118 -122 -280 -122q-133 0 -205 65.5t-72 185.5q0 20 3 47h-72l20 32h56q2 15 7 32h-69l20 32h58q46 141 151 220t244 79q89 0 186 -44
l35 31h20l-49 -233h-27q-13 216 -173 216q-94 0 -166.5 -70.5t-112.5 -198.5z" />
    <glyph glyph-name="aslashs" unicode="&#x2101;" horiz-adv-x="913" 
d="M326 667l53 -304q8 -46 18 -59.5t38 -14.5l-4 -22h-170l5 22q35 5 44 9t9 15q0 12 -9 63l-6 34h-142l-42 -77q-13 -24 -13 -29q0 -11 43 -15l-5 -22h-142l5 22q46 3 75 50l103 170q20 32 46 75q8 14 25 43l24 40h45zM272 603l-95 -167h123zM770 667l-427 -667h-40
l428 667h39zM901 400l-26 -127h-23q-3 111 -87 111q-34 0 -55 -19.5t-21 -51.5q0 -26 16.5 -43.5t66.5 -41.5q58 -28 79.5 -50.5t21.5 -55.5q0 -56 -44.5 -93t-112.5 -37q-49 0 -106 22l-22 -14h-19l30 140h22q7 -58 22 -82q26 -42 82 -42q39 0 64.5 22t25.5 56q0 36 -47 62
q-43 23 -87 45q-47 32 -47 84q0 53 38 88t96 35q40 0 102 -19l15 11h16z" />
    <glyph glyph-name="liter" unicode="&#x2113;" 
d="M274 264q-28 -157 -28 -200q0 -26 17 -26q21 0 46 53q9 19 21 19q15 0 15 -17q0 -23 -21 -56q-36 -56 -83 -56q-73 0 -73 100q0 28 7 107q-40 -42 -52 -42q-14 0 -14 20q0 9 33 45q21 22 41 44q77 419 201 419q31 0 50 -23.5t19 -62.5q0 -85 -65 -189q-30 -48 -114 -135z
M284 323l8 9q50 56 83.5 129t33.5 127q0 35 -24 35q-29 0 -51 -65.5t-50 -234.5z" />
    <glyph glyph-name="Ohm" unicode="&#x2126;" horiz-adv-x="750" 
d="M-10 0l25 164h15l7 -53q4 -29 12 -37.5t35 -8.5h129q-48 25 -73 56q-52 64 -52 161q0 85 37.5 166.5t102.5 139.5q101 89 237 89q113 0 180 -62t67 -168q0 -150 -101 -269q-65 -77 -160 -113h131q31 0 48 10t31 36l28 53h17l-46 -164h-302l12 55q121 24 189 139
q34 56 55 133.5t21 144.5q0 177 -175 177q-124 0 -191 -85q-50 -63 -80.5 -150.5t-30.5 -167.5q0 -101 61 -157q30 -28 75 -34l-12 -55h-292z" />
    <glyph glyph-name="onethird" unicode="&#x2153;" horiz-adv-x="833" 
d="M312 675l-69 -326q-4 -19 -4 -24q0 -18 15.5 -25.5t58.5 -11.5l-5 -21h-231l4 21q63 6 79 20t29 75l37 171q3 14 3 21q0 12 -29 12h-60l4 21q95 5 155 67h13zM674 667l-428 -667h-39l427 667h40zM579 205l5 21l17 -1h6q54 0 87.5 29t33.5 76q0 56 -61 56q-18 0 -32 -6.5
t-14 -14.5q0 -3 11 -11t11 -24t-12 -27.5t-28 -11.5t-26.5 10.5t-10.5 25.5q0 34 35.5 57.5t85.5 23.5q49 0 78.5 -23t29.5 -61q0 -85 -123 -108q95 -15 95 -89q0 -57 -49 -96t-120 -39q-50 0 -81.5 20.5t-31.5 52.5q0 19 12 31.5t31 12.5q34 0 34 -34q0 -14 -20 -33
q-3 -1 -3 -6q0 -22 48 -22q46 0 77 34t31 84q0 58 -57 69q-20 4 -59 4z" />
    <glyph glyph-name="twothirds" unicode="&#x2154;" horiz-adv-x="833" 
d="M323 382l-25 -115h-258q3 48 33 86t100 81q115 71 115 147q0 33 -20 52.5t-54 19.5q-21 0 -37 -6.5t-16 -14.5q0 -3 11 -11t11 -24t-11.5 -28t-28.5 -12q-37 0 -37 37q0 34 35.5 57.5t88.5 23.5q59 0 93 -24t34 -66q0 -60 -60 -108q-23 -18 -116 -69q-71 -39 -90 -80h149
q30 0 38 7t25 47h20zM674 667l-428 -667h-39l428 667h39zM579 205l5 21l17 -1h7q53 0 86.5 29t33.5 76q0 56 -61 56q-18 0 -32 -6.5t-14 -14.5q0 -3 11 -11t11 -24t-12 -27.5t-28 -11.5t-26.5 10.5t-10.5 25.5q0 34 35.5 57.5t85.5 23.5q49 0 78.5 -23t29.5 -61
q0 -85 -123 -108q95 -15 95 -89q0 -57 -49 -96t-120 -39q-50 0 -81.5 20.5t-31.5 52.5q0 19 12 31.5t31 12.5q34 0 34 -34q0 -14 -20 -33q-3 -1 -3 -6q0 -22 48 -22q46 0 77 34t31 84q0 58 -57 69q-20 4 -59 4z" />
    <glyph glyph-name="onefifth" unicode="&#x2155;" horiz-adv-x="833" 
d="M312 675l-69 -326q-4 -19 -4 -24q0 -18 15.5 -25.5t58.5 -11.5l-5 -21h-231l4 21q63 6 79 20t29 75l37 171q3 14 3 21q0 12 -29 12h-60l4 21q95 5 155 67h13zM674 667l-428 -667h-39l427 667h40zM546 199l49 204q63 -13 132 -13q62 0 92 20l7 -6q-21 -44 -49.5 -58.5
t-92.5 -14.5q-35 0 -78 5l-30 -111q41 27 88 27q50 0 80 -27.5t30 -72.5q0 -68 -49 -114t-122 -46q-47 0 -78.5 21.5t-31.5 52.5q0 19 12 31t29 12q36 0 36 -33q0 -14 -20 -34q-2 -2 -2 -5q0 -23 48 -23q46 0 78 40t32 97q0 74 -66 74q-42 0 -79 -41z" />
    <glyph glyph-name="twofifths" unicode="&#x2156;" horiz-adv-x="833" 
d="M323 382l-25 -115h-258q3 48 33 86t100 81q115 71 115 147q0 33 -20 52.5t-54 19.5q-21 0 -37 -6.5t-16 -14.5q0 -3 11 -11t11 -24t-11.5 -28t-28.5 -12q-37 0 -37 37q0 34 35.5 57.5t88.5 23.5q59 0 93 -24t34 -66q0 -60 -60 -108q-23 -18 -116 -69q-71 -39 -90 -80h149
q30 0 38 7t25 47h20zM674 667l-428 -667h-39l428 667h39zM546 199l49 204q65 -13 132 -13q63 0 92 20l7 -6q-21 -43 -49.5 -58t-91.5 -15q-35 0 -79 5l-30 -111q41 27 88 27q50 0 80 -27.5t30 -72.5q0 -68 -49 -114t-122 -46q-47 0 -78.5 21.5t-31.5 52.5q0 19 12 31t29 12
q36 0 36 -33q0 -14 -20 -34q-2 -2 -2 -5q0 -23 48 -23q46 0 78 40t32 97q0 74 -66 74q-42 0 -79 -41z" />
    <glyph glyph-name="threefifths" unicode="&#x2157;" horiz-adv-x="833" 
d="M144 472l5 21l17 -1h7q53 0 86.5 29t33.5 76q0 56 -61 56q-18 0 -32 -6.5t-14 -14.5q0 -3 11 -11t11 -24t-12 -27.5t-28 -11.5t-26.5 10.5t-10.5 25.5q0 34 35.5 57.5t85.5 23.5q49 0 78.5 -23t29.5 -61q0 -85 -123 -108q95 -15 95 -89q0 -57 -49 -96t-120 -39
q-50 0 -81.5 20.5t-31.5 52.5q0 19 12 31.5t31 12.5q34 0 34 -34q0 -14 -20 -33q-3 -1 -3 -6q0 -22 48 -22q46 0 77 34t31 84q0 58 -57 69q-20 4 -59 4zM675 667l-428 -667h-39l427 667h40zM546 199l49 204q65 -13 133 -13q62 0 92 20l7 -6q-22 -44 -50 -58.5t-92 -14.5
q-35 0 -79 5l-29 -111q41 27 88 27q49 0 79 -27.5t30 -72.5q0 -68 -49 -114t-122 -46q-47 0 -78.5 21.5t-31.5 52.5q0 19 12 31t29 12q36 0 36 -33q0 -14 -19 -34q-2 -2 -2 -5q0 -23 48 -23q45 0 77 40t32 97q0 74 -65 74q-42 0 -79 -41z" />
    <glyph glyph-name="fourfifths" unicode="&#x2158;" horiz-adv-x="833" 
d="M343 671l-53 -251h58l-20 -40h-46l-24 -113l-62 -13l27 126h-167l4 17l197 230q10 12 38 44h48zM114 420h118q24 117 40 188l-23 -27l-48 -57q-17 -20 -50 -61q-9 -11 -37 -43zM674 667l-428 -667h-39l427 667h40zM546 199l49 204q63 -13 132 -13q62 0 92 20l7 -6
q-21 -44 -49.5 -58.5t-92.5 -14.5q-35 0 -78 5l-30 -111q41 27 88 27q49 0 79 -27.5t30 -72.5q0 -68 -48.5 -114t-121.5 -46q-47 0 -78.5 21t-31.5 53q0 19 12 31t29 12q36 0 36 -33q0 -14 -20 -34q-2 -2 -2 -5q0 -23 48 -23q45 0 77 40t32 97q0 74 -65 74q-42 0 -79 -41z
" />
    <glyph glyph-name="onesixth" unicode="&#x2159;" horiz-adv-x="833" 
d="M312 675l-69 -326q-4 -19 -4 -24q0 -18 15.5 -25.5t58.5 -11.5l-5 -21h-231l4 21q63 6 79 20t29 75l37 171q3 14 3 21q0 12 -29 12h-60l4 21q95 5 155 67h13zM674 667l-428 -667h-39l427 667h40zM601 222q45 34 91 34q42 0 67 -26t25 -69q0 -53 -33 -102
q-45 -67 -128 -67q-106 0 -106 115q0 147 89 246q49 55 125 55q78 0 78 -54q0 -18 -12.5 -30.5t-31.5 -12.5q-33 0 -33 29q0 12 9 23t9 13q0 10 -23 10q-28 0 -55 -20.5t-42 -53t-29 -90.5zM669 229q-38 0 -65.5 -40t-27.5 -96q0 -79 55 -79q35 0 62 45t27 104
q0 29 -14 47.5t-37 18.5z" />
    <glyph glyph-name="fivesixths" unicode="&#x215a;" horiz-adv-x="833" 
d="M110 466l49 204q65 -13 133 -13q62 0 91 20l7 -6q-21 -43 -49.5 -58t-91.5 -15q-35 0 -79 5l-30 -111q43 27 89 27q49 0 79 -27.5t30 -72.5q0 -68 -49 -114t-122 -46q-47 0 -78.5 21.5t-31.5 52.5q0 19 12 31t29 12q36 0 36 -33q0 -14 -20 -34q-2 -2 -2 -5q0 -23 48 -23
q46 0 78 40t32 97q0 74 -65 74q-44 0 -79 -41zM674 667l-428 -667h-39l427 667h40zM601 222q45 34 91 34q42 0 67 -26t25 -69q0 -53 -33 -102q-45 -67 -128 -67q-106 0 -106 115q0 147 89 246q49 55 125 55q78 0 78 -54q0 -18 -12.5 -30.5t-31.5 -12.5q-33 0 -33 29
q0 12 9 23t9 13q0 10 -23 10q-28 0 -55 -20.5t-42.5 -53.5t-28.5 -90zM669 229q-38 0 -65.5 -40t-27.5 -96q0 -79 55 -79q35 0 62 45t27 104q0 29 -14 47.5t-37 18.5z" />
    <glyph glyph-name="oneeighth" unicode="&#x215b;" horiz-adv-x="833" 
d="M312 675l-69 -326q-4 -19 -4 -24q0 -18 15.5 -25.5t58.5 -11.5l-5 -21h-231l4 21q63 6 79 20t29 75l37 171q3 14 3 21q0 12 -29 12h-60l4 21q95 5 155 67h13zM674 667l-428 -667h-39l427 667h40zM716 212q59 -22 59 -86q0 -58 -44.5 -96t-112.5 -38q-109 0 -109 92
q0 97 108 128q-53 23 -53 75t40 86.5t100 34.5q102 0 102 -87q0 -77 -90 -109zM701 386q-31 0 -55 -32.5t-24 -74.5q0 -59 46 -59q32 0 56 32t24 76q0 58 -47 58zM662 197q-36 0 -62 -36.5t-26 -86.5q0 -60 51 -60q36 0 61 36t25 88q0 59 -49 59z" />
    <glyph glyph-name="threeeighths" unicode="&#x215c;" horiz-adv-x="833" 
d="M144 472l5 21l17 -1h7q53 0 86.5 29t33.5 76q0 56 -61 56q-18 0 -32 -6.5t-14 -14.5q0 -3 11 -11t11 -24t-12 -27.5t-28 -11.5t-26.5 10.5t-10.5 25.5q0 34 35.5 57.5t85.5 23.5q49 0 78.5 -23t29.5 -61q0 -85 -123 -108q95 -15 95 -89q0 -57 -49 -96t-120 -39
q-50 0 -81.5 20.5t-31.5 52.5q0 19 12 31.5t31 12.5q34 0 34 -34q0 -14 -20 -33q-3 -1 -3 -6q0 -22 48 -22q46 0 77 34t31 84q0 58 -57 69q-20 4 -59 4zM675 667l-428 -667h-39l427 667h40zM716 212q60 -22 60 -86q0 -58 -44.5 -96t-112.5 -38q-109 0 -109 92q0 97 108 128
q-54 23 -54 75t40 86.5t101 34.5q102 0 102 -87q0 -77 -91 -109zM702 386q-31 0 -55.5 -32.5t-24.5 -74.5q0 -59 47 -59q32 0 56 32t24 76q0 58 -47 58zM663 197q-36 0 -62 -36.5t-26 -86.5q0 -60 51 -60q36 0 61 36t25 88q0 59 -49 59z" />
    <glyph glyph-name="fiveeighths" unicode="&#x215d;" horiz-adv-x="833" 
d="M110 466l49 204q65 -13 133 -13q62 0 91 20l7 -6q-21 -43 -49.5 -58t-91.5 -15q-35 0 -79 5l-30 -111q43 27 89 27q49 0 79 -27.5t30 -72.5q0 -68 -49 -114t-122 -46q-47 0 -78.5 21.5t-31.5 52.5q0 19 12 31t29 12q36 0 36 -33q0 -14 -20 -34q-2 -2 -2 -5q0 -23 48 -23
q46 0 78 40t32 97q0 74 -65 74q-44 0 -79 -41zM674 667l-428 -667h-39l427 667h40zM716 212q59 -22 59 -86q0 -58 -44.5 -96t-112.5 -38q-109 0 -109 92q0 97 108 128q-53 23 -53 75t40 86.5t100 34.5q102 0 102 -87q0 -77 -90 -109zM701 386q-31 0 -55 -32.5t-24 -74.5
q0 -59 46 -59q32 0 56 32t24 76q0 58 -47 58zM662 197q-36 0 -62 -36.5t-26 -86.5q0 -60 51 -60q36 0 61 36t25 88q0 59 -49 59z" />
    <glyph glyph-name="seveneighths" unicode="&#x215e;" horiz-adv-x="833" 
d="M114 552l23 115q69 -5 122 -5t123 5q-17 -84 -86 -157q-50 -53 -69.5 -95.5t-24.5 -112.5q-3 -43 -39 -43q-34 0 -34 35q0 80 116 194q76 75 93 121q-45 -2 -80 -2t-58 2q-12 1 -22 1q-19 0 -31 -20q-3 -5 -15 -38h-18zM661 667l-428 -667h-39l427 667h40zM716 212
q60 -22 60 -86q0 -58 -44.5 -96t-112.5 -38q-109 0 -109 92q0 97 108 128q-54 23 -54 75t40 86.5t101 34.5q102 0 102 -87q0 -77 -91 -109zM702 386q-31 0 -55.5 -32.5t-24.5 -74.5q0 -59 47 -59q32 0 56 32t24 76q0 58 -47 58zM663 197q-36 0 -62 -36.5t-26 -86.5
q0 -60 51 -60q36 0 61 36t25 88q0 59 -49 59z" />
    <glyph glyph-name="arrowleft" unicode="&#x2190;" horiz-adv-x="667" 
d="M653 310h-500q52 -77 52 -104q0 -14 -15 -14q-7 0 -35 31q-41 46 -119 89q-23 13 -23 23t31 28q74 42 123 99q15 17 23 17q15 0 15 -14q0 -24 -52 -104h500v-51z" />
    <glyph glyph-name="arrowup" unicode="&#x2191;" horiz-adv-x="667" 
d="M308 13v501q-79 -53 -104 -53q-14 0 -14 15q0 7 31 35q46 42 89 120q13 23 24 23q10 0 23 -23q47 -86 103 -132q17 -14 17 -23q0 -15 -14 -15q-24 0 -104 53v-501h-51z" />
    <glyph glyph-name="arrowright" unicode="&#x2192;" horiz-adv-x="667" 
d="M13 361h500q-52 77 -52 104q0 14 15 14q7 0 35 -31q42 -47 119 -90q23 -13 23 -23t-31 -28q-79 -44 -123 -98q-14 -17 -23 -17q-15 0 -15 14q0 24 52 104h-500v51z" />
    <glyph glyph-name="arrowdown" unicode="&#x2193;" horiz-adv-x="667" 
d="M359 653v-500q78 52 104 52q14 0 14 -15q0 -7 -31 -35q-47 -43 -89 -119q-13 -23 -24 -23q-10 0 -23 23q-46 83 -103 131q-17 14 -17 23q0 15 14 15q25 0 104 -52v500h51z" />
    <glyph glyph-name="arrowboth" unicode="&#x2194;" horiz-adv-x="667" 
d="M513 310h-360q52 -77 52 -104q0 -14 -15 -14q-7 0 -35 31q-41 46 -119 89q-23 13 -23 23t31 28q74 42 123 99q15 17 23 17q15 0 15 -14q0 -24 -52 -104h360q-52 77 -52 104q0 14 15 14q7 0 35 -31q42 -47 119 -90q23 -13 23 -23t-31 -28q-79 -44 -123 -98
q-14 -17 -23 -17q-15 0 -15 14q0 24 52 104z" />
    <glyph glyph-name="arrowupdn" unicode="&#x2195;" horiz-adv-x="667" 
d="M308 154v360q-79 -53 -104 -53q-14 0 -14 15q0 7 31 35q46 42 89 120q13 23 24 23q10 0 23 -23q47 -86 103 -132q17 -14 17 -23q0 -15 -14 -15q-24 0 -104 53v-360q78 52 104 52q14 0 14 -15q0 -7 -31 -35q-46 -42 -89 -120q-13 -23 -24 -23q-10 0 -23 23
q-47 86 -103 132q-17 14 -17 23q0 15 14 15q25 0 104 -52z" />
    <glyph glyph-name="arrowupdnbse" unicode="&#x21a8;" horiz-adv-x="667" 
d="M200 -68h266v-43h-266v43zM308 154v360q-79 -53 -104 -53q-14 0 -14 15q0 7 31 35q46 42 89 120q13 23 24 23q10 0 23 -23q47 -86 103 -132q17 -14 17 -23q0 -15 -14 -15q-24 0 -104 53v-360q78 52 104 52q14 0 14 -15q0 -7 -31 -35q-46 -42 -89 -120q-13 -23 -24 -23
q-10 0 -23 23q-47 86 -103 132q-17 14 -17 23q0 15 14 15q25 0 104 -52z" />
    <glyph glyph-name="emptyset" unicode="&#x2205;" horiz-adv-x="618" 
d="M496 655l-53 -105q109 -75 109 -203q0 -100 -71 -171.5t-172 -71.5q-43 0 -84 15l-53 -106l-49 25l53 106q-109 74 -109 203q0 100 71.5 171t171.5 71q43 0 85 -15l53 106zM417 499l-166 -330q33 -9 58 -9q77 0 132 54.5t55 132.5q0 95 -79 152zM202 194l167 330
q-28 9 -59 9q-77 0 -132 -54.5t-55 -131.5q0 -94 79 -153z" />
    <glyph glyph-name="Delta" unicode="&#x394;" horiz-adv-x="657" 
d="M-25 0l456 682l159 -682h-615zM52 62h453l-115 508z" />
    <glyph glyph-name="Delta" unicode="&#x2206;" horiz-adv-x="657" 
d="M-25 0l456 682l159 -682h-615zM52 62h453l-115 508z" />
    <glyph glyph-name="intersection" unicode="&#x2229;" horiz-adv-x="570" 
d="M94 0h-30v424q0 120 42 173q67 84 198 84q126 0 194 -70q32 -33 43 -69.5t11 -107.5v-434h-100v429q0 98 -19 133q-21 39 -63 62t-92 23q-96 0 -147 -71q-25 -35 -33 -80q-4 -25 -4 -87v-409z" />
    <glyph glyph-name="union" unicode="&#x222a;" horiz-adv-x="570" 
d="M66 667h100v-429q0 -98 19 -133q21 -39 63 -62t92 -23q96 0 147 71q25 35 33 80q4 25 4 87v409h30v-424q0 -120 -42 -173q-67 -84 -198 -84q-126 0 -194 70q-32 33 -43 69.5t-11 107.5v434z" />
    <glyph glyph-name="contintegral" unicode="&#x222e;" 
d="M204 -66v109q-64 10 -109 65t-45 125t44.5 125t109.5 66v43q0 110 46 175t124 65q56 0 95 -30.5t39 -74.5q0 -27 -17 -45t-42 -18q-22 0 -38.5 15.5t-16.5 35.5q0 13 6 23q8 14 8 25q0 31 -32 31q-33 0 -53.5 -45.5t-20.5 -118.5v-81q68 -11 111.5 -65t43.5 -126
q0 -71 -44.5 -125.5t-110.5 -64.5v-37q1 -6 1 -18q0 -114 -31 -168q-47 -81 -137 -81q-60 0 -97.5 31t-37.5 81q0 23 17 39.5t40 16.5t39.5 -15.5t16.5 -37.5q0 -11 -7.5 -24.5t-7.5 -22.5q0 -30 33 -30q32 0 52.5 43.5t20.5 113.5zM302 375v-282q47 9 77 49t30 92
q0 76 -57 117q-28 20 -50 24zM204 93v282q-46 -9 -76 -49t-30 -92q0 -51 30.5 -91.5t75.5 -49.5z" />
    <glyph glyph-name="equivalence" unicode="&#x2261;" horiz-adv-x="527" 
d="M70 504h433v-53h-433v53zM70 211h433v-53h-433v53zM70 358h433v-53h-433v53z" />
    <glyph glyph-name="house" unicode="&#x2302;" horiz-adv-x="751" 
d="M84 0v401l291 328l292 -328v-401h-583zM135 51h481v328l-241 270l-240 -270v-328z" />
    <glyph glyph-name="turnednot" unicode="&#x2319;" 
d="M166 267v-220h323v-47h-431v267h108z" />
    <glyph glyph-name="integraltp" unicode="&#x2320;" 
d="M299 -255h-98v687q0 74 3 99q5 57 27 95q46 81 139 81q58 0 96.5 -31t38.5 -77q0 -26 -17 -43.5t-42 -17.5q-23 0 -39.5 15.5t-16.5 37.5q0 14 7.5 26t7.5 22q0 30 -33 30q-73 0 -73 -181v-743z" />
    <glyph glyph-name="integralbt" unicode="&#x2321;" 
d="M202 707h98v-687q0 -73 -3 -99q-5 -56 -27 -94q-46 -81 -139 -81q-58 0 -96.5 31t-38.5 77q0 25 17 42.5t42 17.5q23 0 39.5 -15.5t16.5 -36.5q0 -15 -7.5 -27t-7.5 -21q0 -30 33 -30q73 0 73 181v742z" />
    <glyph glyph-name="SF100000" unicode="&#x2500;" horiz-adv-x="1000" 
d="M0 217v66h1000v-66h-1000z" />
    <glyph glyph-name="SF110000" unicode="&#x2502;" horiz-adv-x="1000" 
d="M467 -250v1000h66v-1000h-66z" />
    <glyph glyph-name="SF010000" unicode="&#x250c;" horiz-adv-x="1000" 
d="M1000 283v-66h-467v-467h-66v533h533z" />
    <glyph glyph-name="SF030000" unicode="&#x2510;" horiz-adv-x="1000" 
d="M467 217h-467v66h533v-533h-66v467z" />
    <glyph glyph-name="SF020000" unicode="&#x2514;" horiz-adv-x="1000" 
d="M533 283h467v-66h-533v533h66v-467z" />
    <glyph glyph-name="SF040000" unicode="&#x2518;" horiz-adv-x="1000" 
d="M0 217v66h467v467h66v-533h-533z" />
    <glyph glyph-name="SF080000" unicode="&#x251c;" horiz-adv-x="1000" 
d="M533 283h467v-66h-467v-467h-66v1000h66v-467z" />
    <glyph glyph-name="SF090000" unicode="&#x2524;" horiz-adv-x="1000" 
d="M467 217h-467v66h467v467h66v-1000h-66v467z" />
    <glyph glyph-name="SF060000" unicode="&#x252c;" horiz-adv-x="1000" 
d="M533 217v-467h-66v467h-467v66h1000v-66h-467z" />
    <glyph glyph-name="SF070000" unicode="&#x2534;" horiz-adv-x="1000" 
d="M467 283v467h66v-467h467v-66h-1000v66h467z" />
    <glyph glyph-name="SF050000" unicode="&#x253c;" horiz-adv-x="1000" 
d="M467 217h-467v66h467v467h66v-467h467v-66h-467v-467h-66v467z" />
    <glyph glyph-name="SF430000" unicode="&#x2550;" horiz-adv-x="1000" 
d="M0 151v66h1000v-66h-1000zM0 283v66h1000v-66h-1000z" />
    <glyph glyph-name="SF240000" unicode="&#x2551;" horiz-adv-x="1000" 
d="M401 -250v1000h66v-1000h-66zM533 -250v1000h66v-1000h-66z" />
    <glyph glyph-name="SF510000" unicode="&#x2552;" horiz-adv-x="1000" 
d="M467 -250v599h533v-66h-467v-66h467v-66h-467v-401h-66z" />
    <glyph glyph-name="SF520000" unicode="&#x2553;" horiz-adv-x="1000" 
d="M533 217h-66v-467h-66v533h599v-66h-401v-467h-66v467z" />
    <glyph glyph-name="SF390000" unicode="&#x2554;" horiz-adv-x="1000" 
d="M467 283v-533h-66v599h599v-66h-533zM599 151v-401h-66v467h467v-66h-401z" />
    <glyph glyph-name="SF220000" unicode="&#x2555;" horiz-adv-x="1000" 
d="M467 151h-467v66h467v66h-467v66h533v-599h-66v401z" />
    <glyph glyph-name="SF210000" unicode="&#x2556;" horiz-adv-x="1000" 
d="M467 217v-467h-66v467h-401v66h599v-533h-66v467h-66z" />
    <glyph glyph-name="SF250000" unicode="&#x2557;" horiz-adv-x="1000" 
d="M533 283h-533v66h599v-599h-66v533zM401 151h-401v66h467v-467h-66v401z" />
    <glyph glyph-name="SF500000" unicode="&#x2558;" horiz-adv-x="1000" 
d="M467 750h66v-401h467v-66h-467v-66h467v-66h-533v599z" />
    <glyph glyph-name="SF490000" unicode="&#x2559;" horiz-adv-x="1000" 
d="M533 283v467h66v-467h401v-66h-599v533h66v-467h66z" />
    <glyph glyph-name="SF380000" unicode="&#x255a;" horiz-adv-x="1000" 
d="M467 217h533v-66h-599v599h66v-533zM599 349h401v-66h-467v467h66v-401z" />
    <glyph glyph-name="SF280000" unicode="&#x255b;" horiz-adv-x="1000" 
d="M467 349v401h66v-599h-533v66h467v66h-467v66h467z" />
    <glyph glyph-name="SF270000" unicode="&#x255c;" horiz-adv-x="1000" 
d="M467 283h66v467h66v-533h-599v66h401v467h66v-467z" />
    <glyph glyph-name="SF260000" unicode="&#x255d;" horiz-adv-x="1000" 
d="M533 217v533h66v-599h-599v66h533zM401 349v401h66v-467h-467v66h401z" />
    <glyph glyph-name="SF360000" unicode="&#x255e;" horiz-adv-x="1000" 
d="M467 750h66v-401h467v-66h-467v-66h467v-66h-467v-401h-66v1000z" />
    <glyph glyph-name="SF370000" unicode="&#x255f;" horiz-adv-x="1000" 
d="M599 217v-467h-66v1000h66v-467h401v-66h-401zM467 -250h-66v1000h66v-1000z" />
    <glyph glyph-name="SF420000" unicode="&#x2560;" horiz-adv-x="1000" 
d="M401 -250v1000h66v-1000h-66zM599 349h401v-66h-467v467h66v-401zM599 151v-401h-66v467h467v-66h-401z" />
    <glyph glyph-name="SF190000" unicode="&#x2561;" horiz-adv-x="1000" 
d="M467 349v401h66v-1000h-66v401h-467v66h467v66h-467v66h467z" />
    <glyph glyph-name="SF200000" unicode="&#x2562;" horiz-adv-x="1000" 
d="M401 217h-401v66h401v467h66v-1000h-66v467zM533 -250v1000h66v-1000h-66z" />
    <glyph glyph-name="SF230000" unicode="&#x2563;" horiz-adv-x="1000" 
d="M599 -250h-66v1000h66v-1000zM401 349v401h66v-467h-467v66h401zM401 151h-401v66h467v-467h-66v401z" />
    <glyph glyph-name="SF470000" unicode="&#x2564;" horiz-adv-x="1000" 
d="M0 349h1000v-66h-1000v66zM467 151h-467v66h1000v-66h-467v-401h-66v401z" />
    <glyph glyph-name="SF480000" unicode="&#x2565;" horiz-adv-x="1000" 
d="M401 217h-401v66h1000v-66h-401v-467h-66v467h-66v-467h-66v467z" />
    <glyph glyph-name="SF410000" unicode="&#x2566;" horiz-adv-x="1000" 
d="M0 349h1000v-66h-1000v66zM599 151v-401h-66v467h467v-66h-401zM401 151h-401v66h467v-467h-66v401z" />
    <glyph glyph-name="SF450000" unicode="&#x2567;" horiz-adv-x="1000" 
d="M0 151v66h1000v-66h-1000zM467 349v401h66v-401h467v-66h-1000v66h467z" />
    <glyph glyph-name="SF460000" unicode="&#x2568;" horiz-adv-x="1000" 
d="M0 217v66h401v467h66v-467h66v467h66v-467h401v-66h-1000z" />
    <glyph glyph-name="SF400000" unicode="&#x2569;" horiz-adv-x="1000" 
d="M0 151v66h1000v-66h-1000zM599 349h401v-66h-467v467h66v-401zM401 349v401h66v-467h-467v66h401z" />
    <glyph glyph-name="SF540000" unicode="&#x256a;" horiz-adv-x="1000" 
d="M467 217v66h-467v66h467v401h66v-401h467v-66h-467v-66h467v-66h-467v-401h-66v401h-467v66h467z" />
    <glyph glyph-name="SF530000" unicode="&#x256b;" horiz-adv-x="1000" 
d="M401 217h-401v66h401v467h66v-467h66v467h66v-467h401v-66h-401v-467h-66v467h-66v-467h-66v467z" />
    <glyph glyph-name="SF440000" unicode="&#x256c;" horiz-adv-x="1000" 
d="M599 349h401v-66h-467v467h66v-401zM401 349v401h66v-467h-467v66h401zM599 151v-401h-66v467h467v-66h-401zM401 151h-401v66h467v-467h-66v401z" />
    <glyph glyph-name="upblock" unicode="&#x2580;" horiz-adv-x="1000" 
d="M0 250v500h1000v-500h-1000z" />
    <glyph glyph-name="dnblock" unicode="&#x2584;" horiz-adv-x="1000" 
d="M0 -250v500h1000v-500h-1000z" />
    <glyph glyph-name="block" unicode="&#x2588;" horiz-adv-x="1000" 
d="M0 -250v1000h1000v-1000h-1000z" />
    <glyph glyph-name="lfblock" unicode="&#x258c;" horiz-adv-x="1000" 
d="M0 -250v1000h500v-1000h-500z" />
    <glyph glyph-name="rtblock" unicode="&#x2590;" horiz-adv-x="1000" 
d="M500 -250v1000h500v-1000h-500z" />
    <glyph glyph-name="ltshade" unicode="&#x2591;" horiz-adv-x="1000" 
d="M0 750h100v-100h-100v100zM200 750h100v-100h-100v100zM800 750h100v-100h-100v100zM400 750h100v-100h-100v100zM600 750h100v-100h-100v100zM0 550h100v-100h-100v100zM0 350h100v-100h-100v100zM0 150h100v-100h-100v100zM0 -50h100v-100h-100v100zM200 550h100v-100
h-100v100zM200 350h100v-100h-100v100zM200 150h100v-100h-100v100zM200 -50h100v-100h-100v100zM400 550h100v-100h-100v100zM400 350h100v-100h-100v100zM400 150h100v-100h-100v100zM400 -50h100v-100h-100v100zM600 550h100v-100h-100v100zM600 350h100v-100h-100v100z
M600 150h100v-100h-100v100zM600 -50h100v-100h-100v100zM800 550h100v-100h-100v100zM800 350h100v-100h-100v100zM800 150h100v-100h-100v100zM800 -50h100v-100h-100v100z" />
    <glyph glyph-name="shade" unicode="&#x2592;" horiz-adv-x="1000" 
d="M900 -150h100v-100h-100v100h-100v-100h-100v100h-100v-100h-100v100h-100v-100h-100v100h-100v-100h-100v100h-100v100h100v-100h100v100h100v-100h100v100h100v-100h100v100h100v-100h100v100h100v100h-100v-100h-100v100h-100v-100h-100v100h-100v-100h-100v100h-100
v-100h-100v100h-100v100h100v-100h100v100h100v-100h100v100h100v-100h100v100h100v-100h100v100h100v100h-100v-100h-100v100h-100v-100h-100v100h-100v-100h-100v100h-100v-100h-100v100h-100v100h100v-100h100v100h100v-100h100v100h100v-100h100v100h100v-100h100v100
h100v100h-100v-100h-100v100h-100v-100h-100v100h-100v-100h-100v100h-100v-100h-100v100h-100v100h100v-100h100v100h100v-100h100v100h100v-100h100v100h100v-100h100v100h100v100h-100v-100h-100v100h-100v-100h-100v100h-100v-100h-100v100h-100v-100h-100v100h-100v100
h100v-100h100v100h100v-100h100v100h100v-100h100v100h100v-100h100v100h100v-100h100v-100h-100v-100h100v-100h-100v-100h100v-100h-100v-100h100v-100h-100v-100z" />
    <glyph glyph-name="dkshade" unicode="&#x2593;" horiz-adv-x="1000" 
d="M1000 -250h-1000v100h100v100h-100v100h100v100h-100v100h100v100h-100v100h100v100h-100v100h100v100h100v-100h100v100h100v-100h100v100h100v-100h100v100h100v-100h100v100h100v-1000zM900 550h-100v-100h100v100zM700 550h-100v-100h100v100zM500 550h-100v-100h100
v100zM300 550h-100v-100h100v100zM900 350h-100v-100h100v100zM700 350h-100v-100h100v100zM500 350h-100v-100h100v100zM300 350h-100v-100h100v100zM900 150h-100v-100h100v100zM700 150h-100v-100h100v100zM500 150h-100v-100h100v100zM300 150h-100v-100h100v100z
M900 -50h-100v-100h100v100zM700 -50h-100v-100h100v100zM500 -50h-100v-100h100v100zM300 -50h-100v-100h100v100z" />
    <glyph glyph-name="filledbox" unicode="&#x25a0;" horiz-adv-x="667" 
d="M667 0h-667v667h667v-667z" />
    <glyph glyph-name="outlinedbox" unicode="&#x25a1;" horiz-adv-x="667" 
d="M667 0h-667v667h667v-667zM620 47v573h-573v-573h573z" />
    <glyph glyph-name="triagup" unicode="&#x25b2;" 
d="M466 147h-433l217 405z" />
    <glyph glyph-name="triagrt" unicode="&#x25b6;" 
d="M71 119v433l405 -217z" />
    <glyph glyph-name="triagdn" unicode="&#x25bc;" 
d="M33 520h433l-216 -405z" />
    <glyph glyph-name="triaglt" unicode="&#x25c0;" 
d="M428 119l-405 216l405 217v-433z" />
    <glyph glyph-name="diamondrhombsolid" unicode="&#x25c6;" horiz-adv-x="667" 
d="M80 333q54 60 130 167t124 193q49 -87 124 -194t129 -166q-54 -58 -129 -165t-124 -194q-50 88 -125.5 194.5t-128.5 164.5z" />
    <glyph glyph-name="diamondrhomb" unicode="&#x25c7;" horiz-adv-x="667" 
d="M334 693l259 -360l-259 -359l-260 359zM334 604l-197 -271l197 -270l197 270z" />
    <glyph glyph-name="circle" unicode="&#x25cb;" horiz-adv-x="667" 
d="M333 589q109 0 185 -75.5t76 -183.5q0 -103 -77.5 -178t-183.5 -75q-107 0 -183.5 75.5t-76.5 180.5t76.5 180.5t183.5 75.5zM333 543q-88 0 -150.5 -61.5t-62.5 -148.5t62.5 -148.5t150.5 -61.5t151 61t63 146q0 89 -62 151t-152 62z" />
    <glyph glyph-name="invbullet" unicode="&#x25d8;" horiz-adv-x="667" 
d="M0 0v667h667v-667h-667zM335 473q-58 0 -98.5 -40.5t-40.5 -99.5q0 -57 40.5 -98t97.5 -41q56 0 96.5 41t40.5 98q0 58 -40 99t-96 41z" />
    <glyph glyph-name="invcircle" unicode="&#x25d9;" horiz-adv-x="667" 
d="M333 543q90 0 152 -61.5t62 -151.5q0 -85 -63 -146t-151 -61t-150.5 61.5t-62.5 148.5t62.5 148.5t150.5 61.5zM667 0h-667v667h667v-667zM333 590q-107 0 -183.5 -75.5t-76.5 -180.5q0 -106 76.5 -181.5t183.5 -75.5q106 0 183.5 75t77.5 178q0 109 -76 184.5t-185 75.5
z" />
    <glyph glyph-name="smileface" unicode="&#x263a;" horiz-adv-x="667" 
d="M241 466q17 0 30 -13t13 -31t-13 -31t-31 -13t-31 13t-13 31t13 31t32 13zM429 466q17 0 30 -13t13 -31t-13 -31t-31 -13t-31 13t-13 31t13 31t32 13zM128 372q37 -159 206 -159q170 0 206 159q-8 -110 -50 -161q-57 -70 -156 -70q-109 0 -165 82q-33 47 -41 149z
M337 650q128 0 220.5 -93.5t92.5 -223.5t-92.5 -223t-223.5 -93t-224 92.5t-93 223.5q0 133 93 225t227 92zM337 609q-117 0 -198 -80t-81 -196q0 -113 81 -194t195 -81q113 0 194 81t81 194t-80.5 194.5t-191.5 81.5z" />
    <glyph glyph-name="invsmileface" unicode="&#x263b;" horiz-adv-x="667" 
d="M337 650q128 0 220.5 -93.5t92.5 -222.5q0 -131 -92.5 -224t-223.5 -93t-224 92.5t-93 223.5q0 133 93 225t227 92zM241 466q-19 0 -32 -13t-13 -31t13 -31t31 -13t31 13t13 31t-13 31t-30 13zM429 466q-19 0 -32 -13t-13 -31t13 -31t31 -13t31 13t13 31t-13 31t-30 13z
M128 372q8 -107 51 -161q56 -70 155 -70q109 0 165 82q34 50 41 149q-36 -159 -206 -159q-169 0 -206 159z" />
    <glyph glyph-name="sun" unicode="&#x263c;" horiz-adv-x="667" 
d="M159 472l-75 75l36 35l75 -75q49 40 113 48v105h50v-105q68 -8 114 -48l74 75l35 -35l-74 -75q38 -46 47 -113h105v-51h-105q-9 -67 -47 -113l74 -75l-35 -35l-75 75q-48 -40 -113 -48v-105h-50v105q-56 6 -114 47l-74 -74l-36 35l75 74q-41 50 -47 114h-105v51h105
q9 63 47 113zM336 493q-68 0 -115 -46t-47 -112q0 -67 46.5 -114t112.5 -47t112.5 47t46.5 113q0 64 -46.5 111.5t-109.5 47.5z" />
    <glyph glyph-name="female" unicode="&#x2640;" horiz-adv-x="667" 
d="M357 0h-48v166h-162v43h162v106q-68 11 -112 61.5t-44 119.5q0 76 53 129.5t127 53.5t127 -53.5t53 -129.5q0 -69 -44 -119.5t-112 -61.5v-106h162v-43h-162v-166zM333 632q-55 0 -94 -39.5t-39 -94.5q0 -58 38.5 -98t94.5 -40q55 0 94 40t39 96t-39 96t-94 40z" />
    <glyph glyph-name="male" unicode="&#x2642;" horiz-adv-x="667" 
d="M385 382l151 151q-53 12 -106 40q-21 11 -21 23t13 12q6 0 20 -3q41 -9 83 -9q54 0 106 14l10 1q10 0 10 -11q0 -12 -8 -49t-8 -60q0 -39 10 -85q3 -14 3 -19q0 -14 -13 -14q-14 0 -34.5 39.5t-31.5 86.5l-151 -151q35 -52 35 -109q0 -76 -53 -129.5t-127 -53.5
t-127 53.5t-53 129.5q0 75 53 128.5t127 53.5q60 0 112 -39zM273 374q-55 0 -94 -39.5t-39 -94.5q0 -57 39 -97t94 -40t94 40t39 96t-39 95.5t-94 39.5z" />
    <glyph glyph-name="spade" unicode="&#x2660;" horiz-adv-x="667" 
d="M561 0h-455v18q82 14 122.5 39.5t71.5 81.5q26 46 27 116q-44 -102 -140 -102q-51 0 -87 37t-36 89q0 46 26.5 85.5t99.5 100.5q122 102 144 221q21 -119 143 -221q72 -60 99 -100t27 -86q0 -52 -36 -89t-87 -37q-96 0 -140 102q1 -78 35 -131q31 -49 70 -70.5t116 -35.5
v-18z" />
    <glyph glyph-name="club" unicode="&#x2663;" horiz-adv-x="667" 
d="M561 0h-455v18q221 31 221 256q-72 -127 -177 -127q-62 0 -104.5 44t-42.5 108q0 62 38.5 104.5t93.5 42.5q29 0 71 -21q4 -2 15 -8q-36 55 -36 100q0 59 44 101t105 42t104.5 -42t43.5 -101q0 -47 -36 -100l15 8q39 21 71 21q55 0 93.5 -43t38.5 -104q0 -64 -42.5 -108
t-104.5 -44q-105 0 -177 127q0 -225 221 -256v-18z" />
    <glyph glyph-name="heart" unicode="&#x2665;" horiz-adv-x="667" 
d="M333 -11q-16 66 -52.5 128t-133.5 193q-54 73 -72.5 112t-18.5 82q0 57 37.5 96t92.5 39q105 0 147 -130q37 131 146 131q56 0 94 -39.5t38 -97.5q0 -61 -48 -139q-19 -31 -89 -120q-117 -148 -141 -255z" />
    <glyph glyph-name="diamond" unicode="&#x2666;" horiz-adv-x="667" 
d="M80 333q54 60 130 167t124 193q49 -87 124 -194t129 -166q-54 -58 -129 -165t-124 -194q-50 88 -125.5 194.5t-128.5 164.5z" />
    <glyph glyph-name="musicalnote" unicode="&#x266a;" horiz-adv-x="667" 
d="M306 667h46v-61q7 -8 15 -18l52 -63q91 -110 91 -224q0 -94 -57 -163h-28q33 79 33 145q0 68 -31 119.5t-75 57.5v-297q0 -68 -29 -108q-46 -64 -121 -64q-32 0 -51.5 16.5t-19.5 44.5q0 46 36.5 80.5t85.5 34.5q28 0 53 -11v511z" />
    <glyph glyph-name="musicalnotedbl" unicode="&#x266b;" horiz-adv-x="667" 
d="M195 587l421 107v-495q0 -68 -29 -108q-46 -64 -121 -64q-32 0 -51.5 16.5t-19.5 44.5q0 46 36.5 80.5t85.5 34.5q25 0 53 -11v270l-329 -90v-229q0 -68 -29 -108q-46 -64 -121 -64q-32 0 -51.5 16.5t-19.5 44.5q0 46 36.5 80.5t85.5 34.5q28 0 53 -11v451zM241 448
l329 90v70l-329 -90v-70z" />
    <glyph glyph-name="nmacron" unicode="&#xe00c;" horiz-adv-x="637" 
d="M178 0h-83l51 240q28 132 28 169q0 41 -33 41q-48 0 -106 -113l-20 6q32 72 63.5 103t74.5 31q92 0 92 -118q0 -33 -1 -52q49 95 90 132.5t98 37.5q46 0 72.5 -29t26.5 -78q0 -32 -8 -65l-17 -71q-29 -121 -29 -166q0 -49 30 -49q49 0 96 113l21 -4q-26 -64 -49 -93
q-36 -45 -86 -45q-41 0 -69.5 32t-28.5 79q0 46 54 234q12 42 12 70q0 19 -11.5 32t-28.5 13q-71 0 -145 -144q-46 -90 -74 -216zM560 631l-8 -37h-295l8 37h295z" />
    <glyph glyph-name="ahungarumlaut" unicode="&#xeb01;" horiz-adv-x="597" 
d="M517 467l-49 -233q-29 -138 -29 -166q0 -49 30 -49q48 0 95 113l20 -4q-29 -67 -49 -93q-37 -46 -89 -46q-49 0 -76 41q-15 22 -15 65q-66 -105 -159 -105q-78 0 -115 53q-33 48 -33 115q0 71 28 140.5t77 118.5q60 60 149 60q91 0 117 -78l15 68h83zM320 450
q-67 0 -108 -70q-29 -49 -48.5 -121t-19.5 -127q0 -56 16.5 -85.5t50.5 -29.5q81 0 139 127q49 108 49 203q0 48 -21 75.5t-58 27.5zM300 534l-13 13l106 121q25 29 38 29q9 0 17 -9.5t8 -19.5q0 -12 -27 -33zM460 534l-13 13l106 121q25 29 38 29q9 0 17 -9.5t8 -19.5
q0 -12 -27 -33z" />
    <glyph glyph-name="Dbreve" unicode="&#xeb06;" horiz-adv-x="740" 
d="M135 667h319q262 0 262 -237q0 -109 -47 -208.5t-125 -156.5q-89 -65 -232 -65h-318l6 26l20 3q55 8 68 25t31 100l77 361q4 16 10 48q4 19 4 31q0 36 -49 42l-32 4zM190 33h46q94 0 145.5 12t89.5 42q65 52 103.5 149.5t38.5 208.5q0 142 -117 176q-45 13 -140 13h-38z
M618 836h24q-87 -123 -209 -123q-93 0 -93 78q0 19 6 45h22q1 -72 91 -72q43 0 76.5 15t82.5 57z" />
    <glyph glyph-name="gcommamirror" unicode="&#xeb0c;" horiz-adv-x="536" 
d="M513 467l-79 -374q-17 -81 -27 -109.5t-31 -58.5q-82 -115 -231 -115q-64 0 -101.5 26.5t-37.5 72.5q0 28 16 46t40 18q21 0 36 -14t15 -34q0 -22 -30 -51q-6 -5 -6 -9q0 -13 23 -22.5t52 -9.5q47 0 87 23t62 63q19 34 35 112l12 58q-38 -55 -74 -77t-87 -22
q-65 0 -104 45.5t-39 122.5q0 71 28 140.5t77 118.5q60 60 150 60q89 0 117 -76l14 66h83zM316 450q-67 0 -108 -70q-29 -49 -48.5 -121.5t-19.5 -127.5t16.5 -84.5t50.5 -29.5q81 0 139 127q49 108 49 203q0 48 -21 75.5t-58 27.5zM420 710l1 -13q-46 -13 -68 -38.5
t-22 -38.5q0 -3 3 -3h2q12 2 15 2q15 0 26 -12t11 -29q0 -21 -15 -35t-38 -14q-50 0 -50 52q0 51 54 93q30 23 81 36z" />
    <glyph glyph-name="ocommaaccent" unicode="&#xeb15;" horiz-adv-x="528" 
d="M322 477q165 0 165 -167q0 -135 -90 -238q-72 -82 -192 -82q-161 0 -161 170q0 68 30.5 140t78.5 116q66 61 169 61zM313 454q-74 0 -124 -116q-19 -43 -34 -113t-15 -113q0 -99 77 -99q66 0 114 83q25 43 42.5 117t17.5 134q0 107 -78 107zM93 -234v13q44 13 68 40
q21 24 21 37q0 3 -3 3h-2q-12 -2 -15 -2q-15 0 -26 12t-11 29q0 21 15 35t38 14q50 0 50 -52q0 -51 -54 -93q-30 -23 -81 -36z" />
    <glyph glyph-name="Sbreve" unicode="&#xeb1e;" horiz-adv-x="539" 
d="M547 667l-44 -204h-26q-6 187 -146 187q-58 0 -94.5 -35.5t-36.5 -91.5q0 -47 30 -78q27 -28 106 -68q92 -47 126.5 -84.5t34.5 -91.5q0 -92 -71 -153t-180 -61q-80 0 -172 38l-38 -25h-23l49 227h27q9 -93 35 -136q44 -74 135 -74q66 0 110 40t44 101q0 43 -28.5 71.5
t-111.5 68.5q-86 42 -117 79q-34 41 -34 99q0 88 60.5 146t152.5 58q64 0 167 -32l25 19h20zM548 836h24q-87 -123 -209 -123q-93 0 -93 78q0 16 5 45h22q1 -72 91 -72q43 0 76.5 15t83.5 57z" />
    <glyph glyph-name="Tcaron_1" unicode="&#xeb22;" horiz-adv-x="876" 
d="M671 667l-43 -204h-27q-13 109 -36 139.5t-93 30.5h-47l-102 -481q-14 -66 -14 -78q0 -37 49 -43l31 -4l-5 -27h-280l5 27l18 2q55 6 68.5 23.5t31.5 101.5l101 479q-15 1 -34 1q-74 0 -110 -29.5t-98 -141.5h-27l43 204h569zM717 491l-1 14q47 13 72 41q22 25 22 39
q0 3 -3 3h-2l-16 -2q-16 0 -27.5 12.5t-11.5 30.5q0 22 16 36.5t39 14.5q53 0 53 -54t-57 -98q-31 -24 -84 -37z" />
    <glyph glyph-name="tcaron_1" unicode="&#xeb23;" horiz-adv-x="347" 
d="M354 447l-6 -27h-114l-39 -187q-29 -139 -29 -165q0 -49 30 -49q47 0 96 113l20 -4q-26 -64 -48 -92q-37 -46 -89 -46q-37 0 -62.5 27t-25.5 66q0 37 17 117l47 220h-110l6 27h35q72 0 105 33t68 139h22l-37 -172h114zM404 851l10 -17l-169 -135l-123 138l14 14l115 -92z
" />
    <glyph glyph-name="ucommaaccent" unicode="&#xeb26;" horiz-adv-x="639" 
d="M476 467h83l-50 -233q-29 -135 -29 -166q0 -49 30 -49q47 0 96 113l21 -4q-31 -78 -61 -108t-76 -30q-40 0 -63.5 27.5t-23.5 73.5q0 29 7 65q-50 -94 -90.5 -130t-94.5 -36q-50 0 -78 29t-28 80q0 31 10 72l17 69q33 134 33 169q0 41 -35 41q-49 0 -108 -113l-19 6
q32 73 64.5 103.5t78.5 30.5q44 0 70.5 -29t26.5 -77q0 -52 -32 -166q-30 -107 -30 -139q0 -49 45 -49q60 0 119 98q65 109 88 216zM154 -234l-1 13q44 13 69 40q21 23 21 37q0 3 -3 3h-2q-12 -2 -16 -2q-15 0 -26 12t-11 29q0 21 15 35t38 14q50 0 50 -52q0 -51 -54 -93
q-29 -23 -80 -36z" />
    <glyph glyph-name="yhungarumlaut" unicode="&#xeb2b;" horiz-adv-x="582" 
d="M559 467l-77 -363q-30 -142 -87 -205q-80 -89 -209 -89q-61 0 -99.5 28.5t-38.5 74.5q0 28 16 45.5t42 17.5q51 0 51 -48q0 -22 -28 -47q-6 -5 -6 -11q0 -15 22.5 -26t52.5 -11q91 0 139 71q21 31 32 64.5t28 123.5q3 17 12 61q-37 -73 -74 -110q-53 -53 -112 -53
q-47 0 -75 29t-28 77q0 22 6 50l20 94q29 136 29 169q0 41 -33 41q-49 0 -107 -113l-20 5q32 74 65 104.5t80 30.5q96 0 96 -121q0 -46 -28 -147q-33 -119 -33 -150q0 -42 38 -42q68 0 128 102q24 40 51.5 111t37.5 117l26 120h83zM292 534l-13 13l106 121q25 29 38 29
q9 0 17 -9.5t8 -19.5q0 -12 -27 -33zM452 534l-13 13l106 121q25 29 38 29q9 0 17 -9.5t8 -19.5q0 -12 -27 -33z" />
    <glyph glyph-name="dcaron_1" unicode="&#xeb30;" horiz-adv-x="593" 
d="M563 700l-99 -466q-29 -137 -29 -167q0 -48 30 -48q48 0 95 113l20 -4q-30 -69 -50 -94q-36 -45 -88 -45q-49 0 -76 41q-15 23 -15 65q-37 -58 -73 -81.5t-87 -23.5q-77 0 -114 53q-33 48 -33 115q0 71 28.5 140.5t76.5 117.5q62 61 147 61q49 0 76 -17.5t43 -60.5
l26 121q14 65 14 90q0 19 -18 28q-12 6 -80 9l3 17zM316 450q-67 0 -108 -70q-29 -49 -48.5 -121t-19.5 -127q0 -56 16.5 -85.5t50.5 -29.5q81 0 139 127q49 108 49 203q0 48 -21 75.5t-58 27.5zM677 871l10 -17l-168 -135l-124 138l14 14l115 -92z" />
    <glyph glyph-name="Lcaron_1" unicode="&#xeb31;" horiz-adv-x="569" 
d="M553 227l-48 -227h-509l6 26l18 3q55 9 68 25.5t31 99.5l77 361q13 61 13 78q0 37 -49 43l-31 4l6 27h280l-6 -27l-18 -2q-54 -6 -67.5 -23.5t-31.5 -101.5l-102 -480h100q101 0 151 58q28 32 82 136h30zM481 491l-1 14q47 13 73 41q22 24 22 39q0 3 -3 3h-2l-16 -2
q-16 0 -27.5 12.5t-11.5 30.5q0 22 16 36.5t39 14.5q52 0 52 -54t-57 -98q-31 -24 -84 -37z" />
    <glyph glyph-name="Commaaccent" unicode="&#xeb86;" 
d="M254 491l-1 14q47 13 72 41q22 25 22 39q0 3 -3 3h-2l-16 -2q-16 0 -27.5 12.5t-11.5 30.5q0 22 16 36.5t39 14.5q53 0 53 -54t-57 -98q-30 -24 -84 -37z" />
    <glyph glyph-name="commaaccent" unicode="&#xeb87;" 
d="M258 500l-1 13q44 13 69 40q21 23 21 36q0 3 -3 3h-2q-6 -1 -15 -1q-15 0 -26 12t-11 29q0 20 15 34t37 14q50 0 50 -52q0 -51 -54 -93q-29 -23 -80 -35z" />
    <glyph glyph-name="commamirror" unicode="&#xeb9d;" 
d="M388 710l1 -13q-46 -13 -68 -38.5t-22 -38.5q0 -3 3 -3h2q12 2 16 2q15 0 26 -12t11 -29q0 -21 -15 -35t-38 -14q-50 0 -50 52q0 51 54 93q29 23 80 36z" />
    <glyph glyph-name="Slashstroke" unicode="&#xeb9e;" 
d="M10 229l9 44l361 214l-9 -43z" />
    <glyph glyph-name="slashstroke" unicode="&#xeb9f;" 
d="M424 506l-8 -38l-309 -182l8 37z" />
    <glyph glyph-name="Dieresisnarrow" unicode="&#xebce;" 
d="M288 833q23 0 39 -16t16 -39q0 -25 -18.5 -43.5t-42.5 -18.5q-22 0 -39 17t-17 40t19 41.5t43 18.5zM455 833q23 0 39 -16t16 -39q0 -25 -18.5 -43.5t-42.5 -18.5q-22 0 -39 17t-17 40t19 41.5t43 18.5z" />
    <glyph glyph-name="dieresisnarrow" unicode="&#xebcf;" 
d="M257 667q22 0 37.5 -15.5t15.5 -37.5q0 -23 -17.5 -41t-40.5 -18q-22 0 -38 16t-16 39q0 22 18 39.5t41 17.5zM417 667q22 0 37.5 -15.5t15.5 -37.5q0 -23 -17.5 -41t-40.5 -18q-22 0 -38 16t-16 39q0 22 18 39.5t41 17.5z" />
    <glyph glyph-name="Pts" unicode="&#xec00;" horiz-adv-x="986" 
d="M200 284l-28 -132q-1 -7 -6 -25q-8 -39 -8 -54q0 -36 49 -42l33 -4l-6 -27h-264l6 27l13 2q37 6 47 10t22 16q13 19 30 99l77 361q13 61 13 78q0 23 -14 32q-9 7 -35 11l-26 4l6 27h243q75 0 110 -26q54 -41 54 -115q0 -68 -35.5 -124t-96.5 -84q-66 -30 -184 -34z
M275 637l-70 -327q65 4 108 23q52 23 82 74.5t30 119.5q0 60 -26.5 85t-90.5 25h-33zM462 249h-90l5 24h18q63 0 95.5 29.5t60.5 113.5h19l-30 -143h101l-5 -24h-101l-9 -43q-23 -110 -23 -138q0 -49 30 -49q38 0 75 95l20 -4q-45 -120 -118 -120q-34 0 -55 26.5t-21 67.5
q0 40 17 116zM818 294q109 0 109 -62q0 -17 -13 -28.5t-32 -11.5q-35 0 -35 28q0 6 3 13q4 14 4 16q0 25 -44 25q-51 0 -51 -41q0 -23 23 -38q6 -4 44 -20q52 -22 69.5 -39t17.5 -45q0 -44 -40.5 -72.5t-102.5 -28.5q-50 0 -82.5 21.5t-32.5 55.5q0 43 44 43q15 0 26.5 -9.5
t11.5 -22.5q0 -9 -5.5 -21t-5.5 -19q0 -11 15.5 -20t34.5 -9q68 0 68 58q0 25 -25 41q-9 5 -62 27q-60 24 -60 77q0 38 32 60t89 22z" />
    <glyph glyph-name="peseta2" unicode="&#xec01;" horiz-adv-x="527" 
d="M153 458h-75l6 30h75l6 27q13 59 13 78q0 23 -14 32q-9 7 -35 11l-26 4l6 27h243q75 0 110 -26q54 -41 54 -116q0 -13 -3 -37h66l-7 -30h-66q-29 -92 -103 -136.5t-205 -47.5l-26 -122q-14 -66 -14 -79q0 -36 49 -42l33 -4l-6 -27h-264l6 27l13 2q37 6 47 10t22 16
q13 19 30 99zM237 458l-34 -159q89 7 140 45t73 114h-179zM243 488h179q3 26 3 39q0 60 -26.5 85t-90.5 25h-33z" />
    <glyph glyph-name="onenarrow" unicode="&#xec02;" horiz-adv-x="401" 
d="M367 680l-116 -546q-6 -28 -6 -44q0 -29 25 -45q21 -14 92 -20l-5 -25h-365l5 25q100 10 128 36t50 131l62 290q5 23 5 36q0 25 -51 25h-92l5 24q84 6 138.5 30.5t111.5 82.5h13z" />
    <glyph glyph-name="oneone" unicode="&#xec03;" horiz-adv-x="833" 
d="M312 675l-69 -326q-4 -19 -4 -24q0 -18 15.5 -25.5t58.5 -11.5l-5 -21h-231l4 21q63 6 79 20t29 75l37 171q3 14 3 21q0 12 -29 12h-60l4 21q95 5 155 67h13zM687 667l-427 -667h-40l428 667h39zM748 408l-69 -325q-4 -19 -4 -25q0 -18 15 -25.5t58 -11.5l-4 -21h-231
l4 21q63 6 79 20.5t29 75.5l36 171q4 19 4 21q0 12 -30 12h-60l5 21q94 5 155 66h13z" />
    <glyph glyph-name="space10mm" unicode="&#xec05;" horiz-adv-x="67" 
 />
    <glyph glyph-name="space5mm" unicode="&#xec06;" horiz-adv-x="33" 
 />
    <glyph glyph-name="space2mm" unicode="&#xec07;" horiz-adv-x="13" 
 />
    <glyph glyph-name="space1mm" unicode="&#xec08;" horiz-adv-x="7" 
 />
    <glyph glyph-name="spacehalfmm" unicode="&#xec09;" horiz-adv-x="3" 
 />
    <glyph glyph-name="eightperemspace" unicode="&#xec04;" horiz-adv-x="125" 
 />
    <glyph glyph-name="ft" unicode="&#xec0a;" horiz-adv-x="634" 
d="M47 420l6 27h109q35 123 74 174q61 80 138 80q41 0 66 -21t25 -56q0 -29 -16 -48t-41 -19q-20 0 -34.5 13t-14.5 32q0 20 23 42q8 10 8 15q0 7 -8.5 13t-18.5 6q-40 0 -63 -48q-30 -63 -46 -139l-9 -44h126q70 0 103.5 34t67.5 138h22l-37 -172h114l-6 -27h-114l-39 -187
q-29 -139 -29 -165q0 -49 30 -49q47 0 96 113l20 -4q-26 -64 -48 -92q-37 -46 -89 -46q-37 0 -62.5 27t-25.5 66q0 37 17 117l47 220h-197l-29 -166q-25 -141 -40 -195q-38 -132 -90 -190.5t-132 -58.5q-43 0 -70 20.5t-27 53.5q0 26 16.5 44t41.5 18q45 0 45 -44
q0 -14 -15 -34q-3 -4 -3 -12q0 -23 30 -23q61 0 91 75q13 33 33 144l65 368h-110z" />
    <glyph glyph-name="fff" unicode="&#xec0b;" horiz-adv-x="920" 
d="M47 420l6 27h109q32 122 81 175q74 79 184 79q66 0 135 -46q64 46 145 46q67 0 127 -41q48 41 100 41q41 0 66 -21t25 -55q0 -29 -16 -48.5t-41 -19.5q-20 0 -34.5 13t-14.5 32q0 21 23 43q8 8 8 14q0 7 -8.5 13t-18.5 6q-39 0 -63 -48q-31 -61 -46 -138l-9 -45h142
l-5 -27h-141l-29 -166q-41 -237 -84 -315q-33 -60 -91.5 -94.5t-128.5 -34.5q-64 0 -135 45q-66 -45 -144 -45q-67 0 -126 40q-50 -40 -114 -40q-43 0 -69.5 20.5t-26.5 53.5q0 26 16.5 44t41.5 18q45 0 45 -44q0 -14 -15 -34q-3 -4 -3 -12q0 -23 30 -23q61 0 91 75
q13 33 33 144l65 368h-110zM717 420h-196l-29 -166q-32 -184 -58.5 -258t-77.5 -122q63 -41 112 -41q76 0 120.5 55t65.5 174zM245 447h197q33 131 96 190q-63 41 -110 41q-132 0 -173 -186zM525 447h197q37 135 91 193q-56 38 -105 38q-137 0 -174 -186zM241 420l-29 -166
q-28 -158 -54 -239q-29 -87 -75 -145q55 -37 105 -37q97 0 145 92q25 48 41 137l63 358h-196z" />
    <glyph glyph-name="fft" unicode="&#xec0c;" horiz-adv-x="914" 
d="M47 420l6 27h109q32 121 81 174q75 80 184 80q63 0 127 -41q49 41 100 41q41 0 66 -21t25 -56q0 -29 -16 -48t-41 -19q-20 0 -34.5 13t-14.5 32q0 20 23 42q8 10 8 15q0 7 -8.5 13t-18.5 6q-40 0 -63 -48q-30 -63 -46 -139l-9 -44h126q70 0 103.5 34t67.5 138h22
l-37 -172h114l-6 -27h-114l-39 -187q-29 -139 -29 -165q0 -49 30 -49q47 0 96 113l20 -4q-26 -64 -48 -92q-37 -46 -89 -46q-37 0 -62.5 27t-25.5 66q0 37 17 117l47 220h-197l-29 -166q-41 -237 -84 -315q-33 -60 -91.5 -94.5t-127.5 -34.5q-66 0 -126 40q-50 -40 -114 -40
q-43 0 -69.5 20.5t-26.5 53.5q0 26 16.5 44t41.5 18q45 0 45 -44q0 -14 -15 -34q-3 -4 -3 -12q0 -23 30 -23q61 0 91 75q13 33 33 144l65 368h-110zM245 447h197q36 133 91 193q-58 38 -105 38q-136 0 -174 -187zM241 420l-29 -166q-28 -158 -54 -239q-29 -87 -75 -145
q55 -37 105 -37q97 0 145 92q25 48 41 137l63 358h-196z" />
    <glyph glyph-name="currency_2" unicode="&#xec13;" 
d="M28 406l33 33l93 -94q49 31 95 31q44 0 94 -29l92 92l32 -33l-92 -92q32 -42 32 -94q0 -51 -32 -94l96 -97l-32 -31l-94 97q-42 -31 -93 -31q-49 0 -99 33l-95 -97l-30 35l95 92q-30 46 -30 95q0 50 31 92zM251 340q-50 0 -86 -34.5t-36 -83.5q0 -52 35.5 -87.5
t87.5 -35.5q50 0 84.5 35.5t34.5 86.5q0 49 -35.5 84t-84.5 35z" />
    <glyph glyph-name="Dotaccent" unicode="&#xefed;" 
d="M372 833q23 0 39 -16t16 -39q0 -25 -18.5 -43.5t-42.5 -18.5q-22 0 -39 17t-17 40t19 41.5t43 18.5z" />
    <glyph glyph-name="Breve" unicode="&#xefee;" 
d="M505 836h24q-87 -123 -209 -123q-93 0 -93 78q0 19 6 45h22q0 -72 90 -72q43 0 76.5 15t83.5 57z" />
    </font>
</defs>
</svg>
