<?xml version="1.0" standalone="no"?>
<!DOCTYPE svg PUBLIC "-//W3C//DTD SVG 1.1//EN" "http://www.w3.org/Graphics/SVG/1.1/DTD/svg11.dtd" >
<svg>
<metadata>
Created by FontForge 20110222 at Thu Aug 23 21:13:37 2012
 By Stefan Warting
 The digitally encoded machine readable software for producing the
 Typefaces licensed to you is copyrighted (c) 1990, 2002 Adobe Systems.
 All Rights Reserved. This software is the property of Adobe Systems
 Incorporated and its licensors, and may not be reproduced, used,
 displayed, modified, disclosed or transferred without the express
 written approval of Adobe.
 
 The digitally encoded machine readable outline data for producing the Typefaces 
 provided as part of your laser printer is copyrighted (c) 1981, 2002 Heidelberger Druckmaschinen AG. 
 All rights reserved. This data is the property of Heidelberger Druckmaschinen AG, 
 and may not be reproduced, used, displayed, modified, disclosed or transferred 
 without the express written approval of Heidelberger Druckmaschinen AG. 
</metadata>
<defs>
<font id="HelveticaNeueLTStd-LtEx" horiz-adv-x="668" >
  <font-face 
    font-family="Helvetica Neue LT Std"
    font-weight="300"
    font-stretch="expanded"
    units-per-em="1000"
    panose-1="2 11 5 3 2 2 2 2 2 4"
    ascent="714"
    descent="-286"
    x-height="520"
    cap-height="714"
    bbox="-160 -220 1161 953"
    underline-thickness="50"
    underline-position="-50"
    stemh="62"
    stemv="74"
    unicode-range="U+0020-FB02"
  />
<missing-glyph horiz-adv-x="500" 
d="M0 0v700h500v-700h-500zM250 395l170 255h-340zM280 350l170 -255v510zM80 50h340l-170 255zM50 605v-510l170 255z" />
    <glyph glyph-name="f_i" unicode="fi" horiz-adv-x="500" 
d="M107 0v464h-113v56h113v69c0 98 49 131 146 131c28 0 60 -2 83 -4v-62c-23 2 -46 4 -69 4c-66 0 -86 -17 -86 -77v-61h147v-56h-147v-464h-74zM371 0v520h74v-520h-74zM371 610v110h74v-110h-74z" />
    <glyph glyph-name="f_l" unicode="fl" horiz-adv-x="500" 
d="M371 0v720h74v-720h-74zM107 0v464h-113v56h113v69c0 98 49 131 146 131c28 0 60 -2 83 -4v-62c-23 2 -46 4 -69 4c-66 0 -86 -17 -86 -77v-61h147v-56h-147v-464h-74z" />
    <glyph glyph-name=".notdef" horiz-adv-x="500" 
d="M0 0v700h500v-700h-500zM250 395l170 255h-340zM280 350l170 -255v510zM80 50h340l-170 255zM50 605v-510l170 255z" />
    <glyph glyph-name="space" unicode=" " horiz-adv-x="278" 
 />
    <glyph glyph-name="exclam" unicode="!" horiz-adv-x="296" 
d="M105 0v110h86v-110h-86zM126 185l-18 340v189h80v-189l-18 -340h-44z" />
    <glyph glyph-name="quotedbl" unicode="&#x22;" horiz-adv-x="407" 
d="M101 464v250h56v-250h-56zM250 464v250h56v-250h-56z" />
    <glyph glyph-name="numbersign" unicode="#" 
d="M164 0l32 226h-114v44h120l22 154h-114v44h120l32 226h50l-32 -226h142l32 226h50l-32 -226h114v-44h-120l-22 -154h114v-44h-120l-32 -226h-50l32 226h-142l-32 -226h-50zM394 270l22 154h-142l-22 -154h142z" />
    <glyph glyph-name="dollar" unicode="$" 
d="M307 396v244c-111 -4 -183 -44 -183 -123s83 -105 183 -121zM363 317v-265c102 1 202 32 202 134c0 66 -53 112 -202 131zM307 52v273c-133 21 -263 49 -263 185c0 144 130 195 263 198v61h56v-61c133 -7 256 -62 261 -213h-74c-9 104 -89 138 -187 145v-255
c203 -27 282 -81 282 -186c0 -164 -147 -213 -282 -215v-97h-56v97c-163 8 -283 70 -284 245h74c0 -128 93 -170 210 -177z" />
    <glyph glyph-name="percent" unicode="%" horiz-adv-x="963" 
d="M726 34c71 0 113 54 113 144s-42 144 -113 144s-113 -54 -113 -144s42 -144 113 -144zM213 -16l476 724h59l-476 -724h-59zM237 370c71 0 113 54 113 144s-42 144 -113 144s-113 -54 -113 -144s42 -144 113 -144zM726 -16c-100 0 -175 66 -175 194s75 194 175 194
s175 -66 175 -194s-75 -194 -175 -194zM237 320c-100 0 -175 66 -175 194s75 194 175 194s175 -66 175 -194s-75 -194 -175 -194z" />
    <glyph glyph-name="ampersand" unicode="&#x26;" horiz-adv-x="778" 
d="M558 132l-247 234c-113 -42 -166 -94 -166 -173c0 -75 61 -147 200 -147c84 0 148 19 213 86zM698 0l-93 89c-51 -64 -150 -105 -264 -105c-181 0 -270 91 -270 213c0 99 59 155 198 212c-52 49 -90 90 -90 157c0 88 69 148 174 148c130 0 174 -79 174 -145
c0 -92 -75 -142 -149 -173l219 -207c22 29 35 90 38 120h68c0 -38 -18 -108 -57 -165l153 -144h-101zM459 565c0 46 -32 87 -112 87c-51 0 -100 -32 -100 -83c0 -29 7 -55 87 -134c86 37 125 79 125 130z" />
    <glyph glyph-name="quoteright" unicode="&#x2019;" horiz-adv-x="278" 
d="M96 604v110h86v-112c0 -83 -40 -123 -95 -138v38c40 18 45 52 45 102h-36z" />
    <glyph glyph-name="parenleft" unicode="(" horiz-adv-x="352" 
d="M262 714h56c-64 -90 -162 -227 -162 -452s98 -362 162 -452h-56c-8 9 -180 193 -180 452s172 443 180 452z" />
    <glyph glyph-name="parenright" unicode=")" horiz-adv-x="352" 
d="M90 -190h-56c64 90 162 227 162 452s-98 362 -162 452h56c8 -9 180 -193 180 -452s-172 -443 -180 -452z" />
    <glyph glyph-name="asterisk" unicode="*" horiz-adv-x="426" 
d="M185 580v134h56v-134l127 48l20 -49l-132 -50l92 -103l-38 -36l-97 109l-97 -109l-38 36l92 103l-132 50l20 49z" />
    <glyph glyph-name="plus" unicode="+" horiz-adv-x="600" 
d="M275 0v228h-228v50h228v228h50v-228h228v-50h-228v-228h-50z" />
    <glyph glyph-name="comma" unicode="," horiz-adv-x="278" 
d="M96 0v110h86v-112c0 -83 -40 -123 -95 -138v38c40 18 45 52 45 102h-36z" />
    <glyph glyph-name="hyphen" unicode="-" horiz-adv-x="444" 
d="M70 237v74h304v-74h-304z" />
    <glyph glyph-name="period" unicode="." horiz-adv-x="278" 
d="M96 0v110h86v-110h-86z" />
    <glyph glyph-name="slash" unicode="/" horiz-adv-x="407" 
d="M4 -18l343 750h56l-343 -750h-56z" />
    <glyph glyph-name="zero" unicode="0" 
d="M334 646c-164 0 -218 -124 -218 -301c0 -175 54 -299 218 -299s218 124 218 299c0 177 -54 301 -218 301zM334 708c172 0 292 -110 292 -363c0 -251 -120 -361 -292 -361s-292 110 -292 361c0 253 120 363 292 363z" />
    <glyph glyph-name="one" unicode="1" horiz-adv-x="444" 
d="M236 0v520h-216v56h49c116 0 158 15 179 132h62v-708h-74z" />
    <glyph glyph-name="two" unicode="2" 
d="M594 68v-68h-542c9 81 33 167 246 279c158 83 214 122 214 216c0 102 -67 151 -177 151c-158 0 -192 -95 -194 -189h-74c0 177 105 251 269 251c189 0 250 -113 250 -214c0 -121 -76 -172 -173 -225c-196 -107 -251 -143 -269 -201h450z" />
    <glyph glyph-name="three" unicode="3" 
d="M282 336v62h48c109 0 176 26 176 118c0 89 -69 130 -168 130c-142 0 -196 -69 -196 -171h-74c3 126 84 233 270 233c120 0 242 -52 242 -192c0 -64 -44 -132 -130 -142v-2c87 -7 157 -71 157 -176c0 -157 -126 -212 -278 -212c-181 0 -278 85 -279 241h74
c5 -130 81 -179 216 -179c149 0 193 77 193 148c0 117 -87 142 -191 142h-60z" />
    <glyph glyph-name="four" unicode="4" 
d="M418 236v368h-2l-300 -368h302zM418 0v174h-376v68l379 466h65v-472h132v-62h-132v-174h-68z" />
    <glyph glyph-name="five" unicode="5" 
d="M72 326l70 366h417v-62h-361l-49 -229l2 -2c33 32 96 68 181 68c174 0 271 -97 271 -241c0 -101 -58 -242 -277 -242c-174 0 -261 83 -277 215h74c17 -101 80 -153 203 -153c114 0 203 56 203 180c0 113 -75 179 -208 179c-104 0 -157 -53 -180 -82z" />
    <glyph glyph-name="six" unicode="6" 
d="M595 528h-74c-6 71 -65 118 -179 118c-138 0 -213 -83 -219 -309l2 -2c26 49 88 129 217 129c162 0 271 -86 271 -241c0 -159 -122 -239 -271 -239c-168 0 -287 86 -287 338c0 231 86 386 287 386c174 0 244 -89 253 -180zM141 226c0 -85 57 -180 201 -180
c110 0 197 67 197 178c0 100 -73 178 -197 178c-163 0 -201 -108 -201 -176z" />
    <glyph glyph-name="seven" unicode="7" horiz-adv-x="593" 
d="M552 692v-68c-82 -73 -272 -312 -317 -624h-80c28 231 198 507 326 624h-454v68h525z" />
    <glyph glyph-name="eight" unicode="8" 
d="M122 193c0 -103 91 -147 212 -147s212 44 212 147c0 106 -95 153 -212 153s-212 -47 -212 -153zM48 193c0 136 112 172 167 185v2c-37 10 -133 39 -133 147c0 76 48 181 252 181s252 -105 252 -181c0 -108 -96 -137 -133 -147v-2c55 -13 167 -49 167 -185
c0 -96 -62 -209 -286 -209s-286 113 -286 209zM334 408c121 0 178 49 178 115c0 98 -92 123 -178 123s-178 -25 -178 -123c0 -66 57 -115 178 -115z" />
    <glyph glyph-name="nine" unicode="9" 
d="M73 164h74c6 -71 65 -118 179 -118c138 0 213 83 219 309l-2 2c-26 -49 -88 -129 -217 -129c-162 0 -271 86 -271 241c0 159 122 239 271 239c168 0 287 -86 287 -338c0 -231 -86 -386 -287 -386c-174 0 -244 89 -253 180zM527 466c0 85 -57 180 -201 180
c-110 0 -197 -67 -197 -178c0 -100 73 -178 197 -178c163 0 201 108 201 176z" />
    <glyph glyph-name="colon" unicode=":" horiz-adv-x="278" 
d="M96 0v110h86v-110h-86zM96 396v110h86v-110h-86z" />
    <glyph glyph-name="semicolon" unicode=";" horiz-adv-x="278" 
d="M96 0v110h86v-112c0 -83 -40 -123 -95 -138v38c40 18 45 52 45 102h-36zM96 396v110h86v-110h-86z" />
    <glyph glyph-name="less" unicode="&#x3c;" horiz-adv-x="600" 
d="M47 225v56l506 233v-56l-444 -205l444 -205v-56z" />
    <glyph glyph-name="equal" unicode="=" horiz-adv-x="600" 
d="M47 325v50h506v-50h-506zM47 131v50h506v-50h-506z" />
    <glyph glyph-name="greater" unicode="&#x3e;" horiz-adv-x="600" 
d="M491 253l-444 205v56l506 -233v-56l-506 -233v56z" />
    <glyph glyph-name="question" unicode="?" horiz-adv-x="648" 
d="M128 491h-74c0 131 85 241 259 241c133 0 259 -63 259 -206c0 -92 -45 -130 -143 -199c-87 -62 -90 -75 -90 -142h-68c0 105 7 109 131 202c51 38 96 69 96 139c0 86 -80 138 -185 138c-130 0 -183 -73 -185 -173zM262 0v110h86v-110h-86z" />
    <glyph glyph-name="at" unicode="@" horiz-adv-x="800" 
d="M248 287c0 -62 25 -104 83 -104c103 0 178 155 178 247c0 66 -24 99 -82 99c-105 0 -179 -145 -179 -242zM541 494l24 67h56l-99 -298c-7 -22 -12 -44 -12 -60s9 -26 26 -26c84 0 170 141 170 246c0 161 -138 265 -287 265c-187 0 -325 -155 -325 -331
c0 -182 145 -331 325 -331c104 0 213 55 266 141h56c-64 -114 -191 -185 -322 -185c-214 0 -375 170 -375 375c0 208 168 375 375 375c187 0 337 -131 337 -312c0 -156 -125 -287 -230 -287c-36 0 -66 21 -66 69h-2c-26 -29 -71 -69 -135 -69c-85 0 -137 67 -137 149
c0 140 98 297 245 297c46 0 87 -23 110 -85z" />
    <glyph glyph-name="A" unicode="A" horiz-adv-x="722" 
d="M517 285l-157 355l-159 -355h316zM642 0l-95 217h-376l-97 -217h-80l324 714h86l324 -714h-86z" />
    <glyph glyph-name="B" unicode="B" horiz-adv-x="741" 
d="M66 0v714h406c140 0 199 -79 199 -180c0 -69 -38 -133 -123 -153v-2c94 -14 151 -83 151 -175c0 -149 -126 -204 -236 -204h-397zM140 646v-242h293c100 0 164 32 164 127c0 87 -58 115 -139 115h-318zM140 336v-268h311c96 0 168 38 168 136c0 103 -64 132 -150 132
h-329z" />
    <glyph glyph-name="C" unicode="C" horiz-adv-x="815" 
d="M700 272h74c-16 -160 -148 -290 -353 -290c-232 0 -380 146 -380 375c0 163 101 375 380 375c156 0 325 -71 347 -259h-74c-22 136 -144 191 -273 191c-177 0 -300 -99 -300 -307c0 -159 83 -307 300 -307c170 0 254 86 279 222z" />
    <glyph glyph-name="D" unicode="D" horiz-adv-x="778" 
d="M66 0v714h347c208 0 316 -133 316 -357c0 -201 -105 -357 -305 -357h-358zM140 646v-578h270c128 0 239 70 239 289c0 189 -74 289 -239 289h-270z" />
    <glyph glyph-name="E" unicode="E" horiz-adv-x="685" 
d="M78 0v714h568v-68h-494v-242h476v-68h-476v-268h502v-68h-576z" />
    <glyph glyph-name="F" unicode="F" horiz-adv-x="611" 
d="M66 0v714h535v-68h-461v-242h438v-68h-438v-336h-74z" />
    <glyph glyph-name="G" unicode="G" horiz-adv-x="852" 
d="M729 0l-10 135h-2c-73 -105 -157 -153 -297 -153c-242 0 -374 152 -374 375c0 216 145 375 382 375c199 0 326 -112 345 -244h-80c-29 121 -137 176 -265 176c-195 0 -302 -119 -302 -307c0 -192 98 -307 288 -307c214 0 282 122 304 250h-262v68h330v-368h-57z" />
    <glyph glyph-name="H" unicode="H" horiz-adv-x="796" 
d="M66 0v714h74v-302h516v302h74v-714h-74v344h-516v-344h-74z" />
    <glyph glyph-name="I" unicode="I" horiz-adv-x="222" 
d="M74 0v714h74v-714h-74z" />
    <glyph glyph-name="J" unicode="J" horiz-adv-x="556" 
d="M99 234v-26c-1 -103 47 -164 158 -164c99 0 159 36 159 176v494h74v-514c0 -128 -74 -218 -237 -218c-223 0 -226 163 -228 252h74z" />
    <glyph glyph-name="K" unicode="K" horiz-adv-x="741" 
d="M78 0v714h74v-386l461 386h107l-354 -295l378 -419h-105l-331 369l-156 -128v-241h-74z" />
    <glyph glyph-name="L" unicode="L" horiz-adv-x="593" 
d="M66 0v714h74v-646h453v-68h-527z" />
    <glyph glyph-name="M" unicode="M" horiz-adv-x="981" 
d="M492 93l318 621h105v-714h-74v617h-2l-315 -617h-68l-314 618h-2v-618h-74v714h108z" />
    <glyph glyph-name="N" unicode="N" horiz-adv-x="796" 
d="M66 0v714h89l499 -610h2v610h74v-714h-86l-502 610h-2v-610h-74z" />
    <glyph glyph-name="O" unicode="O" horiz-adv-x="852" 
d="M38 357c0 252 185 375 388 375s388 -123 388 -375s-185 -375 -388 -375s-388 123 -388 375zM118 357c0 -215 151 -307 308 -307s308 92 308 307s-151 307 -308 307s-308 -92 -308 -307z" />
    <glyph glyph-name="P" unicode="P" horiz-adv-x="704" 
d="M152 646v-278h286c124 0 160 57 160 140c0 107 -60 138 -145 138h-301zM78 0v714h385c110 0 215 -55 215 -206c0 -135 -89 -208 -248 -208h-278v-300h-74z" />
    <glyph glyph-name="Q" unicode="Q" horiz-adv-x="852" 
d="M476 152l39 49l112 -86c64 48 107 127 107 242c0 215 -151 307 -308 307s-308 -92 -308 -307s151 -307 308 -307c50 0 99 9 143 30zM794 -14l-39 -49l-123 95c-61 -34 -132 -50 -206 -50c-203 0 -388 123 -388 375s185 375 388 375s388 -123 388 -375
c0 -131 -50 -228 -127 -288z" />
    <glyph glyph-name="R" unicode="R" horiz-adv-x="741" 
d="M78 0v714h389c121 0 232 -43 232 -193c0 -76 -47 -152 -140 -173v-2c101 -16 122 -81 127 -198c2 -45 8 -132 25 -148h-80c-13 15 -18 68 -19 146c-2 126 -50 168 -173 168h-287v-314h-74zM152 646v-264h313c81 0 154 30 154 139c0 105 -79 125 -147 125h-320z" />
    <glyph glyph-name="S" unicode="S" 
d="M624 510h-74c-10 122 -109 154 -224 154s-202 -45 -202 -126c0 -93 87 -115 261 -144c130 -22 260 -52 260 -189c0 -175 -159 -223 -298 -223c-181 0 -313 62 -324 254h74c13 -150 113 -186 250 -186c107 0 218 29 218 142c0 109 -130 122 -260 143
c-170 27 -261 75 -261 190c0 156 144 207 282 207c146 0 293 -52 298 -222z" />
    <glyph glyph-name="T" unicode="T" horiz-adv-x="630" 
d="M278 0v646h-280v68h634v-68h-280v-646h-74z" />
    <glyph glyph-name="U" unicode="U" horiz-adv-x="778" 
d="M708 714v-438c0 -130 -36 -294 -319 -294s-319 164 -319 294v438h74v-438c0 -187 121 -226 245 -226s245 39 245 226v438h74z" />
    <glyph glyph-name="V" unicode="V" horiz-adv-x="685" 
d="M347 84l273 630h80l-316 -714h-80l-319 714h86z" />
    <glyph glyph-name="W" unicode="W" horiz-adv-x="1056" 
d="M787 98l200 616h80l-240 -714h-86l-215 610h-2l-212 -610h-86l-237 714h83l198 -616h2l211 616h91l211 -616h2z" />
    <glyph glyph-name="X" unicode="X" horiz-adv-x="667" 
d="M-8 0l290 362l-278 352h99l232 -294l239 294h92l-280 -348l289 -366h-98l-244 307l-246 -307h-95z" />
    <glyph glyph-name="Y" unicode="Y" horiz-adv-x="686" 
d="M306 0v300l-321 414h96l262 -340l262 340h96l-321 -414v-300h-74z" />
    <glyph glyph-name="Z" unicode="Z" horiz-adv-x="648" 
d="M5 0v68l530 578h-496v68h596v-68l-533 -578h541v-68h-638z" />
    <glyph glyph-name="bracketleft" unicode="[" horiz-adv-x="352" 
d="M108 -190v904h196v-56h-128v-792h128v-56h-196z" />
    <glyph glyph-name="backslash" unicode="\" horiz-adv-x="407" 
d="M348 -18l-345 750h56l345 -750h-56z" />
    <glyph glyph-name="bracketright" unicode="]" horiz-adv-x="352" 
d="M244 714v-904h-196v56h128v792h-128v56h196z" />
    <glyph glyph-name="asciicircum" unicode="^" horiz-adv-x="600" 
d="M500 239l-200 391l-200 -391h-56l231 453h50l231 -453h-56z" />
    <glyph glyph-name="underscore" unicode="_" horiz-adv-x="500" 
d="M0 -125v50h500v-50h-500z" />
    <glyph glyph-name="quoteleft" unicode="&#x2018;" horiz-adv-x="278" 
d="M96 464v112c0 83 40 123 95 138v-38c-40 -18 -45 -52 -45 -102h36v-110h-86z" />
    <glyph glyph-name="a" unicode="a" horiz-adv-x="611" 
d="M471 201v79c-33 -21 -83 -25 -231 -39c-86 -8 -136 -34 -136 -96c0 -81 70 -105 150 -105c100 0 217 54 217 161zM121 360h-68c11 109 70 176 248 176c174 0 238 -54 238 -154v-272c0 -43 12 -58 41 -58c13 0 26 1 39 2v-50c-15 -3 -38 -8 -62 -8c-75 0 -79 51 -80 92h-2
c-23 -34 -73 -104 -243 -104c-89 0 -202 39 -202 156c0 141 145 157 259 163c162 9 182 18 182 69c0 75 -50 102 -172 102c-117 0 -173 -31 -178 -114z" />
    <glyph glyph-name="b" unicode="b" horiz-adv-x="667" 
d="M57 0v720h74v-304h2c34 66 113 120 212 120c194 0 283 -131 283 -276c0 -127 -70 -276 -283 -276c-126 0 -192 76 -212 120h-2v-104h-74zM127 260c0 -136 95 -214 218 -214c151 0 209 110 209 214c0 132 -92 214 -209 214c-151 0 -218 -107 -218 -214z" />
    <glyph glyph-name="c" unicode="c" horiz-adv-x="611" 
d="M512 186h74c-14 -68 -74 -202 -263 -202c-188 0 -293 113 -293 276c0 156 96 276 293 276c178 0 247 -111 259 -186h-74c-23 89 -93 124 -185 124c-149 0 -219 -94 -219 -214c0 -129 78 -214 219 -214c109 0 170 59 189 140z" />
    <glyph glyph-name="d" unicode="d" horiz-adv-x="667" 
d="M540 260c0 107 -67 214 -218 214c-117 0 -209 -82 -209 -214c0 -104 58 -214 209 -214c123 0 218 78 218 214zM536 0v104h-2c-20 -44 -86 -120 -212 -120c-213 0 -283 149 -283 276c0 145 89 276 283 276c99 0 178 -54 212 -120h2v304h74v-720h-74z" />
    <glyph glyph-name="e" unicode="e" horiz-adv-x="648" 
d="M113 298h428c-21 128 -115 176 -214 176c-95 0 -197 -49 -214 -176zM528 166h74c-30 -92 -108 -182 -280 -182c-213 0 -283 149 -283 276c0 145 89 276 283 276c134 0 293 -58 293 -294h-502c0 -108 77 -196 209 -196c124 0 180 41 206 120z" />
    <glyph glyph-name="f" unicode="f" horiz-adv-x="315" 
d="M107 0v464h-113v56h113v69c0 98 49 131 146 131c28 0 60 -2 83 -4v-62c-23 2 -46 4 -69 4c-66 0 -86 -17 -86 -77v-61h147v-56h-147v-464h-74z" />
    <glyph glyph-name="g" unicode="g" horiz-adv-x="667" 
d="M540 271c0 109 -75 203 -222 203c-130 0 -214 -75 -214 -203c0 -152 95 -209 220 -209c122 0 216 77 216 209zM538 419v101h74v-500c0 -192 -155 -240 -292 -240c-237 0 -260 113 -266 169h68c11 -56 26 -113 201 -113c136 0 215 64 215 189v93h-2
c-28 -53 -96 -118 -230 -118c-132 0 -276 68 -276 271c0 138 88 265 284 265c101 0 187 -38 222 -117h2z" />
    <glyph glyph-name="h" unicode="h" horiz-adv-x="630" 
d="M57 0v720h74v-302h2c22 55 100 118 215 118c173 0 225 -90 225 -214v-322h-74v335c0 103 -63 139 -157 139c-145 0 -211 -74 -211 -192v-282h-74z" />
    <glyph glyph-name="i" unicode="i" horiz-adv-x="184" 
d="M55 0v520h74v-520h-74zM55 610v110h74v-110h-74z" />
    <glyph glyph-name="j" unicode="j" horiz-adv-x="184" 
d="M-76 -217v62c16 -2 29 -3 50 -3c67 0 81 26 81 79v599h74v-599c0 -81 -32 -141 -135 -141c-22 0 -47 2 -70 3zM55 610v110h74v-110h-74z" />
    <glyph glyph-name="k" unicode="k" horiz-adv-x="574" 
d="M57 0v720h74v-453l317 253h110l-255 -197l274 -323h-98l-231 275l-117 -89v-186h-74z" />
    <glyph glyph-name="l" unicode="l" horiz-adv-x="184" 
d="M55 0v720h74v-720h-74z" />
    <glyph glyph-name="m" unicode="m" horiz-adv-x="1000" 
d="M869 0v330c0 95 -48 144 -155 144c-114 0 -177 -66 -177 -167v-307h-74v352c0 66 -47 122 -148 122c-106 0 -184 -61 -184 -181v-293h-74v520h74v-96h2c31 55 87 112 206 112c117 0 171 -62 186 -114c25 52 100 114 204 114c146 0 214 -74 214 -181v-355h-74z" />
    <glyph glyph-name="n" unicode="n" horiz-adv-x="630" 
d="M499 0v335c0 103 -63 139 -157 139c-145 0 -211 -74 -211 -192v-282h-74v520h74v-102h2c22 55 100 118 215 118c173 0 225 -90 225 -214v-322h-74z" />
    <glyph glyph-name="o" unicode="o" 
d="M113 260c0 -125 81 -214 221 -214s221 89 221 214s-81 214 -221 214s-221 -89 -221 -214zM39 260c0 145 95 276 295 276s295 -131 295 -276s-95 -276 -295 -276s-295 131 -295 276z" />
    <glyph glyph-name="p" unicode="p" horiz-adv-x="667" 
d="M57 -202v722h74v-104h2c20 44 68 120 212 120c213 0 283 -149 283 -276c0 -145 -89 -276 -283 -276c-98 0 -178 54 -212 120h-2v-306h-74zM127 260c0 -107 67 -214 218 -214c117 0 209 82 209 214c0 104 -58 214 -209 214c-123 0 -218 -78 -218 -214z" />
    <glyph glyph-name="q" unicode="q" horiz-adv-x="667" 
d="M536 416v104h74v-722h-74v306h-2c-34 -66 -114 -120 -212 -120c-194 0 -283 131 -283 276c0 127 84 276 277 276c128 0 200 -72 218 -120h2zM540 260c0 136 -95 214 -218 214c-151 0 -209 -110 -209 -214c0 -132 92 -214 209 -214c151 0 218 107 218 214z" />
    <glyph glyph-name="r" unicode="r" horiz-adv-x="370" 
d="M57 0v520h74v-119h2c27 62 76 135 199 135c21 0 33 -2 44 -4v-76c-23 4 -45 6 -68 6c-80 0 -177 -49 -177 -197v-265h-74z" />
    <glyph glyph-name="s" unicode="s" horiz-adv-x="556" 
d="M512 366h-68c-19 84 -71 108 -179 108c-78 0 -150 -17 -150 -89c0 -54 35 -65 193 -86c159 -21 225 -49 225 -150c0 -103 -84 -165 -247 -165c-165 0 -263 54 -263 179h68c13 -87 62 -117 195 -117c103 0 173 21 173 99c0 52 -37 75 -199 91s-219 54 -219 146
c0 90 73 154 224 154c169 0 238 -61 247 -170z" />
    <glyph glyph-name="t" unicode="t" horiz-adv-x="352" 
d="M107 520v164h74v-164h147v-56h-147v-344c0 -45 14 -66 74 -66c36 0 59 3 73 6v-62c-28 -4 -57 -6 -81 -6c-115 0 -140 45 -140 129v343h-113v56h113z" />
    <glyph glyph-name="u" unicode="u" horiz-adv-x="630" 
d="M499 0v102h-2c-22 -55 -100 -118 -215 -118c-173 0 -225 90 -225 214v322h74v-335c0 -103 63 -139 157 -139c145 0 211 74 211 192v282h74v-520h-74z" />
    <glyph glyph-name="v" unicode="v" horiz-adv-x="556" 
d="M278 85l204 435h80l-244 -520h-80l-244 520h80z" />
    <glyph glyph-name="w" unicode="w" horiz-adv-x="889" 
d="M642 97l167 423h80l-211 -520h-80l-157 416l-155 -416h-80l-206 520h80l165 -426l157 426h80z" />
    <glyph glyph-name="x" unicode="x" horiz-adv-x="574" 
d="M-3 0l239 270l-222 250h96l176 -198l175 198h97l-225 -250l244 -270h-98l-193 216l-192 -216h-97z" />
    <glyph glyph-name="y" unicode="y" horiz-adv-x="556" 
d="M286 87l196 433h80l-282 -617c-38 -82 -70 -105 -152 -105c-23 0 -49 0 -71 2v62c16 -1 33 -2 53 -2c53 0 79 12 103 64l34 72l-253 524h80z" />
    <glyph glyph-name="z" unicode="z" horiz-adv-x="556" 
d="M20 0v62l395 396h-372v62h478v-62l-403 -396h418v-62h-516z" />
    <glyph glyph-name="braceleft" unicode="{" horiz-adv-x="352" 
d="M48 243v38c46 0 60 28 60 137v175c0 74 32 121 107 121h58v-38h-49c-30 0 -48 -16 -48 -83v-175c1 -105 -43 -146 -78 -155v-2c35 -9 79 -50 78 -155v-175c0 -67 18 -83 48 -83h49v-38h-58c-75 0 -107 47 -107 121v175c0 109 -14 137 -60 137z" />
    <glyph glyph-name="bar" unicode="|" horiz-adv-x="222" 
d="M86 -18v750h50v-750h-50z" />
    <glyph glyph-name="braceright" unicode="}" horiz-adv-x="352" 
d="M79 -190v38h49c30 0 48 16 48 83v175c-1 105 43 146 78 155v2c-35 9 -79 50 -78 155v175c0 67 -18 83 -48 83h-49v38h58c75 0 107 -47 107 -121v-175c0 -109 14 -137 60 -137v-38c-46 0 -60 -28 -60 -137v-175c0 -74 -32 -121 -107 -121h-58z" />
    <glyph glyph-name="asciitilde" unicode="~" horiz-adv-x="600" 
d="M495 316l36 -36c-30 -42 -63 -86 -125 -86c-37 0 -69 15 -102 33c-32 18 -69 35 -115 35c-44 0 -68 -37 -84 -72l-36 36c22 42 58 86 125 86c34 0 73 -15 111 -32c37 -16 75 -36 102 -36c40 0 65 37 88 72z" />
    <glyph glyph-name="exclamdown" unicode="&#xa1;" horiz-adv-x="296" 
d="M105 426v110h86v-110h-86zM108 -178v189l18 340h44l18 -340v-189h-80z" />
    <glyph glyph-name="cent" unicode="&#xa2;" 
d="M321 47v426c-134 -13 -191 -108 -191 -213c0 -120 67 -202 191 -213zM321 -124v109c-171 11 -265 121 -265 275c0 108 64 263 265 276v84h44v-84c166 -7 231 -113 243 -186h-74c-22 84 -85 120 -169 124v-428c99 6 155 63 173 140h74c-14 -66 -71 -194 -247 -202v-108
h-44z" />
    <glyph glyph-name="sterling" unicode="&#xa3;" 
d="M53 320v44h72c-26 45 -48 84 -48 130c0 122 99 214 269 214c178 0 268 -90 268 -230h-74c0 127 -108 168 -200 168c-94 0 -189 -52 -189 -148c0 -56 39 -111 48 -134h221v-44h-203c13 -28 20 -62 20 -93c0 -52 -50 -127 -103 -163l2 -2c52 21 86 28 113 28
c30 0 68 -10 105 -19s72 -19 96 -19c40 0 87 19 147 65l25 -62c-22 -26 -98 -71 -172 -71c-35 0 -78 11 -119 22s-81 22 -111 22c-57 0 -103 -21 -139 -42l-35 57c57 39 123 113 123 188c0 25 -13 57 -26 89h-90z" />
    <glyph glyph-name="fraction" unicode="&#x2044;" horiz-adv-x="167" 
d="M-160 -16l425 724h62l-425 -724h-62z" />
    <glyph glyph-name="yen" unicode="&#xa5;" 
d="M297 194v96l-8 11h-198v50h160l-258 341h86l255 -340l255 340h86l-258 -341h160v-50h-198l-8 -11v-96h206v-50h-206v-144h-74v144h-206v50h206z" />
    <glyph glyph-name="florin" unicode="&#x192;" 
d="M161 356l9 44h135l33 156c29 136 101 152 171 152c26 0 55 -3 85 -8l-11 -60c-30 4 -50 6 -69 6c-55 0 -86 -11 -108 -116l-27 -130h139l-11 -44h-137l-78 -371c-20 -95 -47 -181 -176 -181c-29 0 -59 3 -88 7l12 60c22 -2 45 -5 67 -5c73 0 91 19 115 133l74 357h-135z
" />
    <glyph glyph-name="section" unicode="&#xa7;" horiz-adv-x="667" 
d="M97 17h74c5 -97 85 -129 173 -129c73 0 141 29 141 92c0 60 -60 92 -152 131l-128 55c-94 40 -156 78 -156 157c0 118 105 144 119 148c-15 10 -59 41 -59 101c0 82 53 160 211 160c128 0 230 -51 230 -181h-74c-1 41 -22 119 -156 119c-86 0 -137 -30 -137 -86
c0 -60 71 -90 155 -125l131 -55c88 -37 149 -74 149 -164c0 -97 -76 -125 -119 -141c20 -14 60 -42 60 -111c0 -81 -65 -162 -215 -162c-186 0 -240 89 -247 191zM117 341c0 -92 97 -92 337 -212c20 0 96 27 96 100c0 89 -115 114 -337 212c-22 -3 -96 -36 -96 -100z" />
    <glyph glyph-name="currency" unicode="&#xa4;" 
d="M86 136l54 56c-37 44 -54 100 -54 154s17 110 54 154l-54 56l38 38l55 -55c45 37 102 55 155 55s110 -18 155 -55l55 55l38 -38l-54 -56c37 -44 54 -100 54 -154s-17 -110 -54 -154l54 -56l-38 -38l-55 55c-45 -37 -102 -55 -155 -55s-110 18 -155 55l-55 -55zM136 346
c0 -109 91 -198 198 -198s198 89 198 198s-91 198 -198 198s-198 -89 -198 -198z" />
    <glyph glyph-name="quotesingle" unicode="'" horiz-adv-x="278" 
d="M111 464v250h56v-250h-56z" />
    <glyph glyph-name="quotedblleft" unicode="&#x201c;" horiz-adv-x="407" 
d="M250 464v112c0 83 40 123 95 138v-38c-40 -18 -45 -52 -45 -102h36v-110h-86zM71 464v112c0 83 40 123 95 138v-38c-40 -18 -45 -52 -45 -102h36v-110h-86z" />
    <glyph glyph-name="guillemotleft" unicode="&#xab;" horiz-adv-x="500" 
d="M258 238v72l157 135v-77l-113 -94l113 -94v-77zM73 238v72l157 135v-77l-113 -94l113 -94v-77z" />
    <glyph glyph-name="guilsinglleft" unicode="&#x2039;" horiz-adv-x="315" 
d="M73 238v72l157 135v-77l-113 -94l113 -94v-77z" />
    <glyph glyph-name="guilsinglright" unicode="&#x203a;" horiz-adv-x="315" 
d="M198 274l-113 94v77l157 -135v-72l-157 -135v77z" />
    <glyph glyph-name="fi" unicode="&#xfb01;" horiz-adv-x="500" 
d="M107 0v464h-113v56h113v69c0 98 49 131 146 131c28 0 60 -2 83 -4v-62c-23 2 -46 4 -69 4c-66 0 -86 -17 -86 -77v-61h147v-56h-147v-464h-74zM371 0v520h74v-520h-74zM371 610v110h74v-110h-74z" />
    <glyph glyph-name="fl" unicode="&#xfb02;" horiz-adv-x="500" 
d="M371 0v720h74v-720h-74zM107 0v464h-113v56h113v69c0 98 49 131 146 131c28 0 60 -2 83 -4v-62c-23 2 -46 4 -69 4c-66 0 -86 -17 -86 -77v-61h147v-56h-147v-464h-74z" />
    <glyph glyph-name="endash" unicode="&#x2013;" horiz-adv-x="500" 
d="M0 243v62h500v-62h-500z" />
    <glyph glyph-name="dagger" unicode="&#x2020;" 
d="M297 -156v581h-241v62h241v227h74v-227h241v-62h-241v-581h-74z" />
    <glyph glyph-name="daggerdbl" unicode="&#x2021;" 
d="M297 -156v217h-241v62h241v317h-241v62h241v212h74v-212h241v-62h-241v-317h241v-62h-241v-217h-74z" />
    <glyph glyph-name="periodcentered" unicode="&#xb7;" horiz-adv-x="278" 
d="M73 312c0 36 30 66 66 66s66 -30 66 -66s-30 -66 -66 -66s-66 30 -66 66z" />
    <glyph glyph-name="paragraph" unicode="&#xb6;" horiz-adv-x="600" 
d="M249 -156v484c-117 0 -207 87 -207 190c0 126 83 196 223 196h217v-870h-56v826h-121v-826h-56z" />
    <glyph glyph-name="bullet" unicode="&#x2022;" horiz-adv-x="501" 
d="M72 357c0 99 79 179 178 179s179 -80 179 -179s-80 -178 -179 -178s-178 79 -178 178z" />
    <glyph glyph-name="quotesinglbase" unicode="&#x201a;" horiz-adv-x="278" 
d="M96 0v110h86v-112c0 -83 -40 -123 -95 -138v38c40 18 45 52 45 102h-36z" />
    <glyph glyph-name="quotedblbase" unicode="&#x201e;" horiz-adv-x="407" 
d="M71 0v110h86v-112c0 -83 -40 -123 -95 -138v38c40 18 45 52 45 102h-36zM250 0v110h86v-112c0 -83 -40 -123 -95 -138v38c40 18 45 52 45 102h-36z" />
    <glyph glyph-name="quotedblright" unicode="&#x201d;" horiz-adv-x="407" 
d="M250 604v110h86v-112c0 -83 -40 -123 -95 -138v38c40 18 45 52 45 102h-36zM71 604v110h86v-112c0 -83 -40 -123 -95 -138v38c40 18 45 52 45 102h-36z" />
    <glyph glyph-name="guillemotright" unicode="&#xbb;" horiz-adv-x="500" 
d="M198 274l-113 94v77l157 -135v-72l-157 -135v77zM383 274l-113 94v77l157 -135v-72l-157 -135v77z" />
    <glyph glyph-name="ellipsis" unicode="&#x2026;" horiz-adv-x="1000" 
d="M124 0v110h86v-110h-86zM457 0v110h86v-110h-86zM790 0v110h86v-110h-86z" />
    <glyph glyph-name="perthousand" unicode="&#x2030;" horiz-adv-x="1167" 
d="M986 34c71 0 113 54 113 144s-42 144 -113 144s-113 -54 -113 -144s42 -144 113 -144zM120 -16l476 724h59l-476 -724h-59zM181 370c71 0 113 54 113 144s-42 144 -113 144s-113 -54 -113 -144s42 -144 113 -144zM986 -16c-100 0 -175 66 -175 194s75 194 175 194
s175 -66 175 -194s-75 -194 -175 -194zM181 320c-100 0 -175 66 -175 194s75 194 175 194s175 -66 175 -194s-75 -194 -175 -194zM594 -16c-100 0 -175 66 -175 194s75 194 175 194s175 -66 175 -194s-75 -194 -175 -194zM594 34c71 0 113 54 113 144s-42 144 -113 144
s-113 -54 -113 -144s42 -144 113 -144z" />
    <glyph glyph-name="questiondown" unicode="&#xbf;" horiz-adv-x="648" 
d="M520 45h74c0 -131 -85 -241 -259 -241c-133 0 -259 63 -259 206c0 92 45 130 143 199c87 62 90 75 90 142h68c0 -105 -7 -109 -131 -202c-51 -38 -96 -69 -96 -139c0 -86 80 -138 185 -138c130 0 183 73 185 173zM386 536v-110h-86v110h86z" />
    <glyph glyph-name="grave" unicode="`" horiz-adv-x="184" 
d="M41 740l115 -142h-61l-145 142h91z" />
    <glyph glyph-name="acute" unicode="&#xb4;" horiz-adv-x="184" 
d="M28 598l115 142h91l-145 -142h-61z" />
    <glyph glyph-name="circumflex" unicode="&#x2c6;" horiz-adv-x="184" 
d="M-91 598l143 142h80l143 -142h-75l-108 101l-108 -101h-75z" />
    <glyph glyph-name="tilde" unicode="&#x2dc;" horiz-adv-x="184" 
d="M233 723h44c-4 -21 -11 -48 -27 -70c-15 -21 -38 -38 -76 -38c-35 0 -64 13 -90 26c-27 13 -52 26 -79 26c-44 0 -51 -31 -54 -52h-44c5 21 12 48 27 70s39 38 76 38c35 0 64 -13 90 -26c27 -13 52 -26 79 -26c44 0 51 31 54 52z" />
    <glyph glyph-name="macron" unicode="&#xaf;" horiz-adv-x="184" 
d="M-101 641v56h386v-56h-386z" />
    <glyph glyph-name="breve" unicode="&#x2d8;" horiz-adv-x="184" 
d="M-73 732h50c4 -55 45 -76 115 -76s111 21 115 76h50c-8 -90 -68 -132 -165 -132s-157 42 -165 132z" />
    <glyph glyph-name="dotaccent" unicode="&#x2d9;" horiz-adv-x="184" 
d="M55 604v110h74v-110h-74z" />
    <glyph glyph-name="dieresis" unicode="&#xa8;" horiz-adv-x="184" 
d="M-58 604v110h74v-110h-74zM168 604v110h74v-110h-74z" />
    <glyph glyph-name="ring" unicode="&#x2da;" horiz-adv-x="184" 
d="M-18 669c0 60 49 110 110 110c59 0 110 -49 110 -110s-51 -110 -110 -110c-61 0 -110 50 -110 110zM20 669c0 -40 32 -72 72 -72s72 32 72 72s-32 72 -72 72s-72 -32 -72 -72z" />
    <glyph glyph-name="cedilla" unicode="&#xb8;" horiz-adv-x="184" 
d="M24 -78l57 80h41l-42 -57l2 -2c9 3 23 5 40 5c51 0 86 -26 86 -68c0 -41 -50 -76 -126 -76c-36 0 -81 11 -99 17l12 35c14 -4 53 -14 83 -14c44 0 68 12 68 38c0 27 -29 36 -52 36c-21 0 -41 -5 -53 -11z" />
    <glyph glyph-name="hungarumlaut" unicode="&#x2dd;" horiz-adv-x="184" 
d="M-83 598l115 142h91l-145 -142h-61zM139 598l115 142h91l-145 -142h-61z" />
    <glyph glyph-name="ogonek" unicode="&#x2db;" horiz-adv-x="184" 
d="M201 -144l12 -35c-23 -8 -64 -17 -102 -17c-76 0 -106 30 -106 78c0 63 71 105 106 118h54c-50 -24 -98 -66 -98 -112c0 -33 24 -46 52 -46c35 0 58 7 82 14z" />
    <glyph glyph-name="caron" unicode="&#x2c7;" horiz-adv-x="184" 
d="M275 740l-143 -142h-80l-143 142h75l108 -101l108 101h75z" />
    <glyph glyph-name="emdash" unicode="&#x2014;" horiz-adv-x="1000" 
d="M0 243v62h1000v-62h-1000z" />
    <glyph glyph-name="AE" unicode="&#xc6;" horiz-adv-x="1093" 
d="M528 300v346h-53l-222 -346h275zM-23 0l458 714h622v-68h-455v-242h433v-68h-433v-268h460v-68h-534v232h-317l-148 -232h-86z" />
    <glyph glyph-name="ordfeminine" unicode="&#xaa;" horiz-adv-x="397" 
d="M300 513v39c-19 -13 -113 -21 -129 -22c-81 -5 -95 -24 -95 -55c0 -45 43 -59 89 -59c65 0 135 32 135 97zM402 432v-38c-9 -1 -24 -4 -46 -4c-49 0 -51 26 -52 51h-2c-8 -21 -41 -63 -151 -63c-58 0 -131 24 -131 94s62 97 176 102c91 4 104 10 104 35
c0 39 -26 55 -106 55c-71 0 -107 -18 -110 -62h-50c8 65 46 106 162 106c113 0 154 -33 154 -93v-152c0 -26 8 -35 27 -35c8 0 17 2 25 4z" />
    <glyph glyph-name="Lslash" unicode="&#x141;" horiz-adv-x="593" 
d="M140 360l210 146v-62l-210 -146v-230h453v-68h-527v247l-78 -54v62l78 54v405h74v-354z" />
    <glyph glyph-name="Oslash" unicode="&#xd8;" horiz-adv-x="852" 
d="M184 153l454 438c-57 50 -134 73 -212 73c-157 0 -308 -92 -308 -307c0 -88 25 -155 66 -204zM667 561l-454 -438c56 -50 133 -73 213 -73c157 0 308 92 308 307c0 88 -26 156 -67 204zM38 12l92 89c-57 63 -92 147 -92 256c0 252 185 375 388 375c100 0 196 -30 266 -89
l93 89l29 -30l-92 -88c57 -61 92 -147 92 -257c0 -252 -185 -375 -388 -375c-100 0 -195 30 -266 90l-93 -90z" />
    <glyph glyph-name="OE" unicode="&#x152;" horiz-adv-x="1167" 
d="M616 178v373c0 23 -69 113 -224 113c-148 0 -274 -107 -274 -307c0 -209 118 -307 274 -307c154 0 224 100 224 128zM616 0v78c-52 -61 -126 -96 -224 -96c-196 0 -354 123 -354 375c0 191 120 375 354 375c94 0 173 -25 222 -86h2v68h515v-68h-441v-242h418v-68h-418
v-268h446v-68h-520z" />
    <glyph glyph-name="ordmasculine" unicode="&#xba;" horiz-adv-x="434" 
d="M81 544c0 -75 53 -122 136 -122s136 47 136 122c0 73 -53 120 -136 120s-136 -47 -136 -120zM25 544c0 85 62 164 192 164s192 -79 192 -164c0 -87 -62 -166 -192 -166s-192 79 -192 166z" />
    <glyph glyph-name="ae" unicode="&#xe6;" horiz-adv-x="1074" 
d="M1038 242h-493c1 -116 77 -196 205 -196c119 0 175 41 200 120h74c-29 -92 -107 -182 -274 -182c-140 0 -220 72 -243 140c-23 -56 -91 -140 -269 -140c-89 0 -202 39 -202 156c0 141 145 157 259 163c162 9 182 18 182 69c0 75 -50 102 -172 102
c-117 0 -173 -31 -178 -114h-68c11 109 70 176 248 176c151 0 199 -38 227 -110c47 76 126 110 211 110c134 0 293 -58 293 -294zM545 298h419c-21 128 -115 176 -214 176c-124 0 -194 -70 -205 -176zM477 201v79c-33 -21 -83 -25 -231 -39c-86 -8 -136 -34 -136 -96
c0 -81 70 -105 150 -105c100 0 217 54 217 161z" />
    <glyph glyph-name="dotlessi" unicode="&#x131;" horiz-adv-x="184" 
d="M55 0v520h74v-520h-74z" />
    <glyph glyph-name="lslash" unicode="&#x142;" horiz-adv-x="184" 
d="M129 405l55 41v-56l-55 -41v-349h-74v299l-55 -42v56l55 42v365h74v-315z" />
    <glyph glyph-name="oslash" unicode="&#xf8;" 
d="M159 121l326 303c-37 32 -88 50 -151 50c-140 0 -221 -89 -221 -214c0 -55 16 -102 46 -139zM39 10l68 63c-46 51 -68 117 -68 187c0 145 95 276 295 276c88 0 155 -25 202 -65l69 65l24 -26l-68 -63c45 -49 68 -116 68 -187c0 -145 -95 -276 -295 -276
c-87 0 -154 25 -202 65l-69 -65zM509 399l-326 -303c36 -32 87 -50 151 -50c140 0 221 89 221 214c0 55 -16 103 -46 139z" />
    <glyph glyph-name="oe" unicode="&#x153;" horiz-adv-x="1093" 
d="M977 166h74c-30 -92 -112 -182 -257 -182c-106 0 -210 40 -244 137c-34 -63 -102 -137 -250 -137c-166 0 -271 122 -271 276c0 145 101 276 275 276c151 0 212 -63 251 -140c36 79 111 140 239 140c107 0 270 -58 270 -294h-475c2 -125 65 -196 205 -196
c99 0 157 41 183 120zM103 260c0 -125 81 -214 212 -214c125 -3 206 72 206 214c0 115 -59 214 -203 214c-136 0 -215 -89 -215 -214zM589 298h401c-21 128 -117 176 -196 176c-117 0 -183 -52 -205 -176z" />
    <glyph glyph-name="germandbls" unicode="&#xdf;" horiz-adv-x="630" 
d="M266 359v65c10 -1 20 -3 41 -3c91 0 167 26 167 118c0 87 -81 119 -167 119c-140 0 -176 -63 -176 -155v-503h-74v506c0 136 72 214 250 214c194 0 241 -105 241 -180c0 -80 -53 -126 -120 -141v-2c34 -6 156 -33 156 -199c0 -128 -92 -214 -250 -214c-29 0 -56 5 -76 8
v61c22 -4 43 -7 64 -7c127 0 188 71 188 162c0 113 -78 151 -207 151h-37z" />
    <glyph glyph-name="onesuperior" unicode="&#xb9;" horiz-adv-x="289" 
d="M146 286v306h-133v38h32c68 0 98 9 113 78h44v-422h-56z" />
    <glyph glyph-name="logicalnot" unicode="&#xac;" horiz-adv-x="600" 
d="M503 108v217h-456v50h506v-267h-50z" />
    <glyph glyph-name="mu" unicode="&#xb5;" horiz-adv-x="630" 
d="M499 0v102h-2c-22 -55 -100 -118 -215 -118c-68 0 -119 17 -151 50v-236h-74v722h74v-335c0 -103 75 -139 157 -139c145 0 211 74 211 192v282h74v-520h-74z" />
    <glyph glyph-name="trademark" unicode="&#x2122;" horiz-adv-x="990" 
d="M177 302v368h-135v44h320v-44h-135v-368h-50zM654 380l128 334h86v-412h-50v368h-2l-149 -368h-30l-149 368h-2v-368h-50v412h86z" />
    <glyph glyph-name="Eth" unicode="&#xd0;" horiz-adv-x="778" 
d="M66 0v347h-66v56h66v311h347c208 0 316 -133 316 -357c0 -201 -105 -357 -305 -357h-358zM140 646v-243h258v-56h-258v-279h270c128 0 239 70 239 289c0 189 -74 289 -239 289h-270z" />
    <glyph glyph-name="onehalf" unicode="&#xbd;" horiz-adv-x="1000" 
d="M176 -16l425 724h62l-425 -724h-62zM146 286v306h-133v38h32c68 0 98 9 113 78h44v-422h-56zM952 50v-50h-352c6 49 20 100 152 165c102 50 139 74 139 129c0 54 -36 84 -107 84c-95 0 -117 -57 -118 -104h-56c0 104 68 148 174 148c123 0 163 -68 163 -128
c0 -72 -47 -107 -105 -135c-135 -65 -163 -83 -174 -109h284z" />
    <glyph glyph-name="plusminus" unicode="&#xb1;" horiz-adv-x="600" 
d="M275 324v182h50v-182h228v-50h-228v-182h-50v182h-228v50h228zM47 0v50h506v-50h-506z" />
    <glyph glyph-name="Thorn" unicode="&#xde;" horiz-adv-x="704" 
d="M152 516v-278h286c124 0 160 57 160 140c0 107 -60 138 -145 138h-301zM78 0v714h74v-130h311c110 0 215 -55 215 -206c0 -135 -89 -208 -248 -208h-278v-170h-74z" />
    <glyph glyph-name="onequarter" unicode="&#xbc;" horiz-adv-x="1000" 
d="M816 143v205h-2l-180 -205h182zM816 0v99h-238v44l244 279h50v-279h80v-44h-80v-99h-56zM176 -16l425 724h62l-425 -724h-62zM146 286v306h-133v38h32c68 0 98 9 113 78h44v-422h-56z" />
    <glyph glyph-name="divide" unicode="&#xf7;" horiz-adv-x="600" 
d="M47 228v50h506v-50h-506zM245 459c0 30 25 55 55 55s55 -25 55 -55s-25 -55 -55 -55s-55 25 -55 55zM245 47c0 30 25 55 55 55s55 -25 55 -55s-25 -55 -55 -55s-55 25 -55 55z" />
    <glyph glyph-name="brokenbar" unicode="&#xa6;" horiz-adv-x="222" 
d="M86 -18v275h50v-275h-50zM86 457v275h50v-275h-50z" />
    <glyph glyph-name="degree" unicode="&#xb0;" horiz-adv-x="400" 
d="M57 565c0 79 64 143 143 143s143 -64 143 -143s-64 -143 -143 -143s-143 64 -143 143zM101 565c0 -55 44 -99 99 -99s99 44 99 99s-44 99 -99 99s-99 -44 -99 -99z" />
    <glyph glyph-name="thorn" unicode="&#xfe;" horiz-adv-x="667" 
d="M57 -202v922h74v-304h2c23 44 70 120 212 120c213 0 283 -149 283 -276c0 -145 -89 -276 -283 -276c-98 0 -178 54 -212 120h-2v-306h-74zM127 260c0 -107 67 -214 218 -214c117 0 209 82 209 214c0 104 -58 214 -209 214c-123 0 -218 -78 -218 -214z" />
    <glyph glyph-name="threequarters" unicode="&#xbe;" horiz-adv-x="1000" 
d="M816 143v205h-2l-180 -205h182zM816 0v99h-238v44l244 279h50v-279h80v-44h-80v-99h-56zM278 -16l425 724h62l-425 -724h-62zM186 484v44c8 -2 19 -2 32 -2c65 0 106 15 106 67c0 46 -45 71 -101 71c-85 0 -120 -42 -120 -96h-56c2 76 55 140 176 140
c78 0 157 -31 157 -115c0 -38 -29 -79 -84 -85v-2c56 -3 102 -41 102 -104c0 -95 -86 -128 -169 -128c-124 0 -193 42 -193 145h56c0 -88 76 -101 140 -101c80 0 110 46 110 82c0 76 -78 82 -156 84z" />
    <glyph glyph-name="twosuperior" unicode="&#xb2;" horiz-adv-x="434" 
d="M386 336v-50h-352c6 49 20 100 152 165c102 50 139 74 139 129c0 54 -36 84 -107 84c-95 0 -117 -57 -118 -107h-56c0 107 68 151 174 151c123 0 163 -68 163 -128c0 -72 -47 -107 -105 -135c-135 -65 -163 -83 -174 -109h284z" />
    <glyph glyph-name="registered" unicode="&#xae;" horiz-adv-x="800" 
d="M25 357c0 207 168 375 375 375s375 -168 375 -375s-168 -375 -375 -375s-375 168 -375 375zM75 357c0 -184 142 -331 325 -331c184 0 325 147 325 332c0 182 -141 330 -325 330c-183 0 -325 -148 -325 -331zM536 134l-131 198h-95v-198h-50v446h171
c101 0 145 -44 145 -124c0 -78 -52 -114 -112 -124l134 -198h-62zM310 536v-160h111c59 0 105 16 105 81c0 63 -51 79 -105 79h-111z" />
    <glyph glyph-name="minus" unicode="&#x2212;" horiz-adv-x="600" 
d="M47 228v50h506v-50h-506z" />
    <glyph glyph-name="eth" unicode="&#xf0;" 
d="M555 260c0 125 -81 214 -221 214s-221 -89 -221 -214s81 -214 221 -214s221 89 221 214zM39 260c0 145 95 276 295 276c65 0 136 -23 184 -87h3c-35 63 -95 147 -194 196l-123 -57l-32 26l113 52c-32 18 -69 33 -117 48l51 40c52 -15 88 -30 135 -57l120 55l30 -27
l-113 -52c163 -93 238 -283 238 -404c0 -90 -46 -285 -295 -285c-200 0 -295 131 -295 276z" />
    <glyph glyph-name="multiply" unicode="&#xd7;" horiz-adv-x="600" 
d="M299 288l191 191l36 -36l-191 -190l191 -190l-36 -36l-191 191l-189 -191l-36 36l190 190l-190 190l36 36z" />
    <glyph glyph-name="threesuperior" unicode="&#xb3;" horiz-adv-x="434" 
d="M186 484v44c8 -2 19 -2 32 -2c65 0 106 15 106 67c0 46 -45 71 -101 71c-85 0 -120 -42 -120 -96h-56c2 76 55 140 176 140c78 0 157 -31 157 -115c0 -38 -29 -79 -84 -85v-2c56 -3 102 -41 102 -104c0 -95 -86 -128 -169 -128c-124 0 -193 42 -193 145h56
c0 -88 76 -101 140 -101c80 0 110 46 110 82c0 76 -78 82 -156 84z" />
    <glyph glyph-name="copyright" unicode="&#xa9;" horiz-adv-x="800" 
d="M75 357c0 -184 142 -331 325 -331c184 0 325 147 325 332c0 182 -141 330 -325 330c-183 0 -325 -148 -325 -331zM546 280h56c-23 -95 -95 -161 -190 -161c-138 0 -227 104 -227 238c0 137 83 237 224 237c98 0 179 -56 193 -156h-56c-12 60 -62 106 -137 106
c-109 0 -168 -81 -168 -187c0 -98 64 -188 171 -188c73 0 123 48 134 111zM25 357c0 207 168 375 375 375s375 -168 375 -375s-168 -375 -375 -375s-375 168 -375 375z" />
    <glyph glyph-name="Aacute" unicode="&#xc1;" horiz-adv-x="722" 
d="M517 285l-157 355l-159 -355h316zM642 0l-95 217h-376l-97 -217h-80l324 714h86l324 -714h-86zM297 752l115 142h91l-145 -142h-61z" />
    <glyph glyph-name="Acircumflex" unicode="&#xc2;" horiz-adv-x="722" 
d="M517 285l-157 355l-159 -355h316zM642 0l-95 217h-376l-97 -217h-80l324 714h86l324 -714h-86zM178 752l143 142h80l143 -142h-75l-108 101l-108 -101h-75z" />
    <glyph glyph-name="Adieresis" unicode="&#xc4;" horiz-adv-x="722" 
d="M517 285l-157 355l-159 -355h316zM642 0l-95 217h-376l-97 -217h-80l324 714h86l324 -714h-86zM211 758v110h74v-110h-74zM437 758v110h74v-110h-74z" />
    <glyph glyph-name="Agrave" unicode="&#xc0;" horiz-adv-x="722" 
d="M517 285l-157 355l-159 -355h316zM642 0l-95 217h-376l-97 -217h-80l324 714h86l324 -714h-86zM310 894l115 -142h-61l-145 142h91z" />
    <glyph glyph-name="Aring" unicode="&#xc5;" horiz-adv-x="722" 
d="M517 285l-157 355l-159 -355h316zM642 0l-95 217h-376l-97 -217h-80l324 714h86l324 -714h-86zM251 843c0 60 49 110 110 110c59 0 110 -49 110 -110s-51 -110 -110 -110c-61 0 -110 50 -110 110zM289 843c0 -40 32 -72 72 -72s72 32 72 72s-32 72 -72 72
s-72 -32 -72 -72z" />
    <glyph glyph-name="Atilde" unicode="&#xc3;" horiz-adv-x="722" 
d="M517 285l-157 355l-159 -355h316zM642 0l-95 217h-376l-97 -217h-80l324 714h86l324 -714h-86zM502 877h44c-4 -21 -11 -48 -27 -70c-15 -21 -38 -38 -76 -38c-35 0 -64 13 -90 26c-27 13 -52 26 -79 26c-44 0 -51 -31 -54 -52h-44c5 21 12 48 27 70s39 38 76 38
c35 0 64 -13 90 -26c27 -13 52 -26 79 -26c44 0 51 31 54 52z" />
    <glyph glyph-name="Ccedilla" unicode="&#xc7;" horiz-adv-x="815" 
d="M700 272h74c-16 -159 -147 -289 -351 -290l-27 -37l2 -2c9 3 23 5 40 5c51 0 86 -26 86 -68c0 -41 -50 -76 -126 -76c-36 0 -81 11 -99 17l12 35c14 -4 53 -14 83 -14c44 0 68 12 68 38c0 27 -29 36 -52 36c-21 0 -41 -5 -53 -11l-17 17l43 62c-210 15 -342 157 -342 373
c0 163 101 375 380 375c156 0 325 -71 347 -259h-74c-22 136 -144 191 -273 191c-177 0 -300 -99 -300 -307c0 -159 83 -307 300 -307c170 0 254 86 279 222z" />
    <glyph glyph-name="Eacute" unicode="&#xc9;" horiz-adv-x="685" 
d="M78 0v714h568v-68h-494v-242h476v-68h-476v-268h502v-68h-576zM279 752l115 142h91l-145 -142h-61z" />
    <glyph glyph-name="Ecircumflex" unicode="&#xca;" horiz-adv-x="685" 
d="M78 0v714h568v-68h-494v-242h476v-68h-476v-268h502v-68h-576zM160 752l143 142h80l143 -142h-75l-108 101l-108 -101h-75z" />
    <glyph glyph-name="Edieresis" unicode="&#xcb;" horiz-adv-x="685" 
d="M78 0v714h568v-68h-494v-242h476v-68h-476v-268h502v-68h-576zM193 758v110h74v-110h-74zM419 758v110h74v-110h-74z" />
    <glyph glyph-name="Egrave" unicode="&#xc8;" horiz-adv-x="685" 
d="M78 0v714h568v-68h-494v-242h476v-68h-476v-268h502v-68h-576zM292 894l115 -142h-61l-145 142h91z" />
    <glyph glyph-name="Iacute" unicode="&#xcd;" horiz-adv-x="222" 
d="M74 0v714h74v-714h-74zM47 752l115 142h91l-145 -142h-61z" />
    <glyph glyph-name="Icircumflex" unicode="&#xce;" horiz-adv-x="222" 
d="M74 0v714h74v-714h-74zM-72 752l143 142h80l143 -142h-75l-108 101l-108 -101h-75z" />
    <glyph glyph-name="Idieresis" unicode="&#xcf;" horiz-adv-x="222" 
d="M74 0v714h74v-714h-74zM-39 758v110h74v-110h-74zM187 758v110h74v-110h-74z" />
    <glyph glyph-name="Igrave" unicode="&#xcc;" horiz-adv-x="222" 
d="M74 0v714h74v-714h-74zM60 894l115 -142h-61l-145 142h91z" />
    <glyph glyph-name="Ntilde" unicode="&#xd1;" horiz-adv-x="796" 
d="M66 0v714h89l499 -610h2v610h74v-714h-86l-502 610h-2v-610h-74zM539 877h44c-4 -21 -11 -48 -27 -70c-15 -21 -38 -38 -76 -38c-35 0 -64 13 -90 26c-27 13 -52 26 -79 26c-44 0 -51 -31 -54 -52h-44c5 21 12 48 27 70s39 38 76 38c35 0 64 -13 90 -26
c27 -13 52 -26 79 -26c44 0 51 31 54 52z" />
    <glyph glyph-name="Oacute" unicode="&#xd3;" horiz-adv-x="852" 
d="M38 357c0 252 185 375 388 375s388 -123 388 -375s-185 -375 -388 -375s-388 123 -388 375zM118 357c0 -215 151 -307 308 -307s308 92 308 307s-151 307 -308 307s-308 -92 -308 -307zM362 752l115 142h91l-145 -142h-61z" />
    <glyph glyph-name="Ocircumflex" unicode="&#xd4;" horiz-adv-x="852" 
d="M38 357c0 252 185 375 388 375s388 -123 388 -375s-185 -375 -388 -375s-388 123 -388 375zM118 357c0 -215 151 -307 308 -307s308 92 308 307s-151 307 -308 307s-308 -92 -308 -307zM243 752l143 142h80l143 -142h-75l-108 101l-108 -101h-75z" />
    <glyph glyph-name="Odieresis" unicode="&#xd6;" horiz-adv-x="852" 
d="M38 357c0 252 185 375 388 375s388 -123 388 -375s-185 -375 -388 -375s-388 123 -388 375zM118 357c0 -215 151 -307 308 -307s308 92 308 307s-151 307 -308 307s-308 -92 -308 -307zM276 758v110h74v-110h-74zM502 758v110h74v-110h-74z" />
    <glyph glyph-name="Ograve" unicode="&#xd2;" horiz-adv-x="852" 
d="M38 357c0 252 185 375 388 375s388 -123 388 -375s-185 -375 -388 -375s-388 123 -388 375zM118 357c0 -215 151 -307 308 -307s308 92 308 307s-151 307 -308 307s-308 -92 -308 -307zM375 894l115 -142h-61l-145 142h91z" />
    <glyph glyph-name="Otilde" unicode="&#xd5;" horiz-adv-x="852" 
d="M38 357c0 252 185 375 388 375s388 -123 388 -375s-185 -375 -388 -375s-388 123 -388 375zM118 357c0 -215 151 -307 308 -307s308 92 308 307s-151 307 -308 307s-308 -92 -308 -307zM567 877h44c-4 -21 -11 -48 -27 -70c-15 -21 -38 -38 -76 -38c-35 0 -64 13 -90 26
c-27 13 -52 26 -79 26c-44 0 -51 -31 -54 -52h-44c5 21 12 48 27 70s39 38 76 38c35 0 64 -13 90 -26c27 -13 52 -26 79 -26c44 0 51 31 54 52z" />
    <glyph glyph-name="Scaron" unicode="&#x160;" 
d="M624 510h-74c-10 122 -109 154 -224 154s-202 -45 -202 -126c0 -93 87 -115 261 -144c130 -22 260 -52 260 -189c0 -175 -159 -223 -298 -223c-181 0 -313 62 -324 254h74c13 -150 113 -186 250 -186c107 0 218 29 218 142c0 109 -130 122 -260 143
c-170 27 -261 75 -261 190c0 156 144 207 282 207c146 0 293 -52 298 -222zM517 894l-143 -142h-80l-143 142h75l108 -101l108 101h75z" />
    <glyph glyph-name="Uacute" unicode="&#xda;" horiz-adv-x="778" 
d="M708 714v-438c0 -130 -36 -294 -319 -294s-319 164 -319 294v438h74v-438c0 -187 121 -226 245 -226s245 39 245 226v438h74zM325 752l115 142h91l-145 -142h-61z" />
    <glyph glyph-name="Ucircumflex" unicode="&#xdb;" horiz-adv-x="778" 
d="M708 714v-438c0 -130 -36 -294 -319 -294s-319 164 -319 294v438h74v-438c0 -187 121 -226 245 -226s245 39 245 226v438h74zM206 752l143 142h80l143 -142h-75l-108 101l-108 -101h-75z" />
    <glyph glyph-name="Udieresis" unicode="&#xdc;" horiz-adv-x="778" 
d="M708 714v-438c0 -130 -36 -294 -319 -294s-319 164 -319 294v438h74v-438c0 -187 121 -226 245 -226s245 39 245 226v438h74zM239 758v110h74v-110h-74zM465 758v110h74v-110h-74z" />
    <glyph glyph-name="Ugrave" unicode="&#xd9;" horiz-adv-x="778" 
d="M708 714v-438c0 -130 -36 -294 -319 -294s-319 164 -319 294v438h74v-438c0 -187 121 -226 245 -226s245 39 245 226v438h74zM338 894l115 -142h-61l-145 142h91z" />
    <glyph glyph-name="Yacute" unicode="&#xdd;" horiz-adv-x="686" 
d="M306 0v300l-321 414h96l262 -340l262 340h96l-321 -414v-300h-74zM279 752l115 142h91l-145 -142h-61z" />
    <glyph glyph-name="Ydieresis" unicode="&#x178;" horiz-adv-x="686" 
d="M306 0v300l-321 414h96l262 -340l262 340h96l-321 -414v-300h-74zM193 758v110h74v-110h-74zM419 758v110h74v-110h-74z" />
    <glyph glyph-name="Zcaron" unicode="&#x17d;" horiz-adv-x="648" 
d="M5 0v68l530 578h-496v68h596v-68l-533 -578h541v-68h-638zM507 894l-143 -142h-80l-143 142h75l108 -101l108 101h75z" />
    <glyph glyph-name="aacute" unicode="&#xe1;" horiz-adv-x="611" 
d="M471 201v79c-33 -21 -83 -25 -231 -39c-86 -8 -136 -34 -136 -96c0 -81 70 -105 150 -105c100 0 217 54 217 161zM121 360h-68c11 109 70 176 248 176c174 0 238 -54 238 -154v-272c0 -43 12 -58 41 -58c13 0 26 1 39 2v-50c-15 -3 -38 -8 -62 -8c-75 0 -79 51 -80 92h-2
c-23 -34 -73 -104 -243 -104c-89 0 -202 39 -202 156c0 141 145 157 259 163c162 9 182 18 182 69c0 75 -50 102 -172 102c-117 0 -173 -31 -178 -114zM242 598l115 142h91l-145 -142h-61z" />
    <glyph glyph-name="acircumflex" unicode="&#xe2;" horiz-adv-x="611" 
d="M471 201v79c-33 -21 -83 -25 -231 -39c-86 -8 -136 -34 -136 -96c0 -81 70 -105 150 -105c100 0 217 54 217 161zM121 360h-68c11 109 70 176 248 176c174 0 238 -54 238 -154v-272c0 -43 12 -58 41 -58c13 0 26 1 39 2v-50c-15 -3 -38 -8 -62 -8c-75 0 -79 51 -80 92h-2
c-23 -34 -73 -104 -243 -104c-89 0 -202 39 -202 156c0 141 145 157 259 163c162 9 182 18 182 69c0 75 -50 102 -172 102c-117 0 -173 -31 -178 -114zM123 598l143 142h80l143 -142h-75l-108 101l-108 -101h-75z" />
    <glyph glyph-name="adieresis" unicode="&#xe4;" horiz-adv-x="611" 
d="M471 201v79c-33 -21 -83 -25 -231 -39c-86 -8 -136 -34 -136 -96c0 -81 70 -105 150 -105c100 0 217 54 217 161zM121 360h-68c11 109 70 176 248 176c174 0 238 -54 238 -154v-272c0 -43 12 -58 41 -58c13 0 26 1 39 2v-50c-15 -3 -38 -8 -62 -8c-75 0 -79 51 -80 92h-2
c-23 -34 -73 -104 -243 -104c-89 0 -202 39 -202 156c0 141 145 157 259 163c162 9 182 18 182 69c0 75 -50 102 -172 102c-117 0 -173 -31 -178 -114zM156 604v110h74v-110h-74zM382 604v110h74v-110h-74z" />
    <glyph glyph-name="agrave" unicode="&#xe0;" horiz-adv-x="611" 
d="M471 201v79c-33 -21 -83 -25 -231 -39c-86 -8 -136 -34 -136 -96c0 -81 70 -105 150 -105c100 0 217 54 217 161zM121 360h-68c11 109 70 176 248 176c174 0 238 -54 238 -154v-272c0 -43 12 -58 41 -58c13 0 26 1 39 2v-50c-15 -3 -38 -8 -62 -8c-75 0 -79 51 -80 92h-2
c-23 -34 -73 -104 -243 -104c-89 0 -202 39 -202 156c0 141 145 157 259 163c162 9 182 18 182 69c0 75 -50 102 -172 102c-117 0 -173 -31 -178 -114zM255 740l115 -142h-61l-145 142h91z" />
    <glyph glyph-name="aring" unicode="&#xe5;" horiz-adv-x="611" 
d="M471 201v79c-33 -21 -83 -25 -231 -39c-86 -8 -136 -34 -136 -96c0 -81 70 -105 150 -105c100 0 217 54 217 161zM121 360h-68c11 109 70 176 248 176c174 0 238 -54 238 -154v-272c0 -43 12 -58 41 -58c13 0 26 1 39 2v-50c-15 -3 -38 -8 -62 -8c-75 0 -79 51 -80 92h-2
c-23 -34 -73 -104 -243 -104c-89 0 -202 39 -202 156c0 141 145 157 259 163c162 9 182 18 182 69c0 75 -50 102 -172 102c-117 0 -173 -31 -178 -114zM196 689c0 60 49 110 110 110c59 0 110 -49 110 -110s-51 -110 -110 -110c-61 0 -110 50 -110 110zM234 689
c0 -40 32 -72 72 -72s72 32 72 72s-32 72 -72 72s-72 -32 -72 -72z" />
    <glyph glyph-name="atilde" unicode="&#xe3;" horiz-adv-x="611" 
d="M471 201v79c-33 -21 -83 -25 -231 -39c-86 -8 -136 -34 -136 -96c0 -81 70 -105 150 -105c100 0 217 54 217 161zM121 360h-68c11 109 70 176 248 176c174 0 238 -54 238 -154v-272c0 -43 12 -58 41 -58c13 0 26 1 39 2v-50c-15 -3 -38 -8 -62 -8c-75 0 -79 51 -80 92h-2
c-23 -34 -73 -104 -243 -104c-89 0 -202 39 -202 156c0 141 145 157 259 163c162 9 182 18 182 69c0 75 -50 102 -172 102c-117 0 -173 -31 -178 -114zM447 723h44c-4 -21 -11 -48 -27 -70c-15 -21 -38 -38 -76 -38c-35 0 -64 13 -90 26c-27 13 -52 26 -79 26
c-44 0 -51 -31 -54 -52h-44c5 21 12 48 27 70s39 38 76 38c35 0 64 -13 90 -26c27 -13 52 -26 79 -26c44 0 51 31 54 52z" />
    <glyph glyph-name="ccedilla" unicode="&#xe7;" horiz-adv-x="611" 
d="M512 186h74c-14 -68 -74 -202 -263 -202h-1l-28 -39l2 -2c9 3 23 5 40 5c51 0 86 -26 86 -68c0 -41 -50 -76 -126 -76c-36 0 -81 11 -99 17l12 35c14 -4 53 -14 83 -14c44 0 68 12 68 38c0 27 -29 36 -52 36c-21 0 -41 -5 -53 -11l-17 17l46 65
c-164 14 -254 122 -254 273c0 156 96 276 293 276c178 0 247 -111 259 -186h-74c-23 89 -93 124 -185 124c-149 0 -219 -94 -219 -214c0 -129 78 -214 219 -214c109 0 170 59 189 140z" />
    <glyph glyph-name="eacute" unicode="&#xe9;" horiz-adv-x="648" 
d="M113 298h428c-21 128 -115 176 -214 176c-95 0 -197 -49 -214 -176zM528 166h74c-30 -92 -108 -182 -280 -182c-213 0 -283 149 -283 276c0 145 89 276 283 276c134 0 293 -58 293 -294h-502c0 -108 77 -196 209 -196c124 0 180 41 206 120zM260 598l115 142h91
l-145 -142h-61z" />
    <glyph glyph-name="ecircumflex" unicode="&#xea;" horiz-adv-x="648" 
d="M113 298h428c-21 128 -115 176 -214 176c-95 0 -197 -49 -214 -176zM528 166h74c-30 -92 -108 -182 -280 -182c-213 0 -283 149 -283 276c0 145 89 276 283 276c134 0 293 -58 293 -294h-502c0 -108 77 -196 209 -196c124 0 180 41 206 120zM141 598l143 142h80l143 -142
h-75l-108 101l-108 -101h-75z" />
    <glyph glyph-name="edieresis" unicode="&#xeb;" horiz-adv-x="648" 
d="M113 298h428c-21 128 -115 176 -214 176c-95 0 -197 -49 -214 -176zM528 166h74c-30 -92 -108 -182 -280 -182c-213 0 -283 149 -283 276c0 145 89 276 283 276c134 0 293 -58 293 -294h-502c0 -108 77 -196 209 -196c124 0 180 41 206 120zM174 604v110h74v-110h-74z
M400 604v110h74v-110h-74z" />
    <glyph glyph-name="egrave" unicode="&#xe8;" horiz-adv-x="648" 
d="M113 298h428c-21 128 -115 176 -214 176c-95 0 -197 -49 -214 -176zM528 166h74c-30 -92 -108 -182 -280 -182c-213 0 -283 149 -283 276c0 145 89 276 283 276c134 0 293 -58 293 -294h-502c0 -108 77 -196 209 -196c124 0 180 41 206 120zM273 740l115 -142h-61
l-145 142h91z" />
    <glyph glyph-name="iacute" unicode="&#xed;" horiz-adv-x="184" 
d="M55 0v520h74v-520h-74zM28 598l115 142h91l-145 -142h-61z" />
    <glyph glyph-name="icircumflex" unicode="&#xee;" horiz-adv-x="184" 
d="M55 0v520h74v-520h-74zM-91 598l143 142h80l143 -142h-75l-108 101l-108 -101h-75z" />
    <glyph glyph-name="idieresis" unicode="&#xef;" horiz-adv-x="184" 
d="M55 0v520h74v-520h-74zM-58 604v110h74v-110h-74zM168 604v110h74v-110h-74z" />
    <glyph glyph-name="igrave" unicode="&#xec;" horiz-adv-x="184" 
d="M55 0v520h74v-520h-74zM41 740l115 -142h-61l-145 142h91z" />
    <glyph glyph-name="ntilde" unicode="&#xf1;" horiz-adv-x="630" 
d="M499 0v335c0 103 -63 139 -157 139c-145 0 -211 -74 -211 -192v-282h-74v520h74v-102h2c22 55 100 118 215 118c173 0 225 -90 225 -214v-322h-74zM456 723h44c-4 -21 -11 -48 -27 -70c-15 -21 -38 -38 -76 -38c-35 0 -64 13 -90 26c-27 13 -52 26 -79 26
c-44 0 -51 -31 -54 -52h-44c5 21 12 48 27 70s39 38 76 38c35 0 64 -13 90 -26c27 -13 52 -26 79 -26c44 0 51 31 54 52z" />
    <glyph glyph-name="oacute" unicode="&#xf3;" 
d="M113 260c0 -125 81 -214 221 -214s221 89 221 214s-81 214 -221 214s-221 -89 -221 -214zM39 260c0 145 95 276 295 276s295 -131 295 -276s-95 -276 -295 -276s-295 131 -295 276zM270 598l115 142h91l-145 -142h-61z" />
    <glyph glyph-name="ocircumflex" unicode="&#xf4;" 
d="M113 260c0 -125 81 -214 221 -214s221 89 221 214s-81 214 -221 214s-221 -89 -221 -214zM39 260c0 145 95 276 295 276s295 -131 295 -276s-95 -276 -295 -276s-295 131 -295 276zM151 598l143 142h80l143 -142h-75l-108 101l-108 -101h-75z" />
    <glyph glyph-name="odieresis" unicode="&#xf6;" 
d="M113 260c0 -125 81 -214 221 -214s221 89 221 214s-81 214 -221 214s-221 -89 -221 -214zM39 260c0 145 95 276 295 276s295 -131 295 -276s-95 -276 -295 -276s-295 131 -295 276zM184 604v110h74v-110h-74zM410 604v110h74v-110h-74z" />
    <glyph glyph-name="ograve" unicode="&#xf2;" 
d="M113 260c0 -125 81 -214 221 -214s221 89 221 214s-81 214 -221 214s-221 -89 -221 -214zM39 260c0 145 95 276 295 276s295 -131 295 -276s-95 -276 -295 -276s-295 131 -295 276zM283 740l115 -142h-61l-145 142h91z" />
    <glyph glyph-name="otilde" unicode="&#xf5;" 
d="M113 260c0 -125 81 -214 221 -214s221 89 221 214s-81 214 -221 214s-221 -89 -221 -214zM39 260c0 145 95 276 295 276s295 -131 295 -276s-95 -276 -295 -276s-295 131 -295 276zM475 723h44c-4 -21 -11 -48 -27 -70c-15 -21 -38 -38 -76 -38c-35 0 -64 13 -90 26
c-27 13 -52 26 -79 26c-44 0 -51 -31 -54 -52h-44c5 21 12 48 27 70s39 38 76 38c35 0 64 -13 90 -26c27 -13 52 -26 79 -26c44 0 51 31 54 52z" />
    <glyph glyph-name="scaron" unicode="&#x161;" horiz-adv-x="556" 
d="M512 366h-68c-19 84 -71 108 -179 108c-78 0 -150 -17 -150 -89c0 -54 35 -65 193 -86c159 -21 225 -49 225 -150c0 -103 -84 -165 -247 -165c-165 0 -263 54 -263 179h68c13 -87 62 -117 195 -117c103 0 173 21 173 99c0 52 -37 75 -199 91s-219 54 -219 146
c0 90 73 154 224 154c169 0 238 -61 247 -170zM461 740l-143 -142h-80l-143 142h75l108 -101l108 101h75z" />
    <glyph glyph-name="uacute" unicode="&#xfa;" horiz-adv-x="630" 
d="M499 0v102h-2c-22 -55 -100 -118 -215 -118c-173 0 -225 90 -225 214v322h74v-335c0 -103 63 -139 157 -139c145 0 211 74 211 192v282h74v-520h-74zM251 598l115 142h91l-145 -142h-61z" />
    <glyph glyph-name="ucircumflex" unicode="&#xfb;" horiz-adv-x="630" 
d="M499 0v102h-2c-22 -55 -100 -118 -215 -118c-173 0 -225 90 -225 214v322h74v-335c0 -103 63 -139 157 -139c145 0 211 74 211 192v282h74v-520h-74zM132 598l143 142h80l143 -142h-75l-108 101l-108 -101h-75z" />
    <glyph glyph-name="udieresis" unicode="&#xfc;" horiz-adv-x="630" 
d="M499 0v102h-2c-22 -55 -100 -118 -215 -118c-173 0 -225 90 -225 214v322h74v-335c0 -103 63 -139 157 -139c145 0 211 74 211 192v282h74v-520h-74zM165 604v110h74v-110h-74zM391 604v110h74v-110h-74z" />
    <glyph glyph-name="ugrave" unicode="&#xf9;" horiz-adv-x="630" 
d="M499 0v102h-2c-22 -55 -100 -118 -215 -118c-173 0 -225 90 -225 214v322h74v-335c0 -103 63 -139 157 -139c145 0 211 74 211 192v282h74v-520h-74zM264 740l115 -142h-61l-145 142h91z" />
    <glyph glyph-name="yacute" unicode="&#xfd;" horiz-adv-x="556" 
d="M286 87l196 433h80l-282 -617c-38 -82 -70 -105 -152 -105c-23 0 -49 0 -71 2v62c16 -1 33 -2 53 -2c53 0 79 12 103 64l34 72l-253 524h80zM214 598l115 142h91l-145 -142h-61z" />
    <glyph glyph-name="ydieresis" unicode="&#xff;" horiz-adv-x="556" 
d="M286 87l196 433h80l-282 -617c-38 -82 -70 -105 -152 -105c-23 0 -49 0 -71 2v62c16 -1 33 -2 53 -2c53 0 79 12 103 64l34 72l-253 524h80zM128 604v110h74v-110h-74zM354 604v110h74v-110h-74z" />
    <glyph glyph-name="zcaron" unicode="&#x17e;" horiz-adv-x="556" 
d="M20 0v62l395 396h-372v62h478v-62l-403 -396h418v-62h-516zM461 740l-143 -142h-80l-143 142h75l108 -101l108 101h75z" />
    <glyph glyph-name="Delta" unicode="&#x2206;" horiz-adv-x="770" 
d="M36 0v48l311 671h78l309 -671v-48h-698zM105 52h554l-189 411c-21 51 -69 150 -84 195h-5c-12 -32 -54 -123 -76 -174z" />
    <glyph glyph-name="Omega" unicode="&#x2126;" horiz-adv-x="877" 
d="M248 51v3c-88 60 -168 166 -168 313c0 198 160 342 361 342c213 0 356 -164 356 -339c0 -153 -86 -264 -171 -316v-3h187v-51h-280v38c98 48 197 155 197 324c0 136 -102 296 -288 296c-179 0 -295 -139 -295 -299c0 -158 98 -273 197 -321v-38h-281v51h185z" />
    <glyph glyph-name="uni03BC" unicode="&#x3bc;" horiz-adv-x="630" 
d="M499 0v102h-2c-22 -55 -100 -118 -215 -118c-68 0 -119 17 -151 50v-236h-74v722h74v-335c0 -103 75 -139 157 -139c145 0 211 74 211 192v282h74v-520h-74z" />
    <glyph glyph-name="pi" unicode="&#x3c0;" horiz-adv-x="665" 
d="M635 464h-101v-307c0 -94 9 -130 17 -157h-65c-11 15 -19 54 -19 147v317h-237c-8 -135 -47 -378 -90 -464h-66c45 102 82 323 89 464c-81 0 -115 -6 -141 -16l-12 42c30 16 75 27 162 27h471z" />
    <glyph glyph-name="Euro" unicode="&#x20ac;" 
d="M658 613l-38 -60c-14 25 -34 48 -72 67c-44 22 -92 26 -130 26c-42 0 -126 -6 -180 -68c-26 -30 -45 -78 -52 -122h381l-28 -50h-360c-3 -36 -3 -72 0 -107h305l-28 -50h-272c6 -46 24 -95 52 -130c52 -65 118 -73 173 -73c54 0 99 8 149 35c36 20 63 44 86 73v-86
c-20 -19 -47 -39 -76 -52c-46 -21 -111 -32 -163 -32c-70 0 -160 15 -226 96c-35 42 -61 106 -69 169h-100l28 50h67c-3 35 -3 71 0 107h-95l28 50h74c9 56 35 120 76 165c72 79 168 87 232 87c43 0 104 -4 159 -31c39 -19 63 -44 79 -64z" />
    <glyph glyph-name="afii61289" unicode="&#x2113;" horiz-adv-x="560" 
d="M496 152l35 -28c-52 -90 -126 -135 -216 -135c-125 0 -182 92 -188 185v12c-21 -15 -46 -35 -69 -52l-23 39c32 25 64 46 91 70v281c0 188 92 242 171 242c98 0 142 -79 142 -164c0 -131 -100 -252 -250 -380v-23c1 -111 71 -159 139 -159c79 0 140 61 168 112zM189 536
v-252c110 105 199 206 199 313c0 68 -24 122 -93 122c-45 0 -106 -44 -106 -183z" />
    <glyph glyph-name="estimated" unicode="&#x212e;" horiz-adv-x="873" 
d="M838 336h-651c-3 0 -5 -1 -5 -4v-197c0 -9 3 -17 8 -23c63 -65 150 -107 246 -107c104 0 196 47 260 120h57c-71 -85 -188 -140 -318 -140c-221 0 -401 161 -401 360c0 201 180 363 401 363c223 0 403 -162 403 -363v-9zM690 362v198c0 8 -3 17 -9 23
c-64 62 -149 103 -245 103c-95 0 -182 -42 -245 -106c-6 -6 -9 -15 -9 -25v-193c0 -3 2 -7 5 -7h499c3 0 4 4 4 7z" />
    <glyph glyph-name="partialdiff" unicode="&#x2202;" horiz-adv-x="634" 
d="M118 674l-26 43c37 28 98 58 192 58c150 0 289 -134 289 -381c0 -202 -97 -407 -300 -407c-156 0 -224 130 -224 233c0 152 116 249 246 249c120 0 193 -88 211 -120h1c1 15 1 39 1 54c0 201 -109 321 -230 321c-76 0 -128 -27 -160 -50zM278 38h1c121 0 199 121 217 250
c-18 47 -89 131 -191 131s-189 -86 -189 -196c0 -101 64 -185 162 -185z" />
    <glyph glyph-name="product" unicode="&#x220f;" horiz-adv-x="820" 
d="M791 640h-137v-736h-65v736h-359v-736h-64v736h-138v56h763v-56z" />
    <glyph glyph-name="summation" unicode="&#x2211;" horiz-adv-x="652" 
d="M625 -96h-601v40l328 354l-312 355v43h569v-55h-472v-4l293 -332l-313 -339v-3h508v-59z" />
    <glyph glyph-name="uni2219" unicode="&#x2219;" horiz-adv-x="278" 
d="M73 312c0 36 30 66 66 66s66 -30 66 -66s-30 -66 -66 -66s-66 30 -66 66z" />
    <glyph glyph-name="radical" unicode="&#x221a;" horiz-adv-x="653" 
d="M657 823l-261 -975h-63l-191 469l-87 -32l-16 39l144 56l162 -408c6 -18 13 -40 19 -60h1c3 19 10 42 15 61l225 850h52z" />
    <glyph glyph-name="infinity" unicode="&#x221e;" horiz-adv-x="874" 
d="M814 289v-1c0 -104 -81 -172 -168 -172c-73 0 -128 51 -208 137c-60 -67 -122 -137 -214 -137c-89 0 -165 75 -165 169c0 98 74 171 173 171c84 0 150 -69 210 -137c62 68 120 138 213 137c97 0 159 -69 159 -167zM230 160h2c74 0 134 76 181 124
c-51 60 -106 131 -190 131c-74 0 -116 -63 -116 -132c0 -67 48 -123 123 -123zM649 415h-1c-78 0 -142 -87 -183 -127c78 -82 124 -128 185 -128c75 0 117 64 117 125c0 83 -52 130 -118 130z" />
    <glyph glyph-name="integral" unicode="&#x222b;" horiz-adv-x="387" 
d="M375 832l-13 -44c-9 7 -30 13 -45 13c-17 0 -43 -5 -59 -22c-31 -32 -42 -88 -42 -182c0 -154 16 -349 16 -507c0 -111 -26 -169 -50 -200c-23 -31 -62 -47 -101 -47c-28 0 -61 10 -74 19l14 44c9 -5 31 -15 55 -15c19 0 41 9 54 23c25 27 45 70 45 178
c0 159 -17 358 -17 512c0 106 16 169 59 208c29 27 63 36 97 36c23 0 49 -9 61 -16z" />
    <glyph glyph-name="approxequal" unicode="&#x2248;" horiz-adv-x="664" 
d="M577 439l28 -26c-32 -55 -75 -100 -146 -100c-50 0 -82 19 -140 49c-35 18 -71 37 -112 37c-56 0 -90 -40 -120 -83l-29 26c36 63 92 100 157 100c56 0 97 -30 131 -47c42 -21 69 -39 115 -39c49 0 81 27 116 83zM577 252l28 -26c-32 -54 -74 -99 -146 -99
c-50 0 -82 19 -140 49c-36 19 -72 37 -112 37c-57 0 -90 -40 -120 -83l-29 26c36 63 92 100 156 100c57 0 98 -29 132 -46c39 -20 68 -40 116 -40c49 0 80 26 115 82z" />
    <glyph glyph-name="notequal" unicode="&#x2260;" horiz-adv-x="664" 
d="M465 529l-56 -116h195v-44h-214l-83 -170h297v-44h-316l-67 -139l-36 19l58 120h-183v44h204l81 170h-285v44h305l64 135z" />
    <glyph glyph-name="lessequal" unicode="&#x2264;" horiz-adv-x="664" 
d="M601 80l-534 248v46l533 248v-52l-482 -217v-2l483 -219v-52zM603 -8h-544v43h544v-43z" />
    <glyph glyph-name="greaterequal" unicode="&#x2265;" horiz-adv-x="664" 
d="M67 622l534 -248v-46l-534 -248v52l482 218v2l-482 218v52zM602 -8h-542v43h542v-43z" />
    <glyph glyph-name="lozenge" unicode="&#x25ca;" horiz-adv-x="654" 
d="M590 348l-237 -402h-53l-236 402l237 401h52zM529 346l-180 307c-8 14 -18 34 -22 45h-3c-5 -14 -13 -29 -22 -45l-178 -304l181 -308c10 -19 18 -34 21 -44h3c4 11 14 31 21 44z" />
    <glyph glyph-name="uni00A0" unicode="&#xa0;" horiz-adv-x="278" 
 />
    <glyph glyph-name="uni00AD" unicode="&#xad;" horiz-adv-x="444" 
d="M70 237v74h304v-74h-304z" />
    <glyph glyph-name="uni02C9" unicode="&#x2c9;" horiz-adv-x="184" 
d="M-101 641v56h386v-56h-386z" />
    <glyph glyph-name="uni03A9" unicode="&#x3a9;" horiz-adv-x="877" 
d="M248 51v3c-88 60 -168 166 -168 313c0 198 160 342 361 342c213 0 356 -164 356 -339c0 -153 -86 -264 -171 -316v-3h187v-51h-280v38c98 48 197 155 197 324c0 136 -102 296 -288 296c-179 0 -295 -139 -295 -299c0 -158 98 -273 197 -321v-38h-281v51h185z" />
    <glyph glyph-name="uni2215" unicode="&#x2215;" horiz-adv-x="167" 
d="M-160 -16l425 724h62l-425 -724h-62z" />
    <glyph glyph-name="a.superior" horiz-adv-x="397" 
d="M300 513v39c-19 -13 -113 -21 -129 -22c-81 -5 -95 -24 -95 -55c0 -45 43 -59 89 -59c65 0 135 32 135 97zM402 432v-38c-9 -1 -24 -4 -46 -4c-49 0 -51 26 -52 51h-2c-8 -21 -41 -63 -151 -63c-58 0 -131 24 -131 94s62 97 176 102c91 4 104 10 104 35
c0 39 -26 55 -106 55c-71 0 -107 -18 -110 -62h-50c8 65 46 106 162 106c113 0 154 -33 154 -93v-152c0 -26 8 -35 27 -35c8 0 17 2 25 4z" />
    <glyph glyph-name="o.superior" horiz-adv-x="434" 
d="M81 544c0 -75 53 -122 136 -122s136 47 136 122c0 73 -53 120 -136 120s-136 -47 -136 -120zM25 544c0 85 62 164 192 164s192 -79 192 -164c0 -87 -62 -166 -192 -166s-192 79 -192 166z" />
    <glyph glyph-name="one.superior" horiz-adv-x="289" 
d="M146 286v306h-133v38h32c68 0 98 9 113 78h44v-422h-56z" />
    <glyph glyph-name="two.superior" horiz-adv-x="434" 
d="M386 336v-50h-352c6 49 20 100 152 165c102 50 139 74 139 129c0 54 -36 84 -107 84c-95 0 -117 -57 -118 -107h-56c0 107 68 151 174 151c123 0 163 -68 163 -128c0 -72 -47 -107 -105 -135c-135 -65 -163 -83 -174 -109h284z" />
    <glyph glyph-name="three.superior" horiz-adv-x="434" 
d="M186 484v44c8 -2 19 -2 32 -2c65 0 106 15 106 67c0 46 -45 71 -101 71c-85 0 -120 -42 -120 -96h-56c2 76 55 140 176 140c78 0 157 -31 157 -115c0 -38 -29 -79 -84 -85v-2c56 -3 102 -41 102 -104c0 -95 -86 -128 -169 -128c-124 0 -193 42 -193 145h56
c0 -88 76 -101 140 -101c80 0 110 46 110 82c0 76 -78 82 -156 84z" />
    <glyph glyph-name="uni2010" unicode="&#x2010;" horiz-adv-x="444" 
d="M70 237v74h304v-74h-304z" />
    </font>
</defs>
</svg>
