<?xml version="1.0" standalone="no"?>
<!DOCTYPE svg PUBLIC "-//W3C//DTD SVG 1.1//EN" "http://www.w3.org/Graphics/SVG/1.1/DTD/svg11.dtd" >
<svg xmlns="http://www.w3.org/2000/svg">
<metadata>
This is a custom SVG webfont generated by Font Squirrel.
Copyright   : Copyright c 20072010 by vernon adams All rights reserved
Foundry     : vernon adams
</metadata>
<defs>
<font id="webfontn5VEQQo3" horiz-adv-x="1263" >
<font-face units-per-em="2048" ascent="1638" descent="-410" />
<missing-glyph horiz-adv-x="512" />
<glyph unicode=" "  horiz-adv-x="512" />
<glyph unicode="&#x09;" horiz-adv-x="512" />
<glyph unicode="&#xa0;" horiz-adv-x="512" />
<glyph unicode="!" horiz-adv-x="788" d="M289 1579h227l-57 -1180h-117zM293 -16v202h209v-202h-209z" />
<glyph unicode="&#x22;" horiz-adv-x="632" d="M37 1507v72h227v-72l-59 -448h-109zM375 1507v72h227v-72l-59 -448h-109z" />
<glyph unicode="#" horiz-adv-x="1232" d="M229 561v123h177l26 221h-174v125h188l31 279h139l-30 -279h188l29 277h141l-31 -277h160v-125h-172l-27 -221h177v-123h-189l-31 -266h-141l33 266h-186l-33 -266h-142l33 266h-166zM549 684h182l27 221h-183z" />
<glyph unicode="$" horiz-adv-x="1138" d="M127 930q0 82 39 139q43 61 82 90q88 70 293 80v152h102v-154q164 -4 281 -43q16 -4 28.5 -9t17.5 -8t5 -6l-39 -127q-92 33 -293 56v-391l33 -11q254 -90 317 -206q35 -66 35 -152q0 -84 -22 -141q-39 -102 -141.5 -155.5t-221.5 -61.5v-160h-102v158q-164 12 -230 34 l-145 49l49 144l102 -39q86 -27 224 -39v438l-107 29q-307 76 -307 334zM295 931.5q0 -61.5 35 -97.5q33 -35 135 -74l76 -21v361q-156 0 -205 -58q-41 -49 -41 -110.5zM643 133q98 0 159.5 55.5t61.5 141.5t-65 135q-41 29 -156 74v-406z" />
<glyph unicode="%" horiz-adv-x="1722" d="M88 1071q0 -57 8 -100q8 -45 31 -103q20 -53 57 -96q34 -40 92 -67q55 -27 134 -27q76 0 131 27q61 29 94 67q37 43 57 96q23 57 31 103q6 33 6 100q0 223 -84 322q-86 102 -235.5 102t-235.5 -102.5t-86 -321.5zM221 1092q0 299 188.5 299t188.5 -299q0 -163 -49 -234 q-49 -70 -139.5 -70t-139.5 70q-49 71 -49 234zM455 37l682 1460l129 -67l-682 -1453zM999 373q0 -57 9 -101q9 -49 30 -104q20 -53 56 -94q33 -39 94 -68q55 -27 133 -26q76 0 131 26q61 29 94 68q35 41 56 94q22 55 30 104q8 43 8 101q0 223 -84 321q-86 102 -235.5 102.5 t-235.5 -102.5q-86 -100 -86 -321zM1133 393q0 299 188 299q186 0 186 -299q0 -166 -47 -233q-49 -72 -139 -72q-92 0 -141 72q-47 67 -47 233z" />
<glyph unicode="&#x26;" horiz-adv-x="1656" d="M147 395q0 162 84 271q82 106 250 155q-2 2 -9 7.5t-13 9.5t-47 41q-37 33 -62 63q-28 34 -49 80q-20 43 -20 90q0 150 104 242t295 92q88 0 172 -27q80 -27 127 -69q53 -49 76 -105q25 -57 24 -131q0 -59 -14 -100t-43 -76t-76 -64q-46 -28 -98 -49q-68 -27 -127 -45 l496 -389q14 188 14 406h164q0 -131 -13 -260q-14 -152 -22 -195l-12 -66l225 -182l-86 -100l-211 176q-29 -53 -90 -94q-66 -43 -144 -68q-66 -20 -163 -35q-84 -12 -164 -12q-264 0 -418 119q-150 116 -150 315zM330 418q0 -170 90 -244q89 -74 295 -74q350 0 448 156 l-588 469q-245 -52 -245 -307zM446 1120q0 -22 7 -43q8 -29 16 -41l25 -37q20 -25 28 -32q20 -20 31 -29q20 -16 31 -23q6 -4 12 -9t12 -9l17 -10l6 -4q63 18 112 37q29 10 82 36q35 18 56 41q20 25 28 52q10 35 11 69q0 92 -66 142q-68 51 -174 51q-111 0 -168 -41 t-66 -140v-10z" />
<glyph unicode="'" horiz-adv-x="632" d="M205 1507v72h227v-72l-59 -448h-109z" />
<glyph unicode="(" horiz-adv-x="862" d="M283 696q0 150 26 277q29 135 68 229q43 100 92 180q45 74 100 131q49 53 90 82l111 -102q-16 -14 -74 -80q-29 -33 -80 -121q-41 -70 -73 -162q-33 -90 -54 -200q-20 -109 -20 -236q0 -133 20 -243q25 -135 50 -203q31 -86 69 -158q41 -78 76 -117q39 -47 72 -69 l-84 -109q-31 22 -68 55t-82 89q-53 63 -88 131q-49 92 -76 168q-35 92 -55 211q-20 114 -20 247z" />
<glyph unicode=")" horiz-adv-x="862" d="M92 -98q35 29 74 78t80 118q37 61 73 158q33 86 56 201q20 109 20 237q0 123 -18.5 240t-49 203t-69.5 157q-43 80 -76 121q-39 47 -71 76l82 108q25 -18 55 -45q35 -33 78 -79q47 -53 90 -127q33 -55 82 -166q39 -88 61 -215q23 -129 23 -256q0 -162 -27 -297 q-29 -143 -70 -236q-51 -113 -96 -178q-55 -80 -102 -127q-33 -33 -94 -78z" />
<glyph unicode="*" horiz-adv-x="931" d="M25 1145v92h311l-158 272l103 58l139 -275l139 275l103 -58l-158 -272h311v-92h-309l170 -273l-103 -57l-153 275l-154 -275l-102 57l170 273h-309z" />
<glyph unicode="+" horiz-adv-x="1038" d="M166 518v133h313v344h142v-344h313v-133h-313v-344h-142v344h-313z" />
<glyph unicode="," horiz-adv-x="536" d="M115 0v293h280v-250q0 -111 -59.5 -188.5t-169.5 -108.5l-51 94q72 25 102 62q29 35 29 98h-131z" />
<glyph unicode="-" horiz-adv-x="942" d="M133 508v158h678v-158h-678z" />
<glyph unicode="." horiz-adv-x="516" d="M133 98q0 46 31 80q31 35 82 35q47 0 78 -33q29 -31 28.5 -82t-28.5 -82q-31 -33 -78 -32q-51 0 -82 32.5t-31 81.5z" />
<glyph unicode="/" horiz-adv-x="1042" d="M193 -117l624 1848l170 -62l-625 -1847z" />
<glyph unicode="0" horiz-adv-x="1355" d="M115 590q0 135 37 246q37 113 104 194q72 90 178 133q113 47 248 47q133 0 233 -41q106 -43 166 -106q63 -68 103 -150q37 -80 53 -163q16 -86 16 -160q0 -98 -22 -195q-20 -92 -69.5 -172t-112.5 -133q-74 -61 -162 -90q-92 -31 -205 -31q-133 0 -233.5 43t-161.5 107 q-63 68 -103 149q-40 86 -55 166q-14 74 -14 156zM301 592q0 -120 25 -209q25 -88 65 -139q43 -53 92 -82q53 -31 101 -41q51 -10 98 -10q88 0 158 28q68 28 110 74q39 43 70 113q27 63 37 133q10 76 10 147q0 59 -10 127q-10 63 -35 123q-29 68 -68 109q-47 49 -112 75 q-74 29 -160 29q-90 0 -156 -27q-68 -28 -110 -73q-39 -41 -68 -109q-28 -65 -37 -129q-10 -71 -10 -139z" />
<glyph unicode="1" horiz-adv-x="743" d="M53 1083l258 119h191v-1202h-189v1057l-207 -101z" />
<glyph unicode="2" horiz-adv-x="1103" d="M123 0v145l407 334q147 126 197 203q49 76 49 164q0 102 -71 158q-70 55 -205 55q-53 0 -125 -17q-68 -14 -103 -32l-36 -19l-54 117q6 6 12.5 10t38.5 21q37 18 68 28.5t96.5 20.5t124.5 10q100 0 170 -20q72 -20 119 -56q41 -31 76 -82q27 -39 41 -94q10 -39 10 -100 q0 -82 -27 -148q-28 -68 -98 -147q-70 -80 -192 -174l-279 -225h596v-152h-815z" />
<glyph unicode="3" horiz-adv-x="1134" d="M106 -102l54 133l25.5 -12.5t27.5 -12.5q35 -16 129 -41q92 -25 172 -24q141 0 213 63.5t72 181.5q0 248 -336 285v143q70 0 112 11q52 12 99 37t73.5 69.5t26.5 112.5q0 115 -69 166q-72 53 -220 53q-72 0 -145 -19q-86 -20 -113 -34l-39 -19l-49 133q29 14 51 23 q59 23 125 37q96 23 177 22q68 0 116 -8q45 -8 117 -33q61 -20 109 -59q45 -35 75 -98q31 -61 31 -142q0 -66 -22.5 -127t-53.5 -92q-37 -37 -73.5 -59.5t-75.5 -32.5q-41 -10 -64 -10q53 -12 78 -21q43 -14 86 -43q53 -35 82 -69q37 -43 59.5 -102.5t22.5 -143.5 q0 -76 -27 -135q-27 -57 -73 -103q-45 -41 -107 -69q-72 -33 -127 -43q-76 -14 -133 -15q-102 0 -205 25q-111 27 -151 47z" />
<glyph unicode="4" horiz-adv-x="1198" d="M78 205l684 1003l162 -39v-962h186v-139h-186v-328h-168v328h-650zM262 205h494v725z" />
<glyph unicode="5" horiz-adv-x="1101" d="M135 -115l51 146l7 -2l16 -9q6 -2 12 -5t15 -7l36 -14q4 -2 18.5 -7t22.5 -7l47 -13l50 -12q14 -4 55 -8q18 -2 53 -2q317 0 318 299q0 150 -78 233.5t-219 83.5q-113 0 -299 -92l-70 68v632h750v-151h-605v-395l25 18q27 18 84 37q68 20 131 20q205 0 328 -123 q125 -125 125 -327q0 -207 -131 -332q-129 -123 -361 -123q-94 0 -182 23q-102 27 -148 45q-51 20 -51 24z" />
<glyph unicode="6" horiz-adv-x="1232" d="M117 426q0 -270 129 -426t377 -156q121 0 217 39q94 39 157 109q59 66 93 155q33 92 32 189q0 203 -125 330t-342 127q-221 0 -340 -144q18 92 62 176q37 70 100 138q55 59 127 102q80 49 137 70q63 23 133 39l-43 145q-109 -27 -219 -78q-104 -49 -194 -127 q-94 -82 -158 -178q-63 -98 -104 -231q-39 -129 -39 -279zM295 401q0 84 6 121q37 41 133 86q104 49 221 49q123 0 207 -79.5t84 -241.5q0 -70 -16 -121q-20 -63 -53 -111q-37 -51 -103 -86q-63 -33 -151 -32q-80 0 -140 26q-63 29 -96 68q-34 40 -55 98q-27 70 -31 111 q-6 51 -6 112z" />
<glyph unicode="7" horiz-adv-x="1130" d="M145 1073v156h836l57 -121l-571 -1284l-168 76l524 1173h-678z" />
<glyph unicode="8" horiz-adv-x="1261" d="M158 233q0 -96 37 -170q35 -70 104 -118q61 -43 152 -70q78 -23 186 -22q207 0 338 96q129 95 129 282q0 152 -70 261q-66 102 -192 143q59 23 92 41q43 25 82 63q43 43 65.5 96.5t22.5 131.5q0 176 -131 270q-133 96 -336 96q-205 0 -342 -96t-137 -268q0 -72 24 -131 q25 -57 64 -96.5t82 -63.5q33 -18 92 -41q-127 -41 -193 -143q-69 -109 -69 -261zM336 256q0 141 86 229q86 90 215 90q125 0 207 -92q82 -90 82 -229q0 -66 -13 -109q-12 -47 -43 -82q-29 -35 -88 -53q-57 -18 -145 -18q-166 0 -233.5 67.5t-67.5 196.5zM336 967 q0 53 18 96q18 41 47 67q29 25 70 41q45 16 80 23q27 4 86 4q66 0 106 -10q51 -12 91 -35q43 -25 67.5 -74t24.5 -114q0 -121 -84 -197q-88 -78 -205 -78q-121 0 -211 80t-90 197z" />
<glyph unicode="9" horiz-adv-x="1232" d="M117 823q0 -205 125 -331.5t342 -126.5t340 145q-18 -92 -62 -176q-39 -74 -100 -139q-51 -55 -127 -101q-88 -53 -137 -71q-63 -23 -133 -39l43 -146q109 27 219 78q100 47 194 129q98 84 158 176q63 98 104 232q39 129 39 280q0 266 -129 424t-377 158q-117 0 -217 -41 q-96 -39 -157 -107q-59 -66 -92 -158t-33 -186zM293 823q0 68 16 119q20 68 53 113q35 47 103 84q63 33 151 32q80 0 140 -26q66 -29 96 -66q34 -40 55 -98q27 -70 31 -111q6 -51 6 -112q0 -86 -6 -123q-35 -37 -133 -84q-104 -49 -221 -49q-125 0 -207 80q-84 79 -84 241z " />
<glyph unicode=":" horiz-adv-x="595" d="M180 0v281h271v-281h-271zM180 584v280h271v-280h-271z" />
<glyph unicode=";" horiz-adv-x="595" d="M172 0v293h283v-250q0 -111 -59.5 -188.5t-170.5 -108.5l-51 94q72 25 102 62q27 33 27 98h-131zM174 584v280h281v-280h-281z" />
<glyph unicode="&#x3c;" horiz-adv-x="1505" d="M334 664l653 602l103 -111l-551 -491l551 -494l-103 -111z" />
<glyph unicode="=" horiz-adv-x="862" d="M94 281v131h588v-131h-588zM94 508v131h588v-131h-588z" />
<glyph unicode="&#x3e;" horiz-adv-x="1505" d="M334 170l551 494l-551 491l100 111l656 -602l-656 -605z" />
<glyph unicode="?" horiz-adv-x="1230" d="M113 1475q6 6 18 12q14 8 59 24l86 31q37 12 113 27q53 10 129 10q84 0 156 -12q70 -12 133 -41t102 -68q43 -43 67.5 -104.5t24.5 -136.5q0 -55 -12 -105q-14 -61 -28 -90q-18 -39 -48 -78q-29 -37 -59 -65q-41 -37 -70 -56q-47 -31 -77 -47q-20 -12 -80 -39 q-37 -16 -80 -32q-68 -25 -80 -29v-383h-180v483q96 33 186 72q109 47 145 70q66 39 107 79q43 43 63 90q23 51 23 109q0 123 -73.5 172t-237.5 49q-61 0 -109 -8q-66 -12 -92 -20q-37 -12 -68 -25q-33 -12 -45 -21q-16 -10 -16 -12zM264 66q0 43 31 73.5t74 30.5 t73.5 -30.5t30.5 -76.5q0 -43 -30.5 -73.5t-73.5 -30.5t-74 31t-31 76z" />
<glyph unicode="@" horiz-adv-x="1925" d="M137 578q0 164 49 309q51 150 129 248q78 96 193 176q102 70 231 108q123 37 250 37q139 0 254 -26q117 -27 221.5 -84.5t175.5 -137.5q74 -84 117 -198q41 -111 41 -254q0 -125 -31 -226q-29 -94 -77 -159q-43 -57 -109 -101q-63 -41 -115 -55q-59 -16 -108 -16 q-31 0 -55 10q-23 10 -31 26.5t-12 36.5q-2 10 -3 43v232v2q-9 -49 -30 -98q-25 -55 -56 -95q-39 -47 -81 -80q-46 -34 -111 -55q-68 -23 -137 -22q-174 0 -269 104q-96 106 -96 287q0 92 45 194q41 92 117 172q78 82 180 125q111 47 225 47q43 0 107 -8q123 -16 125 -16 l53 -8l55 -109v-670q123 0 188.5 102.5t65.5 338.5q0 127 -36 229q-35 96 -101 162q-59 59 -147 100q-78 37 -174 54q-80 14 -185 14q-141 0 -276 -51q-129 -49 -223.5 -143.5t-145.5 -231.5q-53 -143 -53 -313q0 -279 174 -435q178 -160 512 -159q57 0 109 6q82 10 94 12 q45 10 78 21q41 14 65 24q37 16 53 25q23 10 39 24q8 6 15.5 10.5t11.5 8.5q8 6 16 14l6 4l91 -90l-2 -2q-86 -96 -250 -147q-150 -49 -336 -50q-174 0 -311 39q-145 41 -238 107q-98 70 -162 160q-61 88 -94 200q-31 108 -31 228zM633 573q0 -244 225 -243q80 0 143 32 q70 37 119 101q53 70 84 180q29 111 33 262v82l-25 4q-23 6 -69 13q-29 4 -82 4q-115 0 -213 -55.5t-156 -155.5q-59 -103 -59 -224z" />
<glyph unicode="A" horiz-adv-x="1536" d="M102 0l516 1579h300l516 -1579h-193l-123 383h-700l-123 -383h-193zM451 485h634l-317 975z" />
<glyph unicode="B" horiz-adv-x="1466" d="M197 0v1579h360q170 0 293 -18q115 -16 197 -52q76 -31 116 -82q41 -49 58 -108q14 -51 14 -131q0 -41 -6 -76t-25 -78q-18 -41 -53 -73q-37 -33 -94 -60q-57 -25 -148 -39q408 -47 408 -428q0 -101 -37 -178q-37 -76 -98 -125q-59 -47 -152 -78q-82 -27 -190 -41 q-98 -12 -224 -12h-419zM391 143h225q150 0 236 15q100 16 158 49q68 39 96 100q29 59 29 160q0 178 -113 248q-115 72 -369 71h-262v-643zM391 915h258q129 0 215 19q88 18 129 57q45 43 60 84q16 49 16 113q0 94 -41 143q-41 51 -151 78q-106 27 -316 27h-170v-521z" />
<glyph unicode="C" horiz-adv-x="1265" d="M129 788q0 147 25 271q27 131 61 205q39 80 96 147q51 61 115 100q68 43 129 62q74 23 131 29q78 8 123 8q59 0 115 -6q53 -6 82 -13q4 0 67 -20l51 -15l86 -26l-45 -146l-75 27l-3 1q-2 1 -5 2t-8 3t-11 4q-10 2 -22.5 6.5t-14.5 4.5q-4 2 -17.5 4t-21.5 4q-41 8 -49 10 q-14 2 -59 6q-23 2 -70 2q-129 0 -227 -47q-92 -45 -147.5 -137t-80.5 -211q-25 -121 -24 -275q0 -147 22 -270q20 -106 66 -194q39 -74 102 -125q55 -45 131 -68q68 -20 158 -20q25 0 37 2q6 2 17 2t18 2q6 0 17 3t19.5 5t19.5 5t15 3t8.5 2t7.5 3t9 2t10 3q20 6 33 11 l12 4t16.5 6t16.5 7t8 3l21 8l16 6l74 29l55 -137l-70 -29q-12 -4 -32 -14q-41 -20 -60 -27q-43 -14 -73 -22q-59 -16 -101 -21q-74 -8 -115 -8q-111 0 -202.5 24.5t-159.5 67.5q-61 39 -119 107q-47 55 -84 133q-35 72 -55 155q-23 86 -31 168q-8 74 -8 174z" />
<glyph unicode="D" horiz-adv-x="1568" d="M123 0v1579h575q659 0 660 -791q0 -788 -660 -788h-575zM317 143h381q104 0 185 31q82 31 131 84q55 57 84 137q35 92 45 178q12 95 12 215t-12 216q-12 98 -45 178q-35 84 -84 137q-53 55 -131 86q-80 31 -185 31h-381v-1293z" />
<glyph unicode="E" horiz-adv-x="1181" d="M145 0v1579h971v-143h-776v-545h678v-115h-678v-633h788v-143h-983z" />
<glyph unicode="F" horiz-adv-x="1093" d="M145 0v1579h922v-143h-725v-557h664v-117h-664v-762h-197z" />
<glyph unicode="G" horiz-adv-x="1507" d="M123 786q0 418 180 623q176 201 494 201q242 0 432 -117l24 -16l-65 -136q-82 70 -256 103q-76 14 -154 14q-92 0 -172 -33q-86 -35 -135 -90q-53 -59 -86 -143q-61 -156 -61 -410q0 -383 145 -544q117 -127 332 -127q174 0 274 73q102 74 103 215v285h-404v127h588v-811 h-88l-53 213q-47 -190 -310 -240q-70 -14 -157 -14q-194 0 -338 104q-147 106 -219 289q-74 188 -74 434z" />
<glyph unicode="H" horiz-adv-x="1511" d="M145 0v1579h195v-700h831v700h195v-1579h-195v764h-831v-764h-195z" />
<glyph unicode="I" horiz-adv-x="980" d="M195 0v113h204v1347h-204v119h593v-119h-206v-1347h206v-113h-593z" />
<glyph unicode="J" horiz-adv-x="780" d="M59 35q162 25 226 80q61 53 80 118q20 76 20 246v1100h193v-1065q0 -197 -29 -311q-27 -109 -115 -193q-102 -100 -323 -100z" />
<glyph unicode="K" horiz-adv-x="1366" d="M195 0v1579h192v-725h223l492 725h192l-528 -780l596 -799h-205l-555 748h-215v-748h-192z" />
<glyph unicode="L" horiz-adv-x="1075" d="M145 0v1579h195v-1436h745v-143h-940z" />
<glyph unicode="M" horiz-adv-x="1861" d="M166 0v1579h291l475 -1411l475 1411h291v-1579h-156v1509l-514 -1509h-194l-515 1509v-1509h-153z" />
<glyph unicode="N" horiz-adv-x="1662" d="M207 0v1579h262l827 -1434v1434h162v-1579h-262l-827 1434v-1434h-162z" />
<glyph unicode="O" horiz-adv-x="1556" d="M125 784q0 152 20 267q20 119 60 204q35 80 90 148q51 63 108 104q43 31 123 62q59 23 121 33q49 8 117 8q143 0 260 -41q111 -39 190 -113q74 -68 125.5 -176.5t71.5 -226.5q23 -129 23 -269q0 -152 -20.5 -268.5t-72.5 -224.5q-47 -100 -124 -178q-72 -72 -187 -113 q-113 -41 -252 -41q-41 0 -119 8q-43 4 -124 31q-68 23 -125 59q-57 39 -111 101q-55 65 -92 147q-39 86 -60 207q-22 129 -22 272zM324 784q0 -174 32 -315q31 -129 95 -209q59 -74 143 -113q80 -37 186 -36q88 0 158 24q74 27 121 70q49 45 84 106q35 59 53 138 q20 84 29 157q10 88 10 178q0 180 -33 322q-31 129 -94 209q-59 74 -141 108.5t-186.5 34.5t-186.5 -35q-80 -35 -131 -94q-53 -63 -82 -147q-35 -98 -45 -185q-12 -96 -12 -213z" />
<glyph unicode="P" horiz-adv-x="1374" d="M188 0v1579h398q213 0 342 -29q138 -31 215 -92q80 -63 110 -147q31 -83 31 -203q0 -113 -32.5 -192.5t-116.5 -147.5q-76 -61 -228 -96q-143 -33 -354 -33h-170v-639h-195zM383 784h170q139 0 231 15q98 16 158 39q63 25 98 63q37 41 50 82q14 49 14 100q0 43 -4 93 q-4 41 -15 75q-12 43 -34 68q-20 23 -60 49q-41 27 -90 39q-43 10 -129 20q-68 8 -174 9h-215v-652z" />
<glyph unicode="Q" horiz-adv-x="1562" d="M119 793q0 156 22 268q25 125 76 223q53 104 129 174q80 74 188.5 113t247.5 39q70 0 121 -8q61 -10 125 -33q70 -25 127 -62q53 -35 113 -102q49 -57 92 -148q39 -82 61 -204q25 -137 25 -269q0 -172 -31 -307q-31 -137 -94 -241q-63 -106 -166 -175q-104 -70 -237 -90 l378 -264l-118 -131l-494 389q-283 31 -424 242t-141 586zM319 784.5q0 -113.5 13 -209.5q10 -86 45 -184q29 -86 82 -147q51 -59 133 -97q83 -37 190.5 -36.5t190.5 36.5q82 37 133 97q53 61 82 147q35 98 45 184q12 95 12 209t-12 209q-10 82 -45 183q-31 90 -82 149 t-133 96q-83 37 -190.5 37t-190.5 -37q-82 -37 -133 -96t-82 -149q-35 -100 -45 -183q-13 -95 -13 -208.5z" />
<glyph unicode="R" horiz-adv-x="1343" d="M129 0v1579h377q260 0 391 -29q236 -51 299 -229q27 -76 27 -162q0 -158 -115 -260t-299 -102q98 -12 172 -37q68 -23 127 -72q57 -47 84 -119q29 -76 29 -172v-397h-183v412q0 82 -22 143q-18 51 -82 98q-57 43 -164 62q-104 18 -266 18h-180v-733h-195zM324 862h153h88 q12 0 86 4q78 4 88 6q12 2 40 8.5t40 8.5q47 10 78 24q31 16 61 35q29 18 52 51q20 29 30 66q12 40 13 86q0 53 -12.5 96t-30.5 74q-18 29 -56 51q-35 20 -75 33q-51 16 -101 20q-41 4 -123 9q-41 2 -149 2h-182v-574z" />
<glyph unicode="S" horiz-adv-x="1312" d="M100 1217q0 88 35 161q31 66 88 113q49 41 123 70q80 31 131 38q68 10 123 11q270 0 494 -125l-31 -148q-66 43 -176 82q-109 39 -225 39q-108 0 -185 -18q-74 -18 -117 -51q-39 -31 -59 -78q-16 -39 -16 -103q0 -89 55 -141q51 -47 184 -92l283 -92q35 -10 70 -25 q31 -12 71 -33q33 -16 74 -45q37 -25 65 -57q37 -41 58 -78q23 -41 37 -96q12 -47 12 -123q0 -41 -6 -84q-8 -53 -23 -90q-25 -61 -43 -88q-27 -37 -71 -80q-37 -35 -103 -66q-59 -29 -137 -43q-86 -16 -178 -16q-137 0 -260 33q-126 34 -203 80l20 149q80 -41 109 -53 q57 -23 129 -39q83 -18 172 -18q90 0 168 16q74 15 129 49q53 33 84 94.5t31 145.5q0 63 -19 108q-18 46 -55 80q-39 37 -82 58q-45 23 -106 43l-291 102q-109 39 -174 82q-68 45 -111 100q-35 45 -55 109q-19 56 -19 119z" />
<glyph unicode="T" horiz-adv-x="1081" d="M-12 1436v143h1108v-143h-457v-1436h-190v1436h-461z" />
<glyph unicode="U" horiz-adv-x="1662" d="M205 715v864h190v-868q0 -135 15 -228q16 -100 43 -164q29 -70 63 -108q41 -49 86 -70q49 -23 105 -32q47 -8 122 -9q86 0 148 13q57 12 118.5 53t92.5 104q34 68 55 179q20 104 21 262v868h196v-864q0 -143 -16 -240q-18 -109 -62 -207q-43 -96 -112 -164 q-70 -66 -180 -106q-109 -39 -261 -39q-169 0 -288 49t-195 149.5t-108 235.5q-33 134 -33 322z" />
<glyph unicode="V" horiz-adv-x="1374" d="M70 1579h184l434 -1399l434 1399h183l-494 -1579h-246z" />
<glyph unicode="W" horiz-adv-x="1996" d="M78 1579h178l311 -1444l293 1354h275l295 -1354l309 1444h182l-338 -1579h-287l-235 1067l-64 305l-63 -305l-236 -1067h-284z" />
<glyph unicode="X" horiz-adv-x="1298" d="M43 0l498 801l-496 778h197l407 -655l410 655h194l-493 -778l495 -801h-217l-368 594l-21 33l-18 -33l-369 -594h-219z" />
<glyph unicode="Y" horiz-adv-x="1271" d="M27 1579h196l355 -772l63 -129l57 129l357 772h190l-514 -1094v-485h-190v485z" />
<glyph unicode="Z" horiz-adv-x="1191" d="M84 0v180l829 1268h-829v131h1030v-160l-833 -1276h835v-143h-1032z" />
<glyph unicode="[" horiz-adv-x="1052" d="M268 0v1579h666v-143h-471v-1293h471v-143h-666z" />
<glyph unicode="\" horiz-adv-x="1030" d="M117 1679l157 52l623 -1846l-160 -57z" />
<glyph unicode="]" horiz-adv-x="1112" d="M162 0v143h471v1293h-471v143h663v-1579h-663z" />
<glyph unicode="^" horiz-adv-x="1427" d="M375 510l291 502h96l293 -502l-129 -78l-211 377l-213 -377z" />
<glyph unicode="_" d="M127 33h940v-144h-940v144z" />
<glyph unicode="`" horiz-adv-x="776" d="M68 885l241 90l154 -619l-68 -26z" />
<glyph unicode="a" horiz-adv-x="1236" d="M113 340v2q0 178 120 276q117 96 324 97q76 0 174 -15q115 -16 158 -34v47q0 94 -10 159q-8 55 -48 101q-35 41 -86 57q-53 16 -116 17q-68 0 -125 -13q-53 -10 -98 -30l-38 -15.5l-42 -17.5q-53 -27 -72 -43l-70 133l45 24q176 104 377 105q270 0 373 -115 q98 -111 98 -389v-686h-139l-29 178q-147 -201 -403 -201q-186 0 -291 93q-102 90 -102 270zM303 346q0 -117 59.5 -172t190.5 -55q172 0 336 151v299q-123 20 -242 21q-109 0 -178 -17q-61 -14 -100 -47q-66 -61 -66 -180z" />
<glyph unicode="b" horiz-adv-x="1361" d="M199 0v1579l188 35v-584q20 20 38.5 34.5t74.5 51.5q49 33 110.5 53.5t124.5 20.5q113 0 197 -39q82 -39 137 -102q47 -55 84 -146q35 -86 47 -162q12 -78 12 -157q0 -90 -16 -183q-16 -88 -53 -165q-39 -82 -90 -134q-57 -57 -135 -89.5t-183 -32.5q-109 0 -203 57 q-95 58 -165 141l-29 -178h-139zM387 272q156 -150 356 -149q66 0 117 27q55 29 84 69.5t51 104.5q20 57 27 125q8 82 8 135q0 463 -287 463q-109 0 -205 -47.5t-151 -98.5v-629z" />
<glyph unicode="c" horiz-adv-x="1120" d="M109 579.5q0 -143.5 32 -247.5q33 -106 88 -174q55 -70 121 -109q68 -41 135 -57q59 -14 131 -15q207 0 392 134l-58 135q-129 -119 -329 -119q-63 0 -121 23q-53 20 -103 73q-46 49 -73 142q-25 82 -25 215q0 236 86 348t252 112q181 0 313 -116l58 133 q-188 133 -390 133q-61 0 -131 -16q-66 -16 -137 -60q-68 -41 -121 -110q-57 -74 -88 -175q-32 -106 -32 -249.5z" />
<glyph unicode="d" horiz-adv-x="1284" d="M109 584q0 172 51 305q53 139 157 219q106 82 252 82q123 0 219 -51q102 -55 148 -111v586l188 -35v-1579h-141l-27 178q-55 -74 -157 -137q-98 -61 -207 -61q-126 0 -221 49q-96 49 -152 135q-55 88 -84 192q-26 101 -26 228zM291 588q0 -465 297 -465q111 0 203 49 q98 53 145 102v629q-188 143 -354 144q-45 0 -76 -9q-33 -8 -76 -37q-39 -25 -72 -77q-31 -49 -49 -135t-18 -201z" />
<glyph unicode="e" horiz-adv-x="1144" d="M109 578q0 147 38 262q39 113 109 192q68 78 162 117q98 41 205 41q215 0 329.5 -139.5t114.5 -374.5q0 -53 -8 -109h-760q0 -109 14 -178q14 -72 54 -135q39 -66 106 -94q76 -33 170 -33q172 0 307 117l62 -146q-68 -51 -191 -88q-111 -33 -188 -33q-254 0 -389 160 t-135 441zM299 682h598v35q0 86 -18 149q-18 61 -45 99q-29 37 -66 57q-43 25 -72 29q-33 6 -71 6q-49 0 -84 -8q-43 -10 -86 -33q-45 -25 -80 -66q-33 -39 -56 -108q-20 -64 -20 -160z" />
<glyph unicode="f" horiz-adv-x="823" d="M66 1065v104h194v29q0 104 16 191q16 82 43 133t70 81.5t92 43t111 12.5q53 0 108 -21q61 -23 97 -43q37 -23 37 -28l-64 -125q-83 74 -154 74q-106 0 -137 -48q-27 -39 -28 -151v-60v-14v-74h348v-104h-348v-1065h-191v1065h-194z" />
<glyph unicode="g" horiz-adv-x="1271" d="M158 385q0 65 30 111q29 41 129 59l86 14q-106 37 -159.5 113t-53.5 172q0 154 129 244q133 92 332 92h2q57 0 99 -8q59 -12 75 -19q39 -16 52 -22q6 -2 13 -6.5l12 -7.5t7 -5l11 -8l77 39q41 20 197 21h31v-150l-240 2l31 -31q33 -45 41 -65q10 -25 10 -66q0 -39 -8 -96 q-4 -35 -31 -94q-18 -43 -59 -84q-37 -37 -105 -66q-71 -31 -153 -43l-412 -55l21 -166h391q260 0 377 -80q119 -82 118 -256q0 -166 -139 -262q-127 -88 -385 -88h-84q-207 0 -315 84q-111 86 -111 248q0 43 16 86q14 37 35 61.5t49 40.5l41 25l25 8h2q-43 10 -82 27 q-45 18 -59 45q-25 39 -25 53q-4 35 -14 106zM332 -80q0 -111 63.5 -153.5t216.5 -42.5h88q184 0 263 45q84 43 84 149q0 113 -66 160q-68 49 -229 49h-324q-2 0 -4 -3t-6 -5q-12 -12 -23 -25q-20 -25 -28 -39q-16 -31 -25 -59q-10 -41 -10 -76zM350 846q0 -45 23 -90 q23 -47 51 -72q47 -43 59 -51q35 -25 49 -31l23 -10l141 20q53 8 92 27q41 18 62 39q25 25 35 51q12 33 16 62q2 18 2 69q0 111 -57 154q-61 45 -199 45q-297 0 -297 -213z" />
<glyph unicode="h" horiz-adv-x="1298" d="M160 0v1579l190 37v-627q39 43 70 70q37 33 78 61q53 37 106 54q51 16 121 16q98 0 172 -25q78 -27 133 -75q53 -47 86 -146q31 -92 31 -217v-727h-191v727q0 176 -59 248t-172 72q-66 0 -131 -19q-68 -18 -117 -47q-45 -25 -80 -53q-45 -35 -47 -39v-889h-190z" />
<glyph unicode="i" horiz-adv-x="632" d="M207 1462q0 46 31 80q31 35 81 35q47 0 78 -33q29 -31 29 -82t-29 -82q-31 -33 -78 -32q-51 0 -81.5 32.5t-30.5 81.5zM223 0v1169h183v-1169h-183z" />
<glyph unicode="j" horiz-adv-x="587" d="M20 -258q51 33 84 68q31 35 54 71q20 35 32 84q10 43 15 96q4 61 4 115v993h188v-1015q0 -115 -26 -207q-28 -95 -74 -160t-104 -104q-57 -39 -125 -56zM190 1462q0 46 31 80q31 35 80 35t80 -33q29 -31 29 -82t-29 -82q-31 -33 -80 -32.5t-80 33t-31 81.5z" />
<glyph unicode="k" horiz-adv-x="1134" d="M162 0v1579l190 35v-987l559 542h226l-553 -522l585 -647h-221l-479 555l-117 -96v-459h-190z" />
<glyph unicode="l" horiz-adv-x="589" d="M213 0v1579l190 35v-1614h-190z" />
<glyph unicode="m" horiz-adv-x="2050" d="M190 0v1169h142l26 -206q63 100 162 163q100 63 231.5 63.5t209.5 -63.5q80 -65 110 -159q68 100 186 163q111 59 236 60q170 0 262 -115q92 -113 92 -309v-766h-188v768q0 76 -14 139q-12 53 -41 86q-27 29 -60 41q-34 12 -80 13q-182 0 -362 -189v-858h-191v768 q0 86 -12 141q-12 53 -41 86q-25 27 -59 41q-25 10 -78 11q-154 0 -340 -187v-860h-191z" />
<glyph unicode="n" horiz-adv-x="1370" d="M190 0v1169h142l22 -188q63 78 193 143q127 63 258 64q43 0 94 -10q49 -10 98 -39q57 -33 90 -78q41 -53 64 -135q25 -86 25 -199v-727h-191v727q0 84 -10 129q-12 59 -37 100q-27 47 -70 68q-49 23 -106 23q-102 0 -219 -62q-115 -59 -162 -104v-881h-191z" />
<glyph unicode="o" horiz-adv-x="1312" d="M127 582q0 137 31 235q37 115 96 193q63 82 167.5 131t233.5 49q106 0 195 -31q84 -29 149 -88q59 -53 105 -133q41 -74 63 -166q20 -84 21 -190q0 -129 -33 -234q-35 -113 -96 -190q-68 -86 -168 -131q-106 -47 -236 -47q-102 0 -192 30q-88 31 -150 86q-63 57 -104 131 q-43 76 -64 164q-18 76 -18 191zM307 581.5q0 -106.5 20.5 -186.5t61.5 -145q39 -63 108.5 -98t157.5 -35q90 0 160 34.5t109 98.5q45 74 61 145q18 84 19 187q0 106 -21 186q-23 88 -59 147q-39 61 -109 101q-63 35 -160 35q-88 0 -157.5 -35t-108.5 -98.5t-61 -149.5 q-21 -80 -21 -186.5z" />
<glyph unicode="p" horiz-adv-x="1353" d="M203 -487v1656h141l33 -198q66 88 164 153q96 66 211 66q82 0 143 -21q63 -20 113 -57q51 -37 85.5 -84t61.5 -102q23 -47 39 -115q14 -55 20 -115q6 -55 7 -112q0 -88 -17 -181q-14 -84 -53 -163q-35 -74 -90 -136q-49 -55 -133 -90q-82 -35 -176 -34q-106 0 -203 53 q-90 49 -156 131v-629zM393 285q16 -16 35 -31l76 -53q57 -39 108 -56q68 -23 121 -22q37 0 53.5 2t59.5 16q41 14 65 33q27 20 55.5 65.5t43.5 102.5q29 111 28 201q0 71 -6 135q-6 61 -24 133q-20 78 -47 121q-29 47 -84 82q-51 33 -125 33q-61 0 -123 -21 q-72 -25 -113 -47q-25 -14 -78 -51q-35 -25 -45 -37v-606z" />
<glyph unicode="q" horiz-adv-x="1284" d="M109 584q0 102 14 182q16 90 51 166q37 82 88 135q55 57 131 90q78 33 176 33q117 0 219 -64q98 -61 164 -155l33 198h139v-1648l-188 -23v666q-66 -82 -156 -131q-96 -53 -200 -53q-96 0 -179 34q-84 37 -135 92q-57 63 -90 136q-35 78 -51 164q-16 92 -16 178zM291 584 q0 -92 8 -151.5t27 -115.5q14 -45 41 -84q20 -29 49 -55q27 -23 55 -35q35 -14 55 -16q33 -4 54 -4q108 0 208 49t148 96v623q-70 70 -178 113q-106 43 -189 43q-278 0 -278 -463z" />
<glyph unicode="r" horiz-adv-x="884" d="M195 0v1169h143l31 -192q164 213 321 213q59 0 101 -12v-152q-8 4 -64 4q-78 0 -158 -33q-88 -37 -125 -59q-35 -23 -59 -43v-895h-190z" />
<glyph unicode="s" horiz-adv-x="993" d="M102 891q0 39 13 78q12 37 41 80q29 41 71 71q35 25 115 49q68 20 158 21q111 0 223 -43q115 -43 158 -80l-62 -143q-154 119 -309 118q-133 0 -190.5 -45t-57.5 -116q0 -47 33 -78q37 -33 131 -66l168 -59q94 -33 178 -80q66 -37 102 -88q35 -49 48 -92q12 -45 12 -109 q0 -78 -27 -133q-27 -57 -69.5 -94t-100.5 -62q-61 -27 -119 -34q-51 -8 -122 -9q-102 0 -217 39q-109 37 -166 84l63 146q66 -57 152 -86q94 -33 155 -33q123 0 201 45t78 141q0 82 -47 121q-51 43 -144 72l-174 55q-90 31 -151.5 66t-89.5 75q-31 45 -43 84 q-11 37 -11 105z" />
<glyph unicode="t" horiz-adv-x="827" d="M35 1065v104h190l21 361l162 47v-408h333v-104h-333v-766q0 -68 12 -104q14 -41 31 -52q22 -12 55 -12q76 0 188 66l37 20l68 -123l-47 -31l-45 -22q-27 -12 -95 -37q-59 -20 -110 -20q-154 0 -219.5 84t-65.5 282v715h-182z" />
<glyph unicode="u" d="M131 442v727h191v-727q0 -154 53 -237q51 -82 180 -82q190 0 352 151v895h191v-1169h-142l-26 176q-92 -104 -182 -149q-94 -47 -203 -47q-197 0 -305 110q-109 112 -109 352z" />
<glyph unicode="v" horiz-adv-x="1169" d="M57 1169h189l336 -970l329 970h191l-430 -1169h-187z" />
<glyph unicode="w" horiz-adv-x="1708" d="M55 1169h185l233 -1044l258 1044h203l250 -1046l239 1046h187l-320 -1169h-207l-264 995l-237 -995h-205z" />
<glyph unicode="x" horiz-adv-x="1175" d="M90 1169h215l283 -467l291 467h208l-405 -585l397 -584h-202l-283 477l-289 -477h-211l408 584z" />
<glyph unicode="y" horiz-adv-x="1222" d="M92 1169h182l357 -919l301 919h194l-438 -1206l-26.5 -75l-22.5 -60.5l-12 -30.5q-88 -188 -246 -237q-57 -18 -125 -19l-51 125q152 25 217 94q63 68 123 263z" />
<glyph unicode="z" horiz-adv-x="1007" d="M102 0v166l637 862h-608v141h772v-165l-624 -859h624v-145h-801z" />
<glyph unicode="{" horiz-adv-x="821" d="M76 571q238 0 237 -309q0 -164 45 -268q86 -203 365 -203v168q-68 0 -102 8q-43 10 -74 41q-18 16 -29 41q-2 6 -20 70q-10 39 -15 170q0 311 -241 377q242 66 241 376q4 131 15 170l20 68q10 25 29 41q31 31 74 41q35 8 102 8v168q-279 0 -365 -203q-45 -104 -45 -268 q0 -307 -237 -307v-189z" />
<glyph unicode="|" horiz-adv-x="624" d="M223 -111v1807h178v-1807h-178z" />
<glyph unicode="}" horiz-adv-x="825" d="M129 -41q68 0 102 8q45 10 76 41q16 14 27 41q10 29 22 70q10 39 15 170q0 313 239 377q-240 63 -239 376q-4 131 -15 170q-8 31 -22 68q-10 27 -27 41q-31 31 -76 41q-35 8 -102 8l2 168q276 0 363 -203q47 -111 47 -268q0 -307 237 -307v-189q-238 0 -237 -309 q0 -158 -47 -268q-86 -203 -363 -203z" />
<glyph unicode="~" horiz-adv-x="897" d="M92 393q0 260 203 260q49 0 102 -18q49 -18 88 -43q41 -27 78 -43q47 -20 76 -21q57 0 57 111h158q0 -111 -53 -180.5t-139 -69.5q-47 0 -107 19q-53 16 -98 41q-63 35 -84 43q-43 18 -66 18q-28 0 -43 -25q-14 -23 -14 -92h-158z" />
<glyph unicode="&#xa1;" horiz-adv-x="788" d="M289 0h227l-57 1180h-117zM293 1393h209v202h-209v-202z" />
<glyph unicode="&#xa2;" horiz-adv-x="1136" d="M141 580q0 -88 17 -177q15 -83 43 -141q27 -57 65 -108q33 -45 80 -78q53 -39 88 -53q49 -22 92 -31q57 -12 90 -15v-137h103v142q49 0 90 8q47 10 86 22q49 16 69.5 24.5t49.5 22.5l16 9l-47 137l-6 -4l-21 -11l-14 -7t-16 -9t-21.5 -8t-21.5 -6q-16 -6 -49 -15 q-45 -10 -56 -12q-41 -4 -59 -4v909q16 0 45 -4t43 -8l41 -12q18 -6 37 -15l33 -16q10 -6 26 -14q8 -4 21 -13q12 -10 14 -10l4 -2l57 133l-18 10q-2 2 -20.5 11.5l-30.5 15.5q-63 29 -74 33q-39 14 -86 27q-49 12 -92 12v143h-103v-139q-20 -2 -90 -16q-41 -8 -92 -33 q-45 -20 -90 -54q-39 -29 -80 -81q-33 -43 -63 -109q-28 -58 -43 -141q-17 -88 -17 -176zM332 580q0 420 284 456v-907q-55 8 -88 23q-45 20 -77 51q-37 35 -64 86q-27 53 -41 123t-14 168z" />
<glyph unicode="&#xa3;" horiz-adv-x="1126" d="M152 602h196q0 -66 -4 -98q-10 -76 -12 -88q-6 -27 -19 -76q-8 -29 -22 -64q-16 -37 -25 -53q-18 -37 -22 -43l-19 -28q-4 -6 -7 -12.5t-5 -8.5l-6 -4v-127h797v131h-617q2 2 7 9t7 12l29 57q14 29 35 94q16 53 29 131q14 94 14 168h428v105h-428l-33 34q-84 109 -84 217 q0 221 268 222q51 0 99 -9q25 -4 90 -24q4 0 74 -27l49 -22l18 -11l49 132l-16 10q-12 8 -53 24q-37 15 -86 31q-43 14 -125 27q-78 12 -158 12q-102 0 -192 -47q-86 -45 -144 -133q-55 -86 -55 -187q0 -43 12 -82q14 -49 29 -71q20 -35 35 -53q18 -25 28 -35q12 -12 13 -8 h-174v-105z" />
<glyph unicode="&#xa4;" horiz-adv-x="1363" d="M133 555l189 186q-68 102 -68 226q0 131 74 241l-195 195l125 123l195 -193q109 76 241 76q125 0 226 -68l186 185l125 -123l-189 -189q61 -98 62 -215q0 -133 -76 -241l203 -203l-125 -125l-203 203q-113 -76 -239 -76q-119 0 -218 61l-188 -188zM395 975 q0 -113 82 -195t193 -82q115 0 202 88q90 90 91 205q0 111 -82 193t-193 82q-117 0 -205 -88q-88 -92 -88 -203z" />
<glyph unicode="&#xa5;" horiz-adv-x="1275" d="M41 1579h195l419 -791l420 791h195l-482 -891h263v-104h-295v-97h295v-98h-295v-389h-191v389h-303v98h303v97h-303v104h262z" />
<glyph unicode="&#xa6;" horiz-adv-x="638" d="M250 0v690h186v-690h-186zM250 889v690h186v-690h-186z" />
<glyph unicode="&#xa7;" horiz-adv-x="1191" d="M225 770q0 29 6 53q6 27 25 54q23 35 47 53q31 25 74 41q47 18 102 24q-82 31 -131 64q-55 35 -78 69q-27 39 -34 74q-10 41 -11 82q0 43 11 74q10 33 40 76q27 39 68 67q45 31 109 49q68 18 149 19q102 0 213 -41q113 -41 150 -76l-60 -135q-61 49 -139 78 q-80 29 -154 28q-231 0 -231 -147q0 -47 31 -76q29 -27 125 -61l155 -56q83 -31 141.5 -61.5t92.5 -60.5q39 -35 55 -68q18 -37 25 -70q8 -45 8 -78q0 -86 -70 -151q-66 -61 -180 -72q57 -18 110 -51q41 -25 74 -57q23 -23 41 -66q14 -35 20.5 -65.5t6.5 -63.5 q0 -68 -27 -127q-25 -55 -65 -90q-43 -37 -96.5 -57.5t-112.5 -30.5q-61 -10 -117 -10q-94 0 -205 37q-100 33 -157 79l61 138q58 -52 141 -80q86 -29 150 -29q49 0 100 10q49 10 82 28.5t55 55.5q20 33 21 80q0 39 -12 70q-10 25 -41 49.5t-56 34.5q-35 16 -71 29l-160 53 q-78 25 -144 61q-53 31 -86 72q-27 35 -40 80q-11 32 -11 98zM379 754q0 -154 235 -154q119 0 179 39q61 41 61 113q0 34 -12 61q-14 31 -31 43q-25 18 -45 27q-33 14 -53 16q-8 0 -25.5 3t-25.5 3h-48q-127 0 -180 -39q-55 -38 -55 -112z" />
<glyph unicode="&#xa8;" horiz-adv-x="950" d="M121 496q0 49 30.5 81.5t81.5 32.5q47 0 78 -32.5t31 -82t-30.5 -82t-78.5 -32.5q-51 0 -81 35q-31 34 -31 80zM610 496q0 45 33 82q31 33 80 32q47 0 77.5 -32.5t30.5 -82t-30.5 -82t-77.5 -32.5q-49 0 -80 35q-33 37 -33 80z" />
<glyph unicode="&#xa9;" horiz-adv-x="2099" d="M164 829q0 -127 33 -239q33 -111 94 -209q59 -94 141 -170t178 -127q100 -53 207 -80t221.5 -27t221 27t207 80t180.5 127q82 76 141 170q58 92 92 209q35 121 35 239q0 117 -37 244q-33 115 -96 209q-66 98 -144 170q-82 76 -182 129q-94 49 -203 78q-111 29 -215 29 q-102 0 -213 -29q-113 -29 -204 -78q-96 -51 -180.5 -129t-145.5 -170q-63 -94 -96 -209q-35 -121 -35 -244zM311 829q0 129 41 248q39 117 113 205q68 84 166 152q86 61 196 96q100 33 211 33t211 -33q115 -37 199 -96q92 -66 164 -152q74 -88 112 -205q41 -119 41 -248 q0 -150 -53 -284q-55 -137 -145 -232q-92 -96 -232 -155q-133 -57 -297 -58q-162 0 -295 58q-139 59 -231 155q-94 98 -147 232q-54 134 -54 284zM555 831q0 -59 6 -108q6 -51 24.5 -100.5t43 -92.5t67.5 -79q45 -39 94.5 -61.5t124.5 -39.5q70 -14 160 -14q125 0 281 78 v127q-150 -76 -293 -76q-98 0 -154 16q-63 18 -106 59.5t-66 112.5q-20 68 -20 178q0 109 20 177q23 76 66 114q43 41 106 60q55 16 154 16q143 0 293 -76v125q-156 78 -281 78q-90 0 -160 -14q-76 -16 -125 -39t-94 -62t-67 -77q-25 -43 -43 -93q-18 -47 -25 -102 q-6 -50 -6 -107z" />
<glyph unicode="&#xaa;" horiz-adv-x="1185" d="M207 960.5q0 141.5 98 219.5q100 78 260 77q53 0 105 -8q78 -12 94 -16q10 -2 16 -4l11.5 -4t6.5 -3t1 -3v57q0 39 -4 84q-4 39 -15 65q-12 29 -32 48q-16 14 -56 28q-33 12 -86 12q-68 0 -141 -18q-80 -20 -111 -33q-35 -14 -39 -18l-53 108q2 0 10 4q2 0 10.5 5.5 t14.5 7.5l39 16q18 8 53 19q41 12 62 16l69 12q41 6 78 6q100 0 172 -22q66 -20 111 -72q43 -49 61.5 -122.5t18.5 -186.5v-549h-117l-27 141l-6 -8q-2 -2 -7 -9l-9 -13q-2 -4 -25 -31q-8 -10 -41 -35q-12 -8 -51 -31q-27 -14 -70 -24q-35 -8 -86 -8q-147 0 -231 75.5 t-84 217zM270 446v129h684v-129h-684zM367 971q0 -104 43 -147.5t151 -43.5q41 0 82 13q40 12 67.5 30.5t49 37t31.5 30.5l8 12v238q-90 16 -176 16q-256 0 -256 -186z" />
<glyph unicode="&#xab;" horiz-adv-x="1531" d="M150 481v185l608 383v-207l-436 -264l436 -273v-207zM758 481v185l608 383v-207l-436 -264l436 -273v-207z" />
<glyph unicode="&#xac;" horiz-adv-x="1722" d="M94 1024v150h1354v-836h-176v686h-1178z" />
<glyph unicode="&#xad;" horiz-adv-x="862" d="M154 508v131h469v-131h-469z" />
<glyph unicode="&#xae;" horiz-adv-x="1333" d="M102 1108q0 115 45 217q49 111 121 182.5t189 120.5q109 45 233 45q121 0 232 -43q104 -41 188 -121q80 -76 125 -180q45 -102 45 -221t-45 -221q-45 -104 -125 -180q-84 -80 -188 -121q-111 -43 -232 -43q-125 0 -233 45q-117 49 -189 121q-74 74 -121 180 q-45 102 -45 219zM211 1106q0 -201 135 -332q137 -133 344 -133t346 135q137 135 138 330q0 199 -140 332q-141 135 -344 135q-209 0 -344 -135t-135 -332zM512 807v602h119q82 0 149 -14q55 -12 99 -52q41 -37 41 -81q0 -76 -35 -113q-37 -39 -131 -64l180 -249 q-12 -4 -29 -13l-45 -24q-23 -12 -26 -15l-175 283h-43v-260h-104zM621 1151h47q78 0 110 23q37 25 37 81q0 37 -37 54q-35 16 -157 16v-174z" />
<glyph unicode="&#xaf;" horiz-adv-x="1001" d="M98 98v117h682v-117h-682z" />
<glyph unicode="&#xb0;" horiz-adv-x="778" d="M143 899q0 104 68 172t176 68q104 0 170 -68q66 -70 66 -172t-66 -172q-66 -68 -170 -68q-106 0 -176 70q-68 68 -68 170zM240 899q0 -63 41 -104q45 -45 104 -45q61 0 102 43q39 41 39 106.5t-39 106.5q-41 43 -102 43q-63 0 -104 -45.5t-41 -104.5z" />
<glyph unicode="&#xb1;" horiz-adv-x="1142" d="M207 578v133h311v344h141v-344h316v-133h-316v-345h-141v345h-311zM240 -55v139h700v-139h-700z" />
<glyph unicode="&#xb2;" horiz-adv-x="1124" d="M254 668v137l270 239q127 113 178 181q45 59 45.5 128.5t-53.5 106.5q-49 35 -137 35q-29 0 -47 -2q-10 -2 -28.5 -4t-26.5 -4q-14 -2 -54 -10q-8 -2 -25.5 -5.5t-25.5 -5.5q-29 -8 -41 -12q-6 -2 -16 -4t-12 -2l-11 -2v143q8 4 39 15q35 12 107 22q92 14 159 14 q78 0 140 -18q59 -18 98 -47q37 -28 61 -68q27 -43 35 -75q10 -41 11 -72q0 -92 -54 -176q-53 -86 -190 -201l-191 -162h406v-151h-637z" />
<glyph unicode="&#xb3;" horiz-adv-x="1206" d="M299 618l51 127l17 -8q8 -4 41 -18q41 -16 61 -23q35 -10 76 -16q57 -8 86 -8q94 0 157.5 51t63.5 129q0 88 -66 147q-61 55 -196 72v135q65 0 117 19q49 16 88 59q37 40 36 98q0 74 -55 117q-53 41 -168 41q-61 0 -116 -14q-70 -18 -89 -29l-28 -12l-47 127q8 4 14 6 l41 16q14 6 63 21q25 6 78 14q61 8 88 8q33 0 95 -8q41 -6 100 -27q49 -16 90 -49q39 -31 64 -82q25 -52 24 -116q0 -55 -18.5 -98.5t-46.5 -71.5q-31 -31 -62 -47.5t-63 -26.5q-27 -8 -54 -8q35 -6 66 -19q43 -16 72 -34q37 -23 69 -56q25 -25 49 -84q20 -49 21 -114 q0 -55 -25 -111q-23 -51 -61.5 -84t-87.5 -57q-45 -23 -105 -33q-61 -10 -110 -10q-170 0 -316 69z" />
<glyph unicode="&#xb4;" horiz-adv-x="1095" d="M489 354l158 611l234 -91l-334 -546z" />
<glyph unicode="&#xb5;" horiz-adv-x="1327" d="M598 -20q-35 0 -82 14q-35 10 -67 33q-31 20 -50 39q-25 25 -30 34l-11 13v-404h-174v1460h174v-727q0 -319 252 -319q61 0 133 20q63 18 109 47q51 33 70 50q31 27 36 34v895h207v-1153h-145l-25 154q-172 -190 -397 -190z" />
<glyph unicode="&#xb6;" horiz-adv-x="1312" d="M127 1249q0 -74 28.5 -137t71.5 -100q39 -35 111 -62q70 -27 131 -35q76 -10 147 -10v-905h191v915v512h135v-1427h186v1579l-466 -2q-47 0 -121 -4q-55 -3 -110.5 -12.5t-98.5 -24.5q-41 -14 -84 -41q-37 -23 -63.5 -59.5t-41.5 -79.5q-16 -50 -16 -107z" />
<glyph unicode="&#xb7;" horiz-adv-x="516" d="M133 649q0 47 31 82t82 35q47 0 78 -35q29 -31 28 -82q0 -49 -28 -80q-31 -35 -78 -34q-51 0 -82 34t-31 80z" />
<glyph unicode="&#xb8;" horiz-adv-x="573" d="M135 -424l33 -8l74 -21q53 -12 57 -12q10 0 24.5 1t18.5 1q8 0 37 8q20 6 33 21q8 10 18 41q8 25 8 65q0 80 -59.5 111t-192.5 31v262h121v-174q127 0 195 -54q70 -55 69 -190q0 -236 -252 -236q-25 0 -36 3q-6 2 -17.5 2t-17.5 2t-17.5 4t-17.5 4q-8 2 -18.5 5t-12.5 3 l-24 8q-6 2 -10.5 3t-6.5 1l-6 2v117z" />
<glyph unicode="&#xb9;" horiz-adv-x="739" d="M119 1346l237 94l140 -27v-936h-168v828l-172 -72z" />
<glyph unicode="&#xba;" horiz-adv-x="1275" d="M213 1151q0 76 16 152q14 66 51 133t82 106q53 45 121 70q76 27 156 26q78 0 154 -26q68 -25 120 -70q49 -43 84 -106q33 -61 50 -133q16 -76 16 -152q0 -94 -27 -186q-25 -88 -75 -154q-53 -70 -134 -104q-82 -37 -188.5 -37t-187.5 37q-80 35 -133.5 104.5t-77.5 153.5 q-27 92 -27 186zM299 446v129h684v-129h-684zM371 1153q0 -82 14 -141.5t47 -112.5q29 -47 84 -76q51 -27 123 -26q70 0 121 26q55 29 84 76q33 53 47 111q14 59 14 143t-14 143.5t-47 112.5q-29 47 -84 76q-51 27 -121 26q-72 0 -123 -26q-55 -29 -84 -76 q-33 -53 -47 -112.5t-14 -143.5z" />
<glyph unicode="&#xbb;" horiz-adv-x="1531" d="M168 98v207l446 273l-446 264v207l608 -383v-185zM774 98v207l447 273l-447 264v207l608 -383v-185z" />
<glyph unicode="&#xbc;" horiz-adv-x="1814" d="M137 1434l238 96l131 -27v-936h-162v846l-170 -72zM233 -31l1039 1397l123 -94l-1043 -1395zM838 143l565 803l127 -31v-770h151v-110h-151v-262l-146 -23v285h-524zM997 143h387v559l-120 -188z" />
<glyph unicode="&#xbd;" horiz-adv-x="2066" d="M193 1434l237 96l131 -27v-936h-160v846l-170 -72zM262 -31l1041 1397l120 -94l-1040 -1395zM1202 -35l273 240q127 113 178 180q45 59 45 129q0 68 -53 104q-51 37 -138 37q-10 0 -47 -4l-55 -6q-14 -2 -53 -10q-37 -8 -52 -12q-6 -2 -20 -5.5t-20.5 -5.5t-16.5 -4 t-12 -2l-10 -4v146q8 4 39 14q35 12 106 22q92 14 160 15q76 0 137 -19q57 -18 100 -49q37 -28 62 -67q27 -45 35 -74q10 -41 10 -74q0 -90 -53 -174q-53 -86 -191 -201l-190 -161h405v-152h-639v137z" />
<glyph unicode="&#xbe;" horiz-adv-x="2158" d="M190 618l52 127q8 -4 14 -8q4 -4 43 -18q41 -16 61 -23q35 -10 76 -16q57 -8 86 -8q94 0 158 51q61 49 61 129q0 90 -63 147q-61 55 -199 72v135q66 0 119 19q49 16 88 59q37 40 37 98q0 74 -55 117q-53 41 -168 41q-63 0 -119 -14q-66 -16 -86 -29l-31 -12l-47 127 q4 2 16 6l41 16q14 6 64 21q25 6 78 14q61 8 88 8q33 0 94 -8q37 -4 98 -27q52 -18 92 -49q39 -31 64 -82q25 -52 25 -116q0 -55 -18.5 -98.5t-47.5 -71.5q-31 -31 -61.5 -47.5t-63.5 -26.5q-27 -8 -53 -8q35 -6 65 -19q37 -14 70 -34q37 -23 70 -56q29 -29 51 -84 q18 -45 18 -114q0 -59 -22.5 -110.5t-61.5 -84.5t-88 -57q-45 -23 -106.5 -33t-110.5 -10q-57 0 -104 8q-76 14 -92 18q-49 14 -68 23q-39 16 -47 20zM539 -31l1040 1397l121 -94l-1041 -1395zM1145 143l563 803l127 -31v-770h152v-110h-152v-262l-143 -23v285h-527z M1303 143h389v559l-123 -188z" />
<glyph unicode="&#xbf;" horiz-adv-x="1230" d="M205 250q0 63 10 104q14 57 29 88q14 33 49 78q33 43 57 66q35 33 72 55q59 39 76 47q8 4 82 39q55 27 79 35q4 2 32 12t46 17v383h181v-486q-117 -39 -187 -70q-94 -41 -145 -71q-70 -41 -107 -78q-39 -39 -61.5 -90t-22.5 -111q0 -123 74 -172t238 -49q59 0 106 8 q66 12 92 21q37 12 68 24q29 12 47 23q14 8 14 10l60 -143l-21 -10q-39 -20 -57 -27l-86 -31q-23 -8 -113 -24q-63 -12 -131 -13q-83 0 -154 13q-70 12 -133 40.5t-104 69.5q-45 45 -67.5 102.5t-22.5 139.5zM731 1401q0 41 33 74q31 31 74 30q41 0 71.5 -30.5t30.5 -73.5 q0 -45 -29 -74q-31 -31 -73.5 -31t-73.5 31q-33 33 -33 74z" />
<glyph unicode="&#xc0;" horiz-adv-x="1536" d="M102 0l516 1579h300l516 -1579h-193l-123 383h-700l-123 -383h-193zM408 2288l241 88l154 -619l-68 -24zM451 485h634l-317 975z" />
<glyph unicode="&#xc1;" horiz-adv-x="1536" d="M102 0l516 1579h300l516 -1579h-193l-123 383h-700l-123 -383h-193zM451 485h634l-317 975zM739 1757l160 613l231 -93l-333 -544z" />
<glyph unicode="&#xc2;" horiz-adv-x="1536" d="M102 0l516 1579h300l516 -1579h-193l-123 383h-700l-123 -383h-193zM426 1839l129 -78l213 377l211 -377l129 78l-293 502h-96zM451 485h634l-317 975z" />
<glyph unicode="&#xc3;" horiz-adv-x="1536" d="M102 0l516 1579h300l516 -1579h-193l-123 383h-700l-123 -383h-193zM387 1737q0 260 203 260q45 0 102 -21q49 -18 88 -43q41 -27 78 -43q43 -18 76 -18q57 0 57 110h158q0 -113 -53 -182q-51 -68 -140 -67q-47 0 -106 18q-53 16 -98 41t-84 41q-43 18 -66 18 q-28 0 -43 -24q-14 -23 -14 -90h-158zM451 485h634l-317 975z" />
<glyph unicode="&#xc4;" horiz-adv-x="1536" d="M102 0l516 1579h300l516 -1579h-193l-123 383h-700l-123 -383h-193zM414 1847q0 46 30 80q31 35 80 35q47 0 78 -33t31 -82t-31 -81.5t-78 -32.5q-49 0 -79.5 32.5t-30.5 81.5zM451 485h634l-317 975zM903 1847q0 46 31 80q31 35 82 35q47 0 78 -33q29 -31 28.5 -82 t-28.5 -82q-31 -33 -78 -32q-51 0 -82 32.5t-31 81.5z" />
<glyph unicode="&#xc5;" horiz-adv-x="1536" d="M102 0l516 1579q-4 4 -10 8t-12 10q-70 70 -70 172.5t70 172.5q68 68 174.5 67.5t171.5 -67.5q66 -70 66 -172.5t-66 -172.5q-14 -14 -22 -20l514 -1577h-193l-123 383h-700l-123 -383h-193zM451 485h634l-317 975zM625 1769q0 -66 41 -106q43 -43 102 -43q63 0 102 43 q39 41 39 106.5t-39 106.5q-39 43 -102 43q-61 0 -102 -45.5t-41 -104.5z" />
<glyph unicode="&#xc6;" horiz-adv-x="1871" d="M53 0l826 1579h938v-143h-648v-545h605v-127h-603v-621h674v-143h-839v371h-551l-193 -371h-209zM514 494h490v964z" />
<glyph unicode="&#xc7;" horiz-adv-x="1265" d="M129 788q0 147 25 271q27 131 61 205q39 80 96 147q51 61 115 100q68 43 129 62q74 23 131 29q78 8 123 8q59 0 115 -6q53 -6 82 -13q4 0 67 -20l51 -15l86 -26l-45 -146l-75 27l-3 1q-2 1 -5 2t-8 3t-11 4q-10 2 -22.5 6.5t-14.5 4.5q-4 2 -17.5 4t-21.5 4q-41 8 -49 10 q-14 2 -59 6q-23 2 -70 2q-129 0 -227 -47q-92 -45 -147.5 -137t-80.5 -211q-25 -121 -24 -275q0 -147 22 -270q20 -106 66 -194q39 -74 102 -125q55 -45 131 -68q68 -20 158 -20q25 0 37 2q6 2 17 2t18 2q6 0 17 3t19.5 5t19.5 5t15 3t8.5 2t7.5 3t9 2t10 3q20 6 33 11 l12 4t16.5 6t16.5 7t8 3l21 8l16 6l74 29l55 -137l-70 -29q-12 -4 -32 -14q-41 -20 -60 -27q-43 -14 -73 -22q-59 -16 -101 -21q-74 -8 -115 -8q-111 0 -202.5 24.5t-159.5 67.5q-61 39 -119 107q-47 55 -84 133q-35 72 -55 155q-23 86 -31 168q-8 74 -8 174zM678 -518 l33 -10q57 -16 71 -21q45 -10 60 -10q10 0 24.5 1t18.5 1q12 0 35 6q18 6 32 23q12 16 21 39q8 25 8 65q0 80 -59 111q-61 33 -195 32v263h123v-175q125 0 194.5 -55t69.5 -188q0 -238 -252 -238q-25 0 -37 2l-37 6q-6 2 -16 4.5t-16 4.5q-6 0 -11.5 2l-11.5 4t-8 2t-6 1 t-7 2t-6.5 2t-5.5 1q-10 4 -16 6l-6 2v117z" />
<glyph unicode="&#xc8;" horiz-adv-x="1181" d="M145 0v1579h971v-143h-776v-545h678v-115h-678v-633h788v-143h-983zM270 2288l242 88l154 -619l-68 -24z" />
<glyph unicode="&#xc9;" horiz-adv-x="1181" d="M145 0v1579h971v-143h-776v-545h678v-115h-678v-633h788v-143h-983zM602 1757l160 613l231 -93l-334 -544z" />
<glyph unicode="&#xca;" horiz-adv-x="1181" d="M145 0v1579h971v-143h-776v-545h678v-115h-678v-633h788v-143h-983zM291 1839l127 -78l213 377l211 -377l129 78l-293 502h-96z" />
<glyph unicode="&#xcb;" horiz-adv-x="1181" d="M145 0v1579h971v-143h-776v-545h678v-115h-678v-633h788v-143h-983zM276 1847q0 46 31 80q31 35 80 35t80 -33q29 -31 29 -82t-29 -82q-31 -33 -80 -32.5t-80 33t-31 81.5zM766 1847q0 46 31 80q31 35 82 35q47 0 77 -33q29 -31 29 -82t-29 -82q-31 -33 -77 -32 q-51 0 -82 32.5t-31 81.5z" />
<glyph unicode="&#xcc;" horiz-adv-x="980" d="M141 2288l242 88l154 -619l-68 -24zM195 0v113h204v1347h-204v119h593v-119h-206v-1347h206v-113h-593z" />
<glyph unicode="&#xcd;" horiz-adv-x="980" d="M195 0v113h204v1347h-204v119h593v-119h-206v-1347h206v-113h-593zM424 1757l160 613l231 -93l-334 -544z" />
<glyph unicode="&#xce;" horiz-adv-x="980" d="M152 1839l127 -78l213 373l210 -373l129 78l-292 502h-97zM195 0v113h204v1347h-204v119h593v-119h-206v-1347h206v-113h-593z" />
<glyph unicode="&#xcf;" horiz-adv-x="980" d="M139 1847q0 43 33 80q31 35 80 35q47 0 77.5 -33t30.5 -82t-30.5 -81.5t-77.5 -32.5q-49 0 -80 32q-33 37 -33 82zM195 0v113h204v1347h-204v119h593v-119h-206v-1347h206v-113h-593zM631 1847q0 46 31 80q31 35 79 35q47 0 78 -33t31 -82t-31 -81.5t-78 -32.5 q-49 0 -79.5 32.5t-30.5 81.5z" />
<glyph unicode="&#xd0;" horiz-adv-x="1490" d="M-6 764v131h590v-131h-590zM156 0v1579h553q338 -6 497 -207q162 -203 162 -584q0 -788 -659 -788h-553zM350 143h359q104 0 184 31q82 31 131 84q55 57 84 137q35 92 45 178q14 111 14 215.5t-14 215.5q-12 98 -45 178q-35 84 -84 137q-53 55 -131 86q-80 31 -184 31 h-359v-1293z" />
<glyph unicode="&#xd1;" horiz-adv-x="1662" d="M207 0v1579h262l827 -1434v1434h162v-1579h-262l-827 1434v-1434h-162zM453 1737q0 260 200 260q45 0 103 -21q55 -18 90 -43q41 -27 78 -43q43 -18 73 -18q59 0 60 110h155q0 -117 -51 -182q-51 -68 -139 -67q-47 0 -107 18q-53 16 -98 41t-84 41q-43 18 -65 18 q-28 0 -43 -24q-16 -27 -17 -90h-155z" />
<glyph unicode="&#xd2;" horiz-adv-x="1556" d="M125 784q0 152 20 267q20 119 60 204q35 80 90 148q51 63 108 104q43 31 123 62q59 23 121 33q49 8 117 8q143 0 260 -41q111 -39 190 -113q74 -68 125.5 -176.5t71.5 -226.5q23 -129 23 -269q0 -152 -20.5 -268.5t-72.5 -224.5q-47 -100 -124 -178q-72 -72 -187 -113 q-113 -41 -252 -41q-41 0 -119 8q-43 4 -124 31q-68 23 -125 59q-57 39 -111 101q-55 65 -92 147q-39 86 -60 207q-22 129 -22 272zM324 784q0 -174 32 -315q31 -129 95 -209q59 -74 143 -113q80 -37 186 -36q88 0 158 24q74 27 121 70q49 45 84 106q35 59 53 138 q20 84 29 157q10 88 10 178q0 180 -33 322q-31 129 -94 209q-59 74 -141 108.5t-186.5 34.5t-186.5 -35q-80 -35 -131 -94q-53 -63 -82 -147q-35 -98 -45 -185q-12 -96 -12 -213zM401 2288l242 88l154 -619l-68 -24z" />
<glyph unicode="&#xd3;" horiz-adv-x="1556" d="M125 784q0 152 20 267q20 119 60 204q35 80 90 148q51 63 108 104q43 31 123 62q59 23 121 33q49 8 117 8q143 0 260 -41q111 -39 190 -113q74 -68 125.5 -176.5t71.5 -226.5q23 -129 23 -269q0 -152 -20.5 -268.5t-72.5 -224.5q-47 -100 -124 -178q-72 -72 -187 -113 q-113 -41 -252 -41q-41 0 -119 8q-43 4 -124 31q-68 23 -125 59q-57 39 -111 101q-55 65 -92 147q-39 86 -60 207q-22 129 -22 272zM324 784q0 -174 32 -315q31 -129 95 -209q59 -74 143 -113q80 -37 186 -36q88 0 158 24q74 27 121 70q49 45 84 106q35 59 53 138 q20 84 29 157q10 88 10 178q0 180 -33 322q-31 129 -94 209q-59 74 -141 108.5t-186.5 34.5t-186.5 -35q-80 -35 -131 -94q-53 -63 -82 -147q-35 -98 -45 -185q-12 -96 -12 -213zM735 1757l160 613l231 -93l-333 -544z" />
<glyph unicode="&#xd4;" horiz-adv-x="1556" d="M125 784q0 152 20 267q20 119 60 204q35 80 90 148q51 63 108 104q43 31 123 62q59 23 121 33q49 8 117 8q143 0 260 -41q111 -39 190 -113q74 -68 125.5 -176.5t71.5 -226.5q23 -129 23 -269q0 -152 -20.5 -268.5t-72.5 -224.5q-47 -100 -124 -178q-72 -72 -187 -113 q-113 -41 -252 -41q-41 0 -119 8q-43 4 -124 31q-68 23 -125 59q-57 39 -111 101q-55 65 -92 147q-39 86 -60 207q-22 129 -22 272zM324 784q0 -174 32 -315q31 -129 95 -209q59 -74 143 -113q80 -37 186 -36q88 0 158 24q74 27 121 70q49 45 84 106q35 59 53 138 q20 84 29 157q10 88 10 178q0 180 -33 322q-31 129 -94 209q-59 74 -141 108.5t-186.5 34.5t-186.5 -35q-80 -35 -131 -94q-53 -63 -82 -147q-35 -98 -45 -185q-12 -96 -12 -213zM424 1839l129 -78l211 377l213 -377l127 78l-293 502h-94z" />
<glyph unicode="&#xd5;" horiz-adv-x="1556" d="M125 784q0 152 20 267q20 119 60 204q35 80 90 148q51 63 108 104q43 31 123 62q59 23 121 33q49 8 117 8q143 0 260 -41q111 -39 190 -113q74 -68 125.5 -176.5t71.5 -226.5q23 -129 23 -269q0 -152 -20.5 -268.5t-72.5 -224.5q-47 -100 -124 -178q-72 -72 -187 -113 q-113 -41 -252 -41q-41 0 -119 8q-43 4 -124 31q-68 23 -125 59q-57 39 -111 101q-55 65 -92 147q-39 86 -60 207q-22 129 -22 272zM324 784q0 -174 32 -315q31 -129 95 -209q59 -74 143 -113q80 -37 186 -36q88 0 158 24q74 27 121 70q49 45 84 106q35 59 53 138 q20 84 29 157q10 88 10 178q0 180 -33 322q-31 129 -94 209q-59 74 -141 108.5t-186.5 34.5t-186.5 -35q-80 -35 -131 -94q-53 -63 -82 -147q-35 -98 -45 -185q-12 -96 -12 -213zM385 1737q0 260 201 260q45 0 102 -21q49 -18 88 -43q41 -27 78 -43q43 -18 76 -18 q57 0 57 110h158q0 -113 -53 -182q-51 -68 -140 -67q-47 0 -106 18q-53 16 -98.5 41t-83.5 41q-43 18 -66 18q-28 0 -43 -24q-14 -23 -14 -90h-156z" />
<glyph unicode="&#xd6;" horiz-adv-x="1556" d="M125 784q0 152 20 267q20 119 60 204q35 80 90 148q51 63 108 104q43 31 123 62q59 23 121 33q49 8 117 8q143 0 260 -41q111 -39 190 -113q74 -68 125.5 -176.5t71.5 -226.5q23 -129 23 -269q0 -152 -20.5 -268.5t-72.5 -224.5q-47 -100 -124 -178q-72 -72 -187 -113 q-113 -41 -252 -41q-41 0 -119 8q-43 4 -124 31q-68 23 -125 59q-57 39 -111 101q-55 65 -92 147q-39 86 -60 207q-22 129 -22 272zM324 784q0 -174 32 -315q31 -129 95 -209q59 -74 143 -113q80 -37 186 -36q88 0 158 24q74 27 121 70q49 45 84 106q35 59 53 138 q20 84 29 157q10 88 10 178q0 180 -33 322q-31 129 -94 209q-59 74 -141 108.5t-186.5 34.5t-186.5 -35q-80 -35 -131 -94q-53 -63 -82 -147q-35 -98 -45 -185q-12 -96 -12 -213zM410 1847q0 46 30 80q31 35 80 35q47 0 78 -33t31 -82t-31 -81.5t-78 -32.5q-49 0 -79.5 32.5 t-30.5 81.5zM899 1847q0 46 31 80q31 35 82 35q47 0 78 -33q29 -31 28.5 -82t-28.5 -82q-31 -33 -78 -32q-51 0 -82 32.5t-31 81.5z" />
<glyph unicode="&#xd7;" horiz-adv-x="1363" d="M279 229l317 318l-317 315l102 103l315 -318l318 318l102 -103l-317 -315l317 -318l-102 -102l-318 317l-315 -317z" />
<glyph unicode="&#xd8;" horiz-adv-x="1556" d="M123 784q0 141 22 267q20 119 60 204q35 80 90 148q51 63 108 104q43 31 123 62q59 23 121 33q49 8 117 8q143 0 260 -41q111 -39 190 -113q74 -68 125.5 -176.5t71.5 -226.5q23 -129 23 -269q0 -152 -20.5 -268.5t-72.5 -224.5q-47 -100 -124 -178q-72 -72 -187 -113 q-113 -41 -252 -41q-41 0 -119 8q-43 4 -124 31q-68 23 -125 59q-57 39 -111 101q-55 65 -92 147q-41 94 -62 207q-22 129 -22 272zM324 784q0 -174 32 -315q31 -132 93 -209q59 -74 143 -113q80 -37 186 -36q89 0 160 24q74 27 121 70q49 45 84 106q35 59 53 138 q20 84 29 157q8 72 8 178q0 180 -33 322q-31 132 -92 209q-57 72 -143 108q-82 35 -186.5 35t-186.5 -35q-80 -35 -131 -94q-53 -63 -82 -147q-31 -89 -43 -185t-12 -213zM348 -113l826 1823l102 -43l-825 -1827z" />
<glyph unicode="&#xd9;" horiz-adv-x="1662" d="M205 715v864h190v-868q0 -135 15 -228q16 -100 43 -164q29 -70 63 -108q41 -49 86 -70q49 -23 105 -32q47 -8 122 -9q86 0 148 13q57 12 118.5 53t92.5 104q34 68 55 179q20 104 21 262v868h196v-864q0 -143 -16 -240q-18 -109 -62 -207q-43 -96 -112 -164 q-70 -66 -180 -106q-109 -39 -261 -39q-169 0 -288 49t-195 149.5t-108 235.5q-33 134 -33 322zM436 2288l242 88l153 -619l-67 -24z" />
<glyph unicode="&#xda;" horiz-adv-x="1662" d="M205 715v864h190v-868q0 -135 15 -228q16 -100 43 -164q29 -70 63 -108q41 -49 86 -70q49 -23 105 -32q47 -8 122 -9q86 0 148 13q57 12 118.5 53t92.5 104q34 68 55 179q20 104 21 262v868h196v-864q0 -143 -16 -240q-18 -109 -62 -207q-43 -96 -112 -164 q-70 -66 -180 -106q-109 -39 -261 -39q-169 0 -288 49t-195 149.5t-108 235.5q-33 134 -33 322zM768 1757l160 613l231 -93l-334 -544z" />
<glyph unicode="&#xdb;" horiz-adv-x="1662" d="M205 715v864h190v-868q0 -135 15 -228q16 -100 43 -164q29 -70 63 -108q41 -49 86 -70q49 -23 105 -32q47 -8 122 -9q86 0 148 13q57 12 118.5 53t92.5 104q34 68 55 179q20 104 21 262v868h196v-864q0 -143 -16 -240q-18 -109 -62 -207q-43 -96 -112 -164 q-70 -66 -180 -106q-109 -39 -261 -39q-169 0 -288 49t-195 149.5t-108 235.5q-33 134 -33 322zM457 1839l129 -78l211 377l213 -377l127 78l-291 502h-96z" />
<glyph unicode="&#xdc;" horiz-adv-x="1662" d="M205 715v864h190v-868q0 -135 15 -228q16 -100 43 -164q29 -70 63 -108q41 -49 86 -70q49 -23 105 -32q47 -8 122 -9q86 0 148 13q57 12 118.5 53t92.5 104q34 68 55 179q20 104 21 262v868h196v-864q0 -143 -16 -240q-18 -109 -62 -207q-43 -96 -112 -164 q-70 -66 -180 -106q-109 -39 -261 -39q-169 0 -288 49t-195 149.5t-108 235.5q-33 134 -33 322zM483 1847q0 46 31 80q31 35 82 35q47 0 78 -33q29 -31 28.5 -82t-28.5 -82q-31 -33 -78 -32q-51 0 -82 32.5t-31 81.5zM973 1847q0 46 31 80q31 35 81 35q47 0 78 -33t31 -82 t-30.5 -81.5t-78.5 -32.5q-51 0 -81.5 32.5t-30.5 81.5z" />
<glyph unicode="&#xdd;" horiz-adv-x="1271" d="M27 1579h196l355 -772l63 -129l57 129l357 772h190l-514 -1094v-485h-190v485zM635 1757l160 613l231 -93l-334 -544z" />
<glyph unicode="&#xde;" horiz-adv-x="1454" d="M156 0v1579h194v-135h197q172 0 289 -21q121 -20 200 -59q82 -39 125 -96q47 -63 66 -131q18 -72 18 -164q0 -94 -20 -158q-22 -68 -74 -129q-49 -57 -133 -98t-209 -62q-135 -23 -297 -22h-162v-504h-194zM350 649h162q143 0 236 15q94 14 159 41q57 23 97 65 q33 37 47 84q12 43 12 104q0 77 -12 129q-12 55 -41 95q-31 41 -88 67q-55 25 -146 37q-104 14 -217 14h-209v-651z" />
<glyph unicode="&#xdf;" horiz-adv-x="1406" d="M162 -6v997q-6 147 16 260q20 106 78 183q55 74 147 110q88 35 228 35q492 0 491 -403q0 -143 -61 -228q-65 -89 -184 -104q92 0 172 -31q84 -33 135 -84q61 -61 90 -141q31 -86 31 -189v-4q0 -94 -23 -162q-25 -74 -65 -127q-39 -49 -99 -94q-55 -41 -125 -67 q-66 -25 -143 -43q-80 -18 -158 -24.5t-162 -6.5v156q145 0 254 18q102 18 170 53q63 33 103 84q41 53 53 108.5t12 133.5v8q0 63 -18 115q-18 53 -60 94q-45 43 -108 72q-72 31 -164 45q-104 16 -221 16h-51v131h22q215 12 271 29q96 25 131 98q27 55 26 168q0 72 -20 115 q-18 41 -68 71q-41 27 -98 39q-47 10 -133 11q-61 0 -100 -8.5t-74 -32.5q-33 -23 -51.5 -53.5t-30.5 -79.5q-10 -45 -15 -107q-6 -117 -6 -137v-1002z" />
<glyph unicode="&#xe0;" horiz-adv-x="1236" d="M234 1866l241 90l154 -619l-68 -26zM113 340v2q0 178 120 276q117 96 324 97q76 0 174 -15q115 -16 158 -34v47q0 94 -10 159q-8 55 -48 101q-35 41 -86 57q-53 16 -116 17q-68 0 -125 -13q-53 -10 -98 -30l-38 -15.5l-42 -17.5q-53 -27 -72 -43l-70 133l45 24 q176 104 377 105q270 0 373 -115q98 -111 98 -389v-686h-139l-29 178q-147 -201 -403 -201q-186 0 -291 93q-102 90 -102 270zM303 346q0 -117 59.5 -172t190.5 -55q172 0 336 151v299q-123 20 -242 21q-109 0 -178 -17q-61 -14 -100 -47q-66 -61 -66 -180z" />
<glyph unicode="&#xe1;" horiz-adv-x="1236" d="M567 1337l158 611l234 -91l-334 -546zM113 340v2q0 178 120 276q117 96 324 97q76 0 174 -15q115 -16 158 -34v47q0 94 -10 159q-8 55 -48 101q-35 41 -86 57q-53 16 -116 17q-68 0 -125 -13q-53 -10 -98 -30l-38 -15.5l-42 -17.5q-53 -27 -72 -43l-70 133l45 24 q176 104 377 105q270 0 373 -115q98 -111 98 -389v-686h-139l-29 178q-147 -201 -403 -201q-186 0 -291 93q-102 90 -102 270zM303 346q0 -117 59.5 -172t190.5 -55q172 0 336 151v299q-123 20 -242 21q-109 0 -178 -17q-61 -14 -100 -47q-66 -61 -66 -180z" />
<glyph unicode="&#xe2;" horiz-adv-x="1236" d="M258 1391l291 502h96l293 -502l-129 -78l-211 377l-213 -377zM113 340v2q0 178 120 276q117 96 324 97q76 0 174 -15q115 -16 158 -34v47q0 94 -10 159q-8 55 -48 101q-35 41 -86 57q-53 16 -116 17q-68 0 -125 -13q-53 -10 -98 -30l-38 -15.5l-42 -17.5q-53 -27 -72 -43 l-70 133l45 24q176 104 377 105q270 0 373 -115q98 -111 98 -389v-686h-139l-29 178q-147 -201 -403 -201q-186 0 -291 93q-102 90 -102 270zM303 346q0 -117 59.5 -172t190.5 -55q172 0 336 151v299q-123 20 -242 21q-109 0 -178 -17q-61 -14 -100 -47q-66 -61 -66 -180z " />
<glyph unicode="&#xe3;" horiz-adv-x="1236" d="M215 1315q0 260 203 260q49 0 102 -18q49 -18 88 -43q41 -27 78 -43q47 -20 76 -21q57 0 57 111h158q0 -111 -53 -180.5t-139 -69.5q-47 0 -107 19q-53 16 -98 41q-63 35 -84 43q-43 18 -66 18q-28 0 -43 -25q-14 -23 -14 -92h-158zM113 340v2q0 178 120 276 q117 96 324 97q76 0 174 -15q115 -16 158 -34v47q0 94 -10 159q-8 55 -48 101q-35 41 -86 57q-53 16 -116 17q-68 0 -125 -13q-53 -10 -98 -30l-38 -15.5l-42 -17.5q-53 -27 -72 -43l-70 133l45 24q176 104 377 105q270 0 373 -115q98 -111 98 -389v-686h-139l-29 178 q-147 -201 -403 -201q-186 0 -291 93q-102 90 -102 270zM303 346q0 -117 59.5 -172t190.5 -55q172 0 336 151v299q-123 20 -242 21q-109 0 -178 -17q-61 -14 -100 -47q-66 -61 -66 -180z" />
<glyph unicode="&#xe4;" horiz-adv-x="1236" d="M242 1428q0 49 30.5 81.5t81.5 32.5q47 0 78 -32.5t31 -82t-30.5 -82t-78.5 -32.5q-51 0 -81 35q-31 34 -31 80zM731 1428q0 45 33 82q31 33 80 32q47 0 77.5 -32.5t30.5 -82t-30.5 -82t-77.5 -32.5q-49 0 -80 35q-33 37 -33 80zM113 340v2q0 178 120 276q117 96 324 97 q76 0 174 -15q115 -16 158 -34v47q0 94 -10 159q-8 55 -48 101q-35 41 -86 57q-53 16 -116 17q-68 0 -125 -13q-53 -10 -98 -30l-38 -15.5l-42 -17.5q-53 -27 -72 -43l-70 133l45 24q176 104 377 105q270 0 373 -115q98 -111 98 -389v-686h-139l-29 178q-147 -201 -403 -201 q-186 0 -291 93q-102 90 -102 270zM303 346q0 -117 59.5 -172t190.5 -55q172 0 336 151v299q-123 20 -242 21q-109 0 -178 -17q-61 -14 -100 -47q-66 -61 -66 -180z" />
<glyph unicode="&#xe5;" horiz-adv-x="1236" d="M356 1550q0 104 68 172t176 68q104 0 170 -68q66 -70 66 -172t-66 -172q-66 -68 -170 -68q-106 0 -176 70q-68 68 -68 170zM453 1550q0 -63 41 -104q45 -45 104 -45q61 0 102 43q39 41 39 106.5t-39 106.5q-41 43 -102 43q-63 0 -104 -45.5t-41 -104.5zM113 340v2 q0 178 120 276q117 96 324 97q76 0 174 -15q115 -16 158 -34v47q0 94 -10 159q-8 55 -48 101q-35 41 -86 57q-53 16 -116 17q-68 0 -125 -13q-53 -10 -98 -30l-38 -15.5l-42 -17.5q-53 -27 -72 -43l-70 133l45 24q176 104 377 105q270 0 373 -115q98 -111 98 -389v-686h-139 l-29 178q-147 -201 -403 -201q-186 0 -291 93q-102 90 -102 270zM303 346q0 -117 59.5 -172t190.5 -55q172 0 336 151v299q-123 20 -242 21q-109 0 -178 -17q-61 -14 -100 -47q-66 -61 -66 -180z" />
<glyph unicode="&#xe6;" horiz-adv-x="1896" d="M117 340v2q0 178 121 276q117 96 321 97q78 0 162 -15q100 -18 143 -34v47q0 94 -10 159q-10 61 -35 101q-27 41 -78 57q-53 16 -129 17q-113 0 -219 -41q-92 -35 -143 -72l-68 125q66 55 193 92q137 39 227 39q162 0 254 -49q90 -47 127 -170q51 106 162 164 q108 55 233 55q215 0 330 -139.5t115 -374.5q0 -53 -8 -109h-760q0 -109 14 -178q14 -72 53 -135q39 -66 107 -94q76 -33 172 -33q170 0 305 117l61 -146q-68 -51 -190 -88q-111 -33 -188 -33q-147 0 -261 60q-109 57 -174 170q-27 -37 -77 -84q-39 -37 -101 -74 q-57 -35 -127 -53q-71 -18 -141 -19q-184 0 -289 93q-102 90 -102 270zM307 356q0 -127 59.5 -182t188.5 -55q145 0 309 151v299q-123 20 -231 21q-92 0 -162 -17q-66 -16 -100 -47q-33 -29 -49 -73q-15 -38 -15 -97zM1055 682h600v35q0 86 -19 149q-16 57 -47 99 q-29 37 -65 57q-43 25 -72 29q-35 6 -72 6q-49 0 -84 -8q-43 -10 -86 -33q-45 -25 -80 -66q-33 -39 -55 -108q-20 -64 -20 -160z" />
<glyph unicode="&#xe7;" horiz-adv-x="1120" d="M109 579.5q0 -143.5 32 -247.5q33 -106 88 -174q55 -70 121 -109q68 -41 135 -57q59 -14 131 -15q207 0 392 134l-58 135q-129 -119 -329 -119q-63 0 -121 23q-53 20 -103 73q-46 49 -73 142q-25 82 -25 215q0 236 86 348t252 112q181 0 313 -116l58 133 q-188 133 -390 133q-61 0 -131 -16q-66 -16 -137 -60q-68 -41 -121 -110q-57 -74 -88 -175q-32 -106 -32 -249.5zM426 -500l31 -10q49 -14 73 -20q45 -10 60 -11h41q8 0 37 9q20 6 32 20q8 10 19 41q8 25 8 65q0 80 -59 111q-61 33 -193 33v262h121v-174q125 0 194.5 -55.5 t69.5 -190.5q0 -236 -252 -235q-23 0 -35 2l-36 6q-6 0 -17.5 4t-17.5 4q-18 3 -31 6q-4 2 -12 5t-10 3l-19 7l-4 2v116z" />
<glyph unicode="&#xe8;" horiz-adv-x="1144" d="M109 578q0 147 38 262q39 113 109 192q68 78 162 117q98 41 205 41q215 0 329.5 -139.5t114.5 -374.5q0 -53 -8 -109h-760q0 -109 14 -178q14 -72 54 -135q39 -66 106 -94q76 -33 170 -33q172 0 307 117l62 -146q-68 -51 -191 -88q-111 -33 -188 -33q-254 0 -389 160 t-135 441zM262 1868l242 88l153 -619l-67 -24zM299 682h598v35q0 86 -18 149q-18 61 -45 99q-29 37 -66 57q-43 25 -72 29q-33 6 -71 6q-49 0 -84 -8q-43 -10 -86 -33q-45 -25 -80 -66q-33 -39 -56 -108q-20 -64 -20 -160z" />
<glyph unicode="&#xe9;" horiz-adv-x="1144" d="M109 578q0 147 38 262q39 113 109 192q68 78 162 117q98 41 205 41q215 0 329.5 -139.5t114.5 -374.5q0 -53 -8 -109h-760q0 -109 14 -178q14 -72 54 -135q39 -66 106 -94q76 -33 170 -33q172 0 307 117l62 -146q-68 -51 -191 -88q-111 -33 -188 -33q-254 0 -389 160 t-135 441zM299 682h598v35q0 86 -18 149q-18 61 -45 99q-29 37 -66 57q-43 25 -72 29q-33 6 -71 6q-49 0 -84 -8q-43 -10 -86 -33q-45 -25 -80 -66q-33 -39 -56 -108q-20 -64 -20 -160zM596 1337l158 613l231 -92l-334 -545z" />
<glyph unicode="&#xea;" horiz-adv-x="1144" d="M109 578q0 147 38 262q39 113 109 192q68 78 162 117q98 41 205 41q215 0 329.5 -139.5t114.5 -374.5q0 -53 -8 -109h-760q0 -109 14 -178q14 -72 54 -135q39 -66 106 -94q76 -33 170 -33q172 0 307 117l62 -146q-68 -51 -191 -88q-111 -33 -188 -33q-254 0 -389 160 t-135 441zM283 1419l127 -78l213 377l211 -377l129 78l-293 502h-97zM299 682h598v35q0 86 -18 149q-18 61 -45 99q-29 37 -66 57q-43 25 -72 29q-33 6 -71 6q-49 0 -84 -8q-43 -10 -86 -33q-45 -25 -80 -66q-33 -39 -56 -108q-20 -64 -20 -160z" />
<glyph unicode="&#xeb;" horiz-adv-x="1144" d="M109 578q0 147 38 262q39 113 109 192q68 78 162 117q98 41 205 41q215 0 329.5 -139.5t114.5 -374.5q0 -53 -8 -109h-760q0 -109 14 -178q14 -72 54 -135q39 -66 106 -94q76 -33 170 -33q172 0 307 117l62 -146q-68 -51 -191 -88q-111 -33 -188 -33q-254 0 -389 160 t-135 441zM268 1466q0 49 31 82t82 33q47 0 78 -33q29 -31 28 -82q0 -49 -28 -80q-31 -35 -78 -34q-51 0 -82 34t-31 80zM299 682h598v35q0 86 -18 149q-18 61 -45 99q-29 37 -66 57q-43 25 -72 29q-33 6 -71 6q-49 0 -84 -8q-43 -10 -86 -33q-45 -25 -80 -66 q-33 -39 -56 -108q-20 -64 -20 -160zM758 1466q0 49 30.5 82t81.5 33q47 0 78 -32.5t31 -82.5q0 -45 -30.5 -79.5t-78.5 -34.5q-51 0 -82 34q-30 34 -30 80z" />
<glyph unicode="&#xec;" horiz-adv-x="598" d="M-45 1868l242 88l151 -619l-65 -24zM225 0v1169h183v-1169h-183z" />
<glyph unicode="&#xed;" horiz-adv-x="598" d="M225 0v1169h183v-1169h-183zM287 1337l159 613l232 -92l-334 -545z" />
<glyph unicode="&#xee;" horiz-adv-x="598" d="M-25 1419l129 -78l211 377l213 -377l127 78l-290 502h-97zM225 0v1169h183v-1169h-183z" />
<glyph unicode="&#xef;" horiz-adv-x="598" d="M-39 1466q0 49 31 82t82 33q47 0 78 -33q29 -31 28 -82q0 -49 -28 -80q-31 -35 -78 -34q-51 0 -82 34t-31 80zM225 0v1169h183v-1169h-183zM451 1466q0 45 32 82q31 33 80 33q47 0 78 -32.5t31 -82.5q0 -45 -31 -79.5t-78 -34.5q-49 0 -80 34q-32 37 -32 80z" />
<glyph unicode="&#xf0;" d="M113 584q0 172 51 305q53 139 158 219q106 82 251 82q117 0 217.5 -51.5t147.5 -110.5q-57 170 -190 334q-137 166 -314 278l84 103q84 -49 170 -115q80 -61 164 -162q76 -90 141 -211q61 -115 99 -260q37 -147 36 -305q0 -711 -532 -710q-126 0 -221 49q-96 49 -152 135 q-55 88 -84 192q-26 101 -26 228zM295 588q0 -465 297 -465q117 0 194 49q74 47 117 172q41 117 41 322q0 86 -22.5 157.5t-55.5 110.5q-34 40 -80 67q-39 23 -88 35q-45 10 -80 11q-27 0 -67 -5q-25 -2 -64 -16q-37 -12 -61 -33q-35 -27 -53.5 -55.5t-40.5 -83.5 q-20 -49 -29 -115q-8 -59 -8 -151zM453 1401l649 192l41 -90l-647 -192z" />
<glyph unicode="&#xf1;" horiz-adv-x="1370" d="M190 0v1169h142l22 -188q63 78 193 143q127 63 258 64q43 0 94 -10q49 -10 98 -39q57 -33 90 -78q41 -53 64 -135q25 -86 25 -199v-727h-191v727q0 84 -10 129q-12 59 -37 100q-27 47 -70 68q-49 23 -106 23q-102 0 -219 -62q-115 -59 -162 -104v-881h-191zM299 1317 q0 260 201 260q45 0 102 -21q49 -18 88 -43q41 -27 78 -43q47 -20 76 -20q57 0 57 113h158q0 -113 -53 -183q-51 -68 -140 -67q-47 0 -106 18q-53 16 -98.5 41t-83.5 41q-43 18 -66 19q-28 0 -43 -25q-14 -23 -14 -90h-156z" />
<glyph unicode="&#xf2;" horiz-adv-x="1312" d="M127 582q0 137 31 235q37 115 96 193q63 82 167.5 131t233.5 49q106 0 195 -31q84 -29 149 -88q59 -53 105 -133q41 -74 63 -166q20 -84 21 -190q0 -129 -33 -234q-35 -113 -96 -190q-68 -86 -168 -131q-106 -47 -236 -47q-102 0 -192 30q-88 31 -150 86q-63 57 -104 131 q-43 76 -64 164q-18 76 -18 191zM276 1868l242 88l154 -619l-68 -24zM307 581.5q0 -106.5 20.5 -186.5t61.5 -145q39 -63 108.5 -98t157.5 -35q90 0 160 34.5t109 98.5q45 74 61 145q18 84 19 187q0 106 -21 186q-23 88 -59 147q-39 61 -109 101q-63 35 -160 35 q-88 0 -157.5 -35t-108.5 -98.5t-61 -149.5q-21 -80 -21 -186.5z" />
<glyph unicode="&#xf3;" horiz-adv-x="1312" d="M127 582q0 137 31 235q37 115 96 193q63 82 167.5 131t233.5 49q106 0 195 -31q84 -29 149 -88q59 -53 105 -133q41 -74 63 -166q20 -84 21 -190q0 -129 -33 -234q-35 -113 -96 -190q-68 -86 -168 -131q-106 -47 -236 -47q-102 0 -192 30q-88 31 -150 86q-63 57 -104 131 q-43 76 -64 164q-18 76 -18 191zM307 581.5q0 -106.5 20.5 -186.5t61.5 -145q39 -63 108.5 -98t157.5 -35q90 0 160 34.5t109 98.5q45 74 61 145q18 84 19 187q0 106 -21 186q-23 88 -59 147q-39 61 -109 101q-63 35 -160 35q-88 0 -157.5 -35t-108.5 -98.5t-61 -149.5 q-21 -80 -21 -186.5zM608 1337l160 613l231 -92l-333 -545z" />
<glyph unicode="&#xf4;" horiz-adv-x="1312" d="M127 582q0 137 31 235q37 115 96 193q63 82 167.5 131t233.5 49q106 0 195 -31q84 -29 149 -88q59 -53 105 -133q41 -74 63 -166q20 -84 21 -190q0 -129 -33 -234q-35 -113 -96 -190q-68 -86 -168 -131q-106 -47 -236 -47q-102 0 -192 30q-88 31 -150 86q-63 57 -104 131 q-43 76 -64 164q-18 76 -18 191zM299 1419l127 -78l213 377l211 -377l129 78l-293 502h-96zM307 581.5q0 -106.5 20.5 -186.5t61.5 -145q39 -63 108.5 -98t157.5 -35q90 0 160 34.5t109 98.5q45 74 61 145q18 84 19 187q0 106 -21 186q-23 88 -59 147q-39 61 -109 101 q-63 35 -160 35q-88 0 -157.5 -35t-108.5 -98.5t-61 -149.5q-21 -80 -21 -186.5z" />
<glyph unicode="&#xf5;" horiz-adv-x="1312" d="M127 582q0 137 31 235q37 115 96 193q63 82 167.5 131t233.5 49q106 0 195 -31q84 -29 149 -88q59 -53 105 -133q41 -74 63 -166q20 -84 21 -190q0 -129 -33 -234q-35 -113 -96 -190q-68 -86 -168 -131q-106 -47 -236 -47q-102 0 -192 30q-88 31 -150 86q-63 57 -104 131 q-43 76 -64 164q-18 76 -18 191zM258 1317q0 260 201 260q45 0 102 -21q55 -18 90 -43q41 -27 78 -43q47 -20 74 -20q59 0 59 113h156q0 -117 -51 -183q-52 -68 -142 -67q-47 0 -104 18q-53 16 -98 41t-84 41q-43 18 -66 19q-31 0 -45 -25q-14 -23 -14 -90h-156zM307 581.5 q0 -106.5 20.5 -186.5t61.5 -145q39 -63 108.5 -98t157.5 -35q90 0 160 34.5t109 98.5q45 74 61 145q18 84 19 187q0 106 -21 186q-23 88 -59 147q-39 61 -109 101q-63 35 -160 35q-88 0 -157.5 -35t-108.5 -98.5t-61 -149.5q-21 -80 -21 -186.5z" />
<glyph unicode="&#xf6;" horiz-adv-x="1312" d="M127 582q0 137 31 235q37 115 96 193q63 82 167.5 131t233.5 49q106 0 195 -31q84 -29 149 -88q59 -53 105 -133q41 -74 63 -166q20 -84 21 -190q0 -129 -33 -234q-35 -113 -96 -190q-68 -86 -168 -131q-106 -47 -236 -47q-102 0 -192 30q-88 31 -150 86q-63 57 -104 131 q-43 76 -64 164q-18 76 -18 191zM283 1466q0 45 32 82q31 33 80 33q47 0 78 -32.5t31 -82.5q0 -45 -31 -79.5t-78 -34.5q-49 0 -80 34q-32 37 -32 80zM307 581.5q0 -106.5 20.5 -186.5t61.5 -145q39 -63 108.5 -98t157.5 -35q90 0 160 34.5t109 98.5q45 74 61 145 q18 84 19 187q0 106 -21 186q-23 88 -59 147q-39 61 -109 101q-63 35 -160 35q-88 0 -157.5 -35t-108.5 -98.5t-61 -149.5q-21 -80 -21 -186.5zM772 1466q0 45 33 82q31 33 80 33q47 0 77.5 -32.5t30.5 -82.5q0 -45 -30.5 -79.5t-77.5 -34.5q-49 0 -80 34q-33 37 -33 80z " />
<glyph unicode="&#xf7;" horiz-adv-x="1067" d="M223 508v131h682v-131h-682zM449 299q0 45 32 82q31 35 80 35q47 0 78 -35q31 -33 31 -82q0 -45 -31 -80t-78 -35q-49 0 -80 35q-32 37 -32 80zM451 836q0 43 32 79q31 35 80 35q47 0 78 -32.5t31 -82t-31 -82t-78 -32.5q-49 0 -80 33q-32 37 -32 82z" />
<glyph unicode="&#xf8;" horiz-adv-x="1275" d="M109 582q0 131 32 235q37 119 95 193q63 82 167.5 131t235.5 49q102 0 192 -31q88 -31 152 -88q59 -53 104 -133q37 -68 62 -166q20 -84 20 -190q0 -129 -32 -234q-35 -113 -97 -190q-68 -86 -168 -131q-106 -47 -233 -47q-129 0 -236 47q-100 45 -167 131 q-57 74 -95 190q-32 105 -32 234zM291 581.5q0 -114.5 18 -186.5q20 -80 62 -145q39 -63 108.5 -98t159.5 -35q88 0 157.5 34.5t108.5 98.5q45 74 62 145q18 84 18 187q0 115 -18 186q-22 83 -62 147q-39 61 -108 101q-63 35 -158 35q-90 0 -159.5 -35t-108.5 -98.5 t-62 -149.5q-18 -72 -18 -186.5zM334 -168l528 1534l82 -31l-522 -1534z" />
<glyph unicode="&#xf9;" d="M131 442v727h191v-727q0 -154 53 -237q51 -82 180 -82q190 0 352 151v895h191v-1169h-142l-26 176q-92 -104 -182 -149q-94 -47 -203 -47q-197 0 -305 110q-109 112 -109 352zM254 1868l242 88l153 -619l-67 -24z" />
<glyph unicode="&#xfa;" d="M131 442v727h191v-727q0 -154 53 -237q51 -82 180 -82q190 0 352 151v895h191v-1169h-142l-26 176q-92 -104 -182 -149q-94 -47 -203 -47q-197 0 -305 110q-109 112 -109 352zM588 1337l157 613l234 -92l-336 -545z" />
<glyph unicode="&#xfb;" d="M131 442v727h191v-727q0 -154 53 -237q51 -82 180 -82q190 0 352 151v895h191v-1169h-142l-26 176q-92 -104 -182 -149q-94 -47 -203 -47q-197 0 -305 110q-109 112 -109 352zM274 1419l127 -78l213 377l211 -377l129 78l-292 502h-97z" />
<glyph unicode="&#xfc;" d="M131 442v727h191v-727q0 -154 53 -237q51 -82 180 -82q190 0 352 151v895h191v-1169h-142l-26 176q-92 -104 -182 -149q-94 -47 -203 -47q-197 0 -305 110q-109 112 -109 352zM260 1466q0 49 31 82t82 33q47 0 78 -33q29 -31 28 -82q0 -49 -28 -80q-31 -35 -78 -34 q-51 0 -82 34t-31 80zM750 1466q0 45 32 82q31 33 80 33q47 0 78 -32.5t31 -82.5q0 -45 -31 -79.5t-78 -34.5q-49 0 -80 34q-32 37 -32 80z" />
<glyph unicode="&#xfd;" horiz-adv-x="1222" d="M92 1169h182l357 -919l301 919h194l-438 -1206l-26.5 -75l-22.5 -60.5l-12 -30.5q-88 -188 -246 -237q-57 -18 -125 -19l-51 125q152 25 217 94q63 68 123 263zM512 1337l160 613l231 -92l-334 -545z" />
<glyph unicode="&#xfe;" horiz-adv-x="1359" d="M129 -487v2052h184v-561q66 80 158 133q94 53 203 53q98 0 180 -35q78 -33 131 -92q57 -63 90 -135q35 -78 51 -164q16 -92 17 -180q0 -123 -27 -224q-29 -111 -82 -192q-53 -84 -147 -137q-90 -51 -213 -51q-248 0 -359 137v-582zM322 244q61 -53 161 -86 q104 -35 199 -35q51 0 96 18.5t88 69.5q45 55 66 131q29 111 29 201q0 66 -3 96q-2 43 -12 96q-12 63 -20 96q-12 41 -35 84q-23 39 -51 70q-25 25 -72 45q-39 16 -94 17q-59 0 -119 -19q-63 -20 -104 -49q-61 -43 -70 -51q-4 -4 -20.5 -17.5t-22.5 -19.5z" />
<glyph unicode="&#xff;" horiz-adv-x="1222" d="M92 1169h182l357 -919l301 919h194l-438 -1206l-26.5 -75l-22.5 -60.5l-12 -30.5q-88 -188 -246 -237q-57 -18 -125 -19l-51 125q152 25 217 94q63 68 123 263zM184 1466q0 45 33 82q31 33 80 33q47 0 78 -32.5t31 -82.5q0 -45 -31 -79.5t-78 -34.5q-49 0 -80 34 q-33 37 -33 80zM676 1466q0 49 30.5 82t79.5 33q47 0 78 -32.5t31 -82.5q0 -45 -30.5 -79.5t-78.5 -34.5q-49 0 -79 34q-31 34 -31 80z" />
<glyph unicode="&#x152;" horiz-adv-x="2740" d="M1704 0v1579h971v-143h-776v-545h678v-115h-678v-633h788v-143h-983zM125 784q0 152 20 267q20 119 60 204q35 80 90 148q51 63 108 104q43 31 123 62q59 23 121 33q49 8 117 8q143 0 260 -41q111 -39 190 -113q74 -68 125.5 -176.5t71.5 -226.5q23 -129 23 -269 q0 -152 -20.5 -268.5t-72.5 -224.5q-47 -100 -124 -178q-72 -72 -187 -113q-113 -41 -252 -41q-41 0 -119 8q-43 4 -124 31q-68 23 -125 59q-57 39 -111 101q-55 65 -92 147q-39 86 -60 207q-22 129 -22 272zM324 784q0 -174 32 -315q31 -129 95 -209q59 -74 143 -113 q80 -37 186 -36q88 0 158 24q74 27 121 70q49 45 84 106q35 59 53 138q20 84 29 157q10 88 10 178q0 180 -33 322q-31 129 -94 209q-59 74 -141 108.5t-186.5 34.5t-186.5 -35q-80 -35 -131 -94q-53 -63 -82 -147q-35 -98 -45 -185q-12 -96 -12 -213z" />
<glyph unicode="&#x153;" horiz-adv-x="2457" d="M1422 578q0 147 38 262q39 113 109 192q68 78 162 117q98 41 205 41q215 0 329.5 -139.5t114.5 -374.5q0 -53 -8 -109h-760q0 -109 14 -178q14 -72 54 -135q39 -66 106 -94q76 -33 170 -33q172 0 307 117l62 -146q-68 -51 -191 -88q-111 -33 -188 -33q-254 0 -389 160 t-135 441zM1612 682h598v35q0 86 -18 149q-18 61 -45 99q-29 37 -66 57q-43 25 -72 29q-33 6 -71 6q-49 0 -84 -8q-43 -10 -86 -33q-45 -25 -80 -66q-33 -39 -56 -108q-20 -64 -20 -160zM127 582q0 137 31 235q37 115 96 193q63 82 167.5 131t233.5 49q106 0 195 -31 q84 -29 149 -88q59 -53 105 -133q41 -74 63 -166q20 -84 21 -190q0 -129 -33 -234q-35 -113 -96 -190q-68 -86 -168 -131q-106 -47 -236 -47q-102 0 -192 30q-88 31 -150 86q-63 57 -104 131q-43 76 -64 164q-18 76 -18 191zM307 581.5q0 -106.5 20.5 -186.5t61.5 -145 q39 -63 108.5 -98t157.5 -35q90 0 160 34.5t109 98.5q45 74 61 145q18 84 19 187q0 106 -21 186q-23 88 -59 147q-39 61 -109 101q-63 35 -160 35q-88 0 -157.5 -35t-108.5 -98.5t-61 -149.5q-21 -80 -21 -186.5z" />
<glyph unicode="&#x178;" horiz-adv-x="1271" d="M281 1848q0 49 30.5 81.5t81.5 32.5q47 0 78 -32.5t31 -82t-30.5 -82t-78.5 -32.5q-51 0 -81 35q-31 34 -31 80zM770 1848q0 45 33 82q31 33 80 32q47 0 77.5 -32.5t30.5 -82t-30.5 -82t-77.5 -32.5q-49 0 -80 35q-33 37 -33 80zM27 1579h196l355 -772l63 -129l57 129 l357 772h190l-514 -1094v-485h-190v485z" />
<glyph unicode="&#x2c6;" horiz-adv-x="1427" d="M375 510l291 502h96l293 -502l-129 -78l-211 377l-213 -377z" />
<glyph unicode="&#x2dc;" horiz-adv-x="512" d="M-381 125q0 260 203 260q49 0 102 -18q49 -18 88 -43q41 -27 78 -43q47 -20 76 -21q57 0 57 111h158q0 -111 -53 -180.5t-139 -69.5q-47 0 -107 19q-53 16 -98 41q-63 35 -84 43q-43 18 -66 18q-28 0 -43 -25q-14 -23 -14 -92h-158z" />
<glyph unicode="&#x3bc;" horiz-adv-x="1327" d="M598 -20q-35 0 -82 14q-35 10 -67 33q-31 20 -50 39q-25 25 -30 34l-11 13v-404h-174v1460h174v-727q0 -319 252 -319q61 0 133 20q63 18 109 47q51 33 70 50q31 27 36 34v895h207v-1153h-145l-25 154q-172 -190 -397 -190z" />
<glyph unicode="&#x2000;" horiz-adv-x="1187" />
<glyph unicode="&#x2001;" horiz-adv-x="2375" />
<glyph unicode="&#x2002;" horiz-adv-x="1187" />
<glyph unicode="&#x2003;" horiz-adv-x="2375" />
<glyph unicode="&#x2004;" horiz-adv-x="790" />
<glyph unicode="&#x2005;" horiz-adv-x="593" />
<glyph unicode="&#x2006;" horiz-adv-x="395" />
<glyph unicode="&#x2007;" horiz-adv-x="395" />
<glyph unicode="&#x2008;" horiz-adv-x="296" />
<glyph unicode="&#x2009;" horiz-adv-x="473" />
<glyph unicode="&#x200a;" horiz-adv-x="131" />
<glyph unicode="&#x2010;" horiz-adv-x="942" d="M133 508v158h678v-158h-678z" />
<glyph unicode="&#x2011;" horiz-adv-x="942" d="M133 508v158h678v-158h-678z" />
<glyph unicode="&#x2012;" horiz-adv-x="942" d="M133 508v158h678v-158h-678z" />
<glyph unicode="&#x2013;" d="M362 555v143h469v-143h-469z" />
<glyph unicode="&#x2014;" d="M127 555v143h940v-143h-940z" />
<glyph unicode="&#x2018;" horiz-adv-x="776" d="M68 885l241 90l154 -619l-68 -26z" />
<glyph unicode="&#x2019;" horiz-adv-x="536" d="M115 1286v293h280v-250q0 -111 -59.5 -188.5t-169.5 -108.5l-51 94q72 25 102 62q29 35 29 98h-131z" />
<glyph unicode="&#x201a;" horiz-adv-x="645" d="M223 0v293h283v-250q0 -111 -59.5 -188.5t-170.5 -108.5l-51 94q72 25 103 62q27 33 26 98h-131z" />
<glyph unicode="&#x201c;" horiz-adv-x="937" d="M141 1063v250q0 113 58 188q59 78 172 109l51 -94q-72 -25 -103 -62q-29 -35 -28 -98h131v-293h-281zM510 1063v250q0 111 59.5 188.5t169.5 108.5l52 -94q-72 -25 -103 -62q-29 -35 -29 -98h132v-293h-281z" />
<glyph unicode="&#x201d;" horiz-adv-x="829" d="M113 1286v293h280v-250q0 -111 -59.5 -188.5t-169.5 -108.5l-51 94q72 25 102 62q29 35 29 98h-131zM481 1286v293h281v-250q0 -113 -57 -188q-59 -78 -173 -109l-51 94q72 25 103 62q29 35 28 98h-131z" />
<glyph unicode="&#x201e;" horiz-adv-x="1110" d="M291 -18v292h280v-249q0 -111 -59 -189t-170 -108l-51 94q74 25 102.5 59.5t28.5 100.5h-131zM659 -18v292h281v-249q0 -111 -59.5 -189t-169.5 -108l-52 94q74 25 103 59.5t29 100.5h-132z" />
<glyph unicode="&#x2022;" horiz-adv-x="1359" d="M301 692q0 137 100 238q98 98 248 98t250 -98.5t100 -237.5t-100 -237q-98 -96 -249.5 -96.5t-248.5 96.5q-100 100 -100 237z" />
<glyph unicode="&#x2026;" horiz-adv-x="1552" d="M133 98q0 46 31 80q31 35 82 35q47 0 78 -33q29 -31 28.5 -82t-28.5 -82q-31 -33 -78 -32q-51 0 -82 32.5t-31 81.5zM651 98q0 46 31 80q31 35 82 35q47 0 78 -33q29 -31 28.5 -82t-28.5 -82q-31 -33 -78 -32q-51 0 -82 32.5t-31 81.5zM1169 98q0 46 31 80q31 35 80 35 t80 -33q29 -31 29 -82t-29 -82q-31 -33 -80 -32.5t-80 33t-31 81.5z" />
<glyph unicode="&#x202f;" horiz-adv-x="473" />
<glyph unicode="&#x2039;" horiz-adv-x="768" d="M80 481v185l608 383v-207l-446 -264l446 -273v-207z" />
<glyph unicode="&#x203a;" horiz-adv-x="768" d="M80 98v207l446 273l-446 264v207l608 -383v-185z" />
<glyph unicode="&#x205f;" horiz-adv-x="593" />
<glyph unicode="&#x20ac;" horiz-adv-x="1161" d="M47 809v123h205q6 111 41 207q35 94 94 159q61 68 153.5 105t213.5 37q51 0 100 -6q47 -6 86 -17q45 -12 64 -18q25 -8 40 -17l15 -6l-43 -123q-4 2 -16.5 7.5t-22.5 9.5q-12 4 -94 22q-76 16 -133 17q-162 0 -248 -99q-88 -100 -88 -278h395v-123h-406q-4 -29 -6 -113 h355l-2 -123h-353q0 -106 19 -188q18 -83 49 -135q29 -49 76 -86q45 -35 86 -47q49 -14 90 -15q49 0 90 9q59 12 78 18q59 23 61 23q37 16 41 18l14 8l52 -123q-6 -6 -19 -12l-45 -23q-27 -12 -74 -26q-35 -10 -100 -21q-82 -12 -129 -12q-70 0 -129 23q-61 23 -121 73 q-49 41 -102 123q-46 71 -74 172q-27 96 -33 221h-164l3 123h157l4 113h-180z" />
<glyph unicode="&#x2122;" horiz-adv-x="1632" d="M72 1311v102h555v-102h-209v-686h-135v686h-211zM735 625v788h230l184 -655l184 655h230v-788h-127v663l-199 -663h-176l-197 663v-663h-129z" />
<glyph unicode="&#xe000;" horiz-adv-x="1170" d="M0 1170h1170v-1170h-1170v1170z" />
<glyph unicode="&#xfb01;" horiz-adv-x="1458" d="M1032 1462q0 46 31 80q31 35 81 35q47 0 78 -33q29 -31 29 -82t-29 -82q-31 -33 -78 -32q-51 0 -81.5 32.5t-30.5 81.5zM1048 0v1169h183v-1169h-183zM66 1065v104h194v29q0 104 16 191q16 82 43 133t70 81.5t92 43t111 12.5q53 0 108 -21q61 -23 97 -43q37 -23 37 -28 l-64 -125q-83 74 -154 74q-106 0 -137 -48q-27 -39 -28 -151v-60v-14v-74h348v-104h-348v-1065h-191v1065h-194z" />
<glyph unicode="&#xfb02;" horiz-adv-x="1413" d="M1038 0v1579l190 35v-1614h-190zM66 1065v104h194v29q0 104 16 191q16 82 43 133t70 81.5t92 43t111 12.5q53 0 108 -21q61 -23 97 -43q37 -23 37 -28l-64 -125q-83 74 -154 74q-106 0 -137 -48q-27 -39 -28 -151v-60v-14v-74h348v-104h-348v-1065h-191v1065h-194z" />
<glyph unicode="&#xfb03;" horiz-adv-x="2283" d="M1858 1462q0 46 31 80q31 35 81 35q47 0 78 -33q29 -31 29 -82t-29 -82q-31 -33 -78 -32q-51 0 -81.5 32.5t-30.5 81.5zM1874 0v1169h183v-1169h-183zM891 1065v104h194v29q0 104 16 191q16 82 43 133t70 81.5t92 43t111 12.5q53 0 108 -21q61 -23 97 -43q37 -23 37 -28 l-64 -125q-83 74 -154 74q-106 0 -137 -48q-27 -39 -28 -151v-60v-14v-74h348v-104h-348v-1065h-191v1065h-194zM66 1065v104h194v29q0 104 16 191q16 82 43 133t70 81.5t92 43t111 12.5q53 0 108 -21q61 -23 97 -43q37 -23 37 -28l-64 -125q-83 74 -154 74q-106 0 -137 -48 q-27 -39 -28 -151v-60v-14v-74h348v-104h-348v-1065h-191v1065h-194z" />
<glyph unicode="&#xfb04;" horiz-adv-x="2238" d="M1864 0v1579l190 35v-1614h-190zM891 1065v104h194v29q0 104 16 191q16 82 43 133t70 81.5t92 43t111 12.5q53 0 108 -21q61 -23 97 -43q37 -23 37 -28l-64 -125q-83 74 -154 74q-106 0 -137 -48q-27 -39 -28 -151v-60v-14v-74h348v-104h-348v-1065h-191v1065h-194z M66 1065v104h194v29q0 104 16 191q16 82 43 133t70 81.5t92 43t111 12.5q53 0 108 -21q61 -23 97 -43q37 -23 37 -28l-64 -125q-83 74 -154 74q-106 0 -137 -48q-27 -39 -28 -151v-60v-14v-74h348v-104h-348v-1065h-191v1065h-194z" />
</font>
</defs>
</svg>
