<?xml version="1.0" standalone="no"?>
<!DOCTYPE svg PUBLIC "-//W3C//DTD SVG 1.1//EN" "http://www.w3.org/Graphics/SVG/1.1/DTD/svg11.dtd" >
<svg xmlns="http://www.w3.org/2000/svg">
<metadata>
This is a custom SVG webfont generated by Font Squirrel.
Copyright   : Copyright c 200710 by vernon adams All rights reserved
</metadata>
<defs>
<font id="webfontQ4gbM52t" horiz-adv-x="1280" >
<font-face units-per-em="2048" ascent="1638" descent="-410" />
<missing-glyph horiz-adv-x="657" />
<glyph unicode=" "  horiz-adv-x="657" />
<glyph unicode="&#x09;" horiz-adv-x="657" />
<glyph unicode="&#xa0;" horiz-adv-x="657" />
<glyph unicode="!" horiz-adv-x="729" d="M147 1530h431l-109 -1065h-211zM186 182q0 80 53.5 137.5t135.5 57.5q84 0 137 -57.5t53 -137.5q0 -82 -53 -139q-53 -55 -137 -55q-83 0 -135 55q-54 57 -54 139z" />
<glyph unicode="&#x22;" horiz-adv-x="1040" d="M78 1579h424l-60 -387l-59 -387h-221zM600 1579h424l-59 -387l-62 -387h-219z" />
<glyph unicode="#" horiz-adv-x="1267" d="M133 428v154h176l33 247h-209v152h229l60 430h225l-57 -430h205l53 430h229l-57 -430h154v-152h-173l-32 -247h205v-154h-226l-61 -428h-228l64 428h-203l-63 -428h-228l64 428h-160zM541 582h196l31 247h-197z" />
<glyph unicode="$" horiz-adv-x="1374" d="M80 1167q0 94 29 170q27 72 77 123q49 49 121 80q80 35 148 45q94 14 172 14v113h110v-119q143 -12 256 -43q119 -33 187 -67l-86 -258l-13 4l-30 10l-50 16l-59 19l-68 18l-69 15q-51 8 -68 10v-346l156 -58q72 -27 139.5 -69.5t112.5 -91.5q47 -49 76 -121 q27 -66 26 -146q0 -246 -133 -372q-135 -129 -377 -148v-112h-110v110q-72 4 -181 27q-76 14 -161 45q-23 8 -101 39l-53 22l-2 2l66 264q0 -2 75 -32q63 -27 183 -60q109 -31 174 -30v442l-281 117q-266 110 -266 368zM412 1171q0 -14 4 -30q2 -10 16 -31q10 -16 37 -33 q20 -12 68 -30l90 -35v309q-8 0 -70 -6q-23 -2 -59 -15q-29 -10 -47.5 -24t-28.5 -43q-10 -27 -10 -62zM737 252q78 18 125 63t47 121q0 65 -30 111q-29 45 -109 76l-33 14v-385z" />
<glyph unicode="%" horiz-adv-x="2179" d="M164 1130q0 82 12 148q12 61 35 111q20 43 53 79q33 35 64 56q33 20 71 32q55 16 72 19q45 4 72 4q96 0 168 -27q82 -31 118 -67q45 -45 74 -101q23 -45 39 -114q12 -55 12 -119q0 -51 -10 -117q-8 -49 -39 -119q-25 -55 -74 -104q-45 -45 -114 -72q-76 -29 -166 -28 q-70 0 -121 14q-47 12 -92 41q-31 18 -70 61q-35 37 -51 72q-18 37 -31 80q-8 27 -16 80q-6 36 -6 71zM395 1151q0 -78 11 -117q12 -45 34 -71q20 -25 49 -35q27 -10 62 -10q76 0 119 53q41 49 41 180q0 72 -11 111q-12 45 -34.5 71.5t-49.5 34.5q-31 10 -65 10 q-78 0 -117 -51t-39 -176zM559 -29l768 1702l227 -82l-776 -1697zM1223 420q0 80 12 145q12 63 35 113q20 43 53 80q33 35 63 55q35 23 70 33q53 16 74 18q45 4 72 4q96 0 167 -26q70 -27 117 -70q53 -49 76 -98q25 -53 39 -115q10 -47 10 -119q0 -53 -10 -118 q-8 -47 -39 -117q-27 -59 -72 -104.5t-116 -71.5q-76 -29 -164 -29q-70 0 -121 14q-47 12 -92 41q-37 23 -72 62q-29 33 -49 71q-18 37 -31 80q-12 45 -18 78q-4 25 -4 74zM1452 438q0 -70 12.5 -114.5t34.5 -71.5q25 -29 49.5 -37t61.5 -8q76 0 119 53q41 49 40 178 q0 66 -12 113q-12 49 -33 72q-23 27 -49 34q-31 10 -65 11q-78 0 -117 -52q-41 -53 -41 -178z" />
<glyph unicode="&#x26;" horiz-adv-x="1781" d="M170 434q0 82 20 144q23 68 51.5 110.5t82.5 85.5q47 37 96 68q41 25 112 55q-4 2 -10 9t-12 12q-14 12 -51 51q-35 39 -66 82t-51 100q-23 61 -23 115q0 104 61.5 184t168 121t237.5 41q137 0 244 -41q104 -39 164 -119q59 -78 59 -178q0 -94 -28 -184q-27 -84 -95 -158 q-66 -72 -161 -107l321 -276v352l289 -6q0 -109 -14 -266q-12 -143 -27 -203l-12 -70l266 -227l-150 -182l-237 200l-21 -22q-98 -98 -299 -141q-117 -25 -262 -25q-94 0 -209 18q-98 16 -178 52q-83 37 -141 92t-92 135q-33 78 -33 178zM483 459q0 -111 80 -172 q78 -59 260 -60q76 0 133 9q45 6 105 24q47 14 72 27q31 15 43 24q4 2 7 4t5 4l2 3l-447 387q-68 -18 -100 -33q-39 -16 -82 -49q-35 -27 -57 -72q-21 -41 -21 -96zM618 1241q0 -27 5 -41q6 -18 14 -37q12 -25 20 -35q4 -6 11.5 -16t11.5 -14l25 -25q14 -14 22 -20l21 -17 q2 -2 7 -5t7 -5l6 -2q59 20 66 23q45 20 59 28q31 18 51 39q23 23 35 53.5t12 67.5q0 76 -51 115q-49 37 -135 36q-187 0 -187 -145z" />
<glyph unicode="'" horiz-adv-x="600" d="M78 1579h424l-60 -387l-59 -387h-221z" />
<glyph unicode="(" horiz-adv-x="827" d="M129 680q0 160 35 317q33 147 96 279q63 129 143 227q86 106 181 176l159 -211q-129 -123 -213 -333q-82 -207 -81 -455q0 -250 81 -447q84 -205 218 -327l-160 -211q-90 68 -180 174q-78 92 -146 221q-63 123 -98 275q-35 155 -35 315z" />
<glyph unicode=")" horiz-adv-x="825" d="M70 1468l159 211q90 -68 181 -174q74 -88 145 -223q63 -123 98 -274q35 -156 35 -314q0 -160 -35 -317q-33 -147 -96 -279q-63 -129 -143 -227q-86 -106 -181 -176l-159 211q131 125 213 331.5t82 456.5t-82 447q-84 204 -217 327z" />
<glyph unicode="*" horiz-adv-x="1011" d="M55 1094v194h271l-138 240l195 110l125 -223l129 225l194 -116l-137 -236h252v-194h-248l136 -230l-199 -119l-125 222l-125 -219l-197 116l136 230h-269z" />
<glyph unicode="+" horiz-adv-x="1062" d="M115 451v268h276v350h289v-350h278v-268h-278v-355h-289v355h-276z" />
<glyph unicode="," horiz-adv-x="720" d="M162 0v416h418v-363q0 -68 -20.5 -121t-51.5 -90q-25 -31 -82 -65q-51 -33 -94 -49q-29 -12 -107 -35l-61 114q96 35 135 76q41 45 41 117h-178z" />
<glyph unicode="-" horiz-adv-x="1118" d="M156 573v263h794v-263h-794z" />
<glyph unicode="." horiz-adv-x="569" d="M98 195q0 82 55.5 137t137.5 55t139 -55.5t57 -136.5q0 -84 -57 -139.5t-139 -55.5t-137.5 55.5t-55.5 139.5z" />
<glyph unicode="/" horiz-adv-x="913" d="M86 -59l569 1726l283 -88l-578 -1726z" />
<glyph unicode="0" horiz-adv-x="1456" d="M141 590q0 291 150 452q152 164 434 164q193 0 324 -76q137 -80 198 -212q66 -141 66 -328q0 -195 -66 -328q-66 -135 -200 -213q-131 -76 -322 -76q-188 0 -319 76q-135 78 -199 215q-66 142 -66 326zM471 592q0 -70 14 -146q12 -59 41 -112q29 -51 78 -76t121 -25 q58 0 104 19q43 16 74 51q31 34 49 80q18 45 25 100q8 70 8 119q0 63 -14 135q-12 59 -43 109q-29 47 -80 73.5t-123 26.5q-55 0 -102 -20q-45 -20 -72 -52q-31 -39 -47 -77q-20 -53 -27 -97q-6 -49 -6 -108z" />
<glyph unicode="1" horiz-adv-x="911" d="M100 1063l267 108l331 -2v-1169h-348v893l-155 -68z" />
<glyph unicode="2" horiz-adv-x="1173" d="M139 1065h2q37 18 58 27q4 2 38.5 15l61.5 23q70 29 145 44q96 18 148 18q68 0 133 -12q74 -14 125 -37q63 -29 106 -66q45 -39 74 -102q27 -59 27 -141q0 -121 -58 -216q-63 -104 -200 -223l-146 -127h373v-268h-858v217l326 275q3 3 30 24q18 14 35 31l33 28 q25 23 35 35l28 31q16 16 29 37q18 31 21 35q12 25 14 37q0 4 2 11t3 13t1 12q0 72 -37 109q-35 35 -119 35q-45 0 -100 -15q-66 -16 -111 -34l-79 -33l-48 -23z" />
<glyph unicode="3" horiz-adv-x="1177" d="M121 1100l16 10q6 4 25.5 12t30.5 13q31 14 77 30q37 12 105 27q51 10 119 10q92 0 165 -12q72 -12 136 -39q61 -27 106 -72q39 -39 66 -108q23 -61 26 -148q2 -92 -53 -174t-147 -102q104 -25 170 -113q68 -90 67 -194q0 -111 -39 -189q-40 -80 -110 -129 q-72 -49 -162 -74q-92 -25 -207 -24q-66 0 -127 6q-35 4 -104 18q-4 0 -76 21q-27 6 -49 16l-19 6l84 252q18 -8 53 -18q57 -18 101 -27q76 -16 127 -16q100 0 153 35q51 33 52 119q0 59 -45.5 104t-108.5 66q-68 20 -143 18v246q61 0 102 8q49 10 86 27q41 18 63.5 50.5 t22.5 73.5q0 57 -45 84t-121 27q-16 0 -53 -4q-23 -2 -57 -10l-54 -13q-10 -2 -25.5 -8t-21.5 -8q-10 -4 -39 -14l-24 -9l-11 -4z" />
<glyph unicode="4" d="M84 260l649 957l252 -66v-834h180v-258h-180v-276l-289 2v274h-571zM418 315h278v418z" />
<glyph unicode="5" horiz-adv-x="1173" d="M129 -90l41 252l23 -8q15 -6 55 -19q53 -16 80 -22q43 -10 94 -19q49 -8 100 -8q109 0 168.5 47t59.5 147.5t-52 163.5q-49 61 -147 62q-101 0 -252 -80l-139 123v620h805v-245h-525v-226q0 2 17 13q20 12 53 20q41 10 74 10q215 0 340 -122.5t125 -333.5 q0 -144 -68 -252q-70 -111 -186 -164q-117 -55 -275 -51q-90 2 -201 28q-94 23 -190 64z" />
<glyph unicode="6" horiz-adv-x="1265" d="M137 457q0 145 41 278t111 230q68 96 168 176q96 78 211 131q113 51 243 86l80 -264q-297 -61 -426 -234q66 14 135 14q109 0 203 -40q96 -43 156 -107q63 -70 96 -156q35 -92 35 -186q0 -102 -35 -195q-34 -89 -98 -153q-63 -63 -158 -100q-96 -37 -211 -37 q-125 0 -233.5 45t-173.5 118q-72 82 -107 177q-37 100 -37 217zM463 457q4 -74 14 -121q12 -49 39 -94q25 -40 68 -62q41 -20 102 -20q47 0 78 14q33 14 53 39q23 27 35 61q12 37 18 74q4 25 4 84q0 94 -45 141.5t-135 47.5q-131 0 -231 -95v-69z" />
<glyph unicode="7" horiz-adv-x="1124" d="M129 911v258h879l82 -180l-588 -1225l-297 132l487 1015h-563z" />
<glyph unicode="8" horiz-adv-x="1304" d="M139 274q0 66 25 127q23 55 65 103q41 45 93 71q53 29 106 37q-113 20 -188 113q-74 90 -74 211q0 90 39 168q37 76 104 121q78 53 154 73q89 25 190 25q104 0 191 -25q78 -23 153 -73q68 -45 105 -121q39 -78 39 -168q0 -121 -74 -211q-76 -90 -190 -113 q57 -10 108 -36.5t92 -71.5q43 -47 66 -103q25 -61 24 -127q0 -82 -28 -151q-29 -72 -76 -115q-49 -45 -115 -76q-63 -29 -141 -45q-70 -14 -154 -14q-86 0 -155 14q-80 16 -140 45q-70 33 -114 76q-47 43 -76 115q-29 69 -29 151zM461 297q0 -86 49 -125q43 -35 143 -35 q102 0 146 35q47 37 47 125q0 96 -49 156q-49 57 -143.5 57t-143.5 -57q-49 -60 -49 -156zM479 922q0 -86 43 -127q45 -41 131 -41t131 41q43 41 43 127q0 147 -174 147t-174 -147z" />
<glyph unicode="9" horiz-adv-x="1263" d="M117 698q0 147 59 254q63 113 172 174q111 61 256 62q272 0 418 -146q147 -147 147 -409q0 -154 -49 -291q-49 -135 -127 -236q-82 -102 -182 -180q-109 -82 -209 -127q-113 -49 -209 -69l-78 266q147 31 260 102q109 70 173 164q-59 -16 -144 -16q-221 0 -354 118.5 t-133 333.5zM430 684q0 -84 47 -137t123 -53q16 0 94 4l60 5t41 3l39 4l16 137q0 57 -14 115q-12 47 -39 88q-23 35 -70 57q-41 20 -100 21q-61 0 -98 -14.5t-60 -49.5q-18 -29 -28.5 -76t-10.5 -104z" />
<glyph unicode=":" horiz-adv-x="747" d="M190 0v432h418v-432h-418zM190 735v432h418v-432h-418z" />
<glyph unicode=";" horiz-adv-x="747" d="M190 735v432h418v-432h-418zM193 0v416h417v-363q0 -68 -20.5 -121t-50.5 -90q-27 -33 -80 -65q-47 -29 -97 -49q-29 -12 -106 -35l-61 114q96 35 135 76q41 45 41 117h-178z" />
<glyph unicode="&#x3c;" horiz-adv-x="1193" d="M131 475v238l842 512v-301l-547 -330l547 -330v-301z" />
<glyph unicode="=" horiz-adv-x="1187" d="M78 268v234h995v-234h-995zM78 643v234h995v-234h-995z" />
<glyph unicode="&#x3e;" horiz-adv-x="1134" d="M190 264l539 330l-539 330l3 301l839 -512v-238l-839 -512z" />
<glyph unicode="?" horiz-adv-x="1079" d="M14 1462q61 31 95 41q152 51 354 51q121 0 215 -20q92 -20 176 -66q80 -43 123 -120.5t43 -182.5q0 -35 -2 -51q-2 -20 -12 -65q-6 -33 -29 -76q-20 -41 -55 -82q-41 -47 -84 -80q-51 -39 -125 -74t-170 -63v-254h-322v409q10 4 36 12.5t36 12.5l78 27q10 4 36.5 12 t41.5 14q43 15 73.5 30.5t61.5 37.5q35 25 53 43t33 51q12 29 12 63.5t-14 67.5q-12 29 -33 43q-22 15 -55 25q-33 8 -68 12q-20 2 -80 2q-55 0 -137 -18q-113 -25 -143 -35l-58 -19zM209 125q0 82 53 139q52 55 135 55t135 -55q55 -59 55.5 -139t-55.5 -139 q-52 -55 -135 -55.5t-135 55.5q-53 57 -53 139z" />
<glyph unicode="@" horiz-adv-x="1957" d="M127 641q0 141 37 270t112 242q78 115 187 199q106 82 260 131t334 49q160 0 305 -49q144 -49 258 -142q111 -90 178.5 -231t67.5 -309q0 -117 -33 -213q-35 -102 -92 -174q-57 -74 -119 -109q-59 -35 -236 -35q-84 0 -126 56q-45 57 -46 149q0 14 5 51 q-35 -102 -74 -155q-41 -57 -98 -84q-66 -31 -144 -31q-33 0 -94 12q-45 8 -94 37q-41 23 -84 74q-37 45 -68 113q-33 76 -33 167q0 123 50 220q49 94 118 157q68 61 160 97q86 33 191 32q61 0 139 -14q68 -12 123 -37q53 -23 88 -65q35 -41 35 -91q0 -18 -2 -26l-82 -465 q133 23 190 94.5t57 196.5q0 264 -147 399t-420 135q-281 0 -452 -182q-170 -178 -170 -469q0 -268 159 -408q162 -139 445 -139q126 0 264 56l53 -207q-72 -41 -158 -58q-94 -18 -200 -18q-188 0 -346 55t-267 156q-106 98 -170 246q-61 143 -61 317zM776 635 q0 -72 37 -127t98 -55q43 0 84 18q45 20 68 43q29 29 53 72q29 51 41 84q15 43 31 98q4 16 22 100q10 45 19 101q-8 2 -27 4q-6 0 -29.5 4t-39.5 6q-57 4 -80 4q-129 0 -203 -86t-74 -266z" />
<glyph unicode="A" horiz-adv-x="1566" d="M57 0l521 1579h405l520 -1579h-368l-111 350h-485l-113 -350h-369zM586 520h391l-191 617z" />
<glyph unicode="B" horiz-adv-x="1556" d="M188 0v1579h418q273 0 406 -37q135 -37 196 -82q143 -100 144 -301q0 -135 -97 -223q-98 -89 -245 -105q291 -43 368 -206q31 -63 31 -164q0 -92 -33 -178q-33 -82 -88 -133q-63 -57 -143 -89q-158 -61 -420 -61h-537zM557 254h119q162 0 203 10q16 4 65 21q28 9 43 24 q10 10 31 39q27 39 26 117q0 76 -22 125q-23 47 -72 72q-86 41 -256 40h-137v-448zM557 928h139q330 0 330 207q0 92 -45 131q-63 57 -283 57h-141v-395z" />
<glyph unicode="C" horiz-adv-x="1269" d="M76 791q0 395 180 602q182 209 512 209q221 0 399 -74q47 -20 58 -29l18 -12l-100 -260l-19 12l-22 16q-126 80 -307 80q-180 0 -266.5 -131t-86.5 -422q0 -543 361 -542q178 0 340 108l100 -260q-90 -74 -301 -104q-82 -12 -174 -13q-324 0 -508 213.5t-184 606.5z" />
<glyph unicode="D" horiz-adv-x="1609" d="M188 0v1579h492q809 0 809 -797q0 -377 -199 -581q-195 -201 -610 -201h-492zM557 254h84q260 0 358 100q100 102 115 295q4 78 4 135.5t-4 135.5q-2 51 -16 116q-14 63 -33 103q-49 94 -152 141q-96 45 -272 45h-84v-1071z" />
<glyph unicode="E" horiz-adv-x="1366" d="M188 0v1579h1072v-270h-703v-379h612v-228h-612v-436h713v-266h-1082z" />
<glyph unicode="F" d="M188 0v1579h1082v-270h-713v-381h627v-226h-627v-702h-369z" />
<glyph unicode="G" horiz-adv-x="1611" d="M119 770q0 385 200 608q201 221 570 221q95 0 178 -12t135 -31q55 -20 90 -36q47 -23 54 -29l18 -12l-109 -246l-28.5 14l-30.5 15q-31 14 -133 45q-98 29 -166 28q-195 0 -301 -143q-109 -145 -109 -424q0 -150 35 -270q33 -113 113 -187q78 -72 186 -71q182 0 301 63 v352h-358v224h682v-879h-238l-49 127q-41 -80 -139 -121q-102 -43 -227 -43q-311 0 -494 207q-180 205 -180 600z" />
<glyph unicode="H" horiz-adv-x="1601" d="M154 0v1579h368v-649h557v649h371v-1579h-371v705h-557v-705h-368z" />
<glyph unicode="I" horiz-adv-x="862" d="M78 0v170h170v1237h-170v172h708v-172h-170v-1237h170v-170h-708z" />
<glyph unicode="J" horiz-adv-x="894" d="M31 154q121 14 188 49q66 33 98 106q31 71 31 197v1073h369v-1040q1 -19 0 -37q0 -292 -135 -434q-141 -147 -457 -154z" />
<glyph unicode="K" horiz-adv-x="1509" d="M190 0v1579h369v-678h82l449 678h376l-532 -782l588 -797h-385l-502 676h-76v-676h-369z" />
<glyph unicode="L" horiz-adv-x="1189" d="M139 0v1579h369v-1325h682v-254h-1051z" />
<glyph unicode="M" horiz-adv-x="2002" d="M170 0v1579h436l391 -1171l408 1171h434v-1579h-305v1085l-354 -1085h-344l-359 1085v-1085h-307z" />
<glyph unicode="N" horiz-adv-x="1642" d="M150 0v1579h393l610 -1061v1061h328v-1579h-381l-623 1073v-1073h-327z" />
<glyph unicode="O" horiz-adv-x="1626" d="M102 788q0 385 177 603q176 215 534 215t533 -215q178 -219 178 -603q0 -190 -43 -339q-43 -147 -129 -256q-84 -104 -222 -164q-133 -57 -317 -57.5t-317 57.5q-137 59 -222 164q-86 109 -129 256q-43 149 -43 339zM471 788q0 -86 10 -174q10 -86 33 -151 q25 -70 61 -119q39 -51 99 -78q63 -29 139 -28.5t139 28.5q59 27 99 78q37 49 61 119q23 66 33 151q8 72 8 174q0 104 -8 177q-10 82 -33 149q-25 72 -61 121q-35 47 -98.5 75.5t-139.5 28.5t-139.5 -28.5t-98.5 -75.5q-37 -49 -61 -121q-23 -68 -33 -149q-10 -89 -10 -177z " />
<glyph unicode="P" horiz-adv-x="1454" d="M139 0v1579h459q133 0 248 -16q121 -16 203 -50q98 -39 157 -94q61 -57 99 -151q35 -88 34 -215q0 -119 -36.5 -207t-100.5 -144q-66 -57 -164 -90q-102 -35 -211 -47q-111 -12 -258 -12h-61v-553h-369zM508 772h59q82 0 133 8q63 10 111 27q49 16 86 51q35 33 55 78 q20 47 21 113q0 82 -27 147q-25 59 -74 94q-47 33 -116 49q-59 14 -158 15h-90v-582z" />
<glyph unicode="Q" horiz-adv-x="1626" d="M102 788q0 385 177 603q176 215 534 215t533 -215q178 -219 178 -603q0 -219 -55.5 -382.5t-174.5 -272.5q-115 -106 -293 -143l287 -223l-174 -187l-455 404q-135 20 -247 88q-104 63 -174 170q-66 100 -101 241q-35 139 -35 305zM471 788q0 -86 10 -174q10 -86 33 -151 q25 -70 61 -119q39 -51 99 -78q63 -29 139 -28.5t139 28.5q57 27 97 78q37 49 61 119q27 74 35 151q8 72 8 174q0 104 -8 177q-8 74 -35 149q-25 72 -61 121q-35 47 -96.5 75.5t-139.5 28.5t-139.5 -28.5t-95.5 -75.5q-41 -53 -63.5 -120.5t-33.5 -149.5q-10 -89 -10 -177z " />
<glyph unicode="R" horiz-adv-x="1472" d="M139 0v1579h418q188 0 324 -18q150 -20 227 -48q88 -31 145 -83q55 -51 76 -113q23 -63 23 -143q0 -78 -23 -146q-20 -59 -63 -106q-41 -45 -99 -72q-63 -31 -129 -45q-68 -15 -153 -19q119 -14 190 -34q84 -25 150 -70q70 -47 104 -121q35 -72 35 -178v-383h-365v408 q0 74 -26 133q-25 57 -76 84q-49 27 -117 39q-63 12 -153 12h-119v-676h-369zM508 899h43q92 0 156 6q68 6 119 20.5t87 41.5q31 23 52 65q18 41 18 98q0 63 -12 93q-16 41 -43 63q-31 27 -76 41t-111 21q-61 6 -147 6h-86v-455z" />
<glyph unicode="S" horiz-adv-x="1366" d="M92 1159q0 86 35 166q31 72 90 127q53 51 131 88q82 39 158 53q88 16 170 17q80 0 158 -15q100 -18 149 -34q94 -31 119 -41q14 -6 32.5 -12.5l32 -11.5t21.5 -9l29 -14l-95 -279q-12 8 -22 14l-58 33q-29 16 -90 41q-49 20 -112 35q-59 14 -127 14q-14 0 -37 -1t-33 -1 q-33 0 -65 -6q-45 -8 -61.5 -14t-45.5 -27q-25 -18 -33 -39q-10 -27 -10 -55q0 -25 6 -43q6 -16 35 -43q29 -25 82 -47l354 -142q152 -59 254 -178q106 -123 107 -268q0 -508 -584 -508q-82 0 -176 16q-82 14 -148 35q-53 16 -120 47q-20 8 -80 39l-39 25h-2l82 276 q25 -12 30 -16q16 -10 76 -39q58 -28 111 -49q47 -18 119 -39q59 -16 116 -16q16 0 42 1t34 1q27 0 64 6q35 6 55 14q18 8 41 27q18 14 28 43q8 23 9 59q0 66 -31 109q-33 45 -111 75l-424 175q-131 55 -198.5 161.5t-67.5 249.5z" />
<glyph unicode="T" horiz-adv-x="1155" d="M-12 1323v256h1179v-256h-401v-1323h-369v1323h-409z" />
<glyph unicode="U" horiz-adv-x="1613" d="M139 723v856h371v-860q4 -197 12 -236q16 -70 23 -88q12 -37 26 -57q20 -29 37 -45q25 -25 51 -37q59 -27 132 -27q74 0 108 9q45 10 72 26q25 14 53 43q20 20 36.5 59.5t24.5 69.5q8 33 13 84q8 74 8 199v860h369v-856q0 -375 -160 -567.5t-506 -192.5q-354 0 -514 201 q-156 192 -156 559z" />
<glyph unicode="V" horiz-adv-x="1329" d="M-8 1579h344l334 -1075l321 1075h348l-491 -1579h-367z" />
<glyph unicode="W" horiz-adv-x="1994" d="M23 1579h356l217 -1130l207 1116h393l207 -1116l217 1130h356l-338 -1579h-405l-234 1204l-233 -1204h-406z" />
<glyph unicode="X" horiz-adv-x="1366" d="M-4 0l481 797l-481 782h383l305 -512l305 512h383l-481 -782l481 -797h-391l-297 494l-299 -494h-389z" />
<glyph unicode="Y" horiz-adv-x="1234" d="M-61 1579h366l311 -674l310 674h374l-509 -1061v-518h-349v518z" />
<glyph unicode="Z" horiz-adv-x="1230" d="M53 0v252l703 1071h-703v256h1108v-225l-694 -1057h696v-297h-1110z" />
<glyph unicode="[" horiz-adv-x="1155" d="M229 0v1579h750v-262h-418v-1055h418v-262h-750z" />
<glyph unicode="\" horiz-adv-x="1179" d="M166 1579l321 109l572 -1725l-322 -110z" />
<glyph unicode="]" horiz-adv-x="1155" d="M229 0v262h416v1055h-416v262h750v-1579h-750z" />
<glyph unicode="^" horiz-adv-x="1228" d="M229 563l258 619h254l258 -619h-274l-113 383l-110 -383h-273z" />
<glyph unicode="_" horiz-adv-x="1128" d="M68 -98v262h995v-262h-995z" />
<glyph unicode="`" horiz-adv-x="860" d="M170 850l313 145l203 -612l-158 -76z" />
<glyph unicode="a" horiz-adv-x="1247" d="M94 362.5q0 188.5 139 276.5q143 90 394 90q86 0 151 -12q0 115 -10 141q-23 61 -53 78q-35 18 -90 18q-197 0 -373 -82l-84 209q186 115 469 115q326 0 430 -209q59 -117 59 -313v-674h-270l-47 150q-49 -86 -125 -132q-74 -45 -182 -45q-195 0 -301.5 100.5t-106.5 289 zM444 389q0 -88 39 -129q41 -43 109 -43q109 0 186 92v230q3 3 -37 6q-27 2 -59 2q-129 0 -182 -35q-56 -37 -56 -123z" />
<glyph unicode="b" horiz-adv-x="1370" d="M188 0v1677l353 47v-663q119 135 315 135q137 0 238 -78q201 -154 200 -532q0 -469 -288 -580q-86 -33 -183 -33q-252 0 -313 193l-76 -166h-246zM541 297q90 -96 200 -96q203 0 203 385q0 225 -43 309q-43 78 -129 78q-115 0 -231 -117v-559z" />
<glyph unicode="c" horiz-adv-x="1126" d="M100 571q0 139 31 238q31 100 84 168q55 72 127 121q145 98 322 98q135 0 221 -25q82 -23 180 -75l-66 -226q-31 29 -110 58q-88 33 -164 33q-150 0 -211 -86.5t-61 -288.5q0 -375 299 -375q111 0 233 80l14 8l66 -223q-86 -43 -107 -51q-123 -49 -268 -50 q-150 0 -248 39q-100 39 -178 115q-78 74 -121 188q-43 113 -43 254z" />
<glyph unicode="d" horiz-adv-x="1372" d="M106 624.5q0 145.5 54 282.5q51 133 153.5 211t241.5 78q201 0 307 -149v630l352 49v-1726h-247l-76 166q-23 -76 -105 -127q-100 -66 -211 -66q-94 0 -180 33q-82 31 -133 86q-55 59 -90 131q-31 66 -49 164q-17 92 -17 237.5zM457 586q0 -375 202 -375q141 0 203 86 v559q-119 106 -233 107q-152 0 -168 -263q-4 -57 -4 -114z" />
<glyph unicode="e" horiz-adv-x="1232" d="M96 565q2 166 49 285q41 106 121 186q160 160 406 160q150 0 258 -66q225 -135 221 -464v-164h-694q2 -129 78 -211q72 -78 196 -78q172 0 295 90l68 -233q-188 -96 -389 -97q-389 0 -541 285q-68 132 -68 293v14zM457 676h409q4 285 -200 285q-66 0 -117 -41 q-92 -76 -92 -244z" />
<glyph unicode="f" horiz-adv-x="866" d="M61 1016v145h191q0 266 100 400q102 135 307 135q102 0 230 -31v-254q-68 25 -150 25q-68 0 -102.5 -59.5t-34.5 -215.5h281v-145h-281v-1016h-350v1016h-191z" />
<glyph unicode="g" horiz-adv-x="1265" d="M78 -205q0 84 53 158q57 78 154 127q-156 14 -176 188q-2 28 -3 50q0 44 9 65q14 37 28 55q41 57 144 90l80 23q-135 6 -197 104q-35 57 -35 136q0 190 127 299q125 106 340 106q217 0 305 -59q129 57 279 57h100v-225h-246q63 -94 64 -152q0 -49 -10 -100 q-8 -39 -39 -99q-27 -51 -72 -92q-101 -86 -289 -104l-303 -31l19 -119l268 -20q276 -20 414 -115q135 -92 135 -282q0 -414 -641 -414q-438 0 -496 229q-12 47 -12 125zM356 -166q0 -25 4 -49q2 -16 17 -37q12 -18 39 -29q61 -23 162 -22q113 0 163 8q68 10 95 21 q29 10 55 36q31 37 31 95q0 53 -19 82q-39 55 -248 75l-139 15q-6 0 -45 -29q-37 -29 -59 -53q-29 -33 -39 -53q-17 -33 -17 -60zM449 793q0 -96 65 -162q18 -18 37 -27l121 10q53 2 100 66q47 61 43 125q0 164 -180 164q-90 0 -139 -39q-47 -37 -47 -137z" />
<glyph unicode="h" horiz-adv-x="1388" d="M188 0v1667l351 62v-672q6 15 36 43q37 35 66 49q80 47 211 47q199 0 305 -119q111 -123 111 -354v-723h-350v748q0 104 -49.5 159.5t-115 55.5t-104.5 -13q-43 -14 -59 -24q-27 -20 -51 -41v-885h-351z" />
<glyph unicode="i" horiz-adv-x="727" d="M197 1608q0 82 55 137t137 55t139.5 -55t57.5 -137q0 -84 -57.5 -139.5t-139.5 -55.5t-137 55.5t-55 139.5zM215 -2v1159h350v-1159h-350z" />
<glyph unicode="j" horiz-adv-x="729" d="M-8 -113q52 28 86 56q35 29 63.5 65.5t44.5 91.5q14 49 15 123v936h350v-956q0 -104 -37 -201q-35 -92 -98 -164q-61 -71 -142 -117q-86 -49 -172 -69zM184 1604q0 82 54 139q53 55 137 55q83 0 135 -55q53 -57 53 -139q0 -80 -53 -137.5t-135 -57.5q-84 0 -137.5 57.5 t-53.5 137.5z" />
<glyph unicode="k" horiz-adv-x="1368" d="M188 0v1677l353 49v-991l440 434h381l-512 -520l520 -649h-393l-344 496l-92 -86v-410h-353z" />
<glyph unicode="l" horiz-adv-x="686" d="M174 0v1677l350 49v-1726h-350z" />
<glyph unicode="m" horiz-adv-x="1982" d="M188 0v1159h248l78 -178q41 109 117 160q82 55 198 55q115 0 191 -39q82 -43 125 -135q61 90 141 131q82 43 213 43q178 0 270 -115q90 -111 91 -325v-756h-351v782q0 178 -118 179q-45 0 -91 -23q-35 -16 -96 -76v-862h-350v793q0 135 -68 159q-25 8 -49 9 q-37 0 -61 -11q-94 -43 -135 -119v-831h-353z" />
<glyph unicode="n" horiz-adv-x="1361" d="M182 0v1159h267l67 -147q90 184 305 184t313.5 -116.5t98.5 -358.5v-721h-350v748q0 117 -37 163.5t-111 49.5h-12q-66 0 -113 -29q-51 -31 -75 -76v-856h-353z" />
<glyph unicode="o" d="M70 582q0 291 147.5 452.5t421.5 161.5t421.5 -162t147.5 -452q0 -289 -147.5 -449t-421.5 -160t-421.5 160t-147.5 449zM420 583.5q0 -196.5 53 -284.5q53 -90 166 -90q115 0 168 90q53 88 53 284.5t-53 284.5q-55 92 -168 93q-111 0 -166 -93q-53 -88 -53 -284.5z" />
<glyph unicode="p" horiz-adv-x="1347" d="M160 -406v1565h266l68 -149q31 88 106.5 137t206.5 49q127 0 213 -43q82 -41 139 -127q111 -166 111 -457q0 -293 -133 -444.5t-353 -151.5q-166 0 -272 148v-527h-352zM512 324q141 -115 236 -115q78 0 114 57q39 61 45 123q2 25 8 113q2 31 3 104q0 68 -3 92q0 4 -2 35 t-4 47q-6 43 -18 74q-10 29 -31 57q-37 53 -117 54q-127 0 -231 -109v-532z" />
<glyph unicode="q" horiz-adv-x="1359" d="M102 565q0 485 304 600q82 31 180 31q100 0 174 -53q51 -33 100 -139l49 155h301v-1565h-352v527q-121 -145 -272 -146q-102 0 -195 35q-90 35 -139 96q-150 180 -150 459zM453 600q0 -84 2 -108q0 -4 2 -35t4 -49q6 -43 18 -78q14 -41 29 -62q37 -59 115 -59 q119 0 235 117v505q-45 70 -80 97q-45 33 -119 33q-61 0 -104 -31t-63 -84q-23 -57 -31 -115q-8 -55 -8 -131z" />
<glyph unicode="r" horiz-adv-x="880" d="M178 0v1159h301l39 -182q18 53 55 90q29 29 66 47q29 14 84 33q45 14 147 14v-299q-51 18 -114 19q-119 0 -228 -84v-797h-350z" />
<glyph unicode="s" horiz-adv-x="1153" d="M123 864.5q0 151.5 123 241.5q125 90 346 90q117 0 233 -31q113 -29 170 -53l25 -8l-66 -221q-76 29 -170 49q-113 25 -166 24q-74 0 -106 -10q-41 -12 -55.5 -26.5t-16.5 -53.5t17 -57q20 -20 71 -41l299 -115q55 -18 107 -55q109 -78 108 -250q0 -236 -206 -321 q-121 -51 -267 -52q-274 0 -442 103l66 227q76 -35 180 -61q102 -27 176 -29h21q71 0 100 18q47 25 47 107q0 51 -109 94l-157 62q-200 77 -258 141q-70 76 -70 227.5z" />
<glyph unicode="t" horiz-adv-x="940" d="M0 1016v143h219l10 434l330 84v-518h326v-143h-326v-598q0 -92 27 -137q29 -49 94 -50q34 0 74 13q29 8 59 26q23 12 23 15l82 -211q-4 -2 -17 -11q-6 -4 -45 -20q-49 -20 -74 -29q-29 -10 -94 -20q-61 -10 -110 -10q-82 0 -156 26q-66 23 -115 80q-47 53 -71.5 145.5 t-24.5 217.5v563h-211z" />
<glyph unicode="u" horiz-adv-x="1349" d="M201 449v710h346v-735q0 -100 33 -158q33 -53 116 -57q111 10 187 94v856h350v-1159h-248l-76 176q-41 -109 -92 -145q-74 -57 -188 -58q-219 0 -324 119q-104 120 -104 357z" />
<glyph unicode="v" horiz-adv-x="1179" d="M6 1159h369l215 -858l213 858h371l-373 -1159h-424z" />
<glyph unicode="w" horiz-adv-x="1624" d="M25 1159h323l154 -756l157 756h308l155 -753l160 753h320l-291 -1159h-353l-149 651l-147 -651h-349z" />
<glyph unicode="x" horiz-adv-x="1144" d="M-4 1159h393l193 -325l186 325h387l-395 -575l389 -584h-381l-190 346l-189 -346h-387l397 584z" />
<glyph unicode="y" horiz-adv-x="1226" d="M25 1159h358l274 -784l193 784h354l-395 -1192q-70 -217 -205 -327q-129 -104 -352 -109l-98 238q96 6 157.5 24.5t98.5 54.5q41 41 57 80t39 115z" />
<glyph unicode="z" horiz-adv-x="1052" d="M102 0v233l488 664h-475v264h852v-229l-482 -668h492v-264h-875z" />
<glyph unicode="{" horiz-adv-x="851" d="M145 551v188q41 0 64 27q20 23 33 88q12 61 12 172q0 84 12 152q12 72 37 118.5t57 83.5q35 37 72 60q31 18 82 35q31 10 88 18q43 6 90 6v-188q-31 0 -51 -11q-18 -8 -33 -40q-14 -31 -20 -99q-4 -43 -4 -180q0 -72 -13 -127q-14 -63 -28 -90q-20 -37 -43 -59 q-20 -20 -49 -37q-27 -14 -50 -23q182 -68 183 -338q0 -115 6 -180q6 -74 18 -98q14 -33 33 -41q16 -8 51 -8v-191q-47 0 -90 6q-57 8 -88 19q-43 14 -82 36q-37 20 -70 58q-41 45 -59 86q-23 53 -35 117q-14 78 -14 151q0 113 -12 174q-12 66 -33 88q-23 27 -64 27z" />
<glyph unicode="|" horiz-adv-x="811" d="M252 -147v1814h307l2 -1814h-309z" />
<glyph unicode="}" horiz-adv-x="851" d="M160 -20q27 0 35 2q18 4 28 14q16 16 21 33q6 23 12 57q8 45 10 90q2 35 2 131q0 270 183 338q-23 8 -50 23q-29 16 -49 37q-23 23 -43 59q-14 27 -28 90q-12 55 -13 127q0 96 -2 131q-4 63 -8 90q-4 23 -14 60q-4 14 -21 30q-10 10 -28 15q-16 4 -35 4v188q47 0 90 -6 q57 -8 88 -18q51 -16 82 -35q37 -23 72 -60q33 -37 57 -84t37 -118q12 -68 12 -152q0 -164 24.5 -225.5t84.5 -61.5v-188q-59 0 -84 -61.5t-25 -227.5q0 -74 -14 -151q-12 -63 -35 -117q-20 -45 -57 -86q-31 -33 -72 -58q-39 -23 -82 -36q-31 -10 -88 -19q-43 -6 -90 -6v191 z" />
<glyph unicode="~" horiz-adv-x="1206" d="M176 336q0 164 60 252q58 86 172 86q51 0 94 -15q53 -18 80 -34l69 -43q34 -22 68 -37q31 -14 63 -15q35 0 47 21q12 23 13 84h219q0 -147 -62 -236q-61 -90 -170 -90q-43 0 -96 17q-37 12 -88 39l-76 43q-57 33 -69 38q-31 14 -56 15q-29 0 -45 -29q-14 -27 -14 -96 h-209z" />
<glyph unicode="&#xa1;" horiz-adv-x="790" d="M178 0l111 1065h211l106 -1065h-428zM217 1348q0 80 53 137q52 55 135 55t136 -55q55 -59 55 -137q0 -80 -55 -140q-52 -55 -135 -55t-136 55q-53 58 -53 140z" />
<glyph unicode="&#xa2;" horiz-adv-x="1095" d="M78 586q0 115 31 213q31 96 86 168q57 74 124 120q71 49 154 74q84 25 168 25q135 0 221 -25q82 -23 180 -76l-63 -225q-31 27 -113 58q-88 33 -164 32q-150 0 -211 -86t-61 -278q0 -365 299 -365q31 0 72 10q35 8 69 23q31 12 56 25q8 4 39 22l12 10l65 -225 q-49 -25 -106 -49q-47 -20 -123 -35q-86 -16 -172 -16q-115 0 -219 41q-106 43 -180 112.5t-119 190.5q-45 119 -45 256zM621 -147v1523h161l2 -1523h-163z" />
<glyph unicode="&#xa3;" horiz-adv-x="1202" d="M188 260l9 10q4 4 20 25q8 10 29 39q10 14 30.5 51t28.5 57q10 25 21 64q8 31 8 67l-127 -2v144h102q0 -2 -3 0t-9 10q-16 16 -27 31q-29 41 -34 51q-12 23 -27 67q-12 39 -12 82q0 78 30 146q31 70 88 117q57 49 146 75q92 29 198 29q43 0 117 -8q43 -4 98 -21 q51 -14 80 -26q53 -23 64 -29q8 -4 22.5 -12t20.5 -13l26 -18l11 -6l-133 -219l-11 10l-34 23q-33 16 -54 24q-37 14 -73 23q-47 10 -92.5 10t-82.5 -10q-35 -10 -53 -25q-16 -14 -28 -35q-10 -18 -15 -41q-4 -25 -4 -41q0 -83 55 -159l25 -29h406v-150h-388q0 -68 -14 -119 t-35 -85q-18 -31 -45 -58q-29 -29 -35 -33q-12 -8 -16 -10h592v-266h-873z" />
<glyph unicode="&#xa4;" horiz-adv-x="1394" d="M143 539l195 192q-72 109 -72 236q0 135 78 250l-201 202l129 129l201 -200q115 78 254 77q127 0 234 -69l192 192l129 -129l-195 -194q63 -100 64 -224q0 -139 -78 -253l209 -209l-129 -131l-211 210q-115 -78 -250 -77q-123 0 -223 63l-197 -196zM442 975 q0 -104 78 -182q76 -76 182 -76q68 0 133.5 37t102.5 102q39 68 39 135q0 104 -78 183q-76 76 -180 75q-68 0 -135 -39q-61 -35 -103 -100q-39 -63 -39 -135z" />
<glyph unicode="&#xa5;" horiz-adv-x="1275" d="M-43 1577h379l301 -766l299 766h385l-389 -807h203v-119h-261l-63 -129h324v-121h-324v-401h-348v401h-326v121h324l-62 129h-262v119h205z" />
<glyph unicode="&#xa6;" horiz-adv-x="751" d="M225 -147v745h310v-745h-310zM225 922v745h310v-745h-310z" />
<glyph unicode="&#xa7;" horiz-adv-x="1122" d="M106 43l95 215l8 -6q4 -2 12 -9t12 -12l37 -24q8 -6 49 -29q10 -6 58 -24q29 -12 69 -19q49 -8 74 -8q209 0 209 123q0 53 -33 80q-35 29 -114 53l-160 53q-98 34 -160 68q-63 35 -96 74q-33 37 -45 84q-12 43 -12 106q0 33 8 63q10 37 30 70q23 37 60 62q41 29 90 43 q-188 68 -188 266q0 43 12 86q10 33 47 82q33 41 80 71q45 29 121 48q82 20 166 20q49 0 131 -18q63 -14 114 -35q41 -16 92 -47q12 -6 26.5 -15.5t23 -13.5t12.5 -8t12 -9.5t12 -9.5l-92 -202q-45 37 -149 79q-96 39 -170 39q-51 0 -84 -6t-53.5 -16t-28.5 -25 q-14 -23 -14 -24q-2 -8 -2 -25v-14q0 -2 8 -14.5t16 -16.5q4 -2 16.5 -9t20.5 -11q25 -12 61 -25l156 -55q94 -35 154 -66q61 -33 102 -63q40 -31 62 -68q23 -39 28 -74q8 -49 8 -84q0 -80 -47 -145q-45 -63 -137 -92q53 -23 90 -55.5t58 -69.5q16 -29 28 -76q10 -41 10 -80 q0 -55 -16 -108q-14 -45 -41 -82t-63 -62q-41 -29 -76 -41q-41 -16 -88 -24q-68 -12 -92 -14q-57 -4 -91 -5q-96 0 -219 41q-121 41 -178 88zM362 750q0 -51 44 -76q47 -27 141 -27q188 0 188 101q0 23 -6 40q-4 14 -27 33q-20 16 -59 23q-53 8 -94 8q-49 0 -84 -6 q-41 -8 -55 -15q-14 -8 -29 -24q-10 -14 -14 -27q-5 -16 -5 -30z" />
<glyph unicode="&#xa8;" horiz-adv-x="1245" d="M98 195q0 82 55.5 137t137.5 55t139 -55.5t57 -136.5q0 -84 -57 -139.5t-139 -55.5t-137.5 55.5t-55.5 139.5zM768 195q0 82 55.5 137t137.5 55q80 0 139 -55q57 -55 57 -137q0 -84 -57 -140q-59 -55 -139 -55q-82 0 -137.5 55.5t-55.5 139.5z" />
<glyph unicode="&#xa9;" horiz-adv-x="2078" d="M135 782q0 143 35 262q33 115 102 224q63 100 152 182q86 80 190 137q100 53 217 86q115 31 230 31q152 0 293 -41q131 -37 235 -107q90 -59 176 -151q82 -88 127 -172q51 -96 76 -174q43 -139 41 -305q0 -51 -6 -107q-6 -47 -29 -121q-27 -84 -49 -131q-35 -74 -76 -133 q-43 -63 -106 -127q-59 -61 -144 -112q-86 -53 -182 -91q-168 -66 -350 -65q-123 0 -240 31q-123 33 -221 86q-111 61 -190 137q-90 86 -150 182q-61 100 -96 223q-35 127 -35 256zM391 782q0 -139 49 -266q47 -123 140 -217q92 -96 215 -145q131 -53 278 -54q143 0 273 56 q127 55 217 147q84 88 139 219q51 123 51 266q0 59 -12 125q-14 74 -37 129q-31 76 -66 129q-39 61 -96 115q-59 55 -126.5 94t-162.5 64q-92 25 -198 24q-100 0 -195 -30q-96 -31 -180 -90q-82 -57 -150 -142q-66 -82 -102 -190q-37 -111 -37 -234zM608 784q0 156 54 269 q55 117 161 180q109 66 252 65q68 0 152 -22q80 -22 116 -43l25 -16v-209l-74 36q-29 14 -94 31q-57 14 -129 15q-52 0 -92 -19q-47 -23 -68 -45q-20 -25 -39 -70q-16 -45 -22 -82q-6 -43 -6 -90q0 -80 16 -145q14 -57 49 -96q31 -34 74 -49q41 -14 96 -15q109 0 224 58 l73 36v-219l-28 -14q-139 -70 -256 -70q-109 0 -195 31q-84 31 -139 82q-53 51 -88 119q-39 78 -49 137q-13 69 -13 145z" />
<glyph unicode="&#xaa;" horiz-adv-x="1247" d="M193 918q0 147 110.5 220.5t314.5 73.5q63 0 121 -10q0 96 -8 115q-18 45 -43 59q-29 16 -72 17q-158 0 -299 -66l-65 168q143 90 375 90q261 0 344 -166q49 -96 49 -252v-538h-217l-39 121q-39 -70 -98 -107q-55 -35 -148 -35q-156 0 -242 80q-83 78 -83 230zM471 940 q0 -66 33 -102q31 -35 88 -35q86 0 147 74v184l-15 3q-9 1 -15 1q-23 2 -45 2q-102 0 -147.5 -28.5t-45.5 -98.5z" />
<glyph unicode="&#xab;" horiz-adv-x="1845" d="M98 453v243l805 504v-338l-471 -282l471 -295v-336zM901 453v243l807 504v-338l-471 -282l471 -295v-336z" />
<glyph unicode="&#xac;" horiz-adv-x="1128" d="M63 584v262h996v-262v-361h-193v361h-803z" />
<glyph unicode="&#xad;" horiz-adv-x="1118" d="M156 573v263h794v-263h-794z" />
<glyph unicode="&#xae;" horiz-adv-x="1363" d="M14 1221q0 172 88 323q86 145 240 236q152 88 346 88q184 0 342 -86q152 -84 244 -236q90 -150 90 -325q0 -178 -90 -328t-244 -234q-160 -88 -342 -88q-188 0 -344 88.5t-242 235.5q-88 152 -88 326zM160 1217q0 -215 149 -363q147 -145 377 -145t381 147 q150 147 150 363q0 217 -152 364.5t-379 147.5q-223 0 -377 -150q-149 -147 -149 -364zM479 891v668h135q78 0 127 -9q53 -8 103 -28q47 -18 71.5 -55t24.5 -93q0 -76 -37 -119t-129 -67l187 -260l-127 -64l-185 297h-39v-270h-131zM616 1274h50q74 0 106 20q35 23 35 76 q0 47 -37 64q-39 16 -154 16v-176z" />
<glyph unicode="&#xaf;" horiz-adv-x="657" d="M-342 123v127h684v-127h-684z" />
<glyph unicode="&#xb0;" horiz-adv-x="819" d="M31 1020q0 96 51 174q52 80 135 123q82 43 180 43q95 0 178 -43t136 -123q51 -78 51 -174t-51 -174q-52 -80 -135 -123t-179 -43q-98 0 -180 43q-83 43 -135 123q-51 78 -51 174zM215 1020q0 -76 55 -127q53 -49 127 -49t125 49q53 49 53 127q0 76 -53 125 q-55 51 -125 51q-72 0 -127 -51t-55 -125z" />
<glyph unicode="&#xb1;" horiz-adv-x="1132" d="M178 770v268h279v351h286v-351h281v-268h-281v-352h-286v352h-279zM205 -20v262h792v-262h-792z" />
<glyph unicode="&#xb2;" horiz-adv-x="1173" d="M162 1473l2 2q29 12 45 20t80 33q49 18 117 33q72 14 118 14q59 0 107 -8q51 -8 100 -31q43 -18 84 -53q39 -33 59 -80q23 -51 23 -115q0 -92 -47 -170q-49 -82 -162 -180l-115 -102h297v-213h-686v174l260 219l3 3q3 3 9.5 7t12.5 10l29 25l26 22q14 12 29 27l22 27 q18 18 22.5 26l16.5 29q6 10 10.5 30.5t4.5 28.5q0 57 -29 86t-94 29q-41 0 -80 -10q-49 -12 -90 -31l-64 -25q-22 -9 -36 -18z" />
<glyph unicode="&#xb3;" horiz-adv-x="1177" d="M170 1556l14 9q2 2 45 20q28 12 62 25q27 10 84 20q43 8 94 8q68 0 133 -10q59 -10 109 -31q47 -20 84 -57q34 -34 55 -86q20 -49 20 -119q2 -70 -43 -139q-41 -63 -118 -82q84 -23 137 -90.5t53 -155.5q0 -86 -31 -149q-29 -61 -88 -105q-57 -41 -131 -59t-164 -18 q-70 0 -102 4q-57 8 -84 14q-6 2 -28.5 7t-32.5 9q-31 10 -39 15l-15 6l68 201h2q6 -2 19.5 -8.5t21.5 -8.5q23 -8 80 -20q59 -12 102 -13q80 0 121 27t41 96q0 45 -35 84q-33 35 -88 51q-57 16 -113 15v196q33 0 82 9q39 6 68 20q35 18 51 39q18 25 19 59q0 46 -37 68 q-39 23 -97 23q-14 0 -43 -5q-33 -4 -45 -8q-8 -2 -22 -5t-21 -5q-14 -4 -39 -12q-16 -6 -28 -11l-12.5 -4t-10.5 -4l-6 -4z" />
<glyph unicode="&#xb4;" horiz-adv-x="1095" d="M291 383l203 612l313 -145l-358 -543z" />
<glyph unicode="&#xb5;" horiz-adv-x="1349" d="M139 -428v1589h350v-885l7 -2l16 -8q8 -4 29 -12q2 0 14 -6t20 -8q6 -2 18.5 -5.5t18.5 -5.5q14 -4 39 -8q14 -2 37 -2q125 6 186 78v864h353v-1161h-248l-80 168q-10 -37 -29 -62q-27 -37 -53 -59q-33 -27 -84 -45q-47 -16 -112 -16q-28 0 -62 6q-18 4 -51 14 q-18 6 -19 10v-503z" />
<glyph unicode="&#xb6;" horiz-adv-x="1363" d="M80 1155q0 76 18 137q16 57 52 105q29 39 77 76q45 33 97 51q63 23 114 32q70 14 119 17q78 4 125 4h104l502 2v-1579h-256v1427h-135v-1427h-258v711q-94 0 -174 12q-70 10 -152 45q-63 27 -123 82q-49 47 -81 127q-29 72 -29 178z" />
<glyph unicode="&#xb7;" horiz-adv-x="620" d="M100 704.5q0 88.5 61.5 149.5t149.5 61t149.5 -61t61.5 -149.5t-61.5 -149.5t-149.5 -61t-149.5 61t-61.5 149.5z" />
<glyph unicode="&#xb8;" horiz-adv-x="657" d="M78 -473l8 -4q2 0 11 -5t16 -7l37 -13q29 -8 47 -10q37 -4 53 -4q43 0 57 2q18 2 43 16q20 12 28.5 35t8.5 62q0 162 -260 161l20 263h121l-20 -175q39 0 59 -4q57 -12 70 -14q31 -6 74 -31q37 -20 65 -43q27 -20 47 -65q18 -40 19 -86q0 -133 -74 -201q-76 -70 -215 -70 q-109 0 -207 52l-8 4v137z" />
<glyph unicode="&#xb9;" horiz-adv-x="911" d="M143 1552l215 86l265 -2v-934h-279v713l-125 -53z" />
<glyph unicode="&#xba;" d="M156 1159q0 233 118 361q121 131 336 131q217 0 336 -131t119 -361q0 -231 -117 -360q-115 -127 -338 -127q-217 0 -335.5 127t-118.5 360zM434 1159q0 -154 43 -227.5t133 -73.5t133 74t43 227q0 156 -43 230q-41 72 -133 71.5t-133 -71.5q-43 -74 -43 -230z" />
<glyph unicode="&#xbb;" horiz-adv-x="1886" d="M170 -51v336l481 295l-481 282v338l807 -504v-243zM975 -51v336l479 295l-479 282v338l805 -504v-243z" />
<glyph unicode="&#xbc;" horiz-adv-x="1974" d="M57 1262l287 110l178 -39v-921h-264v712l-125 -53zM446 -29l707 1569l225 -82l-712 -1564zM1008 256l518 768l207 -53v-668h139v-207h-139v-221h-244v221h-449zM1313 301h176v297z" />
<glyph unicode="&#xbd;" horiz-adv-x="2088" d="M57 1262l287 110l178 -39v-921h-264v712l-125 -53zM446 -29l707 1569l225 -82l-712 -1564zM1262 946l6 4l20 11q12 6 31 14l39 14l45 17q33 12 51 16q8 2 26.5 7t28.5 7q23 4 56 8q41 4 57 5q76 0 133 -15q61 -16 119 -47q53 -29 88 -90q33 -57 33 -133q0 -94 -47 -172 q-46 -77 -160 -178l-117 -105h299v-213h-688v174l260 219l27 21q8 6 26 25l27 22q12 10 29 27l22 26q16 16 23 29l16 27q9 15 12 30q4 20 5 29q0 58 -31 86q-33 29 -94 29q-51 0 -115 -21q-74 -23 -113 -43l-43 -20z" />
<glyph unicode="&#xbe;" horiz-adv-x="2125" d="M82 1430l14 8q8 6 43 20q18 8 64 25q29 10 82 20q43 8 96 8q86 0 162 -16q63 -14 125 -51q47 -29 82 -94q29 -55 32 -142q0 -72 -45 -139q-43 -63 -116 -82q82 -23 135 -90q55 -70 55 -156q0 -80 -33 -149q-29 -61 -88 -105q-57 -41 -129 -59q-74 -18 -166 -18 q-49 0 -73 2q-14 2 -37 5t-29 3q-23 2 -53 10q-33 8 -45 12l-33 11q-6 2 -13.5 4t-9.5 4l-6 2l68 203q4 -2 16.5 -7.5t18.5 -7.5t82 -22q55 -14 106 -15q82 0 123 29t41 94q0 45 -35 84q-31 33 -88 53q-49 18 -115 15v196q59 0 107 13q49 12 80 41q33 31 32 73q0 46 -36 68 q-39 23 -95 23q-47 0 -102 -15q-63 -16 -90 -28l-37 -15zM610 -29l707 1569l225 -82l-713 -1564zM1171 256l519 768l206 -53v-668h140v-207h-140v-221h-223v221h-469zM1466 301h207v305z" />
<glyph unicode="&#xbf;" horiz-adv-x="1157" d="M106 285q0 35 3 51q2 20 12 65q6 33 29 76q20 41 55 82q41 47 84 80q51 39 124.5 74t170.5 63v254h321v-409q-10 -4 -35.5 -12.5t-35.5 -12.5l-78 -27q-10 -4 -37 -12t-41 -14q-43 -15 -74 -31q-39 -18 -63 -37q-27 -18 -52 -43q-18 -18 -32 -51q-12 -29 -13 -64 q0 -40 13 -67q12 -27 35 -43q22 -15 55 -25q33 -8 67 -12q20 -2 80 -2q55 0 137 18q104 23 142 35l57 19l82 -252q-61 -31 -94 -41q-152 -51 -354 -51q-121 0 -215 20q-92 20 -177 66q-80 43 -123 121t-43 182zM539 1325q0 82 53 139q52 55 135 56q84 0 137 -56 q53 -57 53.5 -139t-53.5 -139q-53 -55 -137 -56q-83 0 -135 56q-53 57 -53 139z" />
<glyph unicode="&#xc0;" horiz-adv-x="1566" d="M57 0l521 1579h405l520 -1579h-368l-111 350h-485l-113 -350h-369zM391 2269l314 146l202 -615l-157 -74zM586 520h391l-191 617z" />
<glyph unicode="&#xc1;" horiz-adv-x="1566" d="M57 0l521 1579h405l520 -1579h-368l-111 350h-485l-113 -350h-369zM586 520h391l-191 617zM594 1800l203 615l311 -146l-358 -543z" />
<glyph unicode="&#xc2;" horiz-adv-x="1566" d="M57 0l521 1579h405l520 -1579h-368l-111 350h-485l-113 -350h-369zM406 1726l258 621h254l258 -621h-275l-113 385l-110 -385h-272zM586 520h391l-191 617z" />
<glyph unicode="&#xc3;" horiz-adv-x="1566" d="M57 0l521 1579h405l520 -1579h-368l-111 350h-485l-113 -350h-369zM348 1753q0 168 58 252q58 86 172 86q51 0 94 -14q57 -18 82 -35l67 -43q34 -22 68 -37q31 -14 65.5 -14t46.5 20q10 18 11 84h221q0 -145 -64 -237q-61 -88 -170 -89q-41 0 -94 17q-43 12 -90 39 l-76 43q-47 29 -67 37q-37 16 -56 16q-29 0 -45 -28.5t-16 -96.5h-207zM586 520h391l-191 617z" />
<glyph unicode="&#xc4;" horiz-adv-x="1566" d="M57 0l521 1579h405l520 -1579h-368l-111 350h-485l-113 -350h-369zM264 1933q0 82 55 138q57 57 140 57q78 0 139 -57q55 -53 55 -138q0 -86 -55 -139q-57 -55 -139 -55q-84 0 -139.5 55t-55.5 139zM586 520h391l-191 617zM936 1933q0 82 55 138q57 57 137 57 q78 0 140 -57q55 -53 55 -138q0 -86 -55 -139q-59 -55 -140 -55q-82 0 -137 55t-55 139z" />
<glyph unicode="&#xc5;" horiz-adv-x="1566" d="M57 0l518 1571q-61 37 -106 106q-53 82 -53 174q0 96 51 174q52 80 135 123q82 43 180 43q95 0 179 -43q84 -45 135 -120q51 -78 51 -177q0 -96 -51 -174q-45 -68 -109 -106l516 -1571h-368l-111 350h-485l-113 -350h-369zM586 520h391l-191 617zM600 1851 q0 -74 55.5 -125t126.5 -51q70 0 125 51q53 49 54 125q0 78 -54 127q-51 49 -124.5 49.5t-127.5 -49.5q-55 -51 -55 -127z" />
<glyph unicode="&#xc6;" horiz-adv-x="1916" d="M6 0l621 1577h1233v-203h-670v-436h579v-197h-579v-518h680v-223h-1041v350h-342l-120 -350h-361zM535 520h294v823z" />
<glyph unicode="&#xc7;" horiz-adv-x="1269" d="M76 791q0 395 180 602q182 209 512 209q221 0 399 -74q47 -20 58 -29l18 -12l-100 -260l-19 12l-22 16q-126 80 -307 80q-180 0 -266.5 -131t-86.5 -422q0 -543 361 -542q178 0 340 108l100 -260q-86 -71 -301 -104q-59 -10 -115 -13l-18 -151q39 0 59 -4q12 -2 37 -8.5 l33 -8.5q37 -8 74 -28q29 -16 65 -45q29 -23 47 -64q18 -40 19 -86q0 -133 -74 -201q-76 -70 -215 -69q-111 0 -209 51l-6 4v135l8 -4q2 0 11.5 -4t15.5 -6l37 -12q29 -8 47 -11q2 0 22.5 -3t30.5 -3q29 0 57 4q25 4 43.5 14.5t28.5 36.5q8 23 8 62q0 162 -260 162l19 241 q-279 18 -447 211q-184 216 -184 607z" />
<glyph unicode="&#xc8;" horiz-adv-x="1366" d="M188 0v1579h1072v-270h-703v-379h612v-228h-612v-436h713v-266h-1082zM313 2269l314 146l202 -615l-157 -74z" />
<glyph unicode="&#xc9;" horiz-adv-x="1366" d="M188 0v1579h1072v-270h-703v-379h612v-228h-612v-436h713v-266h-1082zM514 1800l205 615l311 -146l-358 -543z" />
<glyph unicode="&#xca;" horiz-adv-x="1366" d="M188 0v1579h1072v-270h-703v-379h612v-228h-612v-436h713v-266h-1082zM346 1726l258 621h254l258 -621h-272l-113 385l-113 -385h-272z" />
<glyph unicode="&#xcb;" horiz-adv-x="1366" d="M147 1933q0 82 56 138q57 57 137 57q78 0 139 -57q57 -55 58 -138q0 -84 -57.5 -139t-139.5 -55t-137.5 55t-55.5 139zM188 0v1579h1072v-270h-703v-379h612v-228h-612v-436h713v-266h-1082zM817 1933q0 82 55 138q57 57 138 57q78 0 139 -57q57 -55 57 -138 q0 -84 -57 -139q-59 -55 -139 -55q-82 0 -137.5 55t-55.5 139z" />
<glyph unicode="&#xcc;" horiz-adv-x="862" d="M78 0v170h170v1237h-170v172h708v-172h-170v-1237h170v-170h-708zM88 2269l313 146l203 -615l-158 -74z" />
<glyph unicode="&#xcd;" horiz-adv-x="862" d="M78 0v170h170v1237h-170v172h708v-172h-170v-1237h170v-170h-708zM291 1800l203 615l311 -146l-359 -543z" />
<glyph unicode="&#xce;" horiz-adv-x="862" d="M51 1726l258 621h254l258 -621h-272l-113 385l-112 -385h-273zM78 0v170h170v1237h-170v172h708v-172h-170v-1237h170v-170h-708z" />
<glyph unicode="&#xcf;" horiz-adv-x="862" d="M-78 1933q0 82 55 138q57 57 138 57q78 0 139 -57q57 -55 57 -138q0 -84 -57 -139t-139 -55t-137.5 55t-55.5 139zM78 0v170h170v1237h-170v172h708v-172h-170v-1237h170v-170h-708zM592 1933q0 82 55 138q57 57 137 57q78 0 140 -57q57 -55 57 -138q0 -84 -57 -139 q-59 -55 -140 -55q-82 0 -137 55t-55 139z" />
<glyph unicode="&#xd0;" horiz-adv-x="1476" d="M-20 684v231h159v664h500q809 0 809 -797q0 -377 -199 -581q-195 -201 -610 -201h-500v684h-159zM508 254h92q90 0 157.5 12.5t119 35t86.5 56.5q33 33 57 78q23 43 35 99q16 78 18 114q4 78 4 135.5t-4 135.5q-2 51 -16 116q-10 53 -35 101q-23 45 -57 80q-43 43 -84 61 q-53 23 -121 35q-71 12 -160 12h-92v-410h262v-231h-262v-430z" />
<glyph unicode="&#xd1;" horiz-adv-x="1642" d="M150 0v1579h393l610 -1061v1061h328v-1579h-381l-623 1073v-1073h-327zM393 1753q0 168 58 252q58 86 172 86q51 0 94 -14q57 -18 82 -35l67 -43q23 -14 68 -37q31 -14 65 -14q33 0 45 20q12 23 13 84h221q0 -145 -64 -237q-61 -88 -170 -89q-41 0 -94 17q-43 12 -90 39 l-76 43q-47 29 -67 37q-37 16 -55 16q-29 0 -45.5 -28.5t-16.5 -96.5h-207z" />
<glyph unicode="&#xd2;" horiz-adv-x="1626" d="M102 788q0 385 177 603q176 215 534 215t533 -215q178 -219 178 -603q0 -190 -43 -339q-43 -147 -129 -256q-84 -104 -222 -164q-133 -57 -317 -57.5t-317 57.5q-137 59 -222 164q-86 109 -129 256q-43 149 -43 339zM432 2269l313 146l203 -615l-157 -74zM471 788 q0 -86 10 -174q10 -86 33 -151q25 -70 61 -119q39 -51 99 -78q63 -29 139 -28.5t139 28.5q59 27 99 78q37 49 61 119q23 66 33 151q8 72 8 174q0 104 -8 177q-10 82 -33 149q-25 72 -61 121q-35 47 -98.5 75.5t-139.5 28.5t-139.5 -28.5t-98.5 -75.5q-37 -49 -61 -121 q-23 -68 -33 -149q-10 -89 -10 -177z" />
<glyph unicode="&#xd3;" horiz-adv-x="1626" d="M102 788q0 385 177 603q176 215 534 215t533 -215q178 -219 178 -603q0 -190 -43 -339q-43 -147 -129 -256q-84 -104 -222 -164q-133 -57 -317 -57.5t-317 57.5q-137 59 -222 164q-86 109 -129 256q-43 149 -43 339zM471 788q0 -86 10 -174q10 -86 33 -151 q25 -70 61 -119q39 -51 99 -78q63 -29 139 -28.5t139 28.5q59 27 99 78q37 49 61 119q23 66 33 151q8 72 8 174q0 104 -8 177q-10 82 -33 149q-25 72 -61 121q-35 47 -98.5 75.5t-139.5 28.5t-139.5 -28.5t-98.5 -75.5q-37 -49 -61 -121q-23 -68 -33 -149q-10 -89 -10 -177z M635 1800l203 615l311 -146l-358 -543z" />
<glyph unicode="&#xd4;" horiz-adv-x="1626" d="M102 788q0 385 177 603q176 215 534 215t533 -215q178 -219 178 -603q0 -190 -43 -339q-43 -147 -129 -256q-84 -104 -222 -164q-133 -57 -317 -57.5t-317 57.5q-137 59 -222 164q-86 109 -129 256q-43 149 -43 339zM436 1726l258 621h254l258 -621h-274l-113 385 l-110 -385h-273zM471 788q0 -86 10 -174q10 -86 33 -151q25 -70 61 -119q39 -51 99 -78q63 -29 139 -28.5t139 28.5q59 27 99 78q37 49 61 119q23 66 33 151q8 72 8 174q0 104 -8 177q-10 82 -33 149q-25 72 -61 121q-35 47 -98.5 75.5t-139.5 28.5t-139.5 -28.5 t-98.5 -75.5q-37 -49 -61 -121q-23 -68 -33 -149q-10 -89 -10 -177z" />
<glyph unicode="&#xd5;" horiz-adv-x="1626" d="M102 788q0 385 177 603q176 215 534 215t533 -215q178 -219 178 -603q0 -190 -43 -339q-43 -147 -129 -256q-84 -104 -222 -164q-133 -57 -317 -57.5t-317 57.5q-137 59 -222 164q-86 109 -129 256q-43 149 -43 339zM389 1753q0 168 57 252q58 86 172 86q51 0 95 -14 q57 -18 82 -35l67 -43q34 -22 68 -37q31 -14 65.5 -14t46.5 20q10 18 11 84h221q0 -145 -64 -237q-61 -88 -170 -89q-41 0 -94 17q-43 12 -90 39l-76 43q-47 29 -67 37q-37 16 -56 16q-29 0 -45 -29q-14 -27 -14 -96h-209zM471 788q0 -86 10 -174q10 -86 33 -151 q25 -70 61 -119q39 -51 99 -78q63 -29 139 -28.5t139 28.5q59 27 99 78q37 49 61 119q23 66 33 151q8 72 8 174q0 104 -8 177q-10 82 -33 149q-25 72 -61 121q-35 47 -98.5 75.5t-139.5 28.5t-139.5 -28.5t-98.5 -75.5q-37 -49 -61 -121q-23 -68 -33 -149q-10 -89 -10 -177z " />
<glyph unicode="&#xd6;" horiz-adv-x="1626" d="M102 788q0 385 177 603q176 215 534 215t533 -215q178 -219 178 -603q0 -190 -43 -339q-43 -147 -129 -256q-84 -104 -222 -164q-133 -57 -317 -57.5t-317 57.5q-137 59 -222 164q-86 109 -129 256q-43 149 -43 339zM287 1933q0 82 55 138q57 57 137 57q78 0 139 -57 q57 -55 58 -138q0 -84 -57.5 -139t-139.5 -55t-137 55t-55 139zM471 788q0 -86 10 -174q10 -86 33 -151q25 -70 61 -119q39 -51 99 -78q63 -29 139 -28.5t139 28.5q59 27 99 78q37 49 61 119q23 66 33 151q8 72 8 174q0 104 -8 177q-10 82 -33 149q-25 72 -61 121 q-35 47 -98.5 75.5t-139.5 28.5t-139.5 -28.5t-98.5 -75.5q-37 -49 -61 -121q-23 -68 -33 -149q-10 -89 -10 -177zM956 1933q0 82 56 138q57 57 137 57q78 0 139 -57q57 -55 58 -138q0 -84 -58 -139q-59 -55 -139 -55q-82 0 -137.5 55t-55.5 139z" />
<glyph unicode="&#xd7;" horiz-adv-x="1316" d="M209 293l274 260l-274 260l180 199l291 -275l291 275l180 -199l-274 -260l274 -260l-180 -201l-291 275l-291 -275z" />
<glyph unicode="&#xd8;" horiz-adv-x="1564" d="M82 788q0 385 176 603q176 215 533 215q154 0 276 -41l72 174l131 -45l-76 -189q72 -45 129 -114q178 -215 178 -603q0 -190 -43 -339q-43 -147 -129 -256q-84 -104 -221 -164q-133 -57 -317 -58q-106 0 -207 23l-66 -162l-135 45l66 164q-123 57 -197 152 q-86 109 -129 256q-41 142 -41 339zM451 788q0 -102 8 -174q10 -86 33 -151q23 -63 63 -119q8 -12 10 -14l393 964q-25 14 -28 17q-63 29 -139 28.5t-140 -28.5q-59 -27 -96 -76q-41 -53 -63.5 -120.5t-32.5 -149.5q-8 -73 -8 -177zM688 252q43 -14 103 -14q76 0 139 28 q59 27 98 78q37 49 62 119q23 66 32 151q10 88 11 174q0 88 -11 177q-8 68 -32 149q-12 37 -27 66z" />
<glyph unicode="&#xd9;" horiz-adv-x="1613" d="M139 723v856h371v-860q4 -197 12 -236q16 -70 23 -88q12 -37 26 -57q20 -29 37 -45q25 -25 51 -37q59 -27 132 -27q74 0 108 9q45 10 72 26q25 14 53 43q20 20 36.5 59.5t24.5 69.5q8 33 13 84q8 74 8 199v860h369v-856q0 -375 -160 -567.5t-506 -192.5q-354 0 -514 201 q-156 192 -156 559zM449 2269l311 146l203 -615l-156 -74z" />
<glyph unicode="&#xda;" horiz-adv-x="1613" d="M139 723v856h371v-860q4 -197 12 -236q16 -70 23 -88q12 -37 26 -57q20 -29 37 -45q25 -25 51 -37q59 -27 132 -27q74 0 108 9q45 10 72 26q25 14 53 43q20 20 36.5 59.5t24.5 69.5q8 33 13 84q8 74 8 199v860h369v-856q0 -375 -160 -567.5t-506 -192.5q-354 0 -514 201 q-156 192 -156 559zM649 1800l203 615l311 -146l-356 -543z" />
<glyph unicode="&#xdb;" horiz-adv-x="1613" d="M139 723v856h371v-860q4 -197 12 -236q16 -70 23 -88q12 -37 26 -57q20 -29 37 -45q25 -25 51 -37q59 -27 132 -27q74 0 108 9q45 10 72 26q25 14 53 43q20 20 36.5 59.5t24.5 69.5q8 33 13 84q8 74 8 199v860h369v-856q0 -375 -160 -567.5t-506 -192.5q-354 0 -514 201 q-156 192 -156 559zM422 1726l258 621h254l258 -621h-274l-113 385l-113 -385h-270z" />
<glyph unicode="&#xdc;" horiz-adv-x="1613" d="M139 723v856h371v-860q4 -197 12 -236q16 -70 23 -88q12 -37 26 -57q20 -29 37 -45q25 -25 51 -37q59 -27 132 -27q74 0 108 9q45 10 72 26q25 14 53 43q20 20 36.5 59.5t24.5 69.5q8 33 13 84q8 74 8 199v860h369v-856q0 -375 -160 -567.5t-506 -192.5q-354 0 -514 201 q-156 192 -156 559zM281 1933q0 82 55 138q57 57 137 57q78 0 139 -57q57 -55 58 -138q0 -84 -58 -139q-59 -55 -139 -55q-82 0 -137 55t-55 139zM950 1933q0 82 56 138q57 57 137 57q78 0 139 -57q57 -55 57 -138q0 -84 -57 -139t-139 -55t-137.5 55t-55.5 139z" />
<glyph unicode="&#xdd;" horiz-adv-x="1234" d="M-61 1579h366l311 -674l310 674h374l-509 -1061v-518h-349v518zM481 1800l203 615l313 -146l-358 -543z" />
<glyph unicode="&#xde;" horiz-adv-x="1288" d="M100 -219v1798h332v-379q47 80 129 119q86 41 174 41q117 0 211 -47q92 -47 150 -127q59 -84 86 -193q29 -115 28 -248q0 -283 -133 -430q-135 -150 -352 -149q-182 0 -274 125v-510h-351zM451 496q100 -96 235 -97q39 0 67.5 14.5t49.5 45.5q14 20 28 61q10 27 17 78 q4 25 8 84q2 25 2 88q0 352 -203 352q-57 0 -100 -12q-37 -10 -61 -27q-27 -16 -43 -36v-551z" />
<glyph unicode="&#xdf;" horiz-adv-x="1562" d="M139 0v981q0 291 147.5 444.5t477.5 153.5q109 0 188 -14q84 -14 146 -41q59 -25 102 -60q41 -33 72 -73q28 -37 43 -80q16 -49 22 -80q6 -37 6 -74q0 -61 -18 -116.5t-57 -100.5q-41 -47 -105 -78q-65 -31 -153 -43q494 -49 493 -465v-2q0 -111 -49 -202 q-51 -94 -129 -156q-80 -61 -195 -107q-104 -41 -237 -63q-121 -20 -262 -21l-2 281q125 10 207 27q104 23 145 39q59 25 92 57.5t49 71.5q14 35 15 86q0 324 -478 323l-2 219h58q150 0 227 51q80 53 80 177q0 45 -10 79q-8 29 -35 62q-20 27 -78 43q-49 14 -135 14 q-150 0 -201 -80q-53 -82 -53 -272v-981h-371z" />
<glyph unicode="&#xe0;" horiz-adv-x="1247" d="M94 362.5q0 188.5 139 276.5q143 90 394 90q86 0 151 -12q0 115 -10 141q-23 61 -53 78q-35 18 -90 18q-197 0 -373 -82l-84 209q186 115 469 115q326 0 430 -209q59 -117 59 -313v-674h-270l-47 150q-49 -86 -125 -132q-74 -45 -182 -45q-195 0 -301.5 100.5t-106.5 289 zM252 1849l311 146l205 -613l-158 -73zM444 389q0 -88 39 -129q41 -43 109 -43q109 0 186 92v230q3 3 -37 6q-27 2 -59 2q-129 0 -182 -35q-56 -37 -56 -123z" />
<glyph unicode="&#xe1;" horiz-adv-x="1247" d="M94 362.5q0 188.5 139 276.5q143 90 394 90q86 0 151 -12q0 115 -10 141q-23 61 -53 78q-35 18 -90 18q-197 0 -373 -82l-84 209q186 115 469 115q326 0 430 -209q59 -117 59 -313v-674h-270l-47 150q-49 -86 -125 -132q-74 -45 -182 -45q-195 0 -301.5 100.5t-106.5 289 zM444 389q0 -88 39 -129q41 -43 109 -43q109 0 186 92v230q3 3 -37 6q-27 2 -59 2q-129 0 -182 -35q-56 -37 -56 -123zM453 1382l202 613l314 -146l-359 -540z" />
<glyph unicode="&#xe2;" horiz-adv-x="1247" d="M94 362.5q0 188.5 139 276.5q143 90 394 90q86 0 151 -12q0 115 -10 141q-23 61 -53 78q-35 18 -90 18q-197 0 -373 -82l-84 209q186 115 469 115q326 0 430 -209q59 -117 59 -313v-674h-270l-47 150q-49 -86 -125 -132q-74 -45 -182 -45q-195 0 -301.5 100.5t-106.5 289 zM256 1309l256 618h256l256 -618h-272l-113 383l-113 -383h-270zM444 389q0 -88 39 -129q41 -43 109 -43q109 0 186 92v230q3 3 -37 6q-27 2 -59 2q-129 0 -182 -35q-56 -37 -56 -123z" />
<glyph unicode="&#xe3;" horiz-adv-x="1247" d="M94 362.5q0 188.5 139 276.5q143 90 394 90q86 0 151 -12q0 115 -10 141q-23 61 -53 78q-35 18 -90 18q-197 0 -373 -82l-84 209q186 115 469 115q326 0 430 -209q59 -117 59 -313v-674h-270l-47 150q-49 -86 -125 -132q-74 -45 -182 -45q-195 0 -301.5 100.5t-106.5 289 zM209 1333q0 168 57 252q58 86 172 86q51 0 94 -14q53 -18 80 -35l70 -43q23 -14 68 -35q31 -14 63 -14q35 0 47 20q12 23 12 82h220q0 -145 -62 -235q-61 -88 -170 -88q-51 0 -96 14q-37 12 -88 39l-76 45q-47 29 -68 37q-31 14 -57 14q-29 0 -45 -28q-14 -27 -14 -97h-207 zM444 389q0 -88 39 -129q41 -43 109 -43q109 0 186 92v230q3 3 -37 6q-27 2 -59 2q-129 0 -182 -35q-56 -37 -56 -123z" />
<glyph unicode="&#xe4;" horiz-adv-x="1247" d="M94 362.5q0 188.5 139 276.5q143 90 394 90q86 0 151 -12q0 115 -10 141q-23 61 -53 78q-35 18 -90 18q-197 0 -373 -82l-84 209q186 115 469 115q326 0 430 -209q59 -117 59 -313v-674h-270l-47 150q-49 -86 -125 -132q-74 -45 -182 -45q-195 0 -301.5 100.5t-106.5 289 zM115 1513q0 84 55 139.5t137 55.5t139.5 -55.5t57.5 -139.5q0 -82 -57.5 -137t-139.5 -55t-137 55t-55 137zM444 389q0 -88 39 -129q41 -43 109 -43q109 0 186 92v230q3 3 -37 6q-27 2 -59 2q-129 0 -182 -35q-56 -37 -56 -123zM784 1513q0 84 55.5 139.5t139.5 55.5 q78 0 137 -55q57 -55 58 -140q0 -82 -58 -137q-59 -55 -137 -55q-84 0 -139.5 55t-55.5 137z" />
<glyph unicode="&#xe5;" horiz-adv-x="1247" d="M94 362.5q0 188.5 139 276.5q143 90 394 90q86 0 151 -12q0 115 -10 141q-23 61 -53 78q-35 18 -90 18q-197 0 -373 -82l-84 209q186 115 469 115q326 0 430 -209q59 -117 59 -313v-674h-270l-47 150q-49 -86 -125 -132q-74 -45 -182 -45q-195 0 -301.5 100.5t-106.5 289 zM285 1647q0 98 51 176q51 76 135 121q82 43 180 43q95 0 178 -43q84 -45 136 -121q51 -78 51 -174q0 -98 -51 -176q-51 -76 -136 -121q-83 -43 -178 -43q-98 0 -180 43q-84 45 -135 121q-51 78 -51 174zM444 389q0 -88 39 -129q41 -43 109 -43q109 0 186 92v230q3 3 -37 6 q-27 2 -59 2q-129 0 -182 -35q-56 -37 -56 -123zM469 1647q0 -74 55.5 -125.5t126.5 -51.5q70 0 125 52q53 49 53 125q0 78 -53 127q-55 51 -125 51q-72 0 -127 -51t-55 -127z" />
<glyph unicode="&#xe6;" horiz-adv-x="1839" d="M72 373q0 82 28 149q27 59 78 103q43 35 119 61.5t143 34.5q66 8 164 8q89 0 154 -12q0 10 -1 28.5t-1 24.5q0 12 -4 45q-2 23 -11 41q-8 20 -18 33q-16 20 -27 26q-12 6 -41 15q-25 6 -57 6q-53 0 -109 -8q-68 -10 -106 -21q-6 -2 -41 -10t-53 -14l-66 -19l-26 -10 l-47 219q78 51 208 82q129 31 252 31q248 0 340 -148q51 76 142 113q84 35 198 35q223 0 346 -144q123 -145 123 -376v-164h-674v-2q2 -123 72 -201q68 -78 193 -78q158 0 284 92l68 -233q-188 -96 -410 -96q-154 0 -243 51q-94 53 -152 166q-39 -66 -86 -107 q-49 -43 -106 -67q-61 -27 -115 -35q-61 -10 -119 -10q-193 0 -295 100q-104 103 -104 291zM399 385q0 -80 43 -123q45 -45 113 -45q57 0 107 25q45 23 96 67v230q-55 8 -111 8q-131 0 -188 -37q-60 -37 -60 -125zM1085 676h390q0 127 -45 198q-47 76 -146 76q-51 0 -86 -20 q-37 -22 -61 -56q-20 -27 -35 -79q-14 -47 -17 -93v-26z" />
<glyph unicode="&#xe7;" horiz-adv-x="1126" d="M100 571q0 139 31 238q31 100 84 168q55 72 127 121q145 98 322 98q135 0 221 -25q82 -23 180 -75l-66 -226q-31 29 -110 58q-88 33 -164 33q-150 0 -211 -86.5t-61 -288.5q0 -375 299 -375q111 0 233 80l14 8l66 -223q-86 -43 -107 -51q-119 -49 -262 -50l-14 -141 q37 0 57 -4l72 -14q37 -8 74 -29q23 -12 63 -45q31 -25 49 -66q18 -40 19 -86q0 -131 -76 -200.5t-215 -69.5q-109 0 -207 51l-6 4v138l6 -5q2 0 11.5 -4t15.5 -6q4 -2 16 -7t21 -7q29 -8 47 -10q37 -4 53 -4q45 0 59 2q16 2 41 16q20 12 29 35q10 27 10 61q0 162 -260 162 l19 236q-80 10 -138 32q-100 39 -178 115q-78 74 -121 188q-43 113 -43 254z" />
<glyph unicode="&#xe8;" horiz-adv-x="1232" d="M96 565q2 166 49 285q41 106 121 186q160 160 406 160q150 0 258 -66q225 -135 221 -464v-164h-694q2 -129 78 -211q72 -78 196 -78q172 0 295 90l68 -233q-188 -96 -389 -97q-389 0 -541 285q-70 137 -68 307zM295 1849l311 146l205 -613l-158 -73zM457 676h409 q4 285 -200 285q-66 0 -117 -41q-92 -76 -92 -244z" />
<glyph unicode="&#xe9;" horiz-adv-x="1232" d="M96 565q2 166 49 285q41 106 121 186q160 160 406 160q150 0 258 -66q225 -135 221 -464v-164h-694q2 -129 78 -211q72 -78 196 -78q172 0 295 90l68 -233q-188 -96 -389 -97q-389 0 -541 285q-70 137 -68 307zM457 676h409q4 285 -200 285q-66 0 -117 -41 q-92 -76 -92 -244zM496 1382l202 613l314 -146l-359 -540z" />
<glyph unicode="&#xea;" horiz-adv-x="1232" d="M96 565q2 166 49 285q41 106 121 186q160 160 406 160q150 0 258 -66q225 -135 221 -464v-164h-694q2 -129 78 -211q72 -78 196 -78q172 0 295 90l68 -233q-188 -96 -389 -97q-389 0 -541 285q-70 137 -68 307zM289 1309l258 618h254l258 -618h-275l-112 383l-113 -383 h-270zM457 676h409q4 285 -200 285q-66 0 -117 -41q-92 -76 -92 -244z" />
<glyph unicode="&#xeb;" horiz-adv-x="1232" d="M96 565q2 166 49 285q41 106 121 186q160 160 406 160q150 0 258 -66q225 -135 221 -464v-164h-694q2 -129 78 -211q72 -78 196 -78q172 0 295 90l68 -233q-188 -96 -389 -97q-389 0 -541 285q-70 137 -68 307zM127 1513q0 82 57 140q55 55 138 55q80 0 139 -55 q55 -53 55 -140q0 -84 -55 -137q-59 -55 -139 -55q-82 0 -138 55q-57 57 -57 137zM457 676h409q4 285 -200 285q-66 0 -117 -41q-92 -76 -92 -244zM799 1513q0 84 55 139.5t137 55.5t139.5 -55.5t57.5 -139.5q0 -82 -57.5 -137t-139.5 -55t-137 55t-55 137z" />
<glyph unicode="&#xec;" horiz-adv-x="679" d="M-16 1849l313 146l203 -613l-158 -73zM180 0v1159h350v-1159h-350z" />
<glyph unicode="&#xed;" horiz-adv-x="675" d="M170 0v1159h350v-1159h-350zM190 1382l203 613l312 -146l-359 -540z" />
<glyph unicode="&#xee;" horiz-adv-x="673" d="M-53 1309l258 618h254l258 -618h-275l-112 383l-113 -383h-270zM150 0v1159h350v-1159h-350z" />
<glyph unicode="&#xef;" horiz-adv-x="716" d="M-190 1513q0 82 53 140q52 55 135 55t135 -55q53 -57 53 -140q0 -80 -53 -137q-52 -55 -135 -55t-135 55q-53 57 -53 137zM160 0v1159h350v-1159h-350zM479 1513q0 82 53 140q52 55 135.5 55t135.5 -55q53 -57 53 -140q0 -80 -53 -137q-52 -55 -135 -55t-136 55 q-53 57 -53 137z" />
<glyph unicode="&#xf0;" horiz-adv-x="1261" d="M78 586q0 178 51 311q51 135 156 213q100 76 239 76q209 0 310 -139q-12 72 -86 180q-35 49 -89 110l-233 -73l-43 149l152 49q-76 68 -154 113l149 176l132 -84q68 -49 126 -100l19 -19l295 97l41 -152l-215 -70q51 -66 92 -133q55 -90 88 -184q33 -98 55 -225 q20 -121 21 -269q0 -170 -41 -284q-45 -127 -121 -197q-80 -74 -188.5 -110.5t-247.5 -36.5q-131 0 -232 47q-102 47 -159 133q-63 92 -89 190q-28 111 -28 232zM428 586q0 -78 8 -133q8 -57 31 -115q23 -55 63 -86q45 -33 101 -33q53 0 94 29q43 29 63 78q25 55 35 106 q10 49 11 123v301q-100 96 -236 96q-43 0 -78 -22q-29 -18 -49 -55t-28.5 -86.5t-12.5 -98.5q-2 -28 -2 -104z" />
<glyph unicode="&#xf1;" horiz-adv-x="1361" d="M182 0v1159h267l67 -147q90 184 305 184t313.5 -116.5t98.5 -358.5v-721h-350v748q0 117 -37 163.5t-110.5 49t-125 -28.5t-75.5 -76v-856h-353zM266 1333q0 168 58 252q57 86 174 86q57 0 94 -12q49 -15 80 -37l69 -43q33 -20 68 -35q31 -14 63 -14q35 0 48 20 q12 23 12 82h219q0 -143 -64 -235q-61 -88 -167 -88q-51 0 -97 14q-37 12 -88 39l-76 45q-41 25 -69 37q-31 14 -55 14q-29 0 -46 -28q-14 -27 -14 -97h-209z" />
<glyph unicode="&#xf2;" d="M70 582q0 291 147.5 452.5t421.5 161.5t421.5 -162t147.5 -452q0 -289 -147.5 -449t-421.5 -160t-421.5 160t-147.5 449zM311 1849l314 146l202 -613l-157 -73zM420 583.5q0 -196.5 53 -284.5q53 -90 166 -90q115 0 168 90q53 88 53 284.5t-53 284.5q-55 92 -168 93 q-111 0 -166 -93q-53 -88 -53 -284.5z" />
<glyph unicode="&#xf3;" d="M70 582q0 291 147.5 452.5t421.5 161.5t421.5 -162t147.5 -452q0 -289 -147.5 -449t-421.5 -160t-421.5 160t-147.5 449zM420 583.5q0 -196.5 53 -284.5q53 -90 166 -90q115 0 168 90q53 88 53 284.5t-53 284.5q-55 92 -168 93q-111 0 -166 -93q-53 -88 -53 -284.5z M512 1382l205 613l311 -146l-358 -540z" />
<glyph unicode="&#xf4;" d="M70 582q0 291 147.5 452.5t421.5 161.5t421.5 -162t147.5 -452q0 -289 -147.5 -449t-421.5 -160t-421.5 160t-147.5 449zM264 1309l258 618h254l258 -618h-272l-113 383l-112 -383h-273zM420 583.5q0 -196.5 53 -284.5q53 -90 166 -90q115 0 168 90q53 88 53 284.5 t-53 284.5q-55 92 -168 93q-111 0 -166 -93q-53 -88 -53 -284.5z" />
<glyph unicode="&#xf5;" d="M70 582q0 291 147.5 452.5t421.5 161.5t421.5 -162t147.5 -452q0 -289 -147.5 -449t-421.5 -160t-421.5 160t-147.5 449zM209 1333q0 168 57 252q58 86 172 86q57 0 94 -12q49 -15 80 -37l70 -43q37 -25 68 -35q31 -14 63 -14q35 0 47 20q12 23 12 82h220 q0 -145 -62 -235q-61 -88 -170 -88q-51 0 -96 14q-37 12 -88 39l-76 45q-47 29 -68 37q-31 14 -57 14q-29 0 -45 -28q-14 -27 -14 -97h-207zM420 583.5q0 -196.5 53 -284.5q53 -90 166 -90q115 0 168 90q53 88 53 284.5t-53 284.5q-55 92 -168 93q-111 0 -166 -93 q-53 -88 -53 -284.5z" />
<glyph unicode="&#xf6;" d="M70 582q0 291 147.5 452.5t421.5 161.5t421.5 -162t147.5 -452q0 -289 -147.5 -449t-421.5 -160t-421.5 160t-147.5 449zM117 1513q0 84 55 139.5t137 55.5q80 0 140 -55q57 -55 57 -140q0 -82 -57 -137q-59 -55 -140 -55q-82 0 -137 55t-55 137zM420 583.5 q0 -196.5 53 -284.5q53 -90 166 -90q115 0 168 90q53 88 53 284.5t-53 284.5q-55 92 -168 93q-111 0 -166 -93q-53 -88 -53 -284.5zM786 1513q0 84 55.5 139.5t139.5 55.5q80 0 137.5 -55.5t57.5 -139.5q0 -82 -57.5 -137t-137.5 -55q-84 0 -139.5 55t-55.5 137z" />
<glyph unicode="&#xf7;" horiz-adv-x="1189" d="M94 594v260h1004v-260h-1004zM410 1145q0 80 53 137q52 55 135 55t135 -55q53 -57 53 -137q0 -82 -53 -139q-52 -55 -135 -55.5t-135 55.5q-53 57 -53 139zM412 305q0 82 53 139q52 55 135 56q84 0 137 -56q53 -57 54 -139q0 -80 -54 -137q-53 -55 -137 -55 q-83 0 -135 55q-53 57 -53 137z" />
<glyph unicode="&#xf8;" horiz-adv-x="1292" d="M78 582q0 280 147 442t422 162q78 0 131 -10l66 188l102 -37l-59 -180q158 -61 244 -208.5t86 -356.5q0 -279 -147.5 -438.5t-422.5 -159.5q-74 0 -139 12l-59 -172l-107 35l57 168q-158 61 -239.5 204.5t-81.5 350.5zM379 584q0 -55 10 -121q8 -57 25 -94q16 -41 28 -60 q4 -6 11.5 -19.5t11.5 -17.5l10 -12l242 713q-37 8 -70 8q-160 0 -227 -158v-2v-2h-2v-2v-2h-2v-2v-2l-2 -2v-2v-2h-2v-2v-2l-2 -2v-2v-2l-2 -2v-2v-3l-2 -2v-2v-2v-2h-3v-2v-2v-2l-2 -2v-2v-2h-2v-2v-2v-2v-2h-2v-2v-2v-2v-2l-2 -2v-2v-3v-2l-2 -2v-2v-2v-2v-2h-2v-2v-2v-2 v-2v-2h-2v-2v-2v-2v-2v-2v-2h-2v-2v-2v-2v-3v-2v-2l-2 -2v-2v-2v-2v-2v-2v-2l-6 -80v-20zM573 195q28 -6 74 -7q150 0 223 136q55 102 56 260q0 39 -8 104q-4 37 -17 80q-10 41 -20 59q-14 27 -25 41q-8 10 -22 25q-8 8 -17 12l-6 4z" />
<glyph unicode="&#xf9;" horiz-adv-x="1349" d="M201 449v710h346v-735q0 -100 33 -158q33 -53 116 -57q111 10 187 94v856h350v-1159h-248l-76 176q-41 -109 -92 -145q-74 -57 -188 -58q-219 0 -324 119q-104 120 -104 357zM283 1849l311 146l203 -613l-158 -73z" />
<glyph unicode="&#xfa;" horiz-adv-x="1349" d="M201 449v710h346v-735q0 -100 33 -158q33 -53 116 -57q111 10 187 94v856h350v-1159h-248l-76 176q-41 -109 -92 -145q-74 -57 -188 -58q-219 0 -324 119q-104 120 -104 357zM483 1382l203 613l311 -146l-358 -540z" />
<glyph unicode="&#xfb;" horiz-adv-x="1349" d="M201 449v710h346v-735q0 -100 33 -158q33 -53 116 -57q111 10 187 94v856h350v-1159h-248l-76 176q-41 -109 -92 -145q-74 -57 -188 -58q-219 0 -324 119q-104 120 -104 357zM336 1309l258 618h254l258 -618h-275l-112 383l-113 -383h-270z" />
<glyph unicode="&#xfc;" horiz-adv-x="1349" d="M193 1513q0 84 55 139.5t137 55.5t139.5 -55.5t57.5 -139.5q0 -82 -57.5 -137t-139.5 -55t-137 55t-55 137zM201 449v710h346v-735q0 -100 33 -158q33 -53 116 -57q111 10 187 94v856h350v-1159h-248l-76 176q-41 -109 -92 -145q-74 -57 -188 -58q-219 0 -324 119 q-104 120 -104 357zM862 1513q0 84 55.5 139.5t137.5 55.5q80 0 139 -55q57 -55 57 -140q0 -82 -57 -137q-59 -55 -139 -55q-82 0 -137.5 55t-55.5 137z" />
<glyph unicode="&#xfd;" horiz-adv-x="1226" d="M25 1159h358l274 -784l193 784h354l-395 -1192q-70 -217 -205 -327q-129 -104 -352 -109l-98 238q96 6 157.5 24.5t98.5 54.5q41 41 57 80t39 115zM428 1382l205 613l311 -146l-358 -540z" />
<glyph unicode="&#xfe;" horiz-adv-x="1310" d="M123 -406v1985h346v-539q41 68 119 103q80 35 172 35q121 0 211 -45.5t147.5 -127t85.5 -194.5q31 -123 31 -246q0 -280 -135 -430q-135 -152 -352 -151q-182 0 -275 127v-517h-350zM473 313q100 -96 238 -96q35 0 67 16q29 14 47 43q14 20 29 62q12 34 18 80 q2 18 4.5 49t2.5 35q2 25 2 88q0 352 -201 352q-59 0 -102 -12q-37 -10 -62 -27q-20 -14 -43 -39v-551z" />
<glyph unicode="&#xff;" horiz-adv-x="1226" d="M25 1159h358l274 -784l193 784h354l-395 -1192q-70 -217 -205 -327q-129 -104 -352 -109l-98 238q96 6 157.5 24.5t98.5 54.5q41 41 57 80t39 115zM92 1513q0 84 55.5 139.5t137.5 55.5q80 0 139 -55q57 -55 57 -140q0 -82 -57 -137q-59 -55 -139 -55q-82 0 -137.5 55 t-55.5 137zM762 1513q0 84 55 139.5t137 55.5t139.5 -55.5t57.5 -139.5q0 -82 -57.5 -137t-139.5 -55t-137 55t-55 137z" />
<glyph unicode="&#x152;" horiz-adv-x="2994" d="M1814 0v1579h1072v-270h-703v-379h612v-228h-612v-436h713v-266h-1082zM102 788q0 385 177 603q176 215 534 215t533 -215q178 -219 178 -603q0 -190 -43 -339q-43 -147 -129 -256q-84 -104 -222 -164q-133 -57 -317 -57.5t-317 57.5q-137 59 -222 164q-86 109 -129 256 q-43 149 -43 339zM471 788q0 -86 10 -174q10 -86 33 -151q25 -70 61 -119q39 -51 99 -78q63 -29 139 -28.5t139 28.5q59 27 99 78q37 49 61 119q23 66 33 151q8 72 8 174q0 104 -8 177q-10 82 -33 149q-25 72 -61 121q-35 47 -98.5 75.5t-139.5 28.5t-139.5 -28.5 t-98.5 -75.5q-37 -49 -61 -121q-23 -68 -33 -149q-10 -89 -10 -177z" />
<glyph unicode="&#x153;" horiz-adv-x="2512" d="M1376 565q2 166 49 285q41 106 121 186q160 160 406 160q150 0 258 -66q225 -135 221 -464v-164h-694q2 -129 78 -211q72 -78 196 -78q172 0 295 90l68 -233q-188 -96 -389 -97q-389 0 -541 285q-68 132 -68 293v14zM1737 676h409q4 285 -200 285q-66 0 -117 -41 q-92 -76 -92 -244zM70 582q0 291 147.5 452.5t421.5 161.5t421.5 -162t147.5 -452q0 -289 -147.5 -449t-421.5 -160t-421.5 160t-147.5 449zM420 583.5q0 -196.5 53 -284.5q53 -90 166 -90q115 0 168 90q53 88 53 284.5t-53 284.5q-55 92 -168 93q-111 0 -166 -93 q-53 -88 -53 -284.5z" />
<glyph unicode="&#x178;" horiz-adv-x="1234" d="M-61 1579h366l311 -674l310 674h374l-509 -1061v-518h-349v518zM90 1921q0 84 55.5 139.5t137.5 55.5t139 -55.5t57 -139.5t-57 -139.5t-139 -55.5t-137.5 55.5t-55.5 139.5zM760 1921q0 84 55 139.5t137 55.5q80 0 140 -56q57 -55 57 -139t-57 -139q-59 -55 -140 -56 q-82 0 -137 55.5t-55 139.5z" />
<glyph unicode="&#x2c6;" horiz-adv-x="1228" d="M229 563l258 619h254l258 -619h-274l-113 383l-110 -383h-273z" />
<glyph unicode="&#x2dc;" horiz-adv-x="1220" d="M188 147q0 168 58 252q57 86 174 86q49 0 92 -14q57 -18 82 -35l70 -43q23 -14 67 -35q37 -16 64 -16q35 0 47 20q12 23 12 84h219q0 -143 -63 -235q-61 -88 -168 -88q-51 0 -97 14q-37 12 -88 39l-75 43q-57 33 -70 39q-31 14 -55 14q-29 0 -45 -28q-14 -27 -15 -97 h-209z" />
<glyph unicode="&#x2000;" horiz-adv-x="1206" />
<glyph unicode="&#x2001;" horiz-adv-x="2412" />
<glyph unicode="&#x2002;" horiz-adv-x="1206" />
<glyph unicode="&#x2003;" horiz-adv-x="2412" />
<glyph unicode="&#x2004;" horiz-adv-x="802" />
<glyph unicode="&#x2005;" horiz-adv-x="602" />
<glyph unicode="&#x2006;" horiz-adv-x="401" />
<glyph unicode="&#x2007;" horiz-adv-x="401" />
<glyph unicode="&#x2008;" horiz-adv-x="299" />
<glyph unicode="&#x2009;" horiz-adv-x="481" />
<glyph unicode="&#x200a;" horiz-adv-x="133" />
<glyph unicode="&#x2010;" horiz-adv-x="1118" d="M156 573v263h794v-263h-794z" />
<glyph unicode="&#x2011;" horiz-adv-x="1118" d="M156 573v263h794v-263h-794z" />
<glyph unicode="&#x2012;" horiz-adv-x="1118" d="M156 573v263h794v-263h-794z" />
<glyph unicode="&#x2013;" horiz-adv-x="1024" d="M156 573v263h698v-263h-698z" />
<glyph unicode="&#x2014;" horiz-adv-x="2048" d="M156 573v263h1722v-263h-1722z" />
<glyph unicode="&#x2018;" horiz-adv-x="669" d="M119 856v363q0 68 20.5 121t50.5 90q25 31 82 65q41 27 95 47q49 20 106 37l64 -115q-100 -35 -138 -75q-41 -45 -41 -117h179v-416h-418z" />
<glyph unicode="&#x2019;" horiz-adv-x="538" d="M59 1163v416h418v-362q0 -70 -20.5 -123.5t-50.5 -89.5q-25 -31 -82 -66q-41 -27 -95 -47q-29 -12 -106 -35l-64 115q100 35 138 76q41 45 41 116h-179z" />
<glyph unicode="&#x201a;" horiz-adv-x="671" d="M139 0v416h418v-363q0 -68 -20.5 -121t-51.5 -90q-27 -33 -79 -65q-47 -29 -97 -49q-29 -12 -106 -35l-62 114q96 35 135 76q41 45 41 117h-178z" />
<glyph unicode="&#x201c;" horiz-adv-x="1169" d="M98 856v363q0 68 20.5 121t51.5 90q25 31 82 65q39 25 96 47q49 20 107 37l61 -115q-96 -35 -135 -75q-41 -45 -41 -117h176v-416h-418zM623 856v363q0 68 20.5 121t50.5 90q25 31 82 65q39 25 96 47q49 20 107 37l61 -115q-100 -35 -137 -75q-41 -45 -41 -117h178v-416 h-417z" />
<glyph unicode="&#x201d;" horiz-adv-x="1001" d="M59 1163v416h418v-362q0 -70 -20.5 -123.5t-50.5 -89.5q-25 -31 -82 -66q-41 -27 -95 -47q-29 -12 -106 -35l-64 115q100 35 138 76q41 45 41 116h-179zM584 1163v416h417v-362q0 -70 -20 -123.5t-51 -89.5q-25 -31 -82 -66q-39 -25 -96 -47q-29 -12 -107 -35l-61 115 q100 35 137 76q41 45 41 116h-178z" />
<glyph unicode="&#x201e;" horiz-adv-x="1136" d="M127 0v416h418v-363q0 -68 -20.5 -121t-51.5 -90q-25 -31 -82 -65q-51 -33 -94 -49q-29 -12 -107 -35l-63 114q100 35 137 76q41 45 41 117h-178zM651 0v416h418v-363q0 -68 -20.5 -121t-51.5 -90q-25 -31 -82 -65q-51 -33 -94 -49q-29 -12 -106 -35l-64 114 q100 35 137 76q41 45 41 117h-178z" />
<glyph unicode="&#x2022;" horiz-adv-x="1214" d="M215 680q0 98 55.5 182t145.5 133q89 49 190 49q102 0 192.5 -49t145.5 -133t55 -182q0 -96 -55 -182q-53 -82 -145 -133q-86 -47 -193 -48q-104 0 -190 48q-90 49 -145.5 133t-55.5 182z" />
<glyph unicode="&#x2026;" horiz-adv-x="1671" d="M98 195q0 82 55.5 137t137.5 55t139 -55.5t57 -136.5q0 -84 -57 -139.5t-139 -55.5t-137.5 55.5t-55.5 139.5zM639 195q0 80 57 137q55 55 138 55q80 0 139 -55q55 -53 55 -137q0 -86 -55 -140q-59 -55 -139 -55q-82 0 -138 55q-57 58 -57 140zM1200 195q0 82 55.5 137 t137.5 55t139 -55.5t57 -136.5q0 -84 -57 -139.5t-139 -55.5t-137.5 55.5t-55.5 139.5z" />
<glyph unicode="&#x202f;" horiz-adv-x="481" />
<glyph unicode="&#x2039;" horiz-adv-x="1193" d="M131 475v238l842 512v-301l-547 -330l547 -330v-301z" />
<glyph unicode="&#x203a;" horiz-adv-x="1134" d="M190 264l539 330l-539 330l3 301l839 -512v-238l-839 -512z" />
<glyph unicode="&#x205f;" horiz-adv-x="602" />
<glyph unicode="&#x20ac;" horiz-adv-x="1284" d="M49 854v190h178q59 260 217 406q162 150 426 149h2q66 0 127 -12q63 -12 102.5 -26.5t76.5 -30.5q31 -14 49 -29l14 -10l-82 -264q-37 23 -45 26q-31 16 -108 41q-80 25 -152 25q-104 0 -182 -72q-76 -70 -119 -203h360v-190h-399q-3 -37 -6 -111h340v-188h-334 q35 -315 272 -315q76 0 148 26q76 29 115 56l38 26l70 -254q-57 -53 -158 -92q-102 -39 -243 -39q-115 0 -205 33q-88 33 -168 102.5t-125 184.5q-45 113 -57 272h-133v188h127q3 74 6 111h-152z" />
<glyph unicode="&#x2122;" horiz-adv-x="2088" d="M90 1329v164h754v-164h-256v-844h-236v844h-262zM946 485v1008h277l250 -748l260 748h276v-1008h-194v693l-228 -693h-219l-227 693v-693h-195z" />
<glyph unicode="&#xe000;" horiz-adv-x="1160" d="M0 1160h1160v-1160h-1160v1160z" />
<glyph unicode="&#xfb01;" horiz-adv-x="1595" d="M1065 1608q0 82 55 137t137 55t139.5 -55t57.5 -137q0 -84 -57.5 -139.5t-139.5 -55.5t-137 55.5t-55 139.5zM1083 -2v1159h350v-1159h-350zM61 1016v145h191q0 266 100 400q102 135 307 135q102 0 230 -31v-254q-68 25 -150 25q-68 0 -102.5 -59.5t-34.5 -215.5h281 v-145h-281v-1016h-350v1016h-191z" />
<glyph unicode="&#xfb02;" horiz-adv-x="1554" d="M1042 0v1677l350 49v-1726h-350zM61 1016v145h191q0 266 100 400q102 135 307 135q102 0 230 -31v-254q-68 25 -150 25q-68 0 -102.5 -59.5t-34.5 -215.5h281v-145h-281v-1016h-350v1016h-191z" />
<glyph unicode="&#xfb03;" horiz-adv-x="2463" d="M1934 1608q0 82 55 137t137 55t139.5 -55t57.5 -137q0 -84 -57.5 -139.5t-139.5 -55.5t-137 55.5t-55 139.5zM1952 -2v1159h350v-1159h-350zM929 1016v145h191q0 266 100 400q102 135 307 135q102 0 230 -31v-254q-68 25 -150 25q-68 0 -102.5 -59.5t-34.5 -215.5h281 v-145h-281v-1016h-350v1016h-191zM61 1016v145h191q0 266 100 400q102 135 307 135q102 0 230 -31v-254q-68 25 -150 25q-68 0 -102.5 -59.5t-34.5 -215.5h281v-145h-281v-1016h-350v1016h-191z" />
<glyph unicode="&#xfb04;" horiz-adv-x="2422" d="M1911 0v1677l350 49v-1726h-350zM929 1016v145h191q0 266 100 400q102 135 307 135q102 0 230 -31v-254q-68 25 -150 25q-68 0 -102.5 -59.5t-34.5 -215.5h281v-145h-281v-1016h-350v1016h-191zM61 1016v145h191q0 266 100 400q102 135 307 135q102 0 230 -31v-254 q-68 25 -150 25q-68 0 -102.5 -59.5t-34.5 -215.5h281v-145h-281v-1016h-350v1016h-191z" />
</font>
</defs>
</svg>
