<?xml version="1.0" standalone="no"?>
<!DOCTYPE svg PUBLIC "-//W3C//DTD SVG 1.1//EN" "http://www.w3.org/Graphics/SVG/1.1/DTD/svg11.dtd" >
<svg xmlns="http://www.w3.org/2000/svg">
<metadata>
This is a custom SVG webfont generated by Font Squirrel.
Copyright   : GM
</metadata>
<defs>
<font id="webfontwheoCuUi" horiz-adv-x="1075" >
<font-face units-per-em="2048" ascent="1638" descent="-410" />
<missing-glyph horiz-adv-x="724" />
<glyph unicode=" "  horiz-adv-x="724" />
<glyph unicode="&#x09;" horiz-adv-x="724" />
<glyph unicode="&#xa0;" horiz-adv-x="724" />
<glyph unicode="!" horiz-adv-x="397" d="M100 92v119q0 43 31 70q29 20 68 20q41 0 69.5 -24.5t28.5 -65.5v-119q0 -39 -26.5 -65.5t-71.5 -26.5q-41 0 -70 25.5t-29 66.5zM102 317v1072h197v-1072h-197z" />
<glyph unicode="&#x22;" horiz-adv-x="598" d="M82 1190v119q0 68 96 67q100 0 101 -67v-119q0 -70 -101 -70q-96 0 -96 70zM317 1190v119q0 68 99 67q98 0 98 -67v-119q0 -70 -98 -70q-99 0 -99 70z" />
<glyph unicode="#" horiz-adv-x="1087" d="M66 459l43 164h184l12 43h-186l55 163h180l39 129h203l-39 -129h86l37 129h201l-37 -129h180l-43 -163h-186l-13 -43h181l-43 -164h-185l-39 -129h-202l38 129h-86l-38 -129h-203l39 129h-178zM496 623h86l12 43h-86z" />
<glyph unicode="$" horiz-adv-x="1314" d="M-4 461v92h199v-84q0 -219 204 -291v494q-356 92 -356 360q0 295 356 377v133h197v-110h41q33 0 63 -2v112h197v-139q360 -92 367 -502h-193q-16 246 -174 311v-454q188 -47 274 -115q121 -96 121 -274q0 -154 -127 -260q-104 -92 -268 -127v-125h-197v100h-24 q-41 0 -80 4v-104h-197v131q-403 106 -403 473zM240 1032q0 -115 159 -168v355q-159 -54 -159 -187zM596 141q39 -2 82 -2h22v473l-104 19v-490zM596 819l104 -20v450q-31 2 -63 2q-23 0 -41 -2v-430zM897 168q199 59 199 207q0 82 -31 110q-43 43 -168 82v-399z" />
<glyph unicode="%" horiz-adv-x="1536" d="M41 952q0 397 350 398q352 0 352 -398q0 -182 -88 -282q-90 -106 -266 -107q-174 0 -264 107q-84 100 -84 282zM121 -4l1089 1393h240l-1088 -1393h-241zM240 952q0 -211 151 -211q154 0 154 211q0 219 -156 219q-149 0 -149 -219zM797 352q0 399 352 400q350 0 350 -400 q0 -184 -86 -284q-90 -106 -266 -107q-176 0 -266 107q-84 100 -84 284zM995 352q0 -213 154 -213q152 0 151 213q0 219 -153 219q-152 0 -152 -219z" />
<glyph unicode="&#x26;" horiz-adv-x="1234" d="M18 342q0 248 369 438q-184 121 -184 305q0 150 129 234q111 70 260 70q158 0 264 -70q129 -82 129 -236q0 -213 -418 -417q-188 -94 -250 -146q-102 -86 -102 -178q0 -86 96.5 -141.5t223.5 -55.5q240 0 350 187q66 106 65 293h197v-664h-197v156q-168 -150 -403 -150 q-197 0 -348 88q-181 105 -181 287zM399 1085q0 -129 185 -211q205 113 204 211q0 55 -53 90t-139 35q-88 0 -142.5 -35t-54.5 -90z" />
<glyph unicode="'" horiz-adv-x="358" d="M82 1190v119q0 68 96 67q100 0 101 -67v-119q0 -70 -101 -70q-96 0 -96 70z" />
<glyph unicode="(" horiz-adv-x="477" d="M70 580q0 506 286 923h228q-174 -248 -248 -471q-70 -209 -70 -452q0 -244 70 -453q74 -223 248 -471h-228q-286 420 -286 924z" />
<glyph unicode=")" horiz-adv-x="477" d="M-119 -344q180 248 256 471q74 209 74 453t-74 450q-76 223 -256 473h230q297 -412 297 -923q0 -512 -297 -924h-230z" />
<glyph unicode="*" horiz-adv-x="696" d="M25 1061q0 45 73 80q-74 33 -73 78q0 23 18 47q33 31 78 30q14 0 31 -2q4 -2 79 -28v30q0 80 99 80q41 0 69.5 -22.5t28.5 -57.5v-30q76 31 107 30q47 0 81 -32q16 -25 17 -45q0 -49 -74 -78q76 -33 76 -78q0 -18 -17 -39q-27 -39 -79 -39q-45 0 -111 31v-29 q0 -35 -28.5 -57.5t-69.5 -22.5q-98 0 -99 80v29q-66 -29 -112 -29q-53 0 -80 35q-14 21 -14 39z" />
<glyph unicode="+" horiz-adv-x="1146" d="M84 430v168h391v289h197v-289h393v-168h-393v-293h-197v293h-391z" />
<glyph unicode="," horiz-adv-x="536" d="M127 -113q0 10 6 27l86 209q23 53 92 53q39 0 70 -19.5t31 -52.5q0 -12 -4 -24l-86 -211q-23 -53 -115 -53q-80 -1 -80 71z" />
<glyph unicode="-" horiz-adv-x="716" d="M29 520v41h680v-41h-680z" />
<glyph unicode="." horiz-adv-x="428" d="M117 55v60q0 59 98 59t98 -59v-60q0 -59 -98 -59t-98 59z" />
<glyph unicode="/" horiz-adv-x="716" d="M-121 0l762 1421h215l-762 -1421h-215z" />
<glyph unicode="0" horiz-adv-x="1196" d="M23 516v315q0 240 156.5 391.5t420.5 151.5q266 0 420 -151.5t154 -391.5v-315q0 -240 -154 -390.5t-420 -150.5q-264 0 -420.5 150.5t-156.5 390.5zM219 516q0 -162 100.5 -262t278.5 -100q180 0 279.5 99t99.5 263v315q0 166 -100.5 265.5t-278.5 99.5 q-180 0 -279.5 -100.5t-99.5 -264.5v-315z" />
<glyph unicode="1" horiz-adv-x="845" d="M-6 893l571 430h148v-1323h-197v1051l-213 -158h-309z" />
<glyph unicode="2" horiz-adv-x="1196" d="M41 0q2 229 117 395q106 156 327 277l287 153q152 82 152 162q0 180 -303 180q-190 0 -273.5 -84t-83.5 -288h-196q0 301 144 426t396 125q205 0 338 -74q172 -94 172 -291q0 -190 -362 -375q-166 -86 -244 -131q-205 -143 -256 -297h926v-178h-1141z" />
<glyph unicode="3" horiz-adv-x="1196" d="M8 451v90h197v-115q0 -131 114 -203q106 -68 281 -67q164 0 272 57q119 66 119 178q0 225 -352 225h-170v181h172q322 0 322 188q0 90 -103 139q-90 43 -233 43q-207 0 -294 -79.5t-87 -272.5h-197q0 305 170 426q150 104 402 105q207 0 346 -68q193 -92 192 -293 q0 -184 -151 -276q178 -104 178 -318q0 -209 -195 -321q-158 -92 -383 -93q-256 0 -415 109q-185 127 -185 365z" />
<glyph unicode="4" horiz-adv-x="1196" d="M-59 412l505 913h218l-408 -735h483v739l197 -8v-731h264v-178h-264v-412h-197v412h-798z" />
<glyph unicode="5" horiz-adv-x="1196" d="M4 520h197q0 -219 102.5 -291.5t288.5 -72.5q178 0 280.5 78.5t102.5 224.5q0 145 -109.5 225t-290.5 80q-229 0 -356 -180h-174l35 739h1030v-178h-838l-14 -279q135 76 326 76q248 0 409 -121q178 -131 178 -360t-174 -363q-158 -121 -407 -121q-258 0 -412 109 q-174 123 -174 434z" />
<glyph unicode="6" horiz-adv-x="1196" d="M51 434v25v12l2 422q0 215 168 336q154 109 383 108q229 0 379 -112q164 -125 164 -410h-195q0 199 -97 274.5t-253 75.5q-162 0 -255 -73.5t-95 -204.5v-88q135 86 344 86q229 0 379 -113q164 -123 164 -338q0 -213 -166 -336q-152 -111 -381 -110q-229 0 -379 110 q-162 123 -162 336zM246 434q0 -129 94 -201.5t254 -72.5t255 72.5t95 201.5q0 131 -95 205t-255 74t-254 -74t-94 -205z" />
<glyph unicode="7" horiz-adv-x="1196" d="M59 1145v178h1145l-723 -1323h-215l627 1145h-834z" />
<glyph unicode="8" horiz-adv-x="1230" d="M10 403q0 221 211 328q-139 92 -139 240q0 207 182 303q137 72 352 72q213 0 353 -74q184 -96 184 -301q0 -147 -145 -240q215 -106 215 -332q0 -229 -207 -340q-156 -82 -400 -82t-403 86q-203 109 -203 340zM207 401q0 -246 409 -245q410 0 410 245q0 227 -408 228 q-411 -1 -411 -228zM279 969q0 -74 108 -121q100 -41 231 -41q133 0 235.5 45t102.5 121q0 195 -340 194q-337 1 -337 -198z" />
<glyph unicode="9" horiz-adv-x="1196" d="M51 489h195q0 -203 95 -275.5t253 -72.5t253 74t97 203v125q-135 -86 -344 -86q-229 0 -379 112q-162 121 -162 336t164 338q152 113 381 113t379 -113q164 -125 164 -338v-24l-2 -11v-456q0 -215 -172 -336q-152 -109 -381 -109q-231 0 -379 111q-162 124 -162 409z M254 905q0 -131 94 -203.5t254 -72.5t255 73.5t95 202.5q0 131 -95 205t-255 74t-254 -73t-94 -206z" />
<glyph unicode=":" horiz-adv-x="499" d="M154 86v113q0 41 28.5 65.5t69.5 24.5q88 0 96 -86l2 -117q0 -39 -27.5 -64.5t-70.5 -25.5q-41 0 -69.5 24.5t-28.5 65.5zM154 750v112q0 41 28.5 65.5t69.5 24.5q88 0 96 -86l2 -116q0 -37 -27.5 -64t-70.5 -27q-41 0 -69.5 25t-28.5 66z" />
<glyph unicode=";" horiz-adv-x="514" d="M115 -98q0 12 4 28l88 277q20 66 92 65q39 0 69.5 -23.5t30.5 -62.5q0 -12 -4 -26l-86 -279q-20 -68 -94 -67q-39 0 -69.5 24.5t-30.5 63.5zM195 745v117q0 41 28.5 65.5t69.5 24.5q43 0 70.5 -26.5t27.5 -63.5v-117q0 -39 -27.5 -64.5t-70.5 -25.5q-41 0 -69.5 24.5 t-28.5 65.5z" />
<glyph unicode="&#x3c;" horiz-adv-x="1095" d="M23 426v133l1034 359v-183l-707 -243l707 -244v-182z" />
<glyph unicode="=" horiz-adv-x="1290" d="M27 342v139h1239v-139h-1239zM27 502v139h1239v-139h-1239z" />
<glyph unicode="&#x3e;" horiz-adv-x="1095" d="M23 66v182l704 244l-704 243v183l1034 -359v-133z" />
<glyph unicode="?" d="M-2 979q37 244 190 348q141 94 355 94q190 0 327 -80q170 -98 170 -282q0 -190 -231 -363q-186 -139 -186 -262v-117h-199v107q0 213 229 385q115 86 153 134t38 116q0 90 -88 139q-80 45 -215 45q-168 0 -250 -78t-107 -282zM424 92v119q0 41 27.5 66.5t68.5 25.5 q39 0 70 -23.5t31 -68.5v-119q0 -41 -30 -66.5t-71 -25.5q-45 0 -70.5 26.5t-25.5 65.5z" />
<glyph unicode="@" horiz-adv-x="1720" d="M45 707q0 330 266 532q242 184 582 184q307 0 528 -151q252 -172 252 -465q0 -203 -145 -377q-53 -63 -133 -111q-94 -55 -178 -55q-98 0 -130 76q-137 -100 -335 -102q-233 -2 -353 151q-80 102 -80 244q0 231 144 383q154 160 411 162q190 2 302 -86l12 86h174l-4 -45 l-12 14q4 -6 4 -35q0 -147 -80 -696q-20 -16 -23.5 -15.5t-5.5 -1.5q-4 -16 -24 -8q-12 6 -52 55l66 3q29 0 76 34.5t69 67.5q98 139 99 260q0 195 -172 317q-164 117 -402 117q-324 0 -514 -194q-139 -141 -139 -355q0 -240 187.5 -390t463.5 -150q160 0 322.5 67.5 t257.5 210.5h223q-90 -156 -182 -239q-82 -76 -201 -127q-207 -90 -410 -91q-346 0 -594 189q-270 205 -270 541zM508 637q0 -229 248 -227q143 0 245 92q100 86 121 219q4 20 4 59q0 111 -66.5 168.5t-197.5 55.5q-160 0 -257 -105.5t-97 -261.5z" />
<glyph unicode="A" horiz-adv-x="1302" d="M-111 0l697 1389h153l672 -1389h-215l-199 410h-684l-202 -410h-222zM403 588h508l-249 512z" />
<glyph unicode="B" horiz-adv-x="1314" d="M25 0v1389h737q207 0 344 -86q166 -102 166 -299q0 -166 -162 -271q207 -98 207 -327q0 -217 -201 -324q-152 -82 -381 -82h-710zM221 178h539q158 0 254 55q109 59 108 170q0 117 -101 172.5t-269 55.5h-531v-453zM221 811h535q141 0 230 51t89 150q0 98 -88 148 t-229 50h-537v-399z" />
<glyph unicode="C" horiz-adv-x="1472" d="M29 684q0 330 217 524.5t577 194.5q422 0 654 -305l-166 -101q-90 123 -204 175.5t-284 52.5q-276 0 -437 -144.5t-161 -388.5q0 -242 152.5 -385t423.5 -143q162 0 277.5 53t215.5 176l168 -100q-254 -307 -659 -307q-352 0 -563 189.5t-211 508.5z" />
<glyph unicode="D" horiz-adv-x="1392" d="M41 0v1389h604q362 0 553 -189q184 -182 184 -508q0 -334 -231 -518q-215 -174 -584 -174h-526zM238 178h335q295 0 454 130t159 384t-129 383q-135 135 -414 135h-405v-1032z" />
<glyph unicode="E" horiz-adv-x="1155" d="M41 0v1389h1149v-179h-954v-399h845v-178h-845v-455h964v-178h-1159z" />
<glyph unicode="F" horiz-adv-x="1034" d="M41 0v1389h1075v-179h-880v-399h753v-178h-753v-633h-195z" />
<glyph unicode="G" horiz-adv-x="1552" d="M-8 690q0 328 217 520.5t577 192.5q268 0 449 -103q211 -119 285 -444h-201q-47 195 -173 282t-358 87q-283 0 -440.5 -141.5t-157.5 -391.5q0 -254 160 -391t451 -137q221 0 373.5 104.5t154.5 276.5h-594v180h783q12 -109 12 -150q0 -285 -227 -446 q-203 -143 -502 -143q-365 0 -582 180q-227 186 -227 524z" />
<glyph unicode="H" horiz-adv-x="1392" d="M41 0v1389h197v-578h919v578h197v-1389h-197v633h-919v-633h-197z" />
<glyph unicode="I" horiz-adv-x="274" d="M41 0v1389h197v-1389h-197z" />
<glyph unicode="J" horiz-adv-x="995" d="M-45 410h199q14 -137 79.5 -191.5t215.5 -54.5q174 0 237.5 57.5t63.5 208.5v959h196v-969q0 -213 -127 -323.5t-362 -110.5q-455 0 -502 424z" />
<glyph unicode="K" horiz-adv-x="1372" d="M41 0v1389h197v-670l960 670h324l-879 -609l881 -780h-281l-760 672l-245 -176v-496h-197z" />
<glyph unicode="L" horiz-adv-x="1034" d="M41 0v1389h197v-1211h876v-178h-1073z" />
<glyph unicode="M" horiz-adv-x="1677" d="M41 0v1389h192l605 -1117l606 1117h192v-1389h-196v979l-531 -979h-141l-530 979v-979h-197z" />
<glyph unicode="N" horiz-adv-x="1392" d="M41 0v1389h176l473 -545l467 -527v1072h197v-1389h-178l-938 1077v-1077h-197z" />
<glyph unicode="O" horiz-adv-x="1550" d="M-6 692q0 328 215 512q207 178 567 178t570 -178q215 -184 215 -512q0 -326 -212 -516t-573 -190q-362 0 -572 189t-210 517zM193 692q0 -246 153.5 -387t429.5 -141q281 0 434.5 140t153.5 388t-153.5 380t-434.5 132t-432 -133t-151 -379z" />
<glyph unicode="P" horiz-adv-x="1271" d="M41 0v1389h690q553 0 553 -416q0 -213 -199 -322q-152 -84 -376 -84h-471v-567h-197zM238 745h507q147 0 240 58q100 61 100 168q0 240 -342 239h-505v-465z" />
<glyph unicode="Q" horiz-adv-x="1550" d="M-6 688q0 330 215 514q207 180 567 180t572.5 -182t212.5 -512q0 -264 -146 -446q-102 -127 -262 -195q16 -2 33 -2h266v-180h-266q-180 0 -293 115q-57 -6 -117 -7q-362 0 -572 191.5t-210 523.5zM193 688q0 -195 94 -323q111 152 323 151q152 0 262 -88 q119 -94 123 -242v-2q369 106 369 504q0 248 -153.5 381t-434.5 133q-279 0 -431 -134t-152 -380zM430 240q141 -86 346 -86h29q-2 18 -2 34q0 66 -54.5 108t-138.5 42q-139 0 -180 -98z" />
<glyph unicode="R" horiz-adv-x="1314" d="M41 0v1389h715q535 0 534 -385q0 -219 -180 -326q160 -100 160 -303v-375h-197v369q0 213 -336 213h-499v-582h-197zM238 762h489q164 0 260 55q106 61 107 180q0 213 -334 213h-522v-448z" />
<glyph unicode="S" horiz-adv-x="1314" d="M-4 465v90h199v-84q0 -307 483 -307q176 0 287 49q131 55 131 166q0 80 -41 116.5t-146 65.5q-61 16 -288 62q-268 53 -367 100q-211 100 -211 303q0 377 594 377q618 0 627 -506h-193q-14 217 -127 274q-100 53 -307 54q-397 0 -397 -199q0 -94 94 -141q78 -37 272 -70 q381 -63 512 -137q174 -98 174 -303q0 -207 -219 -309q-166 -80 -397 -80q-279 0 -455 94q-225 123 -225 385z" />
<glyph unicode="T" horiz-adv-x="1116" d="M-72 1210v179h1260v-179h-531v-1210h-196v1210h-533z" />
<glyph unicode="U" horiz-adv-x="1359" d="M41 535v854h197v-854q0 -188 105.5 -279.5t336.5 -91.5q229 0 338 92q104 86 104 272v861h197v-859q0 -283 -172 -419q-156 -125 -467 -125q-639 0 -639 549z" />
<glyph unicode="V" horiz-adv-x="1286" d="M-92 1389h211l532 -1100l518 1100h211l-655 -1389h-145z" />
<glyph unicode="W" horiz-adv-x="1986" d="M-84 1389h211l508 -1094l254 567l-242 527h211l508 -1094l494 1094h211l-629 -1389h-150l-295 633l-286 -633h-150z" />
<glyph unicode="X" horiz-adv-x="1236" d="M-164 0l656 713l-625 676h260l496 -539l499 539h258l-626 -676l647 -713h-254l-524 573l-531 -573h-256z" />
<glyph unicode="Y" horiz-adv-x="1282" d="M-174 1389h260l555 -564l557 564h258l-715 -734v-655h-196v655z" />
<glyph unicode="Z" horiz-adv-x="1282" d="M-2 0v147l983 1063h-922v179h1211v-146l-983 -1065h999v-178h-1288z" />
<glyph unicode="[" horiz-adv-x="477" d="M131 -344v1847h395v-182h-198v-1483h198v-182h-395z" />
<glyph unicode="\" horiz-adv-x="716" d="M-141 1421h215l768 -1421h-215z" />
<glyph unicode="]" horiz-adv-x="477" d="M-49 -162h199l2 19l-2 1464h-199v182h397l-4 -1847h-393v182z" />
<glyph unicode="^" horiz-adv-x="610" d="M-23 1047l261 276h122l275 -276h-242l-92 98l-92 -98h-232z" />
<glyph unicode="_" d="M-78 -145h1231v-99h-1231v99z" />
<glyph unicode="`" horiz-adv-x="395" d="M-20 1311q0 31 47 51q66 29 125 -8q70 -39 202 -125q61 -45 62 -80q0 -31 -47 -51q-53 -25 -117 6q-84 47 -213 129q-59 41 -59 78z" />
<glyph unicode="a" horiz-adv-x="1155" d="M-18 498q0 229 143 372q154 154 416 154q217 0 362 -111v107h197v-1022h-197v94q-143 -115 -371 -115q-258 0 -409 154q-141 144 -141 367zM178 498q0 -154 88 -246q94 -100 264 -100t271.5 98t101.5 248q0 164 -95 258t-278 94q-168 0 -264 -102q-88 -96 -88 -250z" />
<glyph unicode="b" horiz-adv-x="1155" d="M43 -2v1391h197v-443q143 115 360 115q266 0 416 -160q139 -147 139 -387q0 -236 -141 -381q-152 -154 -416 -153q-209 0 -358 120v-102h-197zM240 512q0 -156 100 -255t270 -99t262 102q88 96 89 256q0 166 -89 262q-92 104 -264 105q-368 0 -368 -371z" />
<glyph unicode="c" d="M-10 483q0 242 158.5 391.5t435.5 149.5q168 0 295 -72q141 -80 200 -280l-180 -82q-41 147 -113.5 203.5t-205.5 56.5q-188 0 -290 -100.5t-102 -266.5q0 -154 95 -239q98 -92 276 -92q125 0 216 52t128 228l189 -74q-57 -217 -211 -305q-135 -76 -320 -76 q-260 0 -415.5 139.5t-155.5 366.5z" />
<glyph unicode="d" horiz-adv-x="1155" d="M-18 516q0 238 143 385q152 160 416 160q217 0 362 -115v443h197v-1391h-197v98q-143 -119 -371 -119q-258 0 -409 160q-141 148 -141 379zM178 516q0 -160 88 -256q94 -104 264 -104t271.5 102t101.5 258q0 170 -95 268.5t-278 98.5q-166 0 -259 -103.5t-93 -263.5z" />
<glyph unicode="e" d="M-25 498q0 227 154 376.5t414 149.5q254 0 409.5 -133t155.5 -356v-111l-932 -2q35 -270 361 -270q266 0 358 223h203q-86 -248 -244 -328q-137 -70 -322 -70q-272 0 -417 146q-140 137 -140 375zM182 596h713q-18 98 -90 166q-94 88 -262 88t-264 -88q-74 -68 -97 -166z " />
<glyph unicode="f" horiz-adv-x="546" d="M-16 760v180h149v18q0 406 612 406v-176q-238 0 -333 -62q-82 -53 -82 -168v-18h227v-180h-227v-762h-197v762h-149z" />
<glyph unicode="g" horiz-adv-x="1116" d="M-16 498q0 231 149.5 378.5t407.5 147.5q201 0 342 -109v86h196v-935q0 -215 -143 -326q-135 -106 -391 -107q-197 0 -324 74q-164 92 -180 352h195q14 -141 90 -196q68 -51 221 -51q178 0 257 63.5t79 192.5v18q-150 -109 -357 -109q-182 0 -315 82q-227 142 -227 439z M182 498q0 -154 88 -248t252 -94q170 0 265.5 92t95.5 246q0 150 -94.5 251t-251.5 101q-164 0 -259.5 -98t-95.5 -250z" />
<glyph unicode="h" d="M43 0v1389h197v-418q129 90 321 90q197 0 324 -90q145 -100 145 -287v-684h-196v666q0 217 -271 217q-154 0 -238.5 -84t-84.5 -221v-578h-197z" />
<glyph unicode="i" horiz-adv-x="278" d="M43 0v1040h197v-1040h-197zM43 1182v151q35 74 94 74q47 0 103 -64v-174q-53 -61 -103 -61q-65 0 -94 74z" />
<glyph unicode="j" horiz-adv-x="278" d="M-381 -186q236 0 332 67q86 59 86 195v956h196v-958q0 -440 -614 -441v181zM43 1178v155q35 74 94 74q47 0 103 -64v-178q-53 -61 -103 -61q-65 0 -94 74z" />
<glyph unicode="k" horiz-adv-x="1089" d="M43 0v1389h197v-777l641 430l344 -8l-650 -420l625 -614h-268l-516 508l-176 -117v-391h-197z" />
<glyph unicode="l" horiz-adv-x="278" d="M43 0v1389h197v-1389h-197z" />
<glyph unicode="m" horiz-adv-x="1673" d="M43 0v1004h197v-62q121 82 292 82q209 0 324 -129q119 129 352 129q203 0 312.5 -93t109.5 -272v-659h-196v641q0 111 -52.5 160t-169.5 49q-131 0 -203.5 -63.5t-72.5 -170.5v-616h-197v641q0 111 -54 160t-173 49q-131 0 -205 -88q-68 -80 -67 -205v-557h-197z" />
<glyph unicode="n" d="M43 0v1004h197v-68q129 88 321 88q197 0 324 -86q145 -98 145 -279v-659h-196v641q0 209 -271 209q-154 0 -238.5 -81t-84.5 -212v-557h-197z" />
<glyph unicode="o" horiz-adv-x="1116" d="M-18 500q0 231 157.5 377.5t421.5 146.5t420 -146.5t156 -377.5t-158 -377t-422 -146t-419.5 146t-155.5 377zM180 500q0 -156 100.5 -252t278.5 -96t279.5 96t101.5 252q0 160 -99.5 255t-281.5 95q-180 0 -279.5 -96t-99.5 -254z" />
<glyph unicode="p" horiz-adv-x="1155" d="M43 -344v1345h197v-92q145 115 358 115q264 0 416 -154q141 -147 141 -383q0 -240 -139 -385q-150 -160 -416 -159q-215 0 -360 116v-403h-197zM240 489q0 -367 368 -366q170 0 264 102q88 96 89 260q0 160 -91.5 260.5t-259.5 100.5q-172 0 -271 -98.5t-99 -258.5z" />
<glyph unicode="q" horiz-adv-x="1155" d="M-18 487q0 227 145 379q154 158 410 158q219 0 364 -115v92h197v-1345h-197v395q-139 -109 -373 -108q-252 0 -403 161q-143 154 -143 383zM180 485q0 -158 91 -260t257 -102q375 0 375 362q0 160 -100.5 260.5t-276.5 100.5q-168 0 -260 -105q-86 -96 -86 -256z" />
<glyph unicode="r" horiz-adv-x="651" d="M43 0v1004h197v-93q145 113 436 113v-174q-262 0 -354 -133q-82 -117 -82 -305v-412h-197z" />
<glyph unicode="s" horiz-adv-x="995" d="M8 436h201q0 -160 67.5 -222t235.5 -62q256 0 256 131q0 80 -168 114l-205 29q-344 49 -344 289q0 156 144 239q119 72 280 72q485 0 488 -422h-203q0 137 -60.5 190.5t-214.5 53.5q-102 0 -167.5 -37t-65.5 -96q0 -76 162 -103q53 -10 215 -37q340 -53 340 -292 q0 -168 -164 -250q-115 -59 -295 -60q-502 0 -502 463z" />
<glyph unicode="t" horiz-adv-x="538" d="M-35 801v178h205v278h197v-278h206v-178h-206v-801h-193l-4 801h-205z" />
<glyph unicode="u" d="M43 362v637h197v-634q0 -213 272 -213q322 0 322 309v538h196v-1003h-196v70q-131 -88 -322 -89q-209 0 -334 95q-135 102 -135 290z" />
<glyph unicode="v" horiz-adv-x="964" d="M-104 999h225l379 -731l352 731h215l-489 -999h-150z" />
<glyph unicode="w" horiz-adv-x="1579" d="M-63 999h221l358 -725l174 385l-174 340h223l357 -725l329 725h215l-462 -999h-156l-221 438l-205 -438h-154z" />
<glyph unicode="x" horiz-adv-x="956" d="M-166 0l514 516l-471 483h262l338 -354l346 354h258l-473 -483l514 -516h-262l-383 385l-381 -385h-262z" />
<glyph unicode="y" d="M-8 59h194q14 -141 90 -196q68 -51 222 -51q315 0 333 219q-131 -90 -319 -90q-205 0 -332 96q-137 106 -137 303v659h197v-657q0 -221 272 -221q322 0 322 321v557h196v-936q0 -213 -140 -321.5t-396 -108.5q-195 0 -324 74q-162 92 -178 352z" />
<glyph unicode="z" horiz-adv-x="968" d="M-20 0v139l679 686h-618v174h913v-137l-680 -688h715v-174h-1009z" />
<glyph unicode="{" horiz-adv-x="716" d="M106 516v129q123 49 136 62q20 23 20 112v432q0 115 59.5 183.5t176.5 68.5h100v-182h-98q-27 0 -34 -20.5t-7 -96.5v-389q0 -166 -78 -235q78 -63 78 -236v-387q0 -78 7 -98.5t34 -20.5h98v-182h-100q-117 0 -179 72q-57 66 -57 180v432q0 90 -20 113q-13 12 -136 63z " />
<glyph unicode="|" horiz-adv-x="477" d="M141 -66v1512h197v-1512h-197z" />
<glyph unicode="}" horiz-adv-x="716" d="M106 -162h97q27 0 35 20.5t8 98.5v387q0 172 76 236q-76 70 -76 235v389q0 76 -8.5 96.5t-34.5 20.5h-97v182h99q117 0 177 -68.5t60 -183.5v-432q0 -90 19 -112q12 -12 137 -62v-129q-125 -51 -137 -63q-18 -23 -19 -113v-432q0 -115 -59 -180q-61 -72 -178 -72h-99v182 z" />
<glyph unicode="~" horiz-adv-x="1122" d="M25 717q35 129 123 172t200 43q70 0 244 -45q150 -37 186 -37q76 0 101 84h221q-35 -131 -123 -173t-199 -42q-74 0 -250 43q-150 37 -184 37q-43 0 -63.5 -15.5t-34.5 -66.5h-221z" />
<glyph unicode="&#xa0;" />
<glyph unicode="&#xa1;" horiz-adv-x="397" d="M100 -195v1072h197v-1072h-197zM102 983v119q0 41 29 66.5t70 25.5q45 0 71.5 -26.5t26.5 -65.5v-119q0 -41 -28.5 -65.5t-69.5 -24.5q-39 0 -69 23.5t-30 66.5z" />
<glyph unicode="&#xa2;" d="M-10 487q0 246 158.5 397.5t435.5 151.5q57 0 112 -8l56 100h215l-90 -163q141 -80 202 -287l-178 -82q-47 158 -110 207l-351 -641q55 -14 119 -15q125 0 215 53.5t129 233.5l189 -76q-57 -221 -211 -309q-135 -78 -320 -78q-113 0 -209 29l-41 -74h-217l90 158 q-194 143 -194 403zM188 487q0 -150 86 -235l332 606q-14 2 -26 2q-188 0 -290 -101.5t-102 -271.5z" />
<glyph unicode="&#xa3;" horiz-adv-x="1196" d="M-14 463l30 178h136v55h-123l43 178h80q14 211 155 349q158 152 422 151q256 0 471 -205l-145 -122q-156 150 -328 149q-180 0 -278 -100q-88 -86 -101 -222h621l-43 -178h-578v-55h563l-30 -178h-531q14 -127 99 -209q100 -100 278 -100q172 0 328 145l147 -117 q-217 -207 -473 -207q-248 0 -403.5 134.5t-171.5 353.5h-168z" />
<glyph unicode="&#xa4;" horiz-adv-x="1196" d="M18 487l220 166q-43 63 -43 140q0 80 45 145l-222 166l152 108l213 -161q88 41 192 41q109 0 195 -41l213 161l152 -108l-222 -166q49 -66 50 -143q0 -78 -48 -144l220 -164l-152 -108l-209 158q-88 -41 -196 -41q-109 0 -197 43l-211 -160zM389 795q0 -55 53.5 -93 t135.5 -38q84 0 138 37.5t54 91.5q0 57 -49 90q-59 41 -143 41t-136.5 -38t-52.5 -91z" />
<glyph unicode="&#xa5;" horiz-adv-x="1320" d="M-154 1389h260l556 -564l557 564h258l-715 -740h434v-180h-434v-53h434v-178h-434v-238h-197v238h-434v178h434v53h-434v180h434v6z" />
<glyph unicode="&#xa6;" horiz-adv-x="477" d="M141 -47v729h197v-729h-197zM141 696v729h197v-729h-197z" />
<glyph unicode="&#xa7;" horiz-adv-x="1196" d="M127 578q12 147 139 225q-109 78 -108 207q0 160 141 250q119 74 281 73q483 0 485 -434h-197q0 143 -61.5 198.5t-214.5 55.5q-104 0 -171 -38t-67 -105q0 -57 78 -86q39 -14 250 -54q154 -14 258 -84q131 -84 131 -227q0 -168 -143 -252q109 -78 108 -205 q0 -160 -143 -249q-119 -74 -281 -74q-481 0 -481 432h197q0 -141 60.5 -196.5t213.5 -55.5q238 0 238 143q0 80 -125 103l-320 61q-113 31 -188 109q-90 90 -80 203zM328 580q0 -74 88 -119q82 -43 200 -43q248 0 256 133q-41 143 -297 143q-205 0 -247 -100v-14z" />
<glyph unicode="&#xa8;" horiz-adv-x="438" d="M4 1178v45q0 55 98 55t99 -55v-45q0 -57 -99 -58q-98 1 -98 58zM242 1178v45q0 55 96 55q100 0 100 -55v-45q0 -57 -100 -58q-96 1 -96 58z" />
<glyph unicode="&#xa9;" horiz-adv-x="1146" d="M12 928q0 209 185 336q166 113 383 112q219 0 385 -110q188 -127 188 -336t-186 -336q-164 -111 -383 -111q-233 0 -394 113q-178 127 -178 332zM213 930q0 -117 106.5 -195t260.5 -78q156 0 264 77t108 194q0 119 -107.5 195.5t-260.5 76.5q-156 0 -263.5 -76.5 t-107.5 -193.5zM225 924q0 141 109 223q102 78 258 78q287 0 342 -303h-201q-18 72 -47 99.5t-96 27.5q-164 0 -164 -125q0 -131 174 -131q59 0 92 38q23 27 47 95h211q-57 -166 -140 -238t-210 -72q-162 0 -264 80q-111 85 -111 228z" />
<glyph unicode="&#xaa;" horiz-adv-x="774" d="M12 1024q0 141 100.5 232.5t274.5 91.5q100 0 176 -31v29h201v-633h-201v20q-78 -33 -180 -33q-172 0 -271.5 92.5t-99.5 231.5zM213 1024q0 -156 170 -156q84 0 132 44t48 112q0 74 -44 115t-136 41q-170 0 -170 -156z" />
<glyph unicode="&#xab;" horiz-adv-x="948" d="M70 510v100l458 254v-188l-200 -115l200 -115v-182zM430 510v100l459 254v-188l-201 -115l201 -115v-182z" />
<glyph unicode="&#xac;" horiz-adv-x="1232" d="M25 473v145h1159v-344h-197v199h-962z" />
<glyph unicode="&#xad;" horiz-adv-x="1212" d="M27 473v39h1130v-39h-1130z" />
<glyph unicode="&#x2212;" horiz-adv-x="1212" d="M27 473v39h1130v-39h-1130z" />
<glyph unicode="&#xae;" horiz-adv-x="1112" d="M-10 928q0 209 186 336q166 113 383 112q219 0 383 -110q188 -127 188 -336q0 -213 -186 -338q-160 -109 -383 -109q-221 0 -383 109q-188 125 -188 336zM193 930q0 -121 103 -197t263 -76q158 0 264.5 76t106.5 195q0 121 -105.5 196.5t-263.5 75.5t-263 -75.5 t-105 -194.5zM305 633v584h309q250 0 250 -189q0 -66 -37 -110q31 -43 31 -101v-184h-203v182q0 14 -47 14h-102v-196h-201zM506 1006h98q59 0 60 20q0 14 -50 14h-108v-34z" />
<glyph unicode="&#xaf;" horiz-adv-x="641" d="M-6 1223v39h655v-39h-655z" />
<glyph unicode="&#x2c9;" horiz-adv-x="641" d="M-6 1223v39h655v-39h-655z" />
<glyph unicode="&#xb0;" horiz-adv-x="860" d="M47 1065q0 125 121 205q113 72 260 71q150 0 260 -69q125 -78 125 -205q0 -133 -131 -211q-113 -68 -252 -68q-150 0 -260 72q-123 78 -123 205zM242 1067q0 -49 52 -84t136 -35t137.5 34t53.5 83q0 61 -70 92q-53 25 -121 25q-84 0 -136 -34t-52 -81z" />
<glyph unicode="&#xb1;" horiz-adv-x="1290" d="M156 418v172h391v297h196v-297h394v-172h-394v-303h-196v303h-391zM158 -6v174h981v-174h-981z" />
<glyph unicode="&#xb2;" horiz-adv-x="802" d="M-4 524q0 178 104 297q70 84 211 156q72 31 195 92q53 31 59 47q0 66 -159 66q-106 0 -148.5 -43t-42.5 -166h-203q0 383 385 383q369 0 369 -244q0 -119 -180 -205l-178 -86q-127 -61 -177 -125h576v-172h-811z" />
<glyph unicode="&#xb3;" horiz-adv-x="872" d="M16 817v88h205v-102q0 -51 59.5 -82t157.5 -31q96 0 156.5 25.5t60.5 68.5q0 90 -190 90h-150v175h152q172 0 172 69q0 63 -182 64q-121 0 -165 -42t-44 -157h-203q0 373 410 373q137 0 239 -43q147 -61 148 -195q0 -94 -70 -155q86 -66 86 -179q0 -139 -143 -211 q-113 -57 -269 -57q-172 0 -286 64q-144 77 -144 237z" />
<glyph unicode="&#xb4;" horiz-adv-x="434" d="M0 1153q0 29 33 51l231 154q33 20 70 20q41 0 71.5 -21.5t30.5 -49.5q0 -29 -35 -54l-231 -151q-31 -18 -70 -19q-39 0 -69.5 21.5t-30.5 48.5z" />
<glyph unicode="&#xb5;" d="M43 -350v1349h197v-557q0 -322 319 -321q274 0 275 221v657h196v-659q0 -244 -209 -344v2q0 -18 166 -18v-185q-172 0 -252 37q-92 41 -117 113q-29 -2 -59 -2q-190 0 -319 90v-383h-197z" />
<glyph unicode="&#xb6;" horiz-adv-x="1015" d="M51 918q0 219 182 352q166 121 392 121q10 0 20 -2h322v-1661h-197v1480h-22v-1480h-197v718q-182 10 -320 117q-180 136 -180 355z" />
<glyph unicode="&#xb7;" horiz-adv-x="428" d="M145 633v59q0 59 99 60q98 0 98 -60v-59q0 -59 -98 -60q-99 1 -99 60z" />
<glyph unicode="&#x2219;" horiz-adv-x="428" d="M145 633v59q0 59 99 60q98 0 98 -60v-59q0 -59 -98 -60q-99 1 -99 60z" />
<glyph unicode="&#xb8;" horiz-adv-x="530" d="M-51 -311l100 135q139 -33 197 -33q72 0 82 2q-80 4 -103 0l-6 -2q-10 -2 -86 -29v103l23 153h190l-4 -75q199 -16 199 -148q0 -152 -289 -151q-86 0 -303 45z" />
<glyph unicode="&#xb9;" horiz-adv-x="587" d="M-203 1024l563 313h146v-805h-207v562l-129 -70h-373z" />
<glyph unicode="&#xba;" horiz-adv-x="845" d="M18 1030q0 147 121 234q113 80 287 79q172 0 285 -81q121 -86 120 -232q0 -145 -122 -231q-115 -82 -289 -82q-172 0 -287 84t-115 229zM211 1030q0 -154 211 -153q217 0 217 153q0 70 -57.5 112t-159.5 42q-100 0 -155.5 -42t-55.5 -112z" />
<glyph unicode="&#xbb;" horiz-adv-x="937" d="M70 264v182l198 115l-198 115v188l458 -254v-100zM430 264v182l199 115l-199 115v188l459 -254v-100z" />
<glyph unicode="&#xbc;" horiz-adv-x="1671" d="M-137 1018l538 323h142v-858h-197v613l-133 -78h-350zM287 0l760 1421h215l-760 -1421h-215zM643 252l406 625h223l-291 -451h262v455l195 -11v-444h188v-174h-188v-252h-195v252h-600z" />
<glyph unicode="&#xbd;" horiz-adv-x="1644" d="M-160 1018l539 323h141v-858h-196v611l-131 -76h-353zM264 0l762 1421h215l-762 -1421h-215zM819 0q6 317 305 471l179 90q86 53 86 70q0 80 -164 80q-109 0 -152 -47.5t-45 -182.5h-192q4 403 381 404q362 0 362 -256q0 -125 -166 -209l-182 -96q-139 -76 -189 -150h578 v-174h-801z" />
<glyph unicode="&#xbe;" horiz-adv-x="1855" d="M45 786v88h193v-104q0 -59 62 -93t163 -34q96 0 159.5 28.5t63.5 80.5q0 104 -199 104h-143v174h145q178 0 179 78q0 78 -189 78q-121 0 -167 -45t-48 -170h-192q6 387 405 387q139 0 238 -43q145 -63 145 -207q0 -100 -78 -166q96 -72 97 -190q0 -143 -142 -222 q-113 -61 -268 -61q-424 0 -424 317zM473 0l762 1421h215l-762 -1421h-215zM829 252l408 625h223l-293 -451h263v455l194 -11v-444h188v-174h-188v-252h-194v252h-601z" />
<glyph unicode="&#xbf;" d="M6 170q0 133 109 250l200 180q111 102 111 195v114h199v-106q0 -211 -234 -385q-115 -86 -151.5 -134t-36.5 -114q0 -92 84 -139t219 -47q168 0 246 75q86 82 108 293l187 -106q-37 -242 -191 -346q-139 -94 -352 -95q-193 0 -330 80q-168 99 -168 285zM428 1014v121 q0 39 25.5 65.5t70.5 26.5q41 0 71 -25.5t30 -66.5v-121q0 -43 -31 -66.5t-70 -23.5q-41 0 -68.5 25.5t-27.5 64.5z" />
<glyph unicode="&#xc0;" horiz-adv-x="1384" d="M-70 0l697 1419h153l672 -1419h-215l-199 418h-684l-202 -418h-222zM444 600h508l-250 524zM479 1667q0 35 31 63.5t70 28.5q41 0 71 -33l168 -153q94 -94 94 -150q0 -39 -45 -65q-25 -14 -51 -15q-41 0 -76 27l-233 234q-29 28 -29 63z" />
<glyph unicode="&#xc1;" horiz-adv-x="1384" d="M-70 0l697 1419h153l672 -1419h-215l-199 420h-684l-202 -420h-222zM444 600h508l-250 524zM479 1438q0 35 29 63l233 230q33 33 74 32q39 0 68.5 -27.5t29.5 -64.5q0 -35 -28 -63l-232 -232q-31 -31 -71 -30q-41 0 -72 27.5t-31 64.5z" />
<glyph unicode="&#xc2;" horiz-adv-x="1384" d="M-70 0l697 1417h153l672 -1417h-215l-199 418h-684l-202 -418h-222zM322 1335l313 400h121l319 -400h-241l-140 172l-139 -172h-233zM444 600h508l-250 524z" />
<glyph unicode="&#xc3;" horiz-adv-x="1384" d="M-70 0l697 1413h153l672 -1413h-215l-199 416h-684l-202 -416h-222zM356 1413q0 119 72 176q66 53 147 53q41 0 123 -34l123 -58q18 -8 29 -10q18 0 27 47q2 8 8 107l184 -101q-10 -123 -72.5 -179t-146.5 -56q-53 0 -176 59q-92 45 -103 45q-18 0 -26 -51q0 -6 -6 -111z M444 598h508l-250 522z" />
<glyph unicode="&#xc4;" horiz-adv-x="1384" d="M-70 0l697 1411h153l672 -1411h-215l-199 416h-684l-202 -416h-222zM444 596h508l-250 522zM481 1440v102q0 43 29 68.5t70 25.5q45 0 71.5 -27.5t26.5 -66.5v-102q0 -37 -26.5 -64.5t-71.5 -27.5q-41 0 -70 25.5t-29 66.5zM719 1440v102q0 39 25.5 66.5t70.5 27.5 q41 0 70.5 -25.5t29.5 -68.5v-102q0 -41 -29.5 -66.5t-70.5 -25.5q-45 0 -70.5 27.5t-25.5 64.5z" />
<glyph unicode="&#xc5;" horiz-adv-x="1384" d="M-70 0l697 1421h153l672 -1421h-215l-199 420h-684l-202 -420h-222zM444 602h508l-250 524zM459 1577q0 94 70.5 152.5t164.5 58.5q96 0 164 -55q74 -61 74 -156q0 -92 -70.5 -150.5t-167.5 -58.5q-94 0 -164.5 57.5t-70.5 151.5zM659 1577q0 -25 35 -25q39 0 39 25 q0 10 -9 17.5t-30 7.5q-35 0 -35 -25z" />
<glyph unicode="&#xc6;" horiz-adv-x="2205" d="M-201 0l1364 1389h1016v-179h-848v-397h94v-2h646v-178h-740v-455h858v-178h-1056v633h-455l-621 -633h-258zM856 813h277l2 279z" />
<glyph unicode="&#xc7;" horiz-adv-x="1472" d="M29 670q0 336 216 534.5t578 198.5q422 0 654 -311l-166 -103q-92 127 -205 179.5t-283 52.5q-276 0 -437 -146.5t-161 -396.5q0 -248 153.5 -393.5t422.5 -145.5q162 0 277.5 53.5t215.5 180.5l166 -103q-250 -313 -657 -313q-352 0 -563 193.5t-211 519.5zM465 -297 l100 166q139 -43 195 -43q88 0 88 22q0 -2 -51 2q-43 4 -150 -45v129l21 199h192l-4 -104q199 -20 199 -189q0 -197 -289 -196q-86 0 -301 59z" />
<glyph unicode="&#xc8;" horiz-adv-x="1155" d="M41 0v1417h1149v-180h-954v-410h845v-180h-845v-465h964v-182h-1159zM360 1655q0 37 41 63q29 20 60 21q43 0 71 -31l168 -154q92 -92 93 -147q0 -37 -39 -66q-27 -18 -60 -18q-43 0 -73 31l-168 153q-93 93 -93 148z" />
<glyph unicode="&#xc9;" horiz-adv-x="1155" d="M41 0v1417h1149v-180h-954v-410h845v-180h-845v-465h964v-182h-1159zM360 1415q0 35 29 64l234 229q31 31 71 31q39 0 70 -28t31 -64q0 -35 -29 -64l-231 -229q-31 -31 -72 -31t-72 27.5t-31 64.5z" />
<glyph unicode="&#xca;" horiz-adv-x="1155" d="M41 0v1419h1149v-182h-954v-410h845v-180h-845v-465h964v-182h-1159zM201 1356l313 399h119l323 -399h-243l-140 170l-139 -170h-233z" />
<glyph unicode="&#xcb;" horiz-adv-x="1155" d="M41 0v1411h1149v-180h-954v-408h845v-178h-845v-465h964v-180h-1159zM362 1456v103q0 39 26 66.5t71 27.5q41 0 70.5 -25.5t29.5 -68.5v-103q0 -41 -29.5 -66.5t-70.5 -25.5q-45 0 -71 27.5t-26 64.5zM598 1456v103q0 43 28.5 68.5t69.5 25.5q45 0 72 -28t27 -66v-103 q0 -37 -27 -64.5t-72 -27.5q-41 0 -69.5 25.5t-28.5 66.5z" />
<glyph unicode="&#xcc;" horiz-adv-x="274" d="M-80 1677q0 37 31 66t69 29q43 0 74 -33l166 -154q94 -92 94 -147q0 -39 -43 -68q-27 -16 -57 -16q-43 0 -74 30l-231 230q-29 28 -29 63zM41 0v1419h197v-1419h-197z" />
<glyph unicode="&#xcd;" horiz-adv-x="274" d="M-80 1438q0 33 29 61l231 232q33 33 74 32q41 0 71.5 -27.5t30.5 -64.5q0 -35 -30 -63l-232 -232q-31 -31 -71 -30q-41 0 -72 27.5t-31 64.5zM41 0v1419h197v-1419h-197z" />
<glyph unicode="&#xce;" horiz-adv-x="274" d="M-240 1348l314 399h119l323 -399h-242l-139 172l-141 -172h-234zM41 0v1419h197v-1419h-197z" />
<glyph unicode="&#xcf;" horiz-adv-x="274" d="M-82 1473v102q0 47 37 72q29 20 65 20q88 0 97 -88l2 -106q0 -37 -25.5 -66t-73.5 -29q-43 0 -72.5 26t-29.5 69zM41 0v1413h197v-1413h-197zM160 1473v102q0 41 27.5 66.5t68.5 25.5q90 0 98 -88l2 -106q0 -39 -27.5 -67t-72.5 -28q-47 0 -71.5 29t-24.5 66z" />
<glyph unicode="&#xd0;" horiz-adv-x="1392" d="M-37 606v180h78v603h604q362 0 553 -189q184 -182 184 -508q0 -334 -231 -518q-215 -174 -584 -174h-526v606h-78zM238 178h335q295 0 454 130t159 384t-129 383q-135 135 -414 135h-405v-424h405v-180h-405v-428z" />
<glyph unicode="&#xd1;" horiz-adv-x="1392" d="M41 0v1411h176l473 -553l467 -534v1087h197v-1411h-178l-938 1096v-1096h-197zM342 1401q0 117 72 176q68 53 145 53q43 0 123 -35l125 -57q18 -8 29 -10q18 0 26 45q2 10 6 102l187 -90q-10 -125 -72.5 -182t-146.5 -57q-53 0 -177 59q-92 45 -102 45q-18 0 -27 -51 q0 -6 -6 -111z" />
<glyph unicode="&#xd2;" horiz-adv-x="1550" d="M-6 709q0 334 215 522q207 182 567 182t570 -182q215 -188 215 -522t-212 -528.5t-573 -194.5q-362 0 -572 193.5t-210 529.5zM193 709q0 -252 153.5 -396.5t429.5 -144.5q281 0 434.5 143.5t153.5 397.5q0 252 -153.5 388t-434.5 136q-279 0 -431 -136t-152 -388z M555 1679q0 37 31.5 60.5t72.5 23.5q45 0 74 -28l166 -154q94 -94 94 -149q0 -39 -43 -66q-27 -16 -55 -16q-43 0 -74 30l-235 232q-31 34 -31 67z" />
<glyph unicode="&#xd3;" horiz-adv-x="1550" d="M-6 709q0 334 215 522q207 182 567 182t570 -182q215 -188 215 -522t-212 -528.5t-573 -194.5q-362 0 -572 193.5t-210 529.5zM193 709q0 -252 153.5 -396.5t429.5 -144.5q281 0 434.5 143.5t153.5 397.5q0 252 -153.5 388t-434.5 136q-279 0 -431 -136t-152 -388z M557 1448q0 35 31 63l231 232q29 31 74 31q31 0 57 -17q43 -29 43 -67q0 -57 -96 -150l-170 -156q-35 -27 -70 -26q-39 0 -69.5 26.5t-30.5 63.5z" />
<glyph unicode="&#xd4;" horiz-adv-x="1550" d="M-6 709q0 334 215 522q207 182 567 182t570 -182q215 -188 215 -522t-212 -528.5t-573 -194.5q-362 0 -572 193.5t-210 529.5zM193 709q0 -252 153.5 -396.5t429.5 -144.5q281 0 434.5 143.5t153.5 397.5q0 252 -153.5 388t-434.5 136q-279 0 -431 -136t-152 -388z M401 1372l310 397h118l324 -397h-242l-139 170l-139 -170h-232z" />
<glyph unicode="&#xd5;" horiz-adv-x="1550" d="M-6 707q0 334 215 520q207 182 567 182t572.5 -184.5t212.5 -517.5q0 -332 -212 -526.5t-573 -194.5q-362 0 -572 192.5t-210 528.5zM193 707q0 -252 153.5 -395.5t429.5 -143.5q281 0 434.5 142.5t153.5 396.5q0 252 -153.5 386t-434.5 134q-279 0 -431 -135t-152 -385z M426 1444q0 117 72 176q68 53 145 53q51 0 174 -59q92 -43 101 -43q20 0 28 47q2 6 8 106l187 -102q-14 -123 -77 -178t-146 -55q-43 0 -123 34l-125 58q-18 8 -29 10q-25 0 -33 -74q0 -14 -8 -88z" />
<glyph unicode="&#xd6;" horiz-adv-x="1550" d="M-6 707q0 332 215 518q207 182 567 182t572.5 -184.5t212.5 -515.5q0 -334 -212 -527.5t-573 -193.5q-362 0 -572 192.5t-210 528.5zM193 707q0 -252 153.5 -396.5t429.5 -144.5q281 0 434.5 143.5t153.5 397.5q0 250 -153.5 385t-434.5 135q-279 0 -431 -135t-152 -385z M561 1473v102q0 41 27.5 66.5t68.5 25.5q90 0 99 -88l2 -106q0 -39 -28 -67t-73 -28q-47 0 -71.5 29t-24.5 66zM797 1473v102q0 45 29.5 68.5t68.5 23.5q88 0 96 -88l2 -106q0 -37 -25.5 -66t-72.5 -29q-45 0 -71.5 28t-26.5 67z" />
<glyph unicode="&#xd7;" horiz-adv-x="1003" d="M74 322l276 194l-274 191l151 108l275 -194l276 194l152 -108l-277 -193l281 -199l-154 -102l-278 195l-281 -193z" />
<glyph unicode="&#xd8;" horiz-adv-x="1550" d="M-6 694q0 328 215 514q207 180 567 181q137 0 252 -27l43 80h213l-76 -146q352 -182 353 -602q0 -330 -212 -521t-573 -191q-139 0 -258 28l-37 -69h-215l76 139q-170 92 -260 258q-88 157 -88 356zM193 694q0 -231 145 -379q43 -41 92 -69l508 950q-74 12 -162 12 q-279 0 -431 -134t-152 -380zM608 178q78 -16 168 -16q281 0 434.5 140t153.5 392q0 311 -244 441z" />
<glyph unicode="&#xd9;" horiz-adv-x="1359" d="M41 545v872h197v-870q0 -195 105.5 -287t336.5 -92q229 0 335.5 91t106.5 280v878h197v-876q0 -287 -172 -426q-156 -129 -467 -129q-639 0 -639 559zM463 1659q0 37 30.5 64.5t69.5 27.5q43 0 74 -33l231 -229q29 -29 29 -66q0 -43 -41 -71q-27 -18 -55 -19 q-37 0 -74 27l-235 235q-29 29 -29 64z" />
<glyph unicode="&#xda;" horiz-adv-x="1359" d="M41 545v874h197v-872q0 -195 105.5 -287t336.5 -92q229 0 335.5 91t106.5 280v880h197v-878q0 -287 -172 -426q-156 -129 -467 -129q-639 0 -639 559zM461 1430q0 35 31 63l231 229q33 33 74 33t71.5 -27.5t30.5 -64.5q0 -35 -31 -64l-233 -233q-35 -27 -72 -27 q-41 0 -71.5 27t-30.5 64z" />
<glyph unicode="&#xdb;" horiz-adv-x="1359" d="M41 545v874h197v-872q0 -195 105.5 -287t336.5 -92q229 0 335.5 91t106.5 280v880h197v-878q0 -287 -172 -426q-156 -129 -467 -129q-639 0 -639 559zM303 1352l313 399h121l322 -399h-242l-141 172l-139 -172h-234z" />
<glyph unicode="&#xdc;" horiz-adv-x="1359" d="M41 543v870h197v-868q0 -193 105.5 -286t336.5 -93q229 0 335.5 91t106.5 280v876h197v-874q0 -287 -172 -426q-156 -127 -467 -127q-639 0 -639 557zM465 1473v102q0 41 27.5 66.5t68.5 25.5q39 0 70 -23.5t31 -68.5v-102q0 -39 -28 -67t-73 -28q-47 0 -71.5 29 t-24.5 66zM700 1473v102q0 45 30 68.5t69 23.5q41 0 69.5 -25.5t28.5 -66.5v-102q0 -37 -25.5 -66t-72.5 -29q-45 0 -72 28t-27 67z" />
<glyph unicode="&#xdd;" horiz-adv-x="1345" d="M-141 1419h262l553 -575l557 575h258l-715 -749v-670h-196v670zM457 1438q0 35 28 63l234 230q33 33 74 32q41 0 70.5 -27.5t29.5 -64.5q0 -35 -29 -63l-233 -232q-31 -31 -72 -30q-41 0 -71.5 27.5t-30.5 64.5z" />
<glyph unicode="&#xde;" horiz-adv-x="870" d="M43 0v1389h197v-283h243q352 0 353 -397q0 -182 -89.5 -284.5t-265.5 -102.5h-241v-322h-197zM240 498h243q154 2 154 211q0 219 -156 219h-241v-430z" />
<glyph unicode="&#xdf;" horiz-adv-x="1034" d="M-31 748v182h74q2 68 6 143q16 340 436 340q496 0 484 -332q-4 -176 -142 -254q225 -152 226 -393q0 -252 -189 -383q-160 -113 -506 -112v180q274 0 392 80q106 74 106 235q0 150 -119 232t-379 82v180q254 0 326 26q90 31 90 121q0 96 -65.5 127t-227.5 31 q-129 0 -185 -50t-56 -161v-1028h-197v754h-74z" />
<glyph unicode="&#xe0;" horiz-adv-x="1130" d="M-18 516q0 236 143 385q152 160 416 160q217 0 362 -117v113h197v-1059h-197v98q-143 -119 -371 -119q-258 0 -409 160q-141 148 -141 379zM178 516q0 -162 88 -258q94 -102 264 -102t271.5 102t101.5 258q0 170 -95 267.5t-278 97.5q-166 0 -259 -103.5t-93 -261.5z M301 1294q0 37 41 64q27 18 59 18q43 0 74 -28q70 -61 203 -191q57 -61 57 -106q0 -39 -43 -66q-25 -14 -53 -14q-41 0 -76 24l-168 154q-94 90 -94 145z" />
<glyph unicode="&#xe1;" horiz-adv-x="1130" d="M8 516q0 236 142 385q152 160 415 160q217 0 363 -117v113h196v-1059h-196v98q-143 -119 -371 -119q-258 0 -410 160q-139 148 -139 379zM203 516q0 -162 88 -258q94 -102 264 -102t271.5 102t101.5 258q0 170 -95.5 267.5t-277.5 97.5q-166 0 -262 -107 q-90 -98 -90 -258zM324 1059q0 33 30 61l232 228q33 33 76 32q39 0 68.5 -26.5t29.5 -63.5q0 -35 -27 -65l-239 -230q-35 -27 -70 -26q-39 0 -69.5 26.5t-30.5 63.5z" />
<glyph unicode="&#xe2;" horiz-adv-x="1130" d="M8 516q0 236 142 385q152 160 415 160q217 0 363 -115v111h196v-1059h-196v98q-143 -119 -371 -119q-258 0 -410 160q-139 148 -139 379zM166 989l311 391h119l326 -391h-244l-139 168l-140 -168h-233zM203 516q0 -160 91 -260t261 -100t271.5 102t101.5 258 q0 170 -95.5 267.5t-277.5 97.5q-166 0 -262 -107q-90 -98 -90 -258z" />
<glyph unicode="&#xe3;" horiz-adv-x="1130" d="M8 514q0 233 142 383q152 158 415 158q217 0 363 -115v111h196v-1053h-196v98q-143 -119 -371 -119q-258 0 -410 158q-139 148 -139 379zM190 1059q0 117 74 174q66 51 144 51q51 0 174 -57q92 -43 100 -43q25 0 33 67l4 82l186 -98q-14 -121 -76.5 -175t-146.5 -54 q-53 0 -176 57q-92 43 -100 43q-25 0 -33 -72q0 -14 -8 -86zM203 514q0 -160 88 -256q94 -102 264 -102t272 104q100 98 101 254q0 168 -95.5 265.5t-277.5 97.5q-168 0 -262 -107q-90 -98 -90 -256z" />
<glyph unicode="&#xe4;" horiz-adv-x="1130" d="M8 512q0 233 142 383q152 158 415 158q217 0 363 -115v111h196v-1051h-196v98q-143 -119 -371 -119q-258 0 -410 158q-139 148 -139 377zM203 512q0 -160 88 -254q94 -102 264 -102t271.5 101t101.5 255q0 168 -95.5 265t-277.5 97q-168 0 -262 -106q-90 -98 -90 -256z M352 1087v101q0 41 28 65.5t69 24.5q39 0 65 -23q35 -25 35 -67v-101q0 -39 -27.5 -66.5t-72.5 -27.5q-47 0 -74 33q-23 26 -23 61zM588 1087v101q0 43 33 67q27 23 65 23q41 0 69.5 -24.5t28.5 -65.5v-101q0 -35 -24 -61q-27 -33 -74 -33q-45 0 -71.5 27.5t-26.5 66.5z" />
<glyph unicode="&#xe5;" horiz-adv-x="1130" d="M8 518q0 238 142 387q152 160 415 160q217 0 363 -117v113h196v-1063h-196v98q-143 -119 -371 -119q-258 0 -410 160q-139 150 -139 381zM203 518q0 -162 88 -258q94 -102 264 -102t271.5 102t101.5 258q0 170 -95.5 268.5t-277.5 98.5q-166 0 -259 -103.5t-93 -263.5z M315 1227q0 94 72 150.5t166 56.5t164.5 -57.5t70.5 -149.5t-70.5 -149.5t-164.5 -57.5t-166 56.5t-72 150.5zM516 1227q0 -25 37 -25t37 25q0 10 -9.5 17t-27.5 7q-37 1 -37 -24z" />
<glyph unicode="&#xe6;" horiz-adv-x="2015" d="M-18 498q0 229 143 372q154 154 416 154q217 0 362 -111v107h197v-115q152 119 366 119q254 0 410 -133t156 -356v-111l-1002 -2l70 65v-38q0 -297 362 -297q266 0 359 223h204q-88 -246 -247 -326q-139 -72 -320 -72q-221 0 -358 97v-76h-197v94q-143 -115 -371 -115 q-258 0 -409 154q-141 144 -141 367zM178 498q0 -154 88 -246q94 -100 264 -100t271.5 98t101.5 248q0 164 -95 258t-278 94q-168 0 -264 -102q-88 -96 -88 -250zM1100 586q154 8 719 10q-18 98 -90 166q-94 88 -263 88q-143 0 -247.5 -73.5t-118.5 -190.5z" />
<glyph unicode="&#xe7;" d="M-10 465q0 250 158.5 404.5t435.5 154.5q170 0 295 -74q141 -82 200 -288l-180 -87q-41 154 -117 216q-70 55 -202 55q-188 0 -290 -103.5t-102 -277.5q0 -158 96.5 -251t274.5 -93q125 0 215 54t129 237l189 -76q-57 -225 -211 -316q-135 -78 -320 -77 q-260 0 -415.5 143t-155.5 379zM274 -301l93 166q145 -43 198 -43q88 0 88 20v-2q-10 2 -51 6q-43 2 -149 -45v127l24 195h191l-4 -100q197 -23 196 -187q0 -193 -289 -192q-84 0 -297 55z" />
<glyph unicode="&#xe8;" d="M-25 516q0 233 154 389t414 156q254 0 409.5 -138.5t155.5 -369.5v-113l-932 -2q35 -283 361 -282q266 0 358 231h203q-86 -256 -244 -338q-137 -72 -322 -72q-272 0 -419 152q-138 141 -138 387zM182 616h713q-18 104 -90 175q-94 90 -262 90t-264 -90q-74 -71 -97 -175 zM317 1290q0 35 32 59.5t73 24.5q43 0 72 -26l168 -152q94 -92 94 -147q0 -39 -45 -66q-25 -12 -52 -12q-41 0 -73 24l-240 230q-29 32 -29 65z" />
<glyph unicode="&#xe9;" d="M-25 516q0 233 154 389t414 156q254 0 409.5 -138.5t155.5 -369.5v-113l-932 -2q35 -283 361 -282q266 0 358 231h203q-86 -256 -244 -338q-137 -72 -322 -72q-272 0 -419 152q-138 141 -138 387zM182 616h713q-18 104 -90 175q-94 90 -262 90t-264 -90q-74 -71 -97 -175 zM319 1061q0 35 31 63l232 226q31 31 71 30q33 0 66 -18q37 -33 37 -70q0 -27 -23 -61l-244 -232q-35 -27 -69 -26q-39 0 -70 26.5t-31 61.5z" />
<glyph unicode="&#xea;" d="M-25 516q0 233 154 389t414 156q254 0 409.5 -138.5t155.5 -369.5v-113l-932 -2q35 -283 361 -282q266 0 358 231h203q-86 -256 -244 -338q-137 -72 -322 -72q-272 0 -419 152q-138 141 -138 387zM162 989l313 391h119l321 -391h-241l-139 168l-140 -168h-233zM182 618 h713q-18 102 -90 173q-94 90 -262 90t-264 -90q-74 -71 -97 -173z" />
<glyph unicode="&#xeb;" d="M-25 512q0 231 154 386t414 155q254 0 409.5 -137.5t155.5 -366.5v-113l-932 -2q35 -279 361 -278q266 0 358 229h203q-86 -254 -244 -336q-137 -72 -322 -72q-272 0 -419 150q-138 141 -138 385zM182 612h713q-18 102 -90 172q-94 90 -262 90t-264 -92q-74 -68 -97 -170 zM324 1087v101q0 43 32 67q27 23 66 23q41 0 69.5 -24.5t28.5 -65.5v-101q0 -35 -24 -61q-27 -33 -74 -33q-45 0 -71.5 27.5t-26.5 66.5zM561 1087v101q0 41 27.5 65.5t68.5 24.5q39 0 66 -23q35 -25 35 -67v-101q0 -39 -28 -66.5t-73 -27.5q-47 0 -73 33q-23 26 -23 61z " />
<glyph unicode="&#xec;" horiz-adv-x="278" d="M-78 1286q0 37 30 64.5t71 27.5q39 0 71 -30l168 -152q94 -92 94 -145q0 -39 -45 -66q-25 -14 -51 -14q-41 0 -76 26l-233 226q-29 28 -29 63zM43 0v1038h197v-1038h-197z" />
<glyph unicode="&#xed;" horiz-adv-x="278" d="M-78 1053q0 33 29 61l233 225q33 31 74 31q39 0 68.5 -27.5t29.5 -62.5t-28 -63l-232 -226q-31 -31 -71 -30q-41 0 -72 27.5t-31 64.5zM43 0v1038h197v-1038h-197z" />
<glyph unicode="&#xee;" horiz-adv-x="278" d="M-219 991l299 389h121l305 -389h-240l-125 162l-129 -162h-231zM43 0v1038h197v-1038h-197z" />
<glyph unicode="&#xef;" horiz-adv-x="278" d="M-72 1087v101q0 43 35 67q27 23 66 23q41 0 69.5 -24.5t28.5 -65.5v-101q0 -35 -25.5 -63.5t-72.5 -28.5q-45 0 -73 26.5t-28 65.5zM43 0v1030h197v-1030h-197zM168 1087v101q0 41 27.5 65.5t68.5 24.5q39 0 66 -23q35 -25 35 -67v-101q0 -39 -28 -65.5t-73 -26.5 q-47 0 -71.5 28.5t-24.5 63.5z" />
<glyph unicode="&#xf0;" horiz-adv-x="1155" d="M-18 516q0 238 143 385q152 160 416 160q217 0 362 -115v129h-680v180h680v134h197v-1391h-197v98q-143 -119 -371 -119q-258 0 -409 160q-141 148 -141 379zM178 516q0 -160 88 -256q94 -104 264 -104t271.5 102t101.5 258q0 170 -95 268.5t-278 98.5 q-166 0 -259 -103.5t-93 -263.5z" />
<glyph unicode="&#xf1;" d="M43 0v1032h197v-67q129 90 321 90q197 0 324 -90q145 -100 145 -287v-678h-196v659q0 217 -271 218q-154 0 -238.5 -83t-84.5 -221v-573h-197zM190 1059q0 115 74 172q68 53 144 53q51 0 174 -57q92 -43 102 -43q18 0 27 47q2 8 8 102l184 -96q-10 -121 -72.5 -176 t-146.5 -55q-53 0 -176 57q-92 43 -102 43q-18 0 -27 -49q0 -4 -6 -107z" />
<glyph unicode="&#xf2;" horiz-adv-x="1116" d="M-18 518q0 238 157.5 390.5t421.5 152.5t420 -152.5t156 -390.5q0 -240 -158 -390.5t-422 -150.5t-422 154q-153 147 -153 387zM180 518q0 -162 100.5 -262t278.5 -100t279.5 100t101.5 262q0 166 -99.5 264.5t-281.5 98.5q-180 0 -279.5 -99.5t-99.5 -263.5zM342 1294 q0 37 41 64q27 18 59 18q43 0 74 -28q70 -61 203 -191q57 -61 57 -106q0 -39 -43 -66q-25 -14 -53 -14q-41 0 -76 24l-168 154q-94 90 -94 145z" />
<glyph unicode="&#xf3;" horiz-adv-x="1116" d="M-18 518q0 238 157.5 389.5t421.5 151.5t420 -151.5t156 -389.5q0 -240 -158 -390.5t-422 -150.5t-422 154q-153 147 -153 387zM180 518q0 -162 100.5 -262t278.5 -100t279.5 100t101.5 262q0 166 -99.5 264.5t-281.5 98.5q-180 0 -279.5 -99.5t-99.5 -263.5zM340 1053 q0 33 29 59l233 227q33 31 74 31t70.5 -27.5t29.5 -62.5t-28 -63l-234 -226q-31 -31 -72 -30q-41 0 -71.5 27.5t-30.5 64.5z" />
<glyph unicode="&#xf4;" horiz-adv-x="1116" d="M-18 518q0 240 157.5 391.5t421.5 151.5t420 -152.5t156 -390.5q0 -240 -158 -390.5t-422 -150.5t-419.5 151.5t-155.5 389.5zM180 518q0 -162 100.5 -262t278.5 -100t279.5 100t101.5 262q0 166 -99.5 264.5t-281.5 98.5q-180 0 -279.5 -99.5t-99.5 -263.5zM182 989 l314 391h118l326 -391h-244l-139 168l-141 -168h-234z" />
<glyph unicode="&#xf5;" horiz-adv-x="1116" d="M-18 514q0 238 157.5 389.5t421.5 151.5t420 -151.5t156 -389.5t-158 -387.5t-422 -149.5t-419.5 150.5t-155.5 386.5zM180 514q0 -160 100.5 -259t278.5 -99t279.5 99t101.5 259q0 166 -99.5 264.5t-281.5 98.5q-180 0 -279.5 -99.5t-99.5 -263.5zM205 1059 q0 119 69.5 172t149.5 53q41 0 123 -35l123 -55q18 -6 28 -10q16 0 23.5 23.5t23.5 123.5l175 -98q-14 -119 -76 -173t-146 -54q-53 0 -178 57q-82 39 -98 43q-27 0 -31 -70q0 -14 -4 -88z" />
<glyph unicode="&#xf6;" horiz-adv-x="1116" d="M-18 514q0 238 157.5 388.5t421.5 150.5t420 -151.5t156 -387.5q0 -238 -158 -387.5t-422 -149.5t-419.5 149.5t-155.5 387.5zM180 514q0 -162 100.5 -260t278.5 -98t279.5 98t101.5 260q0 164 -99.5 262t-281.5 98q-180 0 -279.5 -99t-99.5 -261zM344 1087v101 q0 41 27.5 65.5t68.5 24.5q39 0 66 -23q35 -25 35 -67v-101q0 -39 -28 -66.5t-73 -27.5q-47 0 -73 33q-23 26 -23 61zM580 1087v101q0 43 32 67q27 23 66 23q41 0 69.5 -24.5t28.5 -65.5v-101q0 -35 -24 -61q-27 -33 -74 -33q-45 0 -71.5 27.5t-26.5 66.5z" />
<glyph unicode="&#xf7;" horiz-adv-x="1212" d="M27 408v165h1130v-165h-1130zM510 238v104q0 37 26.5 61.5t69.5 24.5q41 0 71 -22.5t30 -63.5v-104q0 -41 -30 -63.5t-71 -22.5q-43 0 -69.5 24.5t-26.5 61.5zM510 625v106q0 39 28.5 61.5t67.5 22.5q100 0 101 -84v-106q0 -39 -30 -61.5t-71 -22.5q-43 0 -69.5 24.5 t-26.5 59.5z" />
<glyph unicode="&#xf8;" horiz-adv-x="1116" d="M-18 502q0 236 157.5 385t421.5 149q88 0 164 -16l57 104h213l-94 -178q236 -147 236 -444q0 -236 -158 -384.5t-422 -148.5q-96 0 -178 21l-47 -86h-215l88 162q-223 145 -223 436zM180 502q0 -168 115 -269l338 621q-35 4 -74 4q-180 0 -279.5 -97t-99.5 -259zM467 154 q43 -8 92 -9q178 0 279.5 98.5t101.5 258.5q0 176 -131 280z" />
<glyph unicode="&#xf9;" d="M43 377v661h197v-659q0 -223 272 -223q322 0 322 323v559h196v-1040h-196v72q-131 -92 -322 -93q-209 0 -334 99q-135 106 -135 301zM322 1280q0 39 36 68q27 23 60 22q43 0 76 -31l168 -151q94 -92 94 -146q0 -41 -45 -65q-25 -14 -52 -14q-41 0 -75 26l-234 228 q-28 28 -28 63z" />
<glyph unicode="&#xfa;" d="M43 377v661h197v-659q0 -223 272 -223q322 0 322 323v559h196v-1040h-196v72q-131 -92 -322 -93q-209 0 -334 99q-135 106 -135 301zM322 1059q0 35 28 61l232 228q33 31 73 30q41 0 72 -27.5t31 -64.5q0 -35 -31 -63l-231 -224q-31 -31 -72 -30q-41 0 -71.5 26.5 t-30.5 63.5z" />
<glyph unicode="&#xfb;" d="M43 377v661h197v-659q0 -223 272 -223q322 0 322 323v559h196v-1040h-196v72q-131 -92 -322 -93q-209 0 -334 99q-135 106 -135 301zM162 989l313 391h119l321 -391h-241l-139 168l-140 -168h-233z" />
<glyph unicode="&#xfc;" d="M43 373v657h197v-655q0 -219 272 -219q322 0 322 319v555h196v-1032h-196v70q-131 -90 -322 -91q-209 0 -334 99q-135 104 -135 297zM322 1087v101q0 43 32 67q27 23 66 23q41 0 69.5 -24.5t28.5 -65.5v-101q0 -35 -24 -61q-27 -33 -74 -33q-45 0 -71.5 27.5t-26.5 66.5z M559 1087v101q0 41 27.5 65.5t68.5 24.5q39 0 66 -23q35 -25 35 -67v-101q0 -39 -28 -66.5t-73 -27.5q-47 0 -73 33q-23 26 -23 61z" />
<glyph unicode="&#xfd;" horiz-adv-x="1036" d="M-6 68h192q14 -143 86 -197.5t226 -54.5q315 0 333 225q-131 -92 -319 -92q-207 0 -334 100q-135 106 -135 307v674h197v-672q0 -227 272 -227q322 0 322 330v569h196v-956q0 -219 -140 -330t-396 -111q-195 0 -324 74q-162 97 -176 361zM297 1055q0 33 35 65l231 230 q31 31 72 30q33 0 65 -18q37 -33 37 -72q0 -27 -22 -59l-244 -240q-35 -25 -70 -24q-31 0 -63 22q-41 29 -41 66z" />
<glyph unicode="&#xfe;" horiz-adv-x="1155" d="M43 -344v1733h197v-453q145 119 358 119q266 0 416 -158q141 -150 141 -391q0 -244 -139 -393q-150 -162 -416 -162q-215 0 -360 117v-412h-197zM240 510q0 -379 368 -379q170 0 264 107q88 100 89 266q0 164 -91.5 266t-259.5 102q-172 0 -271 -100t-99 -262z" />
<glyph unicode="&#xff;" horiz-adv-x="1044" d="M-6 66h192q14 -143 86 -197.5t226 -54.5q315 0 333 225q-131 -92 -319 -92q-207 0 -332 98q-137 109 -137 307v672h197v-670q0 -227 272 -227q322 0 322 330v567h196v-952q0 -217 -140 -328t-396 -111q-195 0 -324 74q-162 97 -176 359zM307 1083v103q0 45 30 68.5 t69 23.5q88 0 96 -88l2 -107q0 -37 -25.5 -65.5t-72.5 -28.5q-45 0 -72 27.5t-27 66.5zM545 1083v103q0 41 27.5 66.5t68.5 25.5q90 0 98 -88l2 -107q0 -39 -27.5 -66.5t-72.5 -27.5q-47 0 -71.5 28.5t-24.5 65.5z" />
<glyph unicode="&#x152;" horiz-adv-x="2068" d="M2 690q0 328 211 518.5t571 190.5q70 0 140 -10h1132v-179h-713q180 -158 216 -399h434v-178h-426q-20 -281 -215 -455h716v-180h-1099q-86 -14 -185 -14q-356 0 -569 191t-213 515zM199 690q0 -248 153.5 -388t431.5 -140q53 0 103 6v1046q-49 6 -103 7 q-279 0 -432 -141.5t-153 -389.5zM1081 219q262 121 287 414h-287v-414zM1081 811h279q-45 248 -279 352v-352z" />
<glyph unicode="&#x153;" horiz-adv-x="2154" d="M33 500q0 231 156.5 377.5t420.5 146.5q328 0 482 -219q162 219 467 219q254 0 409.5 -133t155.5 -356v-111l-930 -2q35 -270 360 -270q266 0 359 223h205q-88 -246 -248 -326q-139 -72 -320 -72q-332 0 -471 207q-162 -207 -473 -207q-264 0 -418.5 146t-154.5 377z M229 500q0 -156 100.5 -252t278.5 -96t279.5 96t101.5 252q0 160 -99 255t-282 95q-180 0 -279.5 -96t-99.5 -254zM1198 596h713q-18 98 -90 166q-94 88 -262 88q-133 0 -228 -64q-102 -65 -133 -190z" />
<glyph unicode="&#x178;" horiz-adv-x="1357" d="M-137 1413h264l553 -573l557 573h258l-715 -745v-668h-196v668zM473 1473v102q0 45 29.5 68.5t68.5 23.5q88 0 97 -88l2 -106q0 -37 -26 -66t-73 -29q-45 0 -71.5 28t-26.5 67zM711 1473v102q0 41 27.5 66.5t68.5 25.5q90 0 98 -88l2 -106q0 -39 -27.5 -67t-72.5 -28 q-47 0 -71.5 29t-24.5 66z" />
<glyph unicode="&#x2c6;" horiz-adv-x="530" d="M-129 1106l334 274h110l349 -274h-258l-144 113l-143 -113h-248z" />
<glyph unicode="&#x2dc;" horiz-adv-x="749" d="M20 1149q0 82 82 117q66 27 136 26q47 0 168 -30q94 -23 106 -23q27 0 31 23q2 4 6 55l190 -53q-23 -86 -86 -115t-141 -29q-47 0 -127 19l-129 30q-16 2 -20 2q-25 0 -29 -24q0 -8 -4 -55z" />
<glyph unicode="&#x2000;" horiz-adv-x="894" />
<glyph unicode="&#x2001;" horiz-adv-x="1789" />
<glyph unicode="&#x2002;" horiz-adv-x="894" />
<glyph unicode="&#x2003;" horiz-adv-x="1789" />
<glyph unicode="&#x2004;" horiz-adv-x="595" />
<glyph unicode="&#x2005;" horiz-adv-x="446" />
<glyph unicode="&#x2006;" horiz-adv-x="296" />
<glyph unicode="&#x2007;" horiz-adv-x="296" />
<glyph unicode="&#x2008;" horiz-adv-x="223" />
<glyph unicode="&#x2009;" horiz-adv-x="356" />
<glyph unicode="&#x200a;" horiz-adv-x="98" />
<glyph unicode="&#x2010;" horiz-adv-x="716" d="M29 520v41h680v-41h-680z" />
<glyph unicode="&#x2011;" horiz-adv-x="716" d="M29 520v41h680v-41h-680z" />
<glyph unicode="&#x2012;" horiz-adv-x="716" d="M29 520v41h680v-41h-680z" />
<glyph unicode="&#x2013;" horiz-adv-x="1013" d="M-78 520v41h1165v-41h-1165z" />
<glyph unicode="&#x2014;" horiz-adv-x="1830" d="M-78 520v41h1983v-41h-1983z" />
<glyph unicode="&#x2018;" horiz-adv-x="358" d="M43 1098q0 12 4 24l86 211q23 53 94 53q39 0 70 -19t31 -52q0 -12 -4 -25l-88 -213q-23 -51 -93 -51q-41 0 -70.5 19.5t-29.5 52.5z" />
<glyph unicode="&#x2019;" horiz-adv-x="358" d="M43 1096q0 14 4 26l88 211q23 53 92 53q39 0 70 -19t31 -52q0 -12 -4 -25l-86 -211q-23 -53 -95 -53q-41 0 -70.5 19.5t-29.5 50.5z" />
<glyph unicode="&#x201a;" horiz-adv-x="598" d="M121 -113q0 10 6 27l86 209q23 53 92 53q39 0 70 -19.5t31 -52.5q0 -12 -5 -24l-86 -211q-23 -53 -114 -53q-80 -1 -80 71z" />
<glyph unicode="&#x201c;" horiz-adv-x="546" d="M43 1098q0 12 4 24l86 211q23 53 94 53q39 0 70 -19t31 -52q0 -12 -4 -25l-88 -213q-23 -51 -93 -51q-41 0 -70.5 19.5t-29.5 52.5zM258 1098q0 12 4 24l86 211q23 53 94 53q39 0 70 -19t31 -52q0 -12 -4 -25l-88 -213q-23 -51 -93 -51q-41 0 -70.5 19.5t-29.5 52.5z" />
<glyph unicode="&#x201d;" horiz-adv-x="565" d="M43 1096q0 14 4 26l88 211q23 53 92 53q39 0 70 -19t31 -52q0 -12 -4 -25l-86 -211q-23 -53 -95 -53q-41 0 -70.5 19.5t-29.5 50.5zM258 1096q0 14 4 26l88 211q23 53 92 53q39 0 70 -19t31 -52q0 -12 -4 -25l-86 -211q-23 -53 -95 -53q-41 0 -70.5 19.5t-29.5 50.5z" />
<glyph unicode="&#x201e;" horiz-adv-x="718" d="M121 -113q0 10 6 27l86 209q23 53 92 53q39 0 70 -19.5t31 -52.5q0 -12 -5 -24l-86 -211q-23 -53 -114 -53q-80 -1 -80 71zM336 -113q0 10 6 27l86 209q23 53 92 53q39 0 70 -19.5t31 -52.5q0 -12 -5 -24l-86 -211q-23 -53 -114 -53q-80 -1 -80 71z" />
<glyph unicode="&#x2022;" horiz-adv-x="598" d="M37 584v164q0 25 55 47q63 25 156 24q92 0 155 -24q57 -23 58 -47v-164q0 -25 -58 -47q-63 -25 -155 -25t-156 25q-55 22 -55 47z" />
<glyph unicode="&#x2026;" horiz-adv-x="1306" d="M201 55v60q0 59 98 59t98 -59v-60q0 -59 -98 -59t-98 59zM588 55v60q0 59 98 59t98 -59v-60q0 -59 -98 -59t-98 59zM975 55v60q0 59 98 59t98 -59v-60q0 -59 -98 -59t-98 59z" />
<glyph unicode="&#x202f;" horiz-adv-x="356" />
<glyph unicode="&#x2039;" horiz-adv-x="602" d="M70 510v100l458 254v-188l-200 -115l200 -115v-182z" />
<glyph unicode="&#x203a;" horiz-adv-x="602" d="M70 264v182l198 115l-198 115v188l458 -254v-100z" />
<glyph unicode="&#x205f;" horiz-adv-x="446" />
<glyph unicode="&#x2122;" horiz-adv-x="1615" d="M33 1231v170h794l283 -436l279 436h198v-690h-207v317l-200 -317h-138l-211 327q0 -117 3 -327h-205v520h-88v-520h-205v520h-303z" />
<glyph unicode="&#xe000;" horiz-adv-x="1000" d="M0 1000h1000v-1000h-1000v1000z" />
<glyph unicode="&#xfb01;" horiz-adv-x="825" d="M590 0v1040h197v-1040h-197zM590 1182v151q35 74 94 74q47 0 103 -64v-174q-53 -61 -103 -61q-65 0 -94 74zM-16 760v180h149v18q0 406 612 406v-176q-238 0 -333 -62q-82 -53 -82 -168v-18h227v-180h-227v-762h-197v762h-149z" />
<glyph unicode="&#xfb02;" horiz-adv-x="825" d="M590 0v1389h197v-1389h-197zM-16 760v180h149v18q0 406 612 406v-176q-238 0 -333 -62q-82 -53 -82 -168v-18h227v-180h-227v-762h-197v762h-149z" />
<glyph unicode="&#xfb03;" horiz-adv-x="1372" d="M1137 0v1040h197v-1040h-197zM1137 1182v151q35 74 94 74q47 0 103 -64v-174q-53 -61 -103 -61q-65 0 -94 74zM531 760v180h149v18q0 406 612 406v-176q-238 0 -333 -62q-82 -53 -82 -168v-18h227v-180h-227v-762h-197v762h-149zM-16 760v180h149v18q0 406 612 406v-176 q-238 0 -333 -62q-82 -53 -82 -168v-18h227v-180h-227v-762h-197v762h-149z" />
<glyph unicode="&#xfb04;" horiz-adv-x="1372" d="M1137 0v1389h197v-1389h-197zM531 760v180h149v18q0 406 612 406v-176q-238 0 -333 -62q-82 -53 -82 -168v-18h227v-180h-227v-762h-197v762h-149zM-16 760v180h149v18q0 406 612 406v-176q-238 0 -333 -62q-82 -53 -82 -168v-18h227v-180h-227v-762h-197v762h-149z" />
</font>
</defs>
</svg>
