<?xml version="1.0" standalone="no"?>
<!DOCTYPE svg PUBLIC "-//W3C//DTD SVG 1.1//EN" "http://www.w3.org/Graphics/SVG/1.1/DTD/svg11.dtd" >
<svg xmlns="http://www.w3.org/2000/svg">
<metadata>
This is a custom SVG webfont generated by Font Squirrel.
Copyright   : GM
</metadata>
<defs>
<font id="webfontQJWzc38T" horiz-adv-x="1075" >
<font-face units-per-em="2048" ascent="1638" descent="-410" />
<missing-glyph horiz-adv-x="724" />
<glyph unicode=" "  horiz-adv-x="724" />
<glyph unicode="&#x09;" horiz-adv-x="724" />
<glyph unicode="&#xa0;" horiz-adv-x="724" />
<glyph unicode="!" horiz-adv-x="397" d="M117 72q0 10 2 20l24 119q20 90 119 90q82 0 82 -70q0 -10 -4 -20l-25 -119q-18 -92 -116 -92q-82 0 -82 72zM168 317l229 1072h197l-229 -1072h-197z" />
<glyph unicode="&#x22;" horiz-adv-x="598" d="M334 1190l24 119q14 68 113 67q98 0 84 -67l-25 -119q-14 -70 -114 -70q-96 0 -82 70zM569 1190l25 119q14 68 115 67q96 0 82 -67l-25 -119q-14 -70 -113 -70q-98 0 -84 70z" />
<glyph unicode="#" horiz-adv-x="1087" d="M162 459l80 164h184l20 43h-186l90 163h180l68 129h201l-66 -129h86l64 129h200l-63 -129h180l-78 -163h-186l-21 -43h181l-80 -164h-182l-68 -129h-201l66 129h-86l-68 -129h-201l66 129h-180zM627 623h86l22 43h-86z" />
<glyph unicode="$" horiz-adv-x="1314" d="M82 346q0 55 12 115l21 92h196l-18 -84q-10 -45 -10 -84q0 -150 153 -207l105 494q-289 80 -289 282q0 37 10 78q61 295 436 377l29 133h197l-25 -110h43q31 0 62 -2l24 112h197l-31 -139q279 -74 279 -348q0 -70 -19 -154h-192q8 57 8 103q0 156 -117 208l-96 -454 q156 -41 225 -94q98 -74 98 -203q0 -43 -10 -92q-33 -154 -180 -260q-125 -92 -297 -127l-27 -125h-196l20 100h-22q-43 0 -82 4l-21 -104h-196l26 131q-313 88 -313 358zM455 995q0 -86 127 -131l75 355q-172 -53 -198 -187q-4 -21 -4 -37zM625 141q39 -2 82 -2h22l100 473 l-100 19zM768 819l100 -20l97 450q-29 2 -62 2q-23 0 -43 -2zM932 168q211 59 242 207q18 82 -7 110q-33 43 -151 82z" />
<glyph unicode="%" horiz-adv-x="1536" d="M121 -4l1384 1393h240l-1383 -1393h-241zM227 827q0 57 15 125q86 397 436 398q283 0 283 -269q0 -59 -17 -129q-82 -389 -436 -389q-281 0 -281 264zM430 858q0 -117 119 -117q152 0 196 211q12 55 13 97q0 123 -119 122q-152 0 -199 -219q-10 -55 -10 -94zM856 225 q0 57 14 127q84 399 439 400q279 0 278 -269q0 -59 -14 -131q-84 -391 -434 -391q-283 0 -283 264zM1057 258q0 -119 123 -119q150 0 194 213q12 57 12 99q0 121 -118 120q-152 0 -199 -219q-12 -55 -12 -94z" />
<glyph unicode="&#x26;" horiz-adv-x="1234" d="M82 276q0 31 8 66q53 248 463 438q-127 96 -127 236q0 35 6 69q33 150 180 234q125 70 275 70q139 0 229 -56q104 -63 105 -184q0 -31 -7 -66q-45 -213 -503 -417q-211 -94 -283 -146q-145 -102 -145 -209q0 -84 106 -129q82 -37 176 -37q240 0 391 187q86 106 125 293 h197l-141 -664h-197l35 156q-201 -150 -434 -150q-193 0 -326 85t-133 224zM625 1049q0 -104 145 -175q227 113 248 211q12 55 -33 90t-131 35q-90 0 -154 -36q-75 -43 -75 -125z" />
<glyph unicode="'" horiz-adv-x="358" d="M334 1190l24 119q14 68 113 67q98 0 84 -67l-25 -119q-14 -70 -114 -70q-96 0 -82 70z" />
<glyph unicode="(" horiz-adv-x="477" d="M154 231q0 166 39 349q106 506 483 923h227q-227 -248 -348 -471q-115 -209 -166 -452q-35 -164 -35 -310q0 -293 158 -614h-229q-129 274 -129 575z" />
<glyph unicode=")" horiz-adv-x="477" d="M-193 -344q233 248 359 471q115 209 168 453q33 160 33 299q0 299 -166 624h229q137 -272 137 -579q0 -162 -37 -344q-109 -512 -493 -924h-230z" />
<glyph unicode="*" horiz-adv-x="696" d="M248 1051q0 51 94 90q-59 29 -59 67q0 27 28 58q39 31 86 30q14 0 29 -2q4 -2 74 -28l6 30q16 80 117 80q41 0 64.5 -22.5t14.5 -57.5l-6 -30q84 31 115 30q47 0 74 -32q8 -16 8 -33q0 -57 -90 -90q57 -29 57 -68q0 -25 -22 -49q-37 -39 -88 -39q-47 0 -107 31l-6 -29 q-16 -80 -115 -80q-39 0 -64.5 21.5t-17.5 58.5l6 29q-72 -29 -118 -29q-53 0 -72 35q-8 15 -8 29z" />
<glyph unicode="+" horiz-adv-x="1146" d="M174 430l37 168h391l62 289h196l-61 -289h393l-37 -168h-393l-62 -293h-196l61 293h-391z" />
<glyph unicode="," horiz-adv-x="536" d="M102 -113q2 10 11 27l133 209q33 53 102 53q88 0 88 -59q0 -18 -12 -37l-131 -211q-33 -53 -125 -53q-82 -1 -66 71z" />
<glyph unicode="-" horiz-adv-x="716" d="M137 520l10 41h680l-10 -41h-680z" />
<glyph unicode="." horiz-adv-x="428" d="M127 55l12 60q14 59 113 59q98 0 84 -59l-12 -60q-12 -59 -109 -59q-100 0 -88 59z" />
<glyph unicode="/" horiz-adv-x="716" d="M-121 0l1063 1421h215l-1063 -1421h-215z" />
<glyph unicode="0" horiz-adv-x="1196" d="M117 387q0 61 14 129l68 315q51 240 240.5 391.5t453.5 151.5q266 0 387 -151q84 -106 84 -256q0 -63 -14 -136l-68 -315q-51 -240 -236.5 -390.5t-451.5 -150.5q-225 0 -351 113t-126 299zM317 424q0 -100 56 -170q80 -100 258 -100q180 0 303 100q117 98 151 262 l68 315q10 49 10 95q0 125 -81 197.5t-230 72.5q-180 0 -301 -100.5t-156 -264.5l-67 -315q-11 -49 -11 -92z" />
<glyph unicode="1" horiz-adv-x="845" d="M182 893l664 430h147l-280 -1323h-197l221 1051l-243 -158h-312z" />
<glyph unicode="2" horiz-adv-x="1196" d="M41 0q94 430 588 672l319 153q188 92 189 195q0 147 -269 147q-190 0 -288 -82q-104 -86 -148 -290h-196q63 301 235 426t424 125q180 0 295 -58q145 -74 145 -227q0 -37 -10 -80q-39 -190 -440 -375q-184 -86 -273 -131q-233 -143 -317 -297h924l-39 -178h-1139z" />
<glyph unicode="3" horiz-adv-x="1196" d="M90 344q0 49 12 107l21 90h196l-24 -115q-6 -29 -6 -53q0 -106 98 -164q92 -53 246 -53q166 0 285 57q131 66 155 178q6 31 6 58q0 168 -309 167h-170l37 181h174q362 0 363 219q0 74 -89 114q-80 37 -211 37q-207 0 -311 -79.5t-145 -272.5h-197q66 305 262 426 q170 104 424 105q184 0 305 -56q164 -72 164 -229q0 -37 -8 -76q-39 -184 -211 -276q121 -80 121 -230q0 -43 -10 -88q-43 -205 -254 -317q-180 -96 -410 -97q-223 0 -360 86q-154 95 -154 281z" />
<glyph unicode="4" horiz-adv-x="1196" d="M29 412l700 913h215l-563 -735h483l156 739l197 -8l-156 -731h264l-39 -178h-264l-88 -412h-197l88 412h-796z" />
<glyph unicode="5" horiz-adv-x="1196" d="M92 336q0 80 21 184h196q-16 -86 -16 -145q0 -98 59 -148q88 -72 273 -71q178 0 296.5 78.5t149.5 224.5q8 35 8 67q0 115 -92 176.5t-250 61.5q-227 0 -393 -180h-176l192 739h1031l-39 -178h-836l-74 -279q152 76 342 76q215 0 351 -94q145 -100 145 -283 q0 -49 -12 -104q-47 -229 -250 -363q-182 -121 -432 -121q-260 0 -389 109q-105 88 -105 250z" />
<glyph unicode="6" horiz-adv-x="1196" d="M131 336q0 47 12 98l4 25l5 12l90 422q45 215 241 336q174 109 406 108q229 0 354 -112q96 -88 96 -240q0 -74 -20 -170h-195q16 78 17 133q0 90 -56 142q-80 76 -235 75q-162 0 -270.5 -73.5t-139.5 -204.5l-18 -88q154 86 362 86q201 0 324 -88q133 -94 133 -265 q0 -47 -10 -98q-47 -213 -238 -336q-174 -111 -403 -110q-201 0 -326 86q-133 94 -133 262zM330 373q0 -102 79.5 -157.5t217.5 -55.5q160 0 270.5 72.5t138.5 201.5q6 35 6 66q0 84 -59 139q-78 74 -238 74t-270 -74t-137 -205q-8 -30 -8 -61z" />
<glyph unicode="7" horiz-adv-x="1196" d="M266 0l871 1145h-836l39 178h1147l-1006 -1323h-215z" />
<glyph unicode="8" horiz-adv-x="1230" d="M84 311q0 43 10 92q47 221 283 328q-96 74 -96 184q0 27 6 56q45 207 248 303q154 72 368 72q188 0 309 -60q156 -74 156 -233q0 -39 -10 -82q-31 -147 -195 -240q152 -84 152 -250q0 -39 -8 -82q-49 -229 -279 -340q-172 -82 -416 -82q-217 0 -354 68q-174 86 -174 266z M287 354q0 -199 362 -198q410 0 461 245q6 27 6 50q0 178 -364 178q-412 0 -461 -228q-4 -24 -4 -47zM483 969q-16 -74 84 -121q90 -41 224 -41q133 0 244.5 45t125.5 121q6 25 6 45q0 150 -303 149q-338 1 -381 -198z" />
<glyph unicode="9" horiz-adv-x="1196" d="M133 319q0 72 21 170h194q-16 -82 -16 -137q0 -88 53 -137q80 -74 240 -74q158 0 268.5 74t138.5 203l27 125q-152 -86 -363 -86q-199 0 -323 88q-133 94 -133 262q0 47 10 98q47 215 237 338q176 113 406 113q199 0 324 -88q133 -96 133 -264q0 -47 -13 -99l-4 -24 l-4 -11l-98 -456q-45 -215 -242 -336q-174 -109 -403 -109q-231 0 -355 111q-98 87 -98 239zM438 844q0 -102 79 -158.5t218 -56.5q160 0 270.5 73.5t137.5 202.5q8 35 8 66q0 86 -59 139q-78 74 -238 74t-270.5 -73t-139.5 -206q-6 -32 -6 -61z" />
<glyph unicode=":" horiz-adv-x="499" d="M168 66q0 10 2 20l25 113q18 90 118 90q88 0 78 -86l-24 -117q-18 -90 -115 -90q-84 0 -84 70zM309 731q0 8 2 19l25 112q18 90 119 90q88 0 77 -86l-24 -116q-18 -90 -115 -91q-84 0 -84 72z" />
<glyph unicode=";" horiz-adv-x="514" d="M92 -98q4 12 12 28l148 277q35 66 104 65q86 0 86 -69q0 -20 -12 -43l-145 -279q-35 -68 -109 -67q-41 0 -66.5 24.5t-17.5 63.5zM350 725q0 10 2 20l25 117q18 90 119 90q80 0 79 -71q0 -10 -2 -19l-24 -117q-20 -90 -117 -90q-82 0 -82 70z" />
<glyph unicode="&#x3c;" horiz-adv-x="1095" d="M113 426l28 133l1110 359l-39 -183l-757 -243l653 -244l-39 -182z" />
<glyph unicode="=" horiz-adv-x="1290" d="M98 342l29 139h1239l-29 -139h-1239zM133 502l29 139h1239l-29 -139h-1239z" />
<glyph unicode="&#x3e;" horiz-adv-x="1095" d="M35 66l39 182l757 244l-653 243l39 183l959 -359l-29 -133z" />
<glyph unicode="?" d="M207 979q88 244 264 348q160 94 375 94q168 0 284 -65q141 -78 142 -226q0 -35 -8 -71q-39 -190 -306 -363q-219 -139 -243 -262l-25 -117h-198l20 107q47 213 313 385q133 86 181 133q66 68 65 150q0 152 -266 151q-168 0 -266.5 -78t-165.5 -282zM440 72q0 10 2 20 l25 119q20 92 117 92q84 0 84 -72q0 -8 -4 -20l-25 -119q-20 -92 -119 -92q-80 0 -80 72z" />
<glyph unicode="@" horiz-adv-x="1720" d="M178 557q0 72 17 150q68 324 372 528q283 188 629 188q311 0 498 -153q164 -135 164 -340q0 -59 -15 -123q-43 -203 -225 -377q-66 -63 -156 -111q-106 -55 -190 -55q-98 0 -111 76q-160 -100 -358 -102q-236 -2 -322 151q-39 68 -39 154q0 43 11 90q49 231 225 383 q188 160 446 162q193 2 283 -86l33 86h172l-13 -45l-10 14q14 -45 -231 -731q-25 -16 -27 -15.5t-4 -1.5q-10 -16 -27 -8q-12 6 -38 55l63 3q29 0 84 34.5t84 67.5q162 178 162 346q0 135 -113 231q-139 117 -377 117q-324 0 -555 -194q-170 -141 -215 -355 q-12 -59 -12 -112q0 -164 117 -279q156 -150 432 -149q160 0 337 67.5t302 210.5h223q-211 -268 -461 -366q-225 -90 -428 -91q-356 0 -561 197q-166 158 -166 383zM635 575q0 -168 207 -165q143 0 266 92q119 86 168 219q23 63 22 123q0 164 -221 160q-162 0 -281.5 -105.5 t-152.5 -261.5q-8 -33 -8 -62z" />
<glyph unicode="A" horiz-adv-x="1302" d="M-111 0l992 1389h153l377 -1389h-215l-113 410h-684l-288 -410h-222zM528 588h508l-141 512z" />
<glyph unicode="B" horiz-adv-x="1314" d="M23 0l296 1389h738q182 0 299 -68q137 -80 137 -234q0 -41 -8 -83q-37 -166 -219 -271q145 -78 145 -239q0 -41 -8 -88q-47 -217 -270 -324q-168 -82 -398 -82h-712zM258 178h541q158 0 266 55q119 59 141 170q6 27 6 50q0 80 -71 125q-88 53 -254 53h-533zM393 811h535 q141 0 240.5 51t121.5 150q4 23 4 41q0 68 -61 106q-78 51 -217 51h-539z" />
<glyph unicode="C" horiz-adv-x="1472" d="M154 518q0 80 20 166q70 330 328 524.5t620 194.5q213 0 351 -68q147 -72 237 -237l-188 -101q-63 123 -166 175.5t-273 52.5q-276 0 -467.5 -144.5t-244.5 -388.5q-14 -72 -15 -135q0 -150 86 -250q125 -143 394 -143q309 0 542 229l146 -100q-317 -307 -723 -307 q-303 0 -475 141t-172 391z" />
<glyph unicode="D" horiz-adv-x="1392" d="M39 0l297 1389h604q303 0 461 -136q150 -129 149 -366q0 -90 -22 -195q-70 -334 -340 -518q-252 -174 -621 -174h-528zM274 178h338q293 0 479.5 130t239.5 384q20 88 21 162q0 137 -68 221q-106 135 -383 135h-407z" />
<glyph unicode="E" horiz-adv-x="1155" d="M39 0l297 1389h1149l-39 -179h-954l-84 -399h845l-39 -178h-845l-97 -455h965l-39 -178h-1159z" />
<glyph unicode="F" horiz-adv-x="1034" d="M39 0l297 1389h1075l-39 -179h-880l-84 -399h753l-39 -178h-753l-136 -633h-194z" />
<glyph unicode="G" horiz-adv-x="1552" d="M121 518q0 82 18 172q70 328 327 520.5t619 192.5q268 0 426 -103q186 -119 191 -444h-201q-6 195 -113.5 282t-338.5 87q-283 0 -471.5 -141.5t-241.5 -391.5q-14 -72 -14 -135q0 -190 133 -291.5t381 -101.5q221 0 395 104.5t215 276.5h-596l39 180h782 q-10 -109 -20 -150q-59 -285 -322 -446q-231 -143 -530 -143q-315 0 -494 135q-184 139 -184 397z" />
<glyph unicode="H" horiz-adv-x="1392" d="M39 0l297 1389h196l-122 -578h919l123 578h197l-297 -1389h-197l135 633h-919l-135 -633h-197z" />
<glyph unicode="I" horiz-adv-x="274" d="M39 0l297 1389h196l-296 -1389h-197z" />
<glyph unicode="J" horiz-adv-x="995" d="M39 334q0 35 4 76h199q-4 -35 -4 -62q0 -100 56 -142t189 -42q174 0 249 57.5t108 208.5l204 959h197l-207 -969q-92 -434 -579 -434q-416 0 -416 348z" />
<glyph unicode="K" horiz-adv-x="1372" d="M39 0l297 1389h196l-143 -670l1104 670h324l-1008 -609l715 -780h-281l-616 672l-285 -176l-106 -496h-197z" />
<glyph unicode="L" horiz-adv-x="1034" d="M39 0l297 1389h196l-258 -1211h877l-39 -178h-1073z" />
<glyph unicode="M" horiz-adv-x="1677" d="M39 0l297 1389h192l367 -1117l844 1117h192l-297 -1389h-196l209 979l-738 -979h-141l-324 979l-208 -979h-197z" />
<glyph unicode="N" horiz-adv-x="1392" d="M39 0l297 1389h176q133 -213 358 -545l355 -527l227 1072h197l-297 -1389h-176l-711 1077l-229 -1077h-197z" />
<glyph unicode="O" horiz-adv-x="1550" d="M123 516q0 84 18 176q70 328 324 512q246 178 604 178q309 0 483 -135t174 -383q0 -82 -20 -172q-68 -326 -319.5 -516t-612.5 -190q-311 0 -481 140t-170 390zM324 559q0 -186 125.5 -290.5t361.5 -104.5q281 0 464 140t234 388q16 74 17 137q0 147 -86 242 q-127 133 -408 133t-461 -133t-233 -379q-14 -70 -14 -133z" />
<glyph unicode="P" horiz-adv-x="1271" d="M39 0l297 1389h690q475 0 475 -316q0 -47 -10 -100q-47 -213 -266 -322q-170 -84 -396 -84h-473l-120 -567h-197zM395 745h508q147 0 252 58q113 61 135 168q8 35 8 65q0 174 -297 174h-507z" />
<glyph unicode="Q" horiz-adv-x="1550" d="M121 508q0 84 20 180q70 330 320 512t608 182q309 0 482 -136t173 -386q0 -82 -18 -172q-57 -264 -240 -446q-129 -127 -303 -195q14 -2 33 -2h264l-39 -180h-264q-180 0 -270 115q-55 -6 -117 -7q-309 0 -479 141.5t-170 393.5zM322 551q0 -104 43 -186q143 152 354 151 q135 0 228 -73.5t93 -194.5q0 -29 -6 -62v-2q391 106 475 504q16 74 17 139q0 147 -88 240q-125 135 -406 135t-462 -134t-232 -380q-16 -74 -16 -137zM479 240q125 -86 330 -86h29q0 10 4 30.5t4 32.5q0 53 -45 87t-119 34q-140 0 -203 -98z" />
<glyph unicode="R" horiz-adv-x="1314" d="M39 0l297 1389h715q463 0 462 -295q0 -43 -10 -90q-47 -219 -248 -326q102 -76 103 -213q0 -43 -10 -90l-80 -375h-197l80 369q6 29 6 53q0 160 -297 160h-500l-124 -582h-197zM399 762h490q164 0 272 55q119 61 144 180q6 29 6 54q0 160 -293 159h-524z" />
<glyph unicode="S" horiz-adv-x="1314" d="M84 358q0 49 12 107l19 90h196l-18 -84q-8 -39 -8 -74q0 -233 428 -233q176 0 297 49q141 55 166 166q6 29 6 49q0 51 -36 80t-118 53q-57 16 -274 62q-258 53 -346 100q-156 82 -156 233q0 33 8 70q80 377 676 377q532 0 532 -371q0 -63 -14 -135h-192q8 61 8 109 q0 121 -76 165q-90 53 -297 54q-397 0 -440 -199q-4 -20 -4 -37q0 -66 69.5 -103.5t255.5 -70.5q369 -63 485.5 -138t116.5 -218q0 -41 -10 -84q-43 -203 -274 -307q-184 -82 -422 -82q-248 0 -400 75q-190 94 -190 297z" />
<glyph unicode="T" horiz-adv-x="1116" d="M186 1210l39 179h1258l-39 -179h-531l-258 -1210h-196l258 1210h-531z" />
<glyph unicode="U" horiz-adv-x="1359" d="M135 375q0 72 19 160l182 854h196l-182 -854q-12 -59 -12 -111q0 -260 377 -260q442 0 518 364l184 861h197l-182 -859q-61 -283 -261 -419q-184 -125 -493 -125q-543 0 -543 389z" />
<glyph unicode="V" horiz-adv-x="1286" d="M203 1389h211l299 -1100l751 1100h211l-950 -1389h-145z" />
<glyph unicode="W" horiz-adv-x="1986" d="M211 1389h211l276 -1094l375 567l-131 527h211l277 -1094l724 1094h211l-923 -1389h-150l-159 633l-422 -633h-150z" />
<glyph unicode="X" horiz-adv-x="1236" d="M-164 0l807 713l-481 676h260l381 -539l614 539h258l-770 -676l496 -713h-254l-404 573l-651 -573h-256z" />
<glyph unicode="Y" horiz-adv-x="1282" d="M121 1389h262l434 -564l676 564h258l-870 -734l-142 -655h-196l141 655z" />
<glyph unicode="Z" horiz-adv-x="1282" d="M-2 0l33 147l1208 1063h-924l39 179h1211l-31 -146l-1208 -1065h997l-39 -178h-1286z" />
<glyph unicode="[" horiz-adv-x="477" d="M57 -344l394 1847h395l-39 -182h-199l-315 -1483h199l-39 -182h-396z" />
<glyph unicode="\" horiz-adv-x="716" d="M160 1421h217l465 -1421h-215z" />
<glyph unicode="]" horiz-adv-x="477" d="M-121 -344l39 182h197l6 19l309 1464h-197l39 182h396l-396 -1847h-393z" />
<glyph unicode="^" horiz-adv-x="610" d="M201 1047l319 276h121l217 -276h-242l-71 98l-115 -98h-229z" />
<glyph unicode="_" d="M-129 -244l20 99h1229l-20 -99h-1229z" />
<glyph unicode="`" horiz-adv-x="395" d="M258 1300q0 37 57 62q74 29 123 -8q61 -39 178 -125q45 -39 46 -72q0 -37 -60 -59q-59 -25 -117 6q-72 47 -184 129q-43 36 -43 67z" />
<glyph unicode="a" horiz-adv-x="1155" d="M76 375q0 59 12 123q49 229 223 372q184 154 447 154q217 0 338 -111l22 107h197l-217 -1022h-197l21 94q-168 -115 -394 -115q-221 0 -342 113q-110 107 -110 285zM272 406q0 -117 72 -183q76 -72 219 -71q170 0 295 100q119 96 150 246q12 53 12 98q0 94 -49 158 q-78 96 -260 96q-168 0 -282 -99.5t-146 -252.5q-11 -47 -11 -92z" />
<glyph unicode="b" horiz-adv-x="1155" d="M41 -2l297 1391h197l-95 -443q170 115 385 115q225 0 344 -115q111 -106 111 -291q0 -68 -16 -141q-51 -236 -222 -381q-184 -154 -448 -153q-209 0 -334 120l-22 -102h-197zM338 426q0 -98 57 -170q78 -98 248 -98t285 102q106 96 141 256q12 59 12 109q0 92 -43 153 q-70 104 -241 105q-371 0 -449 -371q-10 -47 -10 -86z" />
<glyph unicode="c" d="M80 367q0 55 14 116q51 242 240.5 391.5t466.5 149.5q170 0 280 -72q125 -80 142 -280l-197 -82q-12 147 -72.5 203.5t-193.5 56.5q-188 0 -316 -102q-119 -98 -153 -265q-10 -43 -10 -84q0 -248 311 -247q125 0 226.5 52t176.5 228l172 -74q-102 -217 -276 -305 q-150 -76 -334 -76q-225 0 -351 105t-126 285z" />
<glyph unicode="d" horiz-adv-x="1155" d="M78 385q0 63 14 131q51 238 225 385q186 160 449 160q217 0 338 -115l94 443h197l-297 -1391h-197l23 98q-170 -119 -396 -119q-219 0 -340 117q-110 109 -110 291zM276 418q0 -121 70 -189q76 -74 217 -73q170 0 293 102t156 258q12 57 12 107q0 96 -49 159 q-74 100 -256 101q-168 0 -287 -107q-111 -100 -145 -260q-11 -51 -11 -98z" />
<glyph unicode="e" d="M68 360q0 63 14 138q49 227 233.5 376.5t444.5 149.5q219 0 346 -101.5t127 -277.5q0 -53 -12 -110l-23 -111l-932 -2q-1 -17 -1 -34q0 -236 304 -236q266 0 406 223h203q-139 -248 -314 -328q-152 -70 -336 -70q-229 0 -350 105q-110 100 -110 278zM309 596h713 q2 98 -55 166q-76 88 -244 88t-283 -88q-88 -68 -131 -166z" />
<glyph unicode="f" horiz-adv-x="546" d="M131 -2l162 762h-148l39 180h148l4 18q86 406 698 406l-37 -176q-238 0 -348 -62q-92 -53 -117 -168l-4 -18h228l-39 -180h-228l-161 -762h-197z" />
<glyph unicode="g" horiz-adv-x="1116" d="M45 -59q0 53 10 118h195q-4 -31 -4 -57q0 -109 65 -152q59 -39 197 -38q334 0 387 256l4 18q-170 -109 -377 -109q-184 0 -299 82q-147 106 -147 312q0 61 14 127q49 231 229.5 378.5t438.5 147.5q201 0 319 -109l17 86h196l-198 -935q-92 -432 -625 -433 q-197 0 -309.5 73t-112.5 235zM276 406q0 -115 71 -182.5t208 -67.5q170 0 284.5 92t147.5 246q10 47 10 88q0 92 -49 159q-74 104 -231 105q-164 0 -281 -98.5t-149 -249.5q-11 -47 -11 -92z" />
<glyph unicode="h" d="M41 0l297 1389h197l-91 -418q150 90 342 90q172 0 279 -70q119 -78 119 -223q0 -41 -10 -84l-146 -684h-197l144 666q6 29 6 55q0 162 -229 162q-154 0 -257.5 -84t-134.5 -221l-122 -578h-197z" />
<glyph unicode="i" horiz-adv-x="278" d="M41 0l223 1040h197l-223 -1040h-197zM293 1182l33 151q51 74 110 74q47 0 88 -64l-37 -174q-66 -61 -114 -61q-66 0 -80 74z" />
<glyph unicode="j" horiz-adv-x="278" d="M-459 -367l39 181q236 0 346 67q96 59 125 195l205 956h197l-205 -958q-95 -441 -707 -441zM293 1178l33 155q51 74 110 74q47 0 88 -64l-37 -178q-66 -61 -116 -61q-64 0 -78 74z" />
<glyph unicode="k" horiz-adv-x="1089" d="M41 0l297 1389h197l-166 -777l735 430l342 -8l-739 -420l493 -614h-268l-408 508l-202 -117l-84 -391h-197z" />
<glyph unicode="l" horiz-adv-x="278" d="M41 0l297 1389h197l-297 -1389h-197z" />
<glyph unicode="m" horiz-adv-x="1673" d="M41 0l215 1004h197l-15 -62q141 82 312 82q211 0 297 -129q147 129 378 129q354 0 355 -268q0 -45 -11 -97l-141 -659h-196l137 641q8 41 8 74q0 135 -184 135q-131 0 -217 -63.5t-111 -170.5l-131 -616h-197l137 641q8 41 9 72q0 137 -191 137q-131 0 -223 -88 q-86 -80 -113 -205l-118 -557h-197z" />
<glyph unicode="n" d="M41 0l215 1004h197l-15 -68q147 88 340 88q172 0 281 -68q119 -78 119 -219q0 -37 -9 -78l-141 -659h-197l138 641q6 27 6 51q0 158 -232 158q-154 0 -256 -81t-131 -212l-118 -557h-197z" />
<glyph unicode="o" horiz-adv-x="1116" d="M76 379q0 57 12 121q49 231 238.5 377.5t451.5 146.5q264 0 389 -147q88 -104 88 -254q0 -57 -14 -123q-49 -231 -237.5 -377t-450.5 -146q-227 0 -352 110t-125 292zM276 414q0 -98 58 -166q80 -96 258 -96t299 96t153 252q10 49 11 90q0 98 -56 166q-78 94 -260 94 q-180 0 -300 -96.5t-154 -253.5q-9 -45 -9 -86z" />
<glyph unicode="p" horiz-adv-x="1155" d="M-31 -344l285 1345h197l-19 -92q170 115 383 115q225 0 344 -113q113 -104 113 -288q0 -66 -15 -136q-51 -240 -219 -385q-184 -160 -450 -159q-215 0 -336 116l-86 -403h-197zM330 377q0 -254 305 -254q170 0 285 102q109 96 143 260q10 53 10 101q0 92 -45 157 q-70 102 -237 103q-172 0 -293 -98.5t-156 -258.5q-12 -61 -12 -112z" />
<glyph unicode="q" horiz-adv-x="1155" d="M72 358q0 61 14 129q49 227 225 379q186 158 443 158q219 0 340 -115l18 92h197l-285 -1345h-197l84 395q-162 -109 -395 -108q-213 0 -332 120q-112 111 -112 295zM272 389q0 -121 70 -190q74 -76 213 -76q373 0 451 362q10 49 10 93q0 190 -172 247q-59 20 -137 21 q-168 0 -283 -105q-109 -96 -141 -256q-11 -51 -11 -96z" />
<glyph unicode="r" horiz-adv-x="651" d="M41 0l215 1004h197l-21 -93q170 113 461 113l-37 -174q-262 0 -383 -133q-106 -117 -147 -305l-88 -412h-197z" />
<glyph unicode="s" horiz-adv-x="995" d="M84 293q0 66 16 143h201q-14 -63 -14 -108q0 -96 60.5 -136t197.5 -40q254 0 282 131q2 7 2 14q0 69 -145 100q-12 2 -197 29q-291 43 -290 231q0 27 6 58q33 156 194 239q133 72 295 72q412 0 412 -297q0 -57 -14 -125h-203q12 55 12 94q0 82 -54 116t-179 34 q-102 0 -176 -37t-87 -96q-2 -7 -1 -14q0 -64 141 -89q51 -10 209 -37q283 -45 282 -233q0 -29 -6 -59q-37 -168 -217 -250q-127 -59 -307 -60q-420 1 -420 320z" />
<glyph unicode="t" horiz-adv-x="538" d="M137 801l37 178h203l59 278h197l-60 -278h207l-37 -178h-206l-172 -801h-191l166 801h-203z" />
<glyph unicode="u" d="M109 272q0 43 10 90l135 637h197l-136 -634q-6 -29 -6 -56q0 -158 236 -157q319 0 385 309l114 538h197l-213 -1003h-197l15 70q-150 -88 -338 -89q-182 0 -287 74q-112 78 -112 221z" />
<glyph unicode="v" horiz-adv-x="964" d="M109 999h223l223 -731l508 731h217l-702 -999h-150z" />
<glyph unicode="w" horiz-adv-x="1579" d="M150 999h221l202 -725l256 385l-100 340h223l201 -725l485 725h213l-673 -999h-156l-127 438l-299 -438h-154z" />
<glyph unicode="x" horiz-adv-x="956" d="M-166 0l625 516l-369 483h262l262 -354l422 354h256l-573 -483l403 -516h-262l-301 385l-463 -385h-262z" />
<glyph unicode="y" d="M-4 -59q0 51 10 118h195q-4 -33 -4 -59q0 -106 65 -150q59 -39 195 -38q315 0 381 219q-150 -90 -338 -90q-178 0 -283 73q-115 80 -115 230q0 45 13 96l139 659h197l-140 -657q-6 -33 -6 -59q0 -162 232 -162q322 0 389 321l118 557h197l-199 -936q-92 -430 -626 -430 q-195 0 -307.5 74t-112.5 234z" />
<glyph unicode="z" horiz-adv-x="968" d="M-20 0l30 139l824 686h-619l37 174h913l-28 -137l-826 -688h715l-39 -174h-1007z" />
<glyph unicode="{" horiz-adv-x="716" d="M215 516l29 129q133 49 147 62q25 23 45 112l90 432q55 252 291 252h101l-39 -182h-99q-27 0 -39 -20.5t-28 -96.5l-82 -389q-35 -166 -127 -235q41 -41 41 -123q0 -47 -15 -113l-81 -387q-16 -78 -13 -100q2 -18 29 -19h98l-39 -182h-100q-190 0 -191 176q0 37 9 76 l92 432q8 41 10 70q0 33 -8 44t-121 62z" />
<glyph unicode="|" horiz-adv-x="477" d="M127 -66l322 1512h196l-321 -1512h-197z" />
<glyph unicode="}" horiz-adv-x="716" d="M33 -344l39 182h96q27 0 39 20.5t29 98.5l81 387q37 172 129 236q-43 45 -43 125q0 45 15 110l82 389q16 76 14 99q-4 18 -31 18h-96l39 182h98q190 0 191 -176q0 -37 -8 -76l-91 -432q-10 -41 -10 -69q-2 -33 6.5 -44.5t122.5 -60.5l-28 -129q-133 -51 -150 -63 q-25 -23 -43 -113l-92 -432q-53 -252 -291 -252h-98z" />
<glyph unicode="~" horiz-adv-x="1122" d="M176 717q63 129 159.5 172t211.5 43q70 0 233 -45q141 -37 178 -37q78 0 119 84h221q-61 -131 -158.5 -173t-207.5 -42q-74 0 -242 43q-141 37 -176 37q-43 0 -63 -15q-27 -16 -54 -67h-221z" />
<glyph unicode="&#xa0;" />
<glyph unicode="&#xa1;" horiz-adv-x="397" d="M57 -195l228 1072h196l-227 -1072h-197zM307 963q0 10 2 20l27 119q18 92 119 92q80 0 80 -72q0 -10 -3 -20l-26 -119q-18 -90 -115 -90q-84 0 -84 70z" />
<glyph unicode="&#xa2;" d="M80 -74l121 158q-121 106 -121 281q0 57 14 122q51 246 242.5 397.5t468.5 151.5q57 0 110 -8l76 100h215l-123 -163q123 -80 142 -287l-197 -82q-14 158 -67 207l-486 -641q51 -14 115 -15q127 0 228.5 53.5t176.5 233.5l172 -76q-104 -221 -276 -309q-152 -78 -336 -78 q-113 0 -203 29l-57 -74h-215zM281 397q0 -86 47 -145l460 606q-12 2 -26 2q-188 0 -316 -104q-119 -98 -155 -269q-10 -49 -10 -90z" />
<glyph unicode="&#xa3;" horiz-adv-x="1196" d="M84 463l70 178h133l12 55h-121l80 178h80q57 211 229 349q190 152 455 151q254 0 428 -205l-172 -122q-125 150 -297 149q-180 0 -299 -100q-106 -86 -147 -222h618l-80 -178h-577l-13 -55h566l-70 -178h-530q-12 -127 53 -209q80 -100 258 -100q172 0 358 145l123 -117 q-262 -207 -518 -207q-225 0 -351 113t-126 299q0 37 6 76h-168z" />
<glyph unicode="&#xa4;" horiz-adv-x="1196" d="M121 487l256 166q-31 63 -15 140q16 80 76 145l-186 166l174 108l180 -161q96 41 201 41q109 0 186 -41l248 161l129 -108l-256 -166q33 -66 16 -143q-16 -78 -75 -144l184 -164l-174 -108l-176 158q-98 -41 -207 -41t-186 43l-246 -160zM555 774q0 -47 45 -78.5 t119 -31.5q84 0 145.5 37.5t73.5 91.5q12 57 -31 90q-49 41 -133 41q-76 0 -141 -37q-78 -43 -78 -113z" />
<glyph unicode="&#xa5;" horiz-adv-x="1320" d="M141 1389h262l435 -564l675 564h259l-873 -740h434l-39 -180h-434l-10 -53h434l-39 -178h-434l-51 -238h-197l51 238h-434l39 178h434l11 53h-435l39 180h434l3 6z" />
<glyph unicode="&#xa6;" horiz-adv-x="477" d="M131 -47l154 729h196l-153 -729h-197zM289 696l153 729h197l-154 -729h-196z" />
<glyph unicode="&#xa7;" horiz-adv-x="1196" d="M160 80q0 59 14 131h197q-10 -57 -11 -98q0 -84 54.5 -119t179.5 -35q98 0 172 33q96 45 96 133q0 59 -104 80l-305 61q-88 25 -148 84q-68 70 -67 158q0 35 12 70q45 147 186 225q-72 59 -71 151q0 27 6 56q35 160 196 250q135 74 295 73q408 0 408 -303q0 -59 -15 -131 h-196q12 57 12 98q0 86 -54 121t-179 35q-94 0 -172 -35q-100 -45 -101 -127q0 -43 62 -67q37 -14 241 -54q131 -12 219 -69q109 -68 109 -185q0 -27 -8 -57q-35 -168 -195 -252q70 -59 70 -151q0 -25 -6 -54q-35 -160 -195 -249q-135 -74 -297 -74q-405 0 -405 301z M446 557q0 -63 78 -102q72 -37 181 -37q250 0 286 133q-12 143 -268 143q-209 0 -268 -100q-9 -21 -9 -37z" />
<glyph unicode="&#xa8;" horiz-adv-x="438" d="M254 1178l8 45q12 55 113 55q96 0 84 -55l-8 -45q-12 -57 -111 -58q-98 1 -86 58zM492 1178l8 45q12 55 110 55q35 0 63.5 -14.5t22.5 -40.5l-8 -45q-12 -57 -113 -58q-95 1 -83 58z" />
<glyph unicode="&#xa9;" horiz-adv-x="1146" d="M199 842q0 41 10 86q43 205 252 334q188 115 411 114q227 0 367 -116q119 -100 119 -248q0 -39 -8 -82q-43 -205 -252 -332q-188 -115 -412 -115q-233 0 -369 113q-118 99 -118 246zM403 879q0 -109 109 -170q90 -51 207 -52q156 0 280.5 77t149.5 194q6 27 6 51 q0 109 -108 170q-90 51 -207 51q-158 0 -282 -76.5t-148 -193.5q-7 -26 -7 -51zM414 858q0 33 6 66q31 141 158 223q119 78 274 78q287 0 278 -303h-202q-2 72 -24.5 99.5t-90.5 27.5q-80 0 -133 -37q-61 -41 -62 -117q0 -102 150 -102q92 0 168 133h211 q-92 -166 -190.5 -238t-225.5 -72q-141 0 -229 63.5t-88 178.5z" />
<glyph unicode="&#xaa;" horiz-adv-x="774" d="M221 954q0 35 8 70q29 141 150 232.5t295 91.5q98 0 168 -31l6 29h201l-136 -633h-200l6 20q-86 -33 -187 -33q-150 0 -230.5 70.5t-80.5 183.5zM424 981q0 -113 143 -113q84 0 141.5 44t71.5 112q14 74 -20.5 115t-126.5 41q-170 0 -203 -156q-6 -23 -6 -43z" />
<glyph unicode="&#xab;" horiz-adv-x="948" d="M176 510l23 100l512 254l-39 -188l-226 -115l177 -115l-39 -182zM537 510l22 100l512 254l-39 -188l-225 -115l176 -115l-39 -182z" />
<glyph unicode="&#xac;" horiz-adv-x="1232" d="M125 473l31 145h1159l-74 -344h-197l43 199h-962z" />
<glyph unicode="&#xad;" horiz-adv-x="1212" d="M127 473l8 39h1131l-9 -39h-1130z" />
<glyph unicode="&#x2212;" horiz-adv-x="1212" d="M127 473l8 39h1131l-9 -39h-1130z" />
<glyph unicode="&#xae;" horiz-adv-x="1112" d="M178 844q0 41 10 84q43 205 252 334q188 115 412 114q229 0 367 -116q119 -100 118 -246q0 -41 -10 -84q-45 -209 -250 -334q-186 -113 -413 -113q-229 0 -367 115q-119 101 -119 246zM383 881q0 -102 87 -163t228 -61q158 0 281 76t147 195q6 29 7 53q0 84 -70 143 q-88 76 -246 76t-280 -76q-154 -96 -154 -243zM438 633l125 584h309q215 0 215 -146q0 -88 -65 -153q20 -43 8 -101l-39 -184h-203l39 182q4 14 -43 14h-102l-43 -196h-201zM719 1006h98q59 0 64 20q2 14 -45 14h-111z" />
<glyph unicode="&#xaf;" horiz-adv-x="641" d="M254 1223l8 39h653l-8 -39h-653z" />
<glyph unicode="&#x2c9;" horiz-adv-x="641" d="M254 1223l8 39h653l-8 -39h-653z" />
<glyph unicode="&#xb0;" horiz-adv-x="860" d="M268 1018q0 23 4 47q27 125 166 205q127 72 275 71q135 0 227 -57q104 -63 104 -170q0 -23 -6 -47q-27 -129 -170 -209q-127 -70 -270 -70q-133 0 -227 60q-103 64 -103 170zM467 1067q-10 -49 36 -84t128 -35q84 0 144.5 34t70.5 83t-31 80q-49 37 -133 37t-144.5 -34 t-70.5 -81z" />
<glyph unicode="&#xb1;" horiz-adv-x="1290" d="M156 -6l37 174h981l-37 -174h-981zM244 418l37 172h391l63 297h197l-64 -297h394l-37 -172h-394l-65 -303h-197l66 303h-391z" />
<glyph unicode="&#xb2;" horiz-adv-x="802" d="M109 524q61 293 411 453q76 31 213 92q59 31 68 47q14 66 -144 66q-109 0 -160 -43t-77 -166h-203q82 383 469 383q322 0 322 -191q0 -25 -7 -53q-27 -119 -223 -205l-196 -86q-139 -61 -203 -125h575l-36 -172h-809z" />
<glyph unicode="&#xb3;" horiz-adv-x="872" d="M182 756q0 29 6 61l19 88h205l-21 -102q-12 -51 42 -82t153 -31q82 0 143 21q94 29 94 94q0 70 -172 69h-151l37 175h153q170 0 184 69q14 63 -165 64q-121 0 -175.5 -42t-76.5 -157h-203q78 373 489 373q123 0 213 -35q127 -49 127 -160q0 -119 -106 -198 q53 -49 53 -125q0 -25 -6 -54q-29 -137 -182 -209q-125 -59 -285 -59q-154 0 -252 51q-123 62 -123 189z" />
<glyph unicode="&#xb4;" horiz-adv-x="434" d="M244 1145q0 33 45 59l264 154q37 20 74 20t62.5 -18.5t25.5 -42.5q0 -35 -47 -64l-265 -151q-35 -18 -71 -19q-37 0 -62.5 17.5t-25.5 44.5z" />
<glyph unicode="&#xb5;" d="M-33 -350l287 1349h197l-119 -557q-10 -53 -10 -98q0 -223 264 -223q272 0 319 221l139 657h197l-139 -659q-53 -244 -281 -344l-2 2q-2 -18 162 -18l-39 -185q-170 0 -244 37q-82 41 -90 113q-31 -2 -61 -2q-190 0 -301 90l-82 -383h-197z" />
<glyph unicode="&#xb6;" horiz-adv-x="1015" d="M236 821q0 47 10 97q45 215 254 350q190 123 420 123q12 0 22 -2h320l-355 -1661h-196l315 1480h-22l-316 -1480h-196l153 718q-170 10 -285 107q-124 104 -124 268z" />
<glyph unicode="&#xb7;" horiz-adv-x="428" d="M279 633l12 59q14 59 112 60q98 0 84 -60l-12 -59q-12 -59 -108 -60q-100 1 -88 60z" />
<glyph unicode="&#x2219;" horiz-adv-x="428" d="M279 633l12 59q14 59 112 60q98 0 84 -60l-12 -59q-12 -59 -108 -60q-100 1 -88 60z" />
<glyph unicode="&#xb8;" horiz-adv-x="530" d="M-117 -311l129 135q133 -33 189 -33q74 0 82 2q-80 4 -101 0l-8 -2q-10 -2 -92 -29l22 103l56 153h190l-20 -75q170 -14 170 -119q0 -12 -4 -29q-31 -152 -320 -151q-86 0 -293 45z" />
<glyph unicode="&#xb9;" horiz-adv-x="587" d="M16 1024l629 313h143l-170 -805h-206l118 562l-141 -70h-373z" />
<glyph unicode="&#xba;" horiz-adv-x="845" d="M229 967q0 31 7 63q33 147 172 234q129 80 303 79q154 0 250 -66.5t96 -182.5q0 -31 -8 -64q-31 -145 -170 -231q-131 -82 -308 -82q-152 0 -243 65q-99 68 -99 185zM426 997q0 -121 182 -120q215 0 248 153q16 70 -29 111q-51 43 -153 43q-96 0 -166 -43 q-82 -54 -82 -144z" />
<glyph unicode="&#xbb;" horiz-adv-x="937" d="M125 264l39 182l225 115l-176 115l39 188l405 -254l-22 -100zM485 264l39 182l226 115l-177 115l39 188l406 -254l-23 -100z" />
<glyph unicode="&#xbc;" horiz-adv-x="1671" d="M80 1018l606 323h141l-182 -858h-196l129 613l-150 -78h-348zM287 0l1061 1421h215l-1061 -1421h-215zM696 252l539 625h223l-387 -451h262l97 455l192 -11l-94 -444h188l-37 -174h-188l-55 -252h-195l55 252h-600z" />
<glyph unicode="&#xbd;" horiz-adv-x="1644" d="M57 1018l607 323h141l-182 -858h-197l129 611l-147 -76h-351zM264 0l1063 1421h215l-1063 -1421h-215zM819 0q74 317 406 471l196 90q96 53 101 70q2 10 2 18q0 61 -148 62q-109 0 -162 -47.5t-84 -182.5h-192q90 403 467 404q313 0 313 -199q0 -49 -16 -88 q-41 -104 -201 -178l-203 -96q-154 -76 -219 -150h578l-39 -174h-799z" />
<glyph unicode="&#xbe;" horiz-adv-x="1855" d="M203 711q0 35 8 75l18 88h193l-23 -104q-2 -10 -2 -20q0 -106 203 -107q88 0 154 25q94 35 94 108q0 80 -178 80h-146l37 174h148q176 0 194 78q16 78 -172 78q-121 0 -177 -45t-83 -170h-192q88 387 487 387q123 0 209 -35q125 -51 125 -164q0 -25 -4 -51 q-23 -100 -113 -166q59 -53 59 -137q0 -25 -6 -53q-29 -141 -180 -220q-127 -63 -287 -63q-366 0 -366 242zM473 0l1063 1421h215l-1063 -1421h-215zM883 252l540 625h224l-390 -451h263l96 455l192 -11l-94 -444h189l-37 -174h-189l-55 -252h-195l56 252h-600z" />
<glyph unicode="&#xbf;" d="M33 96q0 35 8 74q29 133 162 250l241 180q129 102 150 195l24 114h199l-22 -106q-45 -211 -314 -385q-135 -86 -180 -133q-68 -68 -68 -150q0 -152 269 -151q170 0 262 75q102 82 170 293l164 -106q-88 -242 -262 -346q-160 -94 -373 -95q-170 0 -287 64 q-143 80 -143 227zM641 995q0 8 2 19l25 121q20 92 116 92q82 0 82 -72q0 -10 -2 -20l-24 -121q-20 -90 -119 -90q-80 -1 -80 71z" />
<glyph unicode="&#xc0;" horiz-adv-x="1384" d="M-70 0l998 1419h155l369 -1419h-215l-111 418h-684l-290 -418h-222zM571 600h508l-137 524zM831 1651q0 41 39 74.5t82 33.5q41 0 66 -33l127 -143q74 -88 74 -141q0 -51 -62 -84q-27 -14 -55 -15q-41 0 -68 27l-186 234q-17 22 -17 47z" />
<glyph unicode="&#xc1;" horiz-adv-x="1384" d="M-70 0l998 1419h155l369 -1419h-215l-111 420h-682l-292 -420h-222zM571 600h508l-137 524zM782 1421q0 43 45 80l283 230q39 33 80 32q35 0 58.5 -22.5t23.5 -52.5q0 -43 -45 -80l-281 -232q-39 -31 -80 -30q-35 0 -59.5 22t-24.5 53z" />
<glyph unicode="&#xc2;" horiz-adv-x="1384" d="M-70 0l998 1417h153l371 -1417h-215l-111 418h-684l-290 -418h-222zM571 600h508l-137 524zM606 1335l398 400h120l234 -400h-242l-102 172l-174 -172h-234z" />
<glyph unicode="&#xc3;" horiz-adv-x="1384" d="M-70 0l998 1413h153l371 -1413h-215l-111 416h-684l-290 -416h-222zM571 598h508l-137 522zM655 1413q27 119 111 176q78 53 158 53q41 0 114 -34l113 -58q16 -8 27 -10q18 0 36 47q4 8 29 107l166 -101q-37 -123 -111.5 -179t-158.5 -56q-53 0 -164 59q-82 45 -92 45 q-18 0 -37 -51q-2 -6 -31 -111z" />
<glyph unicode="&#xc4;" horiz-adv-x="1384" d="M-70 0l998 1411h153l371 -1411h-215l-111 416h-684l-290 -416h-222zM571 596h508l-139 522zM784 1419q0 10 2 21l23 102q18 94 119 94q80 0 80 -73q0 -10 -2 -21l-23 -102q-20 -92 -117 -92q-82 -1 -82 71zM1022 1419q0 10 2 21l23 102q18 94 116 94q82 0 82 -71 q0 -10 -2 -23l-22 -102q-20 -92 -119 -92q-80 -1 -80 71z" />
<glyph unicode="&#xc5;" horiz-adv-x="1384" d="M-70 0l1000 1421h153l369 -1421h-215l-111 420h-682l-292 -420h-222zM571 602h508l-137 524zM788 1534q0 23 5 43q20 94 106 154q80 57 176 57q82 0 139.5 -45t57.5 -121q0 -121 -111 -199q-80 -55 -176 -55q-82 0 -139.5 45t-57.5 121zM993 1577q-4 -25 31 -25 q39 0 43 25q2 10 -2 16q-10 8 -31 9q-35 0 -41 -25z" />
<glyph unicode="&#xc6;" horiz-adv-x="2205" d="M-201 0l1659 1389h1016l-39 -179h-848l-84 -397h94v-2h646l-39 -178h-740l-94 -455h856l-39 -178h-1057l136 633h-453l-756 -633h-258zM1028 813h277l61 279z" />
<glyph unicode="&#xc7;" horiz-adv-x="1472" d="M152 498q0 82 18 172q72 336 331 534.5t621 198.5q213 0 351 -68q147 -76 237 -243l-190 -103q-63 127 -166 179.5t-271 52.5q-276 0 -468.5 -146.5t-245.5 -396.5q-16 -74 -17 -139q0 -152 86 -254q123 -145 391 -146q309 0 545 234l146 -103q-319 -313 -725 -313 q-303 0 -473 143.5t-170 397.5zM401 -297l136 166q131 -43 186 -43q86 0 92 22q0 -2 -51 2q-43 4 -160 -45l29 129l63 199h193l-27 -104q162 -16 162 -144q0 -20 -4 -45q-41 -197 -330 -196q-86 0 -289 59z" />
<glyph unicode="&#xc8;" horiz-adv-x="1155" d="M39 0l303 1417h1149l-39 -180h-954l-88 -410h845l-36 -180h-846l-101 -465h965l-39 -182h-1159zM711 1638q0 49 55 80q33 20 65 21q41 0 64 -31l127 -143q72 -86 72 -142q0 -49 -56 -82q-31 -18 -63 -18q-41 0 -68 31l-125 145q-71 86 -71 139z" />
<glyph unicode="&#xc9;" horiz-adv-x="1155" d="M39 0l303 1417h1149l-39 -180h-954l-88 -410h845l-36 -180h-846l-101 -465h965l-39 -182h-1159zM659 1399q0 43 43 80l283 229q39 31 78 31q35 0 59.5 -22.5t24.5 -53.5q0 -43 -45 -80l-279 -229q-39 -31 -80 -31q-35 0 -59.5 22.5t-24.5 53.5z" />
<glyph unicode="&#xca;" horiz-adv-x="1155" d="M39 0l303 1419h1149l-39 -182h-954l-88 -410h845l-36 -180h-846l-101 -465h965l-39 -182h-1159zM489 1356l398 399h121l237 -399h-246l-102 170l-174 -170h-234z" />
<glyph unicode="&#xcb;" horiz-adv-x="1155" d="M39 0l301 1411h1149l-39 -180h-954l-86 -408h845l-38 -178h-846l-99 -465h965l-39 -180h-1159zM670 1436q0 10 2 20l20 103q20 94 119 94q80 0 80 -72q0 -10 -2 -22l-21 -103q-20 -92 -118 -92q-80 0 -80 72zM905 1436q0 10 2 20l21 103q20 94 121 94q78 0 77 -74 q0 -10 -2 -20l-20 -103q-20 -92 -117 -92q-82 0 -82 72z" />
<glyph unicode="&#xcc;" horiz-adv-x="274" d="M39 0l303 1419h197l-303 -1419h-197zM274 1661q0 41 39 76t84 35q41 0 68 -33l125 -144q72 -88 72 -141q0 -51 -60 -84q-31 -16 -59 -16q-43 0 -68 30l-184 230q-17 22 -17 47z" />
<glyph unicode="&#xcd;" horiz-adv-x="274" d="M39 0l303 1419h197l-303 -1419h-197zM223 1421q0 43 45 78l279 232q41 33 82 32q35 0 59.5 -21.5t24.5 -53.5q0 -43 -45 -80l-281 -232q-37 -31 -80 -30q-35 0 -59.5 22t-24.5 53z" />
<glyph unicode="&#xce;" horiz-adv-x="274" d="M39 0l303 1419h197l-303 -1419h-197zM47 1348l397 399h121l238 -399h-244l-102 172l-176 -172h-234z" />
<glyph unicode="&#xcf;" horiz-adv-x="274" d="M39 0l301 1413h197l-301 -1413h-197zM229 1452q0 10 2 21l23 102q20 92 121 92q88 0 78 -88l-23 -106q-20 -94 -117 -95q-84 0 -84 74zM469 1452q0 10 2 21l23 102q20 92 116 92q90 0 80 -88l-22 -106q-20 -94 -119 -95q-80 0 -80 74z" />
<glyph unicode="&#xd0;" horiz-adv-x="1392" d="M39 0l129 606h-76l39 180h76l129 603h604q303 0 461 -136q150 -129 149 -366q0 -90 -22 -195q-70 -334 -340 -518q-252 -174 -621 -174h-528zM274 178h338q293 0 479.5 130t239.5 384q20 88 21 162q0 137 -68 221q-106 135 -383 135h-407l-91 -424h406l-39 -180h-405z " />
<glyph unicode="&#xd1;" horiz-adv-x="1392" d="M39 0l301 1411h178q131 -217 354 -553l353 -534l231 1087h197l-301 -1411h-176l-707 1096l-233 -1096h-197zM639 1401q25 117 111 176q80 53 155 53q43 0 115 -35l115 -57q16 -8 26 -10q18 0 35 45q4 10 29 102l168 -90q-37 -125 -112 -182t-159 -57q-53 0 -166 59 q-82 45 -92 45q-16 0 -35 -51q-2 -6 -30 -111z" />
<glyph unicode="&#xd2;" horiz-adv-x="1550" d="M125 524q0 88 20 185q72 334 324 522q248 182 608 182q307 0 480.5 -137t173.5 -389q0 -84 -21 -178q-72 -334 -323.5 -528.5t-612.5 -194.5q-309 0 -479 142t-170 396zM326 567q0 -188 126 -293.5t359 -105.5q281 0 465 143.5t237 397.5q16 78 17 143q0 150 -86 244 q-125 137 -406 137t-462 -136t-234 -388q-16 -74 -16 -142zM911 1665q0 41 39 69.5t84 28.5t68 -28l125 -144q72 -88 71 -141q0 -51 -57 -84q-31 -16 -59 -16q-43 0 -68 30l-186 232q-17 26 -17 53z" />
<glyph unicode="&#xd3;" horiz-adv-x="1550" d="M125 524q0 88 20 185q72 334 324 522q248 182 608 182q307 0 480.5 -137t173.5 -389q0 -84 -21 -178q-72 -334 -323.5 -528.5t-612.5 -194.5q-309 0 -479 142t-170 396zM326 567q0 -188 126 -293.5t359 -105.5q281 0 465 143.5t237 397.5q16 78 17 143q0 150 -86 244 q-125 137 -406 137q-279 0 -461 -136t-235 -388q-16 -74 -16 -142zM864 1432q0 43 45 79l281 232q35 31 80 31q31 0 55 -17q29 -23 29 -53q0 -57 -119 -156l-213 -164q-41 -27 -76 -26q-35 0 -58.5 21.5t-23.5 52.5z" />
<glyph unicode="&#xd4;" horiz-adv-x="1550" d="M125 524q0 88 20 185q72 334 324 522q248 182 608 182q307 0 480.5 -137t173.5 -389q0 -84 -21 -178q-72 -334 -323.5 -528.5t-612.5 -194.5q-309 0 -479 142t-170 396zM326 567q0 -188 126 -293.5t359 -105.5q281 0 465 143.5t237 397.5q16 78 17 143q0 150 -86 244 q-125 137 -406 137q-279 0 -461 -136t-235 -388q-16 -74 -16 -142zM692 1372l395 397h119l240 -397h-244l-102 170l-174 -170h-234z" />
<glyph unicode="&#xd5;" horiz-adv-x="1550" d="M125 524q0 86 20 183q70 334 324 520q248 182 606 182q309 0 482.5 -137t173.5 -389q0 -82 -21 -176q-72 -332 -323.5 -526.5t-612.5 -194.5q-311 0 -480 141t-169 397zM326 567q0 -190 126 -294.5t359 -104.5q281 0 464 142.5t238 396.5q16 76 17 141q0 150 -86 244 q-125 135 -408 135q-279 0 -460 -135.5t-234 -384.5q-16 -74 -16 -140zM731 1444q27 117 113 176q78 53 155 53q51 0 162 -59q82 -43 90 -43q20 0 39 47q4 6 29 106l168 -102q-43 -123 -117 -178t-158 -55q-41 0 -114 34l-113 58q-18 8 -27 10q-25 0 -47 -74q-6 -14 -28 -88 z" />
<glyph unicode="&#xd6;" horiz-adv-x="1550" d="M125 522q0 86 20 185q70 332 324 518q246 182 606 182q307 0 480.5 -137t173.5 -387q0 -84 -19 -176q-72 -334 -323.5 -527.5t-612.5 -193.5q-311 0 -480 141t-169 395zM326 565q0 -188 126 -293.5t359 -105.5q281 0 464 143.5t238 397.5q16 76 17 141q0 150 -86 242 q-127 137 -408 137q-279 0 -460 -135.5t-234 -384.5q-16 -74 -16 -142zM870 1452q0 10 2 21l23 102q20 92 117 92q90 0 80 -88l-23 -106q-20 -94 -119 -95q-80 0 -80 74zM1106 1452q0 10 2 21l22 102q20 92 119 92q88 0 78 -88l-22 -106q-20 -94 -117 -95q-82 0 -82 74z" />
<glyph unicode="&#xd7;" horiz-adv-x="1003" d="M141 322l318 194l-234 191l174 108l236 -194l317 194l127 -108l-315 -193l237 -199l-176 -102l-237 195l-320 -193z" />
<glyph unicode="&#xd8;" horiz-adv-x="1550" d="M125 526q0 80 18 168q70 328 322 514q246 180 606 181q137 0 248 -27l57 80h215l-106 -146q240 -139 239 -436q0 -80 -16 -166q-72 -330 -323.5 -521t-612.5 -191q-139 0 -252 28l-51 -69h-215l104 139q-233 143 -233 446zM324 563q0 -211 157 -317l711 950 q-72 12 -160 12q-279 0 -460 -134t-232 -380q-16 -70 -16 -131zM647 178q74 -16 164 -16q279 0 463 140t237 392q14 72 15 135q0 207 -164 306z" />
<glyph unicode="&#xd9;" horiz-adv-x="1359" d="M137 381q0 74 19 164l186 872h197l-187 -870q-12 -63 -12 -117q0 -262 375 -262q442 0 520 371l188 878h197l-186 -876q-61 -287 -263 -426q-184 -129 -493 -129q-541 0 -541 395zM813 1642q0 41 39 75t84 34q41 0 65 -33l185 -229q16 -20 16 -47q0 -55 -59 -90 q-29 -18 -60 -19q-37 0 -67 27l-187 235q-16 22 -16 47z" />
<glyph unicode="&#xda;" horiz-adv-x="1359" d="M137 381q0 74 19 164l186 874h197l-187 -872q-12 -63 -12 -117q0 -262 375 -262q442 0 522 371l186 880h197l-186 -878q-61 -287 -263 -426q-184 -129 -493 -129q-541 0 -541 395zM764 1413q0 43 45 80l281 229q39 33 79 33q35 0 59.5 -21.5t24.5 -54.5q0 -43 -45 -80 l-284 -233q-39 -27 -76 -27t-60.5 21.5t-23.5 52.5z" />
<glyph unicode="&#xdb;" horiz-adv-x="1359" d="M137 381q0 74 19 164l186 874h197l-187 -872q-12 -63 -12 -117q0 -262 375 -262q442 0 520 371l188 880h197l-186 -878q-61 -287 -263 -426q-184 -129 -493 -129q-541 0 -541 395zM592 1352l397 399h119l238 -399h-242l-105 172l-174 -172h-233z" />
<glyph unicode="&#xdc;" horiz-adv-x="1359" d="M137 379q0 76 19 164l184 870h197l-185 -868q-14 -63 -14 -115q0 -264 377 -264q442 0 520 371l186 876h197l-186 -874q-59 -287 -261 -426q-184 -127 -493 -127q-541 0 -541 393zM774 1452q0 10 2 21l23 102q20 92 116 92q82 0 82 -72q0 -8 -2 -20l-22 -102 q-20 -94 -119 -95q-80 0 -80 74zM1010 1452q0 10 2 21l22 102q20 92 119 92q80 0 80 -72q0 -10 -2 -20l-23 -102q-20 -94 -116 -95q-82 0 -82 74z" />
<glyph unicode="&#xdd;" horiz-adv-x="1345" d="M162 1419h260l432 -575l678 575h258l-875 -749l-143 -670h-197l144 670zM760 1421q0 43 45 80l282 230q39 33 80 32q35 0 59.5 -22.5t24.5 -52.5q0 -43 -45 -80l-282 -232q-39 -31 -80 -30q-35 0 -59.5 22t-24.5 53z" />
<glyph unicode="&#xde;" horiz-adv-x="870" d="M41 0l297 1389h197l-62 -283h246q281 0 280 -266q0 -59 -14 -131q-82 -387 -436 -387h-242l-69 -322h-197zM344 498h244q154 2 198 211q12 57 13 98q0 121 -121 121h-242z" />
<glyph unicode="&#xdf;" horiz-adv-x="1034" d="M41 -6l160 754h-72l39 182h72q16 68 36 143q90 340 510 340q424 0 424 -250q0 -37 -10 -82q-43 -176 -196 -254q150 -117 149 -305q0 -45 -8 -88q-55 -252 -268 -383q-184 -113 -533 -112l39 180q276 0 410 80q121 74 155 235q6 37 6 70q0 98 -75 162q-100 82 -363 82 l39 180q254 0 332 26q96 31 114 121q6 27 7 47q0 55 -45 80q-57 31 -220 31q-242 0 -288 -211l-217 -1028h-197z" />
<glyph unicode="&#xe0;" horiz-adv-x="1130" d="M78 385q0 63 14 131q51 236 225 385q184 160 449 160q217 0 338 -117l22 113h197l-225 -1059h-197l23 98q-170 -119 -396 -119q-219 0 -340 117q-110 109 -110 291zM276 418q0 -121 70 -189q76 -74 217 -73q170 0 293 102t156 258q12 57 12 105q0 98 -49 161 q-74 98 -258 99q-166 0 -285 -107q-111 -100 -145 -258q-11 -51 -11 -98zM573 1278q0 47 58 80q31 18 63 18q43 0 68 -28q57 -61 162 -191q35 -51 34 -90q0 -49 -57 -82q-29 -14 -57 -14q-39 0 -68 24l-129 144q-74 86 -74 139z" />
<glyph unicode="&#xe1;" horiz-adv-x="1130" d="M102 385q0 63 15 131q51 236 225 385q184 160 449 160q217 0 337 -117l23 113h197l-226 -1059h-196l22 98q-170 -119 -395 -119q-219 0 -340 117q-111 109 -111 291zM301 418q0 -121 70 -189q76 -74 217 -73q170 0 293 102t155 258q12 57 13 107q0 96 -50 159 q-74 98 -258 99q-166 0 -284 -107q-111 -98 -146 -258q-10 -51 -10 -98zM547 1042q0 41 45 78l280 228q39 33 82 32q82 0 82 -73q0 -43 -43 -82l-288 -230q-41 -27 -74 -26q-35 0 -59.5 21t-24.5 52z" />
<glyph unicode="&#xe2;" horiz-adv-x="1130" d="M102 385q0 63 15 131q51 236 225 385q184 160 449 160q217 0 337 -115l23 111h197l-226 -1059h-196l22 98q-170 -119 -395 -119q-219 0 -340 117q-111 109 -111 291zM301 418q0 -121 70 -189q76 -74 217 -73q170 0 293 102t155 258q12 57 13 107q0 96 -50 159 q-74 98 -258 99q-166 0 -284 -107q-111 -98 -146 -258q-10 -51 -10 -98zM377 989l393 391h121l242 -391h-246l-103 168l-174 -168h-233z" />
<glyph unicode="&#xe3;" horiz-adv-x="1130" d="M102 383q0 63 15 131q49 233 223 383q186 158 448 158q217 0 338 -115l25 111h197l-226 -1053h-196l20 98q-168 -119 -393 -119q-219 0 -340 117q-111 107 -111 289zM299 416q0 -119 73.5 -189.5t215.5 -70.5q170 0 295 104q121 98 153 254q12 55 13 102q0 96 -50 160 q-76 100 -258 101q-168 0 -286 -107q-111 -98 -144 -256q-12 -51 -12 -98zM414 1059q25 117 110 174q80 51 156 51q51 0 164 -57q82 -43 90 -43q25 0 47 67l20 82l166 -98q-41 -121 -114.5 -175t-157.5 -54q-51 0 -164 57q-82 43 -90 43q-25 0 -47 -72q-4 -14 -27 -86z" />
<glyph unicode="&#xe4;" horiz-adv-x="1130" d="M102 383q0 61 15 129q49 233 223 383q186 158 448 158q217 0 338 -115l23 111h197l-224 -1051h-196l20 98q-168 -119 -393 -119q-219 0 -340 117q-111 107 -111 289zM299 416q0 -121 73.5 -190.5t215.5 -69.5q170 0 293 101t155 255q10 55 11 104q0 96 -48 160 q-76 98 -258 98q-168 0 -286 -106q-111 -98 -144 -256q-12 -51 -12 -96zM580 1067q0 10 2 20l22 101q18 90 117 90q82 0 82 -70q0 -10 -2 -20l-23 -101q-18 -94 -119 -94q-79 0 -79 74zM815 1067q0 10 2 20l23 101q18 90 118 90q80 0 80 -70q0 -10 -2 -20l-22 -101 q-18 -94 -117 -94q-82 0 -82 74z" />
<glyph unicode="&#xe5;" horiz-adv-x="1130" d="M102 385q0 66 15 133q51 238 225 387q186 160 449 160q219 0 337 -117l25 113h197l-228 -1063h-196l22 98q-170 -119 -395 -119q-219 0 -340 117q-111 109 -111 291zM301 420q0 -121 72.5 -191.5t214.5 -70.5q170 0 293 102t155 258q12 57 13 107q0 96 -48 159 q-76 100 -258 101q-168 0 -286 -107q-111 -100 -146 -260q-10 -51 -10 -98zM571 1186q0 18 4 41q20 94 107 151q80 55 176 56q82 0 138.5 -45.5t56.5 -120.5q0 -20 -4 -41q-20 -92 -101.5 -149.5t-177.5 -57.5q-84 0 -141.5 44t-57.5 122zM776 1227q-6 -25 33 -25 q35 0 41 25q2 10 -5 17t-26 7q-39 1 -43 -24z" />
<glyph unicode="&#xe6;" horiz-adv-x="2015" d="M76 375q0 59 12 123q49 229 223 372q184 154 447 154q217 0 338 -111l22 107h197l-23 -115q176 119 391 119q219 0 346.5 -101.5t127.5 -277.5q0 -53 -13 -110l-22 -111l-1002 -2l82 65l-8 -38q-10 -45 -10 -82q0 -215 311 -215q266 0 406 223h204q-139 -246 -317 -326 q-154 -72 -334 -72q-223 0 -340 97l-16 -76h-197l21 94q-168 -115 -394 -115q-221 0 -342 113q-110 107 -110 285zM272 406q0 -117 72 -183q76 -72 219 -71q170 0 295 100q119 96 150 246q12 53 12 98q0 94 -49 158q-78 96 -260 96q-168 0 -282 -99.5t-146 -252.5 q-11 -47 -11 -92zM1225 586q156 8 721 10q2 98 -56 166q-76 88 -243 88q-143 0 -263 -73.5t-159 -190.5z" />
<glyph unicode="&#xe7;" d="M76 342q0 59 14 123q53 250 243.5 404.5t467.5 154.5q170 0 280 -74q125 -82 140 -288l-199 -87q-10 154 -72 216q-59 55 -190 55q-188 0 -312 -103.5t-161 -277.5q-10 -47 -11 -90q0 -254 310 -254q125 0 226 54t179 237l172 -76q-104 -225 -278 -316q-152 -78 -336 -77 q-223 0 -348 107.5t-125 291.5zM211 -301l127 166q135 -43 190 -43q86 0 93 20l-3 -2q-8 2 -49 6q-43 2 -159 -45l26 127l68 195h190l-26 -100q162 -18 161 -144q0 -20 -4 -43q-41 -193 -329 -192q-84 0 -285 55z" />
<glyph unicode="&#xe8;" d="M70 369q0 70 16 147q49 233 235.5 389t446.5 156q219 0 344 -103.5t125 -285.5q0 -57 -12 -119l-25 -113l-932 -2q-25 -283 301 -282q266 0 408 231h203q-139 -256 -316 -338q-152 -72 -336 -72q-229 0 -348 109q-110 101 -110 283zM313 616h713q4 104 -53 175 q-74 90 -244 90q-168 0 -283 -90q-88 -71 -133 -175zM590 1274q0 41 39 70.5t86 29.5q41 0 65 -26l127 -144q74 -86 74 -139q0 -49 -61 -82q-27 -12 -56 -12q-41 0 -67 24l-191 230q-16 24 -16 49z" />
<glyph unicode="&#xe9;" d="M70 369q0 70 16 147q49 233 235.5 389t446.5 156q219 0 344 -103.5t125 -285.5q0 -57 -12 -119l-25 -113l-932 -2q-25 -283 301 -282q266 0 408 231h203q-139 -256 -316 -338q-152 -72 -336 -72q-229 0 -348 109q-110 101 -110 283zM313 616h713q4 104 -53 175 q-74 90 -244 90q-168 0 -283 -90q-88 -71 -133 -175zM545 1047q0 41 45 77l278 226q37 31 78 30q33 0 62 -18q29 -33 22 -70q-6 -27 -37 -61l-291 -232q-41 -27 -75 -26q-35 0 -58.5 21.5t-23.5 52.5z" />
<glyph unicode="&#xea;" d="M70 369q0 70 16 147q49 233 235.5 389t446.5 156q219 0 344 -103.5t125 -285.5q0 -55 -12 -119l-25 -113l-932 -2q-25 -283 301 -282q266 0 408 231h203q-139 -256 -316 -338q-152 -72 -336 -72q-229 0 -348 109q-110 101 -110 283zM313 618h713q4 102 -53 173 q-74 90 -244 90q-168 0 -283 -90q-88 -71 -133 -173zM371 989l399 391h119l237 -391h-243l-103 168l-174 -168h-235z" />
<glyph unicode="&#xeb;" d="M70 367q0 68 16 145q49 231 234.5 386t445.5 155q219 0 345 -103.5t126 -283.5q0 -55 -14 -117l-23 -113l-932 -2q-25 -279 301 -278q266 0 408 229h203q-139 -254 -316 -336q-152 -72 -336 -72q-229 0 -348 107q-110 101 -110 283zM311 612h713q4 102 -53 172 q-74 90 -242 90q-170 0 -285 -92q-88 -68 -133 -170zM551 1067q0 10 2 20l22 101q18 90 119 90q80 0 80 -70q0 -10 -2 -20l-22 -101q-18 -94 -117 -94q-82 0 -82 74zM788 1067q0 10 3 20l22 101q18 90 117 90q82 0 82 -70q0 -10 -2 -20l-23 -101q-18 -94 -119 -94 q-80 0 -80 74z" />
<glyph unicode="&#xec;" horiz-adv-x="278" d="M41 0l221 1038h197l-221 -1038h-197zM193 1270q0 41 38.5 74.5t83.5 33.5q39 0 66 -30l127 -144q74 -86 74 -137t-62 -82q-27 -14 -55 -14q-39 0 -68 26l-186 226q-18 22 -18 47z" />
<glyph unicode="&#xed;" horiz-adv-x="278" d="M41 0l221 1038h197l-221 -1038h-197zM143 1036q0 41 45 78l281 225q39 31 80 31q35 0 58.5 -21.5t23.5 -54.5q0 -41 -45 -77l-279 -226q-39 -31 -80 -30q-35 0 -59.5 22t-24.5 53z" />
<glyph unicode="&#xee;" horiz-adv-x="278" d="M-8 991l381 389h121l223 -389h-240l-92 162l-162 -162h-231zM41 0l221 1038h197l-221 -1038h-197z" />
<glyph unicode="&#xef;" horiz-adv-x="278" d="M41 0l219 1030h197l-219 -1030h-197zM158 1067q0 10 2 20l22 101q18 90 119 90q80 0 80 -70q0 -10 -2 -20l-23 -101q-18 -92 -116 -92q-82 0 -82 72zM395 1069q0 8 2 18l23 101q18 90 117 90q82 0 81 -70q0 -10 -2 -20l-22 -101q-18 -92 -119 -92q-80 0 -80 74z" />
<glyph unicode="&#xf0;" horiz-adv-x="1155" d="M78 385q0 63 14 131q51 238 225 385q186 160 449 160q217 0 338 -115l26 129h-679l38 180h680l29 134h197l-297 -1391h-197l23 98q-170 -119 -396 -119q-219 0 -340 117q-110 109 -110 291zM276 418q0 -121 70 -189q76 -74 217 -73q170 0 293 102t156 258q12 57 12 107 q0 96 -49 159q-74 100 -256 101q-168 0 -287 -107q-111 -100 -145 -260q-11 -51 -11 -98z" />
<glyph unicode="&#xf1;" d="M41 0l221 1032h197l-15 -67q147 90 340 90q172 0 279 -70q119 -78 119 -223q0 -39 -8 -84l-146 -678h-197l142 659q6 31 6 56q0 162 -229 162q-154 0 -257.5 -83t-132.5 -221l-122 -573h-197zM414 1059q25 115 112 172q80 53 154 53q43 0 115 -33l114 -57l27 -10 q18 0 37 47q4 8 28 102l166 -96q-37 -121 -111.5 -176t-158.5 -55q-51 0 -164 57q-82 43 -92 43q-18 0 -37 -49q-2 -4 -29 -107z" />
<glyph unicode="&#xf2;" horiz-adv-x="1116" d="M78 389q0 61 14 129q51 238 240.5 390.5t453.5 152.5t388 -154q86 -106 86 -258q0 -61 -15 -131q-51 -240 -240.5 -390.5t-451.5 -150.5q-225 0 -350 113t-125 299zM279 426q0 -100 57 -170q78 -100 256 -100t300 100t157 262q12 51 12 96q0 100 -55 170q-78 96 -261 97 q-178 0 -299.5 -99.5t-156.5 -263.5q-10 -49 -10 -92zM614 1278q0 47 58 80q31 18 63 18q43 0 68 -28q57 -61 162 -191q35 -51 34 -90q0 -49 -57 -82q-29 -14 -57 -14q-39 0 -68 24l-129 144q-74 86 -74 139z" />
<glyph unicode="&#xf3;" horiz-adv-x="1116" d="M78 389q0 61 14 129q51 238 240.5 389.5t453.5 151.5t388 -152q86 -106 86 -258q0 -61 -15 -131q-51 -240 -240.5 -390.5t-451.5 -150.5q-225 0 -350 113t-125 299zM279 426q0 -100 57 -170q78 -100 256 -100t300 100t157 262q12 51 12 96q0 100 -55 168q-78 98 -261 99 q-178 0 -299.5 -99.5t-156.5 -263.5q-10 -49 -10 -92zM563 1036q0 43 43 76l281 227q39 31 80 31q37 0 60.5 -21.5t23.5 -54.5q0 -41 -45 -77l-281 -226q-39 -31 -78 -30q-37 0 -60.5 22t-23.5 53z" />
<glyph unicode="&#xf4;" horiz-adv-x="1116" d="M78 389q0 61 14 129q51 240 240.5 391.5t453.5 151.5t388 -154q86 -106 86 -258q0 -61 -15 -131q-51 -240 -240.5 -390.5t-451.5 -150.5q-225 0 -350 113t-125 299zM279 426q0 -100 57 -170q78 -100 256 -100t300 100t157 262q12 51 12 96q0 100 -55 170q-78 96 -261 97 q-178 0 -299.5 -99.5t-156.5 -263.5q-10 -49 -10 -92zM391 989l400 391h118l242 -391h-246l-102 168l-176 -168h-236z" />
<glyph unicode="&#xf5;" horiz-adv-x="1116" d="M78 387q0 61 14 127q51 238 240.5 389.5t451.5 151.5q264 0 390 -152q86 -106 86 -258q0 -61 -15 -131q-51 -238 -240.5 -387.5t-451.5 -149.5q-227 0 -352 115q-123 109 -123 295zM279 424q0 -100 57 -170q78 -98 256 -98t300 99t157 259q10 51 10 96q0 100 -53 168 q-78 98 -261 99q-180 0 -300.5 -99.5t-155.5 -263.5q-10 -47 -10 -90zM428 1059q27 119 111 174q78 51 157 51q41 0 115 -35l113 -55l26 -10q25 0 78 147l154 -98q-41 -119 -111 -172q-76 -55 -160 -55q-51 0 -163 57q-74 39 -91 43q-27 0 -45 -70q-4 -14 -22 -88z" />
<glyph unicode="&#xf6;" horiz-adv-x="1116" d="M78 387q0 61 14 127q49 238 238.5 388.5t453.5 150.5t390 -152q86 -106 86 -258q0 -61 -15 -129q-51 -238 -240.5 -387.5t-451.5 -149.5q-227 0 -352 115q-123 109 -123 295zM279 422q0 -98 55 -168q80 -98 258 -98t300 98t157 260q10 51 10 96q0 98 -55 166 q-76 98 -259 98q-180 0 -300.5 -99t-155.5 -261q-10 -49 -10 -92zM571 1067q0 10 2 20l23 101q18 90 117 90q82 0 82 -70q0 -10 -2 -20l-23 -101q-18 -94 -119 -94q-80 0 -80 74zM807 1067q0 10 2 20l22 101q18 90 119 90q80 0 80 -70q0 -10 -2 -20l-22 -101 q-18 -94 -117 -94q-82 0 -82 74z" />
<glyph unicode="&#xf7;" horiz-adv-x="1212" d="M113 408l34 165h1131l-35 -165h-1130zM559 238l23 104q18 86 114 86q41 0 65.5 -22.5t16.5 -63.5l-22 -104q-18 -86 -117 -86q-43 0 -65.5 24.5t-14.5 61.5zM641 625l23 106q18 84 116 84q37 0 60 -18q31 -25 20 -66l-22 -106q-16 -84 -117 -84q-43 0 -64.5 24.5 t-15.5 59.5z" />
<glyph unicode="&#xf8;" horiz-adv-x="1116" d="M74 371q0 61 16 131q49 236 238.5 385t451.5 149q88 0 162 -16l80 104h213l-133 -178q154 -113 153 -321q0 -59 -12 -123q-51 -236 -240.5 -384.5t-451.5 -148.5q-96 0 -174 21l-66 -86h-215l123 162q-145 110 -145 305zM276 418q0 -113 68 -185l471 621q-35 4 -74 4 q-180 0 -301 -97t-153 -259q-11 -43 -11 -84zM498 154q43 -8 92 -9q178 0 300 98.5t157 258.5q8 45 8 86q0 117 -78 194z" />
<glyph unicode="&#xf9;" d="M111 281q0 45 12 96l139 661h197l-140 -659q-8 -33 -8 -60q0 -164 234 -163q322 0 389 323l119 559h196l-221 -1040h-197l17 72q-152 -92 -340 -93q-180 0 -285 76q-112 81 -112 228zM592 1264q0 49 53 84q33 23 64 22q45 0 69 -31l127 -143q74 -86 74 -139 q0 -49 -61 -80q-27 -14 -56 -14q-39 0 -67 26l-187 228q-16 20 -16 47z" />
<glyph unicode="&#xfa;" d="M111 281q0 45 12 96l139 661h197l-140 -659q-6 -33 -6 -60q0 -164 232 -163q322 0 389 323l119 559h196l-221 -1040h-197l17 72q-152 -92 -340 -93q-180 0 -285 76q-112 81 -112 228zM545 1044q0 41 43 76l280 228q39 31 80 30q35 0 59.5 -21.5t24.5 -53.5q0 -43 -45 -80 l-278 -224q-39 -31 -80 -30q-35 0 -59.5 21t-24.5 54z" />
<glyph unicode="&#xfb;" d="M111 281q0 45 12 96l139 661h197l-140 -659q-6 -33 -6 -60q0 -164 232 -163q322 0 389 323l119 559h196l-221 -1040h-197l17 72q-152 -92 -340 -93q-180 0 -285 76q-112 81 -112 228zM371 989l399 391h119l237 -391h-243l-103 168l-174 -168h-235z" />
<glyph unicode="&#xfc;" d="M111 279q0 45 10 94l139 657h197l-140 -655q-6 -31 -6 -58q0 -162 234 -161q322 0 389 319l117 555h196l-219 -1032h-197l17 70q-152 -90 -340 -91q-180 0 -285 74q-112 81 -112 228zM549 1067q0 10 2 20l22 101q18 90 119 90q80 0 80 -70q0 -10 -2 -20l-22 -101 q-18 -94 -117 -94q-82 0 -82 74zM786 1067q0 10 2 20l23 101q18 90 117 90q82 0 82 -70q0 -10 -2 -20l-23 -101q-18 -94 -119 -94q-80 0 -80 74z" />
<glyph unicode="&#xfd;" horiz-adv-x="1036" d="M-4 -55q0 53 12 123h195q-6 -33 -6 -62q0 -109 65 -151q59 -39 197 -39q315 0 381 225q-150 -92 -338 -92q-178 0 -283 76q-113 80 -113 231q0 47 11 100l143 674h197l-142 -672q-8 -33 -8 -61q0 -166 234 -166q319 0 389 330l121 569h196l-203 -956q-94 -440 -628 -441 q-195 0 -307.5 75t-112.5 237zM520 1042q0 39 49 78l281 230q37 31 78 30q33 0 61 -18q29 -33 21 -72q-4 -27 -35 -59l-293 -240q-41 -25 -76 -24q-27 0 -53 20q-33 22 -33 55z" />
<glyph unicode="&#xfe;" horiz-adv-x="1155" d="M-31 -344l369 1733h197l-97 -453q170 119 383 119q225 0 344 -115q113 -106 113 -293q0 -68 -16 -141q-51 -244 -222 -393q-184 -162 -450 -162q-217 0 -336 117l-88 -412h-197zM334 391q0 -260 303 -260q170 0 287 107q106 100 143 266q12 55 12 104q0 94 -45 160 q-70 104 -237 104q-172 0 -294 -100t-157 -262q-12 -66 -12 -119z" />
<glyph unicode="&#xff;" horiz-adv-x="1044" d="M-4 -57q0 55 10 123h195q-4 -33 -4 -62q0 -106 65 -149q59 -41 197 -41q313 0 381 225q-150 -92 -338 -92q-180 0 -283 76q-113 80 -113 231q0 47 11 98l143 672h197l-144 -670q-6 -33 -6 -61q0 -166 232 -166q322 0 391 330l121 567h196l-203 -952q-94 -438 -628 -439 q-195 0 -307.5 75t-112.5 235zM535 1063q0 10 2 20l22 103q18 92 119 92q86 0 78 -88l-23 -107q-20 -94 -117 -94q-81 0 -81 74zM772 1063q0 10 2 20l23 103q18 92 116 92q88 0 80 -88l-22 -107q-20 -94 -119 -94q-80 0 -80 74z" />
<glyph unicode="&#x152;" horiz-adv-x="2068" d="M129 520q0 82 18 170q70 328 322 518.5t612 190.5q72 0 138 -10h1132l-39 -179h-713q150 -158 132 -399h434l-39 -178h-426q-80 -281 -311 -455h716l-39 -180h-1097q-90 -14 -189 -14q-305 0 -478 143t-173 393zM330 555q0 -186 126 -289.5t363 -103.5q51 0 103 6 l223 1046q-49 6 -101 7q-279 0 -463 -141.5t-237 -389.5q-14 -72 -14 -135zM1126 219q289 121 377 414h-289zM1253 811h279q8 248 -205 352z" />
<glyph unicode="&#x153;" horiz-adv-x="2154" d="M125 379q0 57 12 121q49 231 238.5 377.5t451.5 146.5q328 0 437 -219q207 219 512 219q219 0 346 -101.5t127 -277.5q0 -53 -13 -110l-22 -111l-930 -2q-23 -270 303 -270q266 0 406 223h205q-139 -246 -318 -326q-154 -72 -334 -72q-332 0 -426 207 q-207 -207 -518 -207q-227 0 -352 110t-125 292zM326 414q0 -98 57 -166q80 -96 258 -96t299 96t154 252q10 49 10 90q0 98 -55 166q-78 94 -261 94q-180 0 -299.5 -96.5t-154.5 -253.5q-8 -45 -8 -86zM1325 596h713q2 98 -56 166q-76 88 -243 88q-135 0 -247 -66.5 t-167 -187.5z" />
<glyph unicode="&#x178;" horiz-adv-x="1357" d="M164 1413h262l432 -573l678 573h258l-872 -745l-144 -668h-196l143 668zM782 1452q0 10 2 21l23 102q20 92 119 92q88 0 78 -88l-23 -106q-20 -94 -117 -95q-82 0 -82 74zM1020 1452q0 10 2 21l22 102q20 92 117 92q90 0 80 -88l-22 -106q-20 -94 -119 -95q-80 0 -80 74z " />
<glyph unicode="&#x2c6;" horiz-adv-x="530" d="M106 1106l392 274h112l289 -274h-260l-119 113l-166 -113h-248z" />
<glyph unicode="&#x2dc;" horiz-adv-x="749" d="M264 1149q16 82 107 117q72 27 141 26q47 0 162 -30q90 -23 102 -23q27 0 35 23q2 4 18 55l179 -53q-39 -86 -110 -115t-148 -29q-45 0 -121 19q-63 14 -125 30q-14 2 -19 2q-25 0 -34 -24q-2 -8 -17 -55z" />
<glyph unicode="&#x2000;" horiz-adv-x="894" />
<glyph unicode="&#x2001;" horiz-adv-x="1789" />
<glyph unicode="&#x2002;" horiz-adv-x="894" />
<glyph unicode="&#x2003;" horiz-adv-x="1789" />
<glyph unicode="&#x2004;" horiz-adv-x="595" />
<glyph unicode="&#x2005;" horiz-adv-x="446" />
<glyph unicode="&#x2006;" horiz-adv-x="296" />
<glyph unicode="&#x2007;" horiz-adv-x="296" />
<glyph unicode="&#x2008;" horiz-adv-x="223" />
<glyph unicode="&#x2009;" horiz-adv-x="356" />
<glyph unicode="&#x200a;" horiz-adv-x="98" />
<glyph unicode="&#x2010;" horiz-adv-x="716" d="M137 520l10 41h680l-10 -41h-680z" />
<glyph unicode="&#x2011;" horiz-adv-x="716" d="M137 520l10 41h680l-10 -41h-680z" />
<glyph unicode="&#x2012;" horiz-adv-x="716" d="M137 520l10 41h680l-10 -41h-680z" />
<glyph unicode="&#x2013;" horiz-adv-x="1013" d="M33 520l10 41h1163l-10 -41h-1163z" />
<glyph unicode="&#x2014;" horiz-adv-x="1830" d="M33 520l10 41h1980l-10 -41h-1980z" />
<glyph unicode="&#x2018;" horiz-adv-x="358" d="M274 1085q0 18 13 37l131 211q33 53 104 53q88 0 88 -59q0 -18 -14 -37l-131 -213q-35 -51 -105 -51q-86 0 -86 59z" />
<glyph unicode="&#x2019;" horiz-adv-x="358" d="M274 1085q0 18 13 37l133 211q33 53 102 53q86 0 86 -59q0 -18 -10 -37l-131 -211q-33 -53 -107 -53q-86 0 -86 59z" />
<glyph unicode="&#x201a;" horiz-adv-x="598" d="M96 -113q2 10 10 27l134 209q33 53 102 53q88 0 88 -59q0 -18 -12 -37l-131 -211q-33 -53 -125 -53q-82 -1 -66 71z" />
<glyph unicode="&#x201c;" horiz-adv-x="546" d="M274 1085q0 18 13 37l131 211q33 53 104 53q88 0 88 -59q0 -18 -14 -37l-131 -213q-35 -51 -105 -51q-86 0 -86 59zM489 1085q0 18 13 37l131 211q33 53 104 53q88 0 88 -59q0 -18 -14 -37l-131 -213q-35 -51 -105 -51q-86 0 -86 59z" />
<glyph unicode="&#x201d;" horiz-adv-x="565" d="M274 1085q0 18 13 37l133 211q33 53 102 53q86 0 86 -59q0 -18 -10 -37l-131 -211q-33 -53 -107 -53q-86 0 -86 59zM489 1085q0 18 13 37l133 211q33 53 102 53q86 0 86 -59q0 -18 -10 -37l-131 -211q-33 -53 -107 -53q-86 0 -86 59z" />
<glyph unicode="&#x201e;" horiz-adv-x="718" d="M96 -113q2 10 10 27l134 209q33 53 102 53q88 0 88 -59q0 -18 -12 -37l-131 -211q-33 -53 -125 -53q-82 -1 -66 71zM311 -113q2 10 11 27l133 209q33 53 102 53q88 0 88 -59q0 -18 -12 -37l-131 -211q-33 -53 -125 -53q-82 -1 -66 71z" />
<glyph unicode="&#x2022;" horiz-adv-x="598" d="M160 584l35 164q6 25 65 47q70 25 162 24q92 0 151 -24q51 -23 45 -47l-34 -164q-6 -25 -66 -47q-68 -25 -162 -25q-92 0 -147 23.5t-49 48.5z" />
<glyph unicode="&#x2026;" horiz-adv-x="1306" d="M211 55l12 60q14 59 113 59q98 0 84 -59l-12 -60q-12 -59 -109 -59q-100 0 -88 59zM598 55l12 60q14 59 113 59q98 0 84 -59l-12 -60q-12 -59 -109 -59q-100 0 -88 59zM985 55l12 60q14 59 113 59q98 0 84 -59l-12 -60q-12 -59 -109 -59q-100 0 -88 59z" />
<glyph unicode="&#x202f;" horiz-adv-x="356" />
<glyph unicode="&#x2039;" horiz-adv-x="602" d="M176 510l23 100l512 254l-39 -188l-226 -115l177 -115l-39 -182z" />
<glyph unicode="&#x203a;" horiz-adv-x="602" d="M125 264l39 182l225 115l-176 115l39 188l405 -254l-22 -100z" />
<glyph unicode="&#x205f;" horiz-adv-x="446" />
<glyph unicode="&#x2122;" horiz-adv-x="1615" d="M293 1231l37 170h794l191 -436l371 436h198l-147 -690h-207l67 317l-266 -317h-137l-141 327l-70 -327h-205l111 520h-88l-111 -520h-205l111 520h-303z" />
<glyph unicode="&#xe000;" horiz-adv-x="1000" d="M0 1000h1000v-1000h-1000v1000z" />
<glyph unicode="&#xfb01;" horiz-adv-x="825" d="M588 0l223 1040h197l-223 -1040h-197zM840 1182l33 151q51 74 110 74q47 0 88 -64l-37 -174q-66 -61 -114 -61q-66 0 -80 74zM131 -2l162 762h-148l39 180h148l4 18q86 406 698 406l-37 -176q-238 0 -348 -62q-92 -53 -117 -168l-4 -18h228l-39 -180h-228l-161 -762h-197 z" />
<glyph unicode="&#xfb02;" horiz-adv-x="825" d="M588 0l297 1389h197l-297 -1389h-197zM131 -2l162 762h-148l39 180h148l4 18q86 406 698 406l-37 -176q-238 0 -348 -62q-92 -53 -117 -168l-4 -18h228l-39 -180h-228l-161 -762h-197z" />
<glyph unicode="&#xfb03;" horiz-adv-x="1372" d="M1135 0l223 1040h197l-223 -1040h-197zM1387 1182l33 151q51 74 110 74q47 0 88 -64l-37 -174q-66 -61 -114 -61q-66 0 -80 74zM678 -2l162 762h-148l39 180h148l4 18q86 406 698 406l-37 -176q-238 0 -348 -62q-92 -53 -117 -168l-4 -18h228l-39 -180h-228l-161 -762 h-197zM131 -2l162 762h-148l39 180h148l4 18q86 406 698 406l-37 -176q-238 0 -348 -62q-92 -53 -117 -168l-4 -18h228l-39 -180h-228l-161 -762h-197z" />
<glyph unicode="&#xfb04;" horiz-adv-x="1372" d="M1135 0l297 1389h197l-297 -1389h-197zM678 -2l162 762h-148l39 180h148l4 18q86 406 698 406l-37 -176q-238 0 -348 -62q-92 -53 -117 -168l-4 -18h228l-39 -180h-228l-161 -762h-197zM131 -2l162 762h-148l39 180h148l4 18q86 406 698 406l-37 -176q-238 0 -348 -62 q-92 -53 -117 -168l-4 -18h228l-39 -180h-228l-161 -762h-197z" />
</font>
</defs>
</svg>
