<?xml version="1.0" standalone="no"?>
<!DOCTYPE svg PUBLIC "-//W3C//DTD SVG 1.1//EN" "http://www.w3.org/Graphics/SVG/1.1/DTD/svg11.dtd" >
<svg xmlns="http://www.w3.org/2000/svg">
<metadata>
This is a custom SVG webfont generated by Font Squirrel.
Copyright   : GM
</metadata>
<defs>
<font id="webfontX1wvVJ8G" horiz-adv-x="1075" >
<font-face units-per-em="2048" ascent="1638" descent="-410" />
<missing-glyph horiz-adv-x="724" />
<glyph unicode=" "  horiz-adv-x="724" />
<glyph unicode="&#x09;" horiz-adv-x="724" />
<glyph unicode="&#xa0;" horiz-adv-x="724" />
<glyph unicode="!" horiz-adv-x="397" d="M156 51l26 127q12 49 66 49q51 0 39 -49l-27 -127q-10 -51 -61 -51q-53 0 -43 51zM219 340l223 1049h105l-223 -1049h-105z" />
<glyph unicode="&#x22;" horiz-adv-x="598" d="M375 1165l35 168q10 43 61 43q53 0 43 -43l-35 -168q-10 -45 -63 -45q-51 0 -41 45zM610 1165l35 168q10 43 64 43q51 0 41 -43l-35 -168q-10 -45 -62 -45q-53 0 -43 45z" />
<glyph unicode="#" horiz-adv-x="1087" d="M225 479l41 92h183l69 146h-186l49 92h180l70 149h106l-69 -149h182l68 149h106l-68 -149h183l-43 -92h-185l-67 -146h182l-41 -92h-182l-72 -149h-106l71 149h-182l-72 -149h-106l72 149h-183zM555 571h182l68 146h-180z" />
<glyph unicode="$" horiz-adv-x="1314" d="M125 334q0 53 14 115l11 49h104l-10 -43q-10 -53 -11 -99q0 -209 230 -270l131 621q-291 76 -291 276q0 33 8 68q61 291 432 360l29 131h105l-25 -119q41 2 88 2q57 0 109 -4l24 121h105l-29 -135q285 -68 285 -328q0 -55 -15 -121h-102q8 43 8 82q0 211 -197 267 l-124 -582q158 -41 223 -84q102 -72 102 -199q0 -43 -10 -92q-31 -152 -178 -254q-125 -88 -295 -116l-27 -123h-104l22 108q-35 -2 -69 -2q-66 0 -125 8l-25 -114h-104l28 129q-319 78 -317 348zM412 1006q0 -135 204 -195l107 498q-264 -59 -307 -258q-4 -22 -4 -45z M563 68q57 -6 127 -7q35 0 70 2l123 582l-189 39zM717 786l188 -36l121 573q-49 6 -106 6q-47 0 -89 -4zM866 78q305 61 351 278q23 104 -11 150q-49 63 -223 117z" />
<glyph unicode="%" horiz-adv-x="1536" d="M213 -2l1315 1391h125l-1313 -1391h-127zM276 838q0 59 17 133q80 377 385 377q242 0 242 -236q0 -63 -17 -141q-80 -369 -387 -369q-242 0 -240 236zM385 864q0 -166 154 -166q199 0 258 273q12 63 12 112q0 168 -154 168q-197 0 -256 -280q-12 -60 -14 -107zM895 188 q0 61 16 142q82 379 389 379q240 0 238 -238q0 -61 -16 -141q-78 -369 -383 -369q-240 0 -244 227zM1006 221q0 -164 155 -164q197 0 254 273q14 66 15 116q0 166 -152 166q-199 0 -260 -282q-12 -62 -12 -109z" />
<glyph unicode="&#x26;" horiz-adv-x="1234" d="M125 254q0 195 209 352q106 80 315 176q-172 102 -172 262q0 33 8 70q27 129 150 205q113 70 252 70q121 0 198 -48q96 -55 97 -167q0 -29 -8 -64q-41 -197 -478 -403q-219 -104 -293 -160q-172 -129 -172 -271q0 -106 111 -165q90 -47 207 -48q266 0 438 222 q94 123 131 288h105l-131 -612h-105l51 242q-223 -236 -497 -236q-156 0 -273 66q-143 80 -143 221zM584 1061q0 -139 180 -225q309 154 309 313q0 74 -67 113q-55 31 -136 30q-96 0 -174 -43q-88 -49 -108 -137q-4 -26 -4 -51z" />
<glyph unicode="'" horiz-adv-x="358" d="M375 1165l35 168q10 43 61 43q53 0 43 -43l-35 -168q-10 -45 -63 -45q-51 0 -41 45z" />
<glyph unicode="(" horiz-adv-x="477" d="M197 201q0 182 41 379q111 518 462 923h117q-367 -416 -475 -923q-39 -184 -39 -357q0 -303 121 -567h-117q-110 252 -110 545z" />
<glyph unicode=")" horiz-adv-x="477" d="M-104 -344q375 416 483 924q39 178 39 346q0 309 -129 577h117q117 -248 118 -542q2 -180 -41 -381q-111 -522 -471 -924h-116z" />
<glyph unicode="*" horiz-adv-x="696" d="M295 1047q4 27 39 40l129 56l-109 53q-27 14 -22 39q10 45 61 45q10 0 21 -2h4l117 -61l24 112q10 47 64 47q51 0 41 -47l-25 -112l139 57q14 6 29 6q27 0 41 -18q2 -14 0 -27q-6 -29 -37 -41l-127 -51l104 -56q27 -14 23 -40q-10 -45 -61 -46q-18 0 -29 7l-113 59 l-24 -113q-10 -47 -62 -47q-53 0 -43 47l25 113l-137 -59q-14 -6 -31 -7q-51 1 -41 46z" />
<glyph unicode="+" horiz-adv-x="1146" d="M227 467l21 94h391l70 326h104l-70 -326h394l-21 -94h-393l-70 -330h-104l69 330h-391z" />
<glyph unicode="," horiz-adv-x="536" d="M141 -143l9 16l145 270q23 43 67 33q39 -10 33 -43q-2 -6 -8 -14l-143 -271q-18 -35 -58 -34q-53 0 -45 43z" />
<glyph unicode="-" horiz-adv-x="716" d="M184 520l9 41h587l-8 -41h-588z" />
<glyph unicode="." horiz-adv-x="428" d="M170 37l20 96q8 41 62 41q51 0 43 -41l-21 -96q-8 -41 -59 -41q-53 0 -45 41z" />
<glyph unicode="/" horiz-adv-x="716" d="M-45 0l1018 1421h110l-1017 -1421h-111z" />
<glyph unicode="0" horiz-adv-x="1196" d="M160 367q0 66 16 139l70 336q51 240 226 386t421 146q195 0 311.5 -100t116.5 -291q0 -66 -16 -141l-70 -336q-51 -238 -221 -383q-119 -102 -211 -129q-63 -18 -209 -19q-244 0 -358 150q-76 99 -76 242zM266 389q0 -152 99 -237q92 -80 247 -80q199 0 337 119.5 t181 314.5l70 336q14 63 14 119q0 154 -94 235.5t-250 81.5q-201 0 -339 -120t-181 -316l-69 -336q-15 -62 -15 -117z" />
<glyph unicode="1" horiz-adv-x="845" d="M330 956l532 367h84l-280 -1323h-105l250 1174l-322 -218h-159z" />
<glyph unicode="2" horiz-adv-x="1196" d="M88 0q84 387 553 631l322 164q197 100 221 213q4 29 4 53q0 188 -301 188q-403 0 -490 -399h-104q106 496 602 496q162 0 264 -52q135 -66 135 -211q0 -37 -10 -79q-37 -174 -414 -361q-111 -53 -276 -143q-309 -193 -373 -404h934l-20 -96h-1047z" />
<glyph unicode="3" horiz-adv-x="1196" d="M133 326q0 51 12 110l11 49h104l-14 -75q-8 -39 -8 -72q0 -139 127 -209q102 -55 251 -55q172 0 306 67q162 80 194 232q8 39 8 71q0 217 -344 218h-125l21 96h127q367 0 420 250q4 25 4 47q0 109 -121 157q-88 37 -213 37q-428 0 -508 -377h-104q100 473 626 474 q166 0 277 -50q152 -70 151 -217q0 -33 -8 -71q-47 -219 -276 -295q178 -68 178 -246q0 -43 -10 -94q-43 -195 -234 -303q-166 -92 -381 -93q-197 0 -321 74q-150 93 -150 275z" />
<glyph unicode="4" horiz-adv-x="1196" d="M113 440l645 885h110l-575 -788h606l168 790l102 -6l-165 -784h264l-21 -97h-264l-94 -440h-105l95 440h-766z" />
<glyph unicode="5" horiz-adv-x="1196" d="M131 322q0 66 16 141h105q-14 -63 -14 -117q0 -272 370 -272q190 0 328.5 95t177.5 277q10 47 10 89q0 145 -118 221q-100 63 -256 63q-254 0 -422 -194h-103l181 698h937l-20 -96h-836l-112 -443q168 131 403 131q188 0 312 -84q143 -94 143 -274q0 -51 -12 -108 q-49 -225 -230 -353q-170 -119 -405 -119q-455 1 -455 345z" />
<glyph unicode="6" horiz-adv-x="1196" d="M174 315q0 47 10 103l6 22q2 6 5 17l96 450q45 207 217 322q162 109 381 108q178 0 287 -77q125 -88 124 -259q0 -59 -14 -129h-102q10 57 10 107q0 135 -98 205q-86 63 -230 63q-174 0 -299 -86q-131 -92 -168 -258l-45 -196q166 147 424 147q174 0 287 -78 q127 -88 127 -254q0 -49 -12 -104q-43 -205 -215 -322q-158 -109 -375 -108q-176 0 -287 75q-129 86 -129 252zM279 334q0 -129 104 -199q88 -59 227 -59q172 0 302 89t165 253q10 45 10 86q0 102 -65 170q-61 61 -123 78q-41 12 -143 12q-174 0 -299 -86 q-133 -94 -170 -260q-8 -45 -8 -84z" />
<glyph unicode="7" horiz-adv-x="1196" d="M342 0l887 1227h-864l20 96h1024l-956 -1323h-111z" />
<glyph unicode="8" horiz-adv-x="1230" d="M127 295q0 41 10 90q55 262 350 344q-156 70 -155 205q0 29 6 59q41 188 211 279q143 74 354 74q170 0 279 -52q143 -70 143 -221q0 -37 -8 -80q-39 -180 -264 -264q213 -70 213 -260q0 -41 -9 -88q-47 -213 -243 -318q-162 -86 -402 -86q-195 0 -319 62 q-166 82 -166 256zM233 315q0 -242 400 -241q190 0 321 63q162 78 199 246q6 35 6 66q0 225 -397 225q-459 0 -520 -291q-9 -37 -9 -68zM438 956q0 -98 131 -149q96 -37 213 -37q139 0 258 49q147 61 172 176q8 31 9 60q0 195 -338 194q-385 0 -441 -258q-4 -19 -4 -35z" />
<glyph unicode="9" horiz-adv-x="1196" d="M174 303q0 59 14 127h103q-12 -59 -12 -108q0 -135 98 -205q86 -59 229 -60q170 0 297 88q135 94 172 256l51 236q-164 -145 -421 -145q-174 0 -287 75q-129 86 -129 252q0 47 12 103q43 205 215 323q160 111 377 111q174 0 287 -78q127 -88 127 -254q0 -47 -11 -102 l-6 -23q-4 -8 -4 -12l-104 -490q-43 -205 -217 -321q-162 -106 -379 -107q-180 0 -289 76q-123 86 -123 258zM393 838q0 -129 105 -199q88 -59 227 -59q174 0 299 86q135 92 170 256q8 45 8 84q0 104 -63 172q-63 61 -123 77q-41 12 -144 13q-176 0 -301 -86 q-133 -94 -168 -260q-10 -45 -10 -84z" />
<glyph unicode=":" horiz-adv-x="499" d="M209 47l27 125q10 49 63 49q51 0 41 -49l-27 -125q-10 -51 -61 -51q-53 0 -43 51zM365 776l26 125q10 51 64 51q51 0 41 -49l-27 -127q-12 -49 -63 -49q-53 0 -41 49z" />
<glyph unicode=";" horiz-adv-x="514" d="M131 -139q0 4 6 18l154 301q23 47 67 35q39 -10 33 -45q-2 -8 -8 -16l-150 -301q-20 -39 -57 -39q-55 0 -45 47zM406 776l26 125q10 51 64 51q51 0 41 -51l-27 -125q-12 -51 -64 -51t-40 51z" />
<glyph unicode="&#x3c;" horiz-adv-x="1095" d="M164 451l16 84l1020 362l-20 -100l-856 -305l725 -306l-21 -100z" />
<glyph unicode="=" horiz-adv-x="1290" d="M143 342l19 86h1147l-19 -86h-1147zM190 555l19 86h1147l-19 -86h-1147z" />
<glyph unicode="&#x3e;" horiz-adv-x="1095" d="M86 86l20 100l857 306l-725 305l20 100l864 -362l-16 -84z" />
<glyph unicode="?" d="M266 1022q139 399 580 399q150 0 256 -57q129 -74 129 -211q0 -221 -291 -418q-168 -115 -221 -184q-37 -45 -55 -135l-17 -76h-106l14 66q43 203 291 372q127 86 168 127q84 80 104 176q6 27 6 52q0 106 -104 155q-78 37 -197 37q-188 0 -299.5 -87t-171.5 -269zM479 51 l27 127q12 49 63 49q53 0 41 -49l-26 -127q-10 -51 -64 -51q-51 0 -41 51z" />
<glyph unicode="@" horiz-adv-x="1720" d="M223 547q0 76 17 160q70 322 350 524q268 193 606 192q248 0 418 -112q201 -131 201 -367q0 -61 -15 -129q-43 -201 -215 -375q-158 -158 -309 -157q-74 0 -74 63q0 29 12 70q-174 -160 -409 -162q-209 -2 -285 143q-33 63 -33 142q0 43 11 90q49 233 219 381.5 t405 150.5q240 4 299 -153l56 153h98l-268 -762q2 -6 -2 -14h8q43 0 112 47q59 41 97 82q184 209 184 410q0 162 -121 270q-150 135 -401 135q-299 0 -533 -170q-242 -176 -303 -463q-14 -74 -14 -139q0 -190 129 -319q164 -166 450 -166q184 0 367 78q190 82 301 219h121 q-135 -176 -354.5 -284t-442.5 -108q-338 0 -528 193q-154 154 -154 377zM586 551q0 -209 243 -207q162 2 301 109q133 104 189 262q29 80 29 151q0 82 -45.5 133.5t-94.5 63.5q-33 10 -118 8q-182 -2 -318.5 -128t-175.5 -310q-10 -43 -10 -82z" />
<glyph unicode="A" horiz-adv-x="1302" d="M-37 0l946 1389h97l333 -1389h-114l-107 436h-741l-295 -436h-119zM442 535h654l-170 702z" />
<glyph unicode="B" horiz-adv-x="1314" d="M70 0l295 1389h692q160 0 266 -60q129 -74 129 -221q0 -39 -10 -84q-41 -199 -287 -295q207 -63 207 -252q0 -43 -10 -90q-43 -201 -232 -303q-160 -84 -385 -84h-665zM195 96h585q168 0 291 64q147 78 178 225q7 28 7 52q0 6 -1 12q0 225 -360 225h-578zM338 770h582 q152 0 262 59q129 70 157 205q6 29 7 56q0 111 -109 161q-82 41 -205 41h-583z" />
<glyph unicode="C" horiz-adv-x="1472" d="M199 502q0 84 20 182q72 334 315.5 526.5t587.5 192.5q399 0 531 -266l-101 -56q-106 225 -450 226q-295 0 -506 -165t-270 -450q-18 -88 -19 -166q2 -219 148 -336q135 -109 364 -108q330 0 551 229l78 -57q-262 -268 -647 -268q-336 0 -494 188q-108 131 -108 328z" />
<glyph unicode="D" horiz-adv-x="1392" d="M86 0l295 1389h559q567 0 567 -486q0 -96 -24 -211q-72 -338 -324 -520q-240 -172 -592 -172h-481zM211 96h383q309 0 510 148q211 154 274 448q23 104 23 191q0 410 -483 409h-453z" />
<glyph unicode="E" horiz-adv-x="1155" d="M86 0l295 1389h1057l-21 -97h-954l-111 -522h846l-20 -94h-846l-123 -580h965l-21 -96h-1067z" />
<glyph unicode="F" horiz-adv-x="1034" d="M86 0l295 1389h983l-21 -97h-880l-111 -522h754l-21 -94h-753l-144 -676h-102z" />
<glyph unicode="G" horiz-adv-x="1552" d="M164 504q0 86 22 186q70 334 316 524q240 188 583 189q571 0 572 -490h-107q-6 393 -483 394q-299 0 -507 -163t-269 -452q-18 -90 -19 -166q0 -229 162 -344q143 -100 385 -100q231 0 420 117q207 129 254 346l6 37h-596l21 96h696q-8 -68 -16 -109q-63 -297 -326 -454 q-215 -129 -479 -129q-279 0 -445 118q-190 136 -190 400z" />
<glyph unicode="H" horiz-adv-x="1392" d="M86 0l295 1389h104l-131 -619h1012l131 619h105l-295 -1389h-105l144 676h-1012l-144 -676h-104z" />
<glyph unicode="I" horiz-adv-x="274" d="M86 0l295 1389h104l-295 -1389h-104z" />
<glyph unicode="J" horiz-adv-x="995" d="M76 285q0 29 4 59h106q-4 -25 -4 -47q0 -215 285 -215q186 0 281.5 74.5t134.5 257.5l207 975h104l-209 -988q-88 -416 -530 -415q-379 0 -379 299z" />
<glyph unicode="K" horiz-adv-x="1372" d="M86 0l295 1389h104l-161 -760l1183 760h166l-934 -598l668 -791h-145l-619 731l-344 -225l-109 -506h-104z" />
<glyph unicode="L" horiz-adv-x="1034" d="M86 0l295 1389h104l-274 -1293h876l-20 -96h-981z" />
<glyph unicode="M" horiz-adv-x="1677" d="M86 0l295 1389h119l368 -1248l899 1248h117l-295 -1389h-104l254 1192l-858 -1192h-84l-353 1192l-254 -1192h-104z" />
<glyph unicode="N" horiz-adv-x="1392" d="M86 0l295 1389h108l373 -617l375 -610l260 1227h105l-295 -1389h-109l-745 1233l-263 -1233h-104z" />
<glyph unicode="O" horiz-adv-x="1550" d="M166 502q0 88 22 192q70 330 310 512q231 176 571 176q270 0 432 -114q180 -131 180 -387q0 -86 -20 -187q-70 -328 -307 -518q-164 -131 -295 -166q-86 -25 -285 -24q-272 0 -432 120q-176 136 -176 396zM274 530q0 -223 150 -342q137 -106 371 -106q297 0 498.5 160.5 t262.5 451.5q18 86 19 162q0 168 -92 274.5t-193 137.5q-66 18 -241 18q-295 0 -492 -151q-203 -156 -264 -441q-19 -88 -19 -164z" />
<glyph unicode="P" horiz-adv-x="1271" d="M86 0l295 1389h645q434 0 434 -291q0 -49 -12 -107q-43 -197 -231 -299q-160 -86 -379 -86h-519l-129 -606h-104zM340 702h555q156 0 276 68q139 80 170 221q8 43 9 80q0 221 -332 221h-553z" />
<glyph unicode="Q" horiz-adv-x="1550" d="M166 498q0 90 22 194q70 330 305.5 510t575.5 180q270 0 432 -116q180 -131 180 -387q0 -86 -20 -187q-55 -258 -217 -432q-166 -180 -418 -246q53 -53 152 -53h219l-21 -96h-219q-174 0 -250 125q-66 -8 -135 -8q-270 0 -430 122q-176 136 -176 394zM274 530 q0 -156 78 -264q55 90 152.5 142.5t204.5 52.5q113 0 192 -60q88 -68 88 -176q0 -18 -5 -50t-5 -48q0 -14 2 -29q229 51 377.5 207t197.5 387q18 88 19 164q0 168 -92 274.5t-193 137.5q-66 18 -241 18q-295 0 -492 -151q-205 -158 -264 -443q-19 -86 -19 -162zM418 195 q137 -117 375 -117q45 0 88 4q-4 16 -4 33q0 14 5 44.5t5 47.5q0 78 -58.5 119t-140.5 41q-86 0 -162 -45q-81 -49 -108 -127z" />
<glyph unicode="R" horiz-adv-x="1314" d="M86 0l295 1389h670q420 0 419 -271q0 -6 1 -12q0 -38 -11 -82q-53 -254 -309 -346q158 -68 158 -234q0 -43 -11 -92l-75 -352h-105l74 348q8 35 8 66q0 207 -332 207h-546l-132 -621h-104zM344 721h537q172 0 295 65q147 78 180 232q6 37 6 69q0 205 -328 205h-569z" />
<glyph unicode="S" horiz-adv-x="1314" d="M127 342q0 49 12 107l11 49h104l-10 -41q-10 -51 -11 -95q2 -281 463 -280q182 0 314 53q176 72 207 223q8 35 8 64q0 121 -176 176q-47 14 -277 66q-254 55 -336 102q-133 76 -133 213q0 33 8 68q76 356 625 356q496 0 496 -334q0 -53 -13 -113h-102q8 47 8 86 q0 164 -133 224q-88 41 -277 41q-444 0 -499 -260q-6 -27 -6 -50q0 -106 131 -163q63 -29 223 -58q272 -51 354 -84q211 -84 211 -254q0 -41 -8 -86q-41 -193 -262 -291q-168 -76 -385 -75q-221 0 -363 67q-184 90 -184 289z" />
<glyph unicode="T" horiz-adv-x="1116" d="M250 1292l20 97h1166l-21 -97h-530l-275 -1292h-104l274 1292h-530z" />
<glyph unicode="U" horiz-adv-x="1359" d="M178 358q0 76 19 166l184 865h104l-184 -865q-14 -72 -14 -131q0 -311 411 -311q487 0 580 436l184 871h105l-185 -869q-113 -535 -704 -534q-500 -1 -500 372z" />
<glyph unicode="V" horiz-adv-x="1286" d="M274 1389h111l299 -1242l809 1242h111l-908 -1389h-88z" />
<glyph unicode="W" horiz-adv-x="1986" d="M281 1389h110l279 -1237l456 722l-114 515h110l279 -1239l784 1239h109l-883 -1389h-88l-168 745l-475 -745h-88z" />
<glyph unicode="X" horiz-adv-x="1236" d="M-61 0l766 715l-441 674h137l390 -598l647 598h135l-727 -676l454 -713h-133l-409 637l-686 -637h-133z" />
<glyph unicode="Y" horiz-adv-x="1282" d="M227 1389h135l441 -623l708 623h134l-807 -717l-144 -672h-104l143 672z" />
<glyph unicode="Z" horiz-adv-x="1282" d="M45 0l21 92l1292 1200h-979l20 97h1119l-19 -91l-1294 -1202h1055l-21 -96h-1194z" />
<glyph unicode="[" horiz-adv-x="477" d="M102 -344l394 1847h303l-21 -98h-198l-353 -1651h199l-20 -98h-304z" />
<glyph unicode="\" horiz-adv-x="716" d="M238 1421h110l418 -1421h-111z" />
<glyph unicode="]" horiz-adv-x="477" d="M-76 -344l21 98h196l17 66l336 1585h-197l20 98h304l-396 -1847h-301z" />
<glyph unicode="^" horiz-adv-x="610" d="M295 1047l246 276h77l144 -276h-123l-80 167l-149 -167h-115z" />
<glyph unicode="_" d="M-82 -244l21 99h1136l-20 -99h-1137z" />
<glyph unicode="`" horiz-adv-x="395" d="M311 1337q2 16 29 29q41 27 72 -6l188 -205q12 -12 8 -29q-4 -20 -28 -34q-14 -8 -31 -9q-20 0 -39 15l-145 147q-60 63 -54 92z" />
<glyph unicode="a" horiz-adv-x="1155" d="M119 358q0 66 16 140q49 238 217 382t406 144q274 0 366 -195l41 191h105l-217 -1022h-105l37 180q-178 -201 -457 -201q-240 0 -344 152q-65 96 -65 229zM223 379q0 -147 86 -226t238 -79q188 0 327.5 118.5t180.5 305.5q14 68 14 127q0 152 -92 227.5t-250 75.5 q-188 0 -319.5 -121t-169.5 -309q-15 -64 -15 -119z" />
<glyph unicode="b" horiz-adv-x="1155" d="M88 0l295 1389h104l-114 -543q174 195 448 194q190 0 301 -100t111 -285q0 -70 -19 -151q-49 -240 -213 -379q-168 -145 -407 -145q-264 0 -363 200l-38 -180h-105zM287 389q0 -147 96 -231q90 -82 244 -82q190 0 321 123q125 117 166 307q14 70 14 129 q0 150 -83.5 228.5t-235.5 78.5q-207 0 -337 -117.5t-173 -324.5q-12 -58 -12 -111z" />
<glyph unicode="c" d="M125 352q0 61 14 131q53 248 231.5 394.5t430.5 146.5q356 0 377 -311l-107 -47q-14 262 -295 262q-205 0 -347 -121t-185 -324q-12 -59 -13 -110q0 -150 99 -228q90 -72 245 -71q322 0 439 286l90 -43q-154 -340 -547 -340q-193 0 -307 93q-125 98 -125 282z" />
<glyph unicode="d" horiz-adv-x="1155" d="M121 362q0 68 16 144q49 238 217 385t408 147q274 0 366 -194l115 545h105l-295 -1389h-105l39 180q-180 -203 -459 -203q-240 0 -342 154q-65 96 -65 231zM225 385q0 -147 85 -229t237 -82q186 0 327.5 122.5t182.5 309.5q14 70 14 129q0 152 -91 229.5t-249 77.5 q-188 0 -320 -124t-171 -312q-15 -66 -15 -121z" />
<glyph unicode="e" d="M111 344q0 72 18 154q49 236 221 381t410 145q188 0 303 -88q127 -96 127 -277q0 -57 -14 -122l-17 -72l-936 -2q-8 -53 -8 -101q0 -289 338 -288q297 0 442 243h107q-178 -340 -574 -340q-195 0 -301 89q-116 94 -116 278zM246 559h819q6 39 6 76q0 143 -94 221 q-88 72 -238 72q-176 0 -307 -99.5t-186 -269.5z" />
<glyph unicode="f" horiz-adv-x="546" d="M178 -2l172 815h-147l22 98h148l12 66q84 387 604 387l-20 -94q-416 0 -480 -293l-12 -66h228l-23 -98h-227l-172 -815h-105z" />
<glyph unicode="g" horiz-adv-x="1116" d="M82 -86q0 39 6 80h105q-2 -25 -3 -47q0 -217 299 -217q381 0 449 319l29 131q-178 -180 -441 -180q-184 0 -290 96q-113 98 -113 277q0 63 16 135q49 233 216 374.5t403 141.5q258 0 348 -184l35 161h104l-203 -954q-88 -414 -575 -414q-385 0 -385 281zM231 395 q0 -141 83 -220t229 -79q186 0 319 111.5t172 296.5q12 57 13 108q0 111 -54 195q-82 121 -260 121q-182 0 -316 -119t-173 -299q-13 -62 -13 -115z" />
<glyph unicode="h" d="M88 0l295 1389h104l-108 -510q154 162 403 161q150 0 244 -61q113 -72 113 -211q0 -41 -11 -86l-145 -682h-104l141 664q8 39 8 73q0 205 -264 205q-172 0 -293 -102.5t-158 -270.5l-120 -569h-105z" />
<glyph unicode="i" horiz-adv-x="278" d="M88 0l215 1016h105l-215 -1016h-105zM348 1223l31 143q27 41 57 41q25 0 47 -37l-32 -151q-35 -37 -62 -37q-33 0 -41 41z" />
<glyph unicode="j" horiz-adv-x="278" d="M-412 -367l21 97q416 0 485 323l203 961h104l-204 -963q-89 -418 -609 -418zM348 1221l31 145q27 41 57 41q25 0 47 -37l-32 -153q-35 -35 -62 -35q-33 0 -41 39z" />
<glyph unicode="k" horiz-adv-x="1089" d="M88 0l295 1389h104l-184 -873l809 502l182 -4l-657 -398l455 -616h-142l-409 557l-265 -162l-83 -395h-105z" />
<glyph unicode="l" horiz-adv-x="278" d="M88 0l295 1389h104l-294 -1389h-105z" />
<glyph unicode="m" horiz-adv-x="1673" d="M88 0l213 1001h105l-29 -131q147 154 373 154q231 0 284 -176q139 176 391 176q313 0 314 -245q0 -50 -13 -107l-143 -672h-104l139 653q10 49 10 90q0 184 -219 185q-145 0 -250.5 -81t-136.5 -220l-133 -627h-105l140 653q10 49 10 90q-2 184 -225 185 q-152 0 -263 -111q-102 -100 -135 -256l-118 -561h-105z" />
<glyph unicode="n" d="M88 0l213 1001h105l-29 -137q152 160 401 160q150 0 244 -59q113 -70 113 -209q0 -39 -9 -84l-143 -672h-104l139 653q8 39 8 74q0 201 -266 201q-170 0 -291 -99.5t-158 -267.5l-118 -561h-105z" />
<glyph unicode="o" horiz-adv-x="1116" d="M121 367q0 61 14 133q51 238 226.5 381t416.5 143q195 0 309 -96q125 -102 125 -289q0 -66 -16 -139q-51 -238 -226 -380.5t-417 -142.5q-195 0 -309 99q-123 103 -123 291zM227 385q0 -152 99 -233q92 -78 249 -78q197 0 336.5 115.5t180.5 310.5q12 61 12 114 q0 115 -59.5 196t-126.5 103q-45 14 -162 15q-199 0 -337 -116t-179 -312q-13 -62 -13 -115z" />
<glyph unicode="p" horiz-adv-x="1155" d="M14 -344l287 1345h105l-37 -174q176 197 446 197q193 0 301 -94q115 -100 115 -285q0 -70 -17 -147q-53 -244 -213 -385q-166 -150 -409 -150q-272 0 -365 197l-108 -504h-105zM283 365q0 -305 338 -306q193 0 325 125q123 117 164 312q14 63 14 120q0 145 -84 228.5 t-233 83.5q-193 0 -330 -119t-178 -309q-16 -74 -16 -135z" />
<glyph unicode="q" horiz-adv-x="1155" d="M119 356q0 66 16 142q49 231 218 378.5t401 147.5q276 0 368 -197l37 174h105l-287 -1345h-105l107 496q-168 -188 -459 -189q-229 0 -334 158q-67 100 -67 235zM225 377q0 -106 49 -187q80 -131 267 -131q205 0 340 119q129 115 172 318q14 61 14 114q0 115 -59.5 198 t-124.5 105q-45 14 -160 15q-186 0 -320 -127q-125 -117 -165 -305q-13 -64 -13 -119z" />
<glyph unicode="r" horiz-adv-x="651" d="M88 0l213 1001h105l-37 -170q43 47 96 84q158 109 381 109l-21 -96q-436 0 -546 -527l-86 -401h-105z" />
<glyph unicode="s" horiz-adv-x="995" d="M135 383h109q-12 -53 -13 -98q0 -211 297 -211q301 0 340 190q4 14 4 29q0 98 -172 141q-18 4 -198 33q-256 41 -256 211q0 25 6 55q31 141 166 221q121 72 274 72q375 0 375 -261v-3q0 -45 -10 -100h-111q8 45 8 81q0 182 -272 183q-111 0 -197 -43q-104 -53 -125 -150 q-2 -14 -2 -28q0 -98 170 -130q51 -10 209 -38q248 -45 248 -213q0 -29 -8 -60q-33 -154 -178 -229q-121 -61 -295 -62q-383 0 -383 288q0 58 14 122z" />
<glyph unicode="t" horiz-adv-x="538" d="M195 860l20 96h203l65 301h105l-66 -301h207l-20 -96h-207l-183 -860h-100l178 860h-202z" />
<glyph unicode="u" d="M152 254q0 45 10 96l139 649h105l-138 -647q-10 -43 -10 -80q0 -199 270 -198q367 0 449 385l115 540h104l-213 -1001h-104l28 139q-154 -160 -399 -160q-156 0 -248 60q-108 72 -108 217z" />
<glyph unicode="v" horiz-adv-x="964" d="M184 999h121l223 -866l566 866h114l-659 -999h-94z" />
<glyph unicode="w" horiz-adv-x="1579" d="M223 999h119l203 -862l340 539l-82 323h121l200 -862l545 862h113l-635 -999h-96l-136 547l-350 -547h-94z" />
<glyph unicode="x" horiz-adv-x="956" d="M-59 0l581 518l-325 481h135l270 -409l455 409h131l-531 -481l359 -518h-135l-310 442l-495 -442h-135z" />
<glyph unicode="y" d="M33 -86q0 39 6 80h104q-2 -25 -2 -47q0 -217 299 -217q381 0 449 319l16 76q-156 -162 -401 -162q-154 0 -246 62q-109 74 -108 217q0 47 10 98l141 659h105l-142 -657q-8 -47 -8 -86q2 -197 268 -197q367 0 451 392l117 548h104l-203 -952q-88 -414 -577 -414 q-383 0 -383 281z" />
<glyph unicode="z" horiz-adv-x="968" d="M27 0l18 86l911 817h-677l20 96h821l-18 -84l-912 -819h773l-21 -96h-915z" />
<glyph unicode="{" horiz-adv-x="716" d="M268 545l15 71q57 23 139 66q39 37 61 149l97 453q47 219 237 219h53l-20 -98h-51q-59 0 -90 -51q-16 -29 -35 -119l-86 -408q-29 -135 -86 -194q-27 -27 -82 -53q45 -27 59 -52q33 -57 2 -196l-86 -406q-18 -92 -14 -121q6 -51 65 -51h52l-21 -98h-53q-152 0 -152 141 q0 35 9 78l96 453q25 115 2 149q-15 23 -111 68z" />
<glyph unicode="|" horiz-adv-x="477" d="M172 -66l322 1512h104l-322 -1512h-104z" />
<glyph unicode="}" horiz-adv-x="716" d="M78 -344l20 98h52q61 0 90 51q16 29 34 121l86 406q31 139 89 196q25 25 79 52q-43 27 -57 53q-33 59 -4 194l86 408q18 90 14 119q-6 51 -65 51h-51l20 98h53q154 0 154 -141q0 -35 -10 -78l-97 -453q-27 -125 7 -155q25 -23 104 -60l-14 -71q-59 -23 -140 -68 q-39 -37 -63 -149l-96 -453q-47 -219 -238 -219h-53z" />
<glyph unicode="~" horiz-adv-x="1122" d="M233 717q84 213 312 213q66 0 215 -60.5t190 -60.5q115 0 164 125h127q-41 -109 -126 -162t-183 -53q-68 0 -223 61q-145 57 -187 58q-111 0 -162 -121h-127z" />
<glyph unicode="&#xa0;" />
<glyph unicode="&#xa1;" horiz-adv-x="397" d="M104 -195l224 1049h104l-223 -1049h-105zM362 1016l29 127q10 51 64 51q51 0 41 -51l-29 -127q-10 -49 -61 -49q-54 0 -44 49z" />
<glyph unicode="&#xa2;" d="M125 352q0 61 14 131q53 250 231.5 398.5t432.5 148.5q72 0 133 -16l84 114h110l-106 -147q141 -76 154 -266l-107 -47q-8 166 -108 225l-566 -789q72 -33 176 -32q324 0 441 288l90 -43q-154 -342 -549 -342q-129 0 -221 41l-68 -90h-110l102 137q-133 107 -133 289z M231 373q0 -137 88 -219l553 770q-43 10 -94 10q-207 0 -348 -123t-186 -328q-13 -59 -13 -110z" />
<glyph unicode="&#xa3;" horiz-adv-x="1196" d="M143 496l37 96h142l32 151h-110l43 99h88q51 240 226 386t421 146q236 0 367 -170l-91 -67q-106 141 -299 141q-201 0 -339 -120t-181 -316h611l-43 -99h-588l-33 -151h557l-37 -96h-540q-10 -55 -11 -105q0 -154 94.5 -236.5t251.5 -82.5q193 0 361 139l63 -64 q-207 -172 -442 -172q-197 0 -311 99q-123 104 -123 295q0 59 12 127h-158z" />
<glyph unicode="&#xa4;" horiz-adv-x="1196" d="M188 453l248 176q-35 51 -35 112q0 125 109 220l-176 178l90 61l172 -176q98 53 209 53q113 0 186 -53l250 176l62 -61l-248 -176q35 -53 35 -115q0 -123 -105 -221l172 -174l-88 -62l-172 172q-98 -55 -211 -55q-115 0 -188 57l-246 -174zM506 756q0 -74 65 -119 q55 -37 134 -37q96 0 174 49q86 55 104 144q4 20 4 41q0 76 -65 116q-55 35 -136 35q-94 0 -172 -49q-84 -53 -104 -141q-4 -21 -4 -39z" />
<glyph unicode="&#xa5;" horiz-adv-x="1320" d="M229 252l21 98h434l33 152h-434l20 96h434l17 74l-506 717h135l440 -623l709 623h133l-807 -717l-16 -74h434l-21 -96h-434l-33 -152h435l-21 -98h-434l-53 -252h-105l54 252h-435z" />
<glyph unicode="&#xa6;" horiz-adv-x="477" d="M176 -47l146 680h104l-145 -680h-105zM344 745l145 680h105l-145 -680h-105z" />
<glyph unicode="&#xa7;" horiz-adv-x="1196" d="M195 43q0 45 12 100h104q-10 -45 -10 -82q0 -186 274 -186q115 0 201 45q102 51 125 154q4 18 4 35q0 96 -133 122l-305 62q-76 25 -129 84t-53 135q0 31 10 63q51 176 242 238q-119 59 -119 172q0 25 6 53q29 139 166 222q123 74 272 73q373 0 373 -264q0 -47 -12 -102 h-105q10 45 10 84q0 186 -274 186q-111 0 -201 -45q-104 -55 -125 -154q-4 -16 -4 -30q0 -72 84 -107q37 -16 246 -59q98 -8 172 -47q123 -61 123 -179q0 -27 -6 -57q-41 -195 -252 -262q119 -59 119 -172q0 -25 -4 -51q-31 -139 -166 -221q-123 -74 -275 -74 q-370 0 -370 264zM399 543q0 -94 107 -144q82 -37 188 -37q121 0 209 39q111 51 135 154q-6 195 -303 195q-246 0 -323 -142q-13 -30 -13 -65z" />
<glyph unicode="&#xa8;" horiz-adv-x="438" d="M297 1161l16 78q8 39 62 39q51 0 43 -39l-17 -78q-10 -41 -61 -41q-53 0 -43 41zM535 1161l16 78q8 39 59 39q53 0 45 -39l-16 -78q-10 -41 -64 -41q-50 0 -40 41z" />
<glyph unicode="&#xa9;" horiz-adv-x="1146" d="M244 831q0 47 10 97q43 201 229 327q178 121 389 121q176 0 302 -88q139 -98 139 -266q0 -45 -10 -92q-41 -201 -228 -328q-176 -119 -389 -119q-178 0 -301 84q-141 94 -141 264zM356 858q0 -131 111 -209q98 -70 235 -69q168 0 308 92q152 98 184 256q8 37 8 71 q0 131 -110 209q-100 70 -236 70q-168 0 -309 -92q-150 -98 -185 -256q-6 -37 -6 -72zM459 854q0 33 8 70q29 135 137 211q102 74 244 73q248 0 237 -241h-110q0 143 -150 143q-92 0 -161.5 -49t-88.5 -137q-6 -25 -6 -47q0 -147 187 -148q125 0 202 150h115 q-131 -248 -340 -248q-115 0 -190 53q-84 59 -84 170z" />
<glyph unicode="&#xaa;" horiz-adv-x="774" d="M266 942q0 39 8 82q33 147 140.5 235.5t259.5 88.5q139 0 205 -74l16 72h109l-136 -633h-108l14 65q-102 -78 -242 -78q-121 0 -193.5 62.5t-72.5 179.5zM377 961q0 -164 176 -164q100 0 176 64.5t96 162.5q8 35 9 66q0 59 -30 101t-67 52q-25 8 -88 8 q-102 0 -172.5 -62.5t-93.5 -164.5q-6 -34 -6 -63z" />
<glyph unicode="&#xab;" horiz-adv-x="800" d="M227 528l13 64l417 237l-22 -108l-277 -160l207 -162l-20 -102zM465 528l12 64l418 237l-23 -108l-276 -160l207 -162l-21 -102z" />
<glyph unicode="&#xac;" horiz-adv-x="1232" d="M182 532l19 86h1067l-74 -344h-104l55 258h-963z" />
<glyph unicode="&#xad;" horiz-adv-x="1212" d="M172 473l8 39h1039l-9 -39h-1038z" />
<glyph unicode="&#x2212;" horiz-adv-x="1212" d="M172 473l8 39h1039l-9 -39h-1038z" />
<glyph unicode="&#xae;" horiz-adv-x="1112" d="M223 834q0 45 10 94q43 201 230 327q178 121 389 121q174 0 299 -86q141 -98 141 -266q0 -45 -12 -94q-43 -205 -227 -330q-172 -117 -389 -117q-176 0 -299 86q-142 97 -142 265zM334 856q0 -135 110 -211q96 -66 238 -65q170 0 307 92q150 98 182 256q23 109 -17 189.5 t-136 123.5q-84 37 -184 37q-170 0 -308 -92q-150 -98 -184 -256q-8 -39 -8 -74zM487 647l119 553h264q174 0 172 -121q0 -104 -81 -164q37 -39 22 -110l-35 -158h-110l32 156q14 63 -77 63h-150l-47 -219h-109zM664 967h145q104 0 121 69q12 63 -82 64h-156z" />
<glyph unicode="&#xaf;" horiz-adv-x="641" d="M301 1223l8 39h561l-8 -39h-561z" />
<glyph unicode="&#x2c9;" horiz-adv-x="641" d="M301 1223l8 39h561l-8 -39h-561z" />
<glyph unicode="&#xb0;" horiz-adv-x="860" d="M313 1010q0 154 152 256q115 76 248 75q113 0 192 -53q94 -61 94 -168q0 -25 -6 -53q-27 -125 -149 -205q-113 -74 -246 -74q-113 0 -192 54q-93 62 -93 168zM418 1030q0 -74 65 -115q55 -37 133 -36q96 0 172 47q84 51 105 139q4 20 4 39q0 74 -68 115q-55 33 -133 32 q-94 0 -170 -47q-86 -51 -104 -137q-4 -21 -4 -37z" />
<glyph unicode="&#xb1;" horiz-adv-x="1290" d="M201 -6l20 96h889l-20 -96h-889zM299 463l20 94h392l69 330h105l-70 -330h393l-20 -94h-393l-72 -336h-105l72 336h-391z" />
<glyph unicode="&#xb2;" horiz-adv-x="802" d="M154 524q53 246 348 396l248 124q104 55 104 117q0 96 -180 96q-238 0 -289 -233h-111q72 332 412 332q281 0 281 -170q0 -25 -6 -53q-23 -106 -197 -189l-199 -94q-217 -104 -274 -229h600l-21 -97h-716z" />
<glyph unicode="&#xb3;" horiz-adv-x="872" d="M225 739q0 31 8 66l11 49h112l-14 -68q-4 -16 -4 -32q0 -76 82 -113q63 -27 149 -27q100 0 176 31q100 41 119 123q4 18 4 33q-2 115 -209 114h-104l20 99h107q246 0 246 147q0 96 -203 96q-256 0 -303 -221h-111q68 319 432 320q111 0 191 -33q106 -47 106 -143 q0 -18 -4 -41q-25 -119 -141 -174q86 -47 86 -142q0 -27 -6 -55q-29 -127 -162 -195q-113 -57 -256 -57q-135 0 -221 45q-111 57 -111 178z" />
<glyph unicode="&#xb4;" horiz-adv-x="434" d="M285 1124q2 16 22 31l275 207q23 16 47 16q53 0 45 -43q-4 -18 -25 -32l-274 -205q-18 -14 -45 -15q-55 0 -45 41z" />
<glyph unicode="&#xb5;" d="M14 -350l287 1349h105l-117 -548q-14 -66 -15 -121q0 -270 297 -271q319 0 381 285l140 655h104l-141 -657q-49 -233 -250 -326q-31 -14 -35 -39q-14 -68 152 -67l-23 -105q-92 0 -158 25q-94 37 -94 113q0 12 4 26q-49 -6 -100 -6q-248 0 -332 160l-100 -473h-105z" />
<glyph unicode="&#xb6;" horiz-adv-x="1015" d="M285 840q0 47 10 98q43 203 233 332q176 121 392 121q8 0 16 -2h278l-352 -1661h-104l332 1564h-115l-332 -1564h-104l161 759q-172 -2 -288 88q-127 99 -127 265z" />
<glyph unicode="&#xb7;" horiz-adv-x="428" d="M322 616l20 95q8 41 61 41q51 0 43 -41l-20 -95q-8 -43 -59 -43q-53 0 -45 43z" />
<glyph unicode="&#x2219;" horiz-adv-x="428" d="M322 616l20 95q8 41 61 41q51 0 43 -41l-20 -95q-8 -43 -59 -43q-53 0 -45 43z" />
<glyph unicode="&#xb8;" horiz-adv-x="530" d="M-45 -317l68 81q102 -33 165 -32q135 0 150 61q6 37 -86 43q-55 4 -113 -18l13 53l49 147h102l-24 -94q174 0 174 -104q0 -14 -4 -33q-31 -143 -273 -143q-80 0 -221 39z" />
<glyph unicode="&#xb9;" horiz-adv-x="587" d="M195 1083l464 254h84l-172 -805h-114l141 662l-211 -111h-192z" />
<glyph unicode="&#xba;" horiz-adv-x="845" d="M274 958q0 33 9 72q31 147 155 234q117 80 273 79q127 0 207 -57q94 -63 94 -182q0 -35 -8 -74q-31 -147 -158 -233q-117 -80 -275 -80q-125 0 -204 57q-93 63 -93 184zM377 975q0 -86 65 -133q59 -39 150 -39q117 0 199 57q90 59 112 170q6 31 6 57q0 86 -69 132 q-59 39 -150 38q-113 0 -198.5 -60t-108.5 -167q-6 -28 -6 -55z" />
<glyph unicode="&#xbb;" horiz-adv-x="780" d="M178 297l21 102l276 162l-207 160l23 108l315 -237l-12 -64zM416 297l20 102l277 162l-207 160l22 108l316 -237l-13 -64z" />
<glyph unicode="&#xbc;" horiz-adv-x="1671" d="M254 1085l444 252h82l-174 -821h-104l145 688l-217 -119h-176zM362 0l1016 1421h111l-1016 -1421h-111zM784 268l467 572h115l-393 -480h391l102 482l103 -4l-103 -478h189l-19 -92h-188l-57 -268h-103l58 268h-562z" />
<glyph unicode="&#xbd;" horiz-adv-x="1644" d="M231 1085l445 252h82l-174 -821h-105l146 688l-215 -119h-179zM340 0l1018 1421h110l-1017 -1421h-111zM866 0q59 262 369 414l201 98q119 57 131 115q4 16 4 28q0 102 -185 103q-242 0 -294 -244h-101q74 334 406 334q274 0 274 -172q0 -25 -6 -53q-23 -102 -180 -181 l-205 -104q-236 -121 -287 -248h598l-18 -90h-707z" />
<glyph unicode="&#xbe;" horiz-adv-x="1855" d="M250 713q0 37 8 78l10 47h101l-15 -64q-4 -18 -4 -37q0 -78 86 -116q63 -29 152 -29q104 0 182 33q102 43 121 129q4 20 4 37q0 123 -213 122h-98l18 91h100q254 0 254 157q0 102 -208 103q-260 0 -308 -228h-100q70 317 424 318q295 0 295 -174q0 -23 -4 -45 q-27 -121 -156 -179q98 -51 98 -151q0 -25 -6 -51q-27 -125 -160 -195q-115 -59 -256 -59q-323 0 -325 213zM549 0l1018 1421h110l-1018 -1421h-110zM971 268l469 572h114l-395 -480h391l103 482l102 -4l-102 -478h188l-18 -92h-189l-57 -268h-102l57 268h-561z" />
<glyph unicode="&#xbf;" d="M74 76q0 176 170 319l243 191q131 106 156 227l16 76h107l-14 -68q-43 -203 -291 -372q-125 -84 -168 -125q-86 -82 -107 -177q-6 -27 -6 -51q0 -106 107 -155q80 -39 198 -39q188 0 299 88t168 272l86 -59q-139 -397 -575 -398q-154 0 -258 58q-131 72 -131 213z M696 1049l27 127q10 51 61 51q53 0 43 -51l-26 -127q-10 -49 -64 -50q-51 1 -41 50z" />
<glyph unicode="&#xc0;" horiz-adv-x="1384" d="M4 0l948 1401h97l331 -1401h-114l-105 440h-741l-297 -440h-119zM485 539h654l-168 710zM887 1710q6 23 31 37q18 12 34 12q20 0 35 -20l182 -242q14 -16 11 -37q-6 -23 -33 -37q-45 -25 -68 9l-182 243q-12 17 -10 35z" />
<glyph unicode="&#xc1;" horiz-adv-x="1384" d="M4 0l948 1401h97l331 -1401h-114l-105 440h-741l-297 -440h-119zM485 539h654l-168 710zM838 1466q4 20 22 35l285 242q25 20 45 20q51 0 41 -49q-4 -20 -23 -35l-282 -243q-20 -18 -45 -19q-53 0 -43 49z" />
<glyph unicode="&#xc2;" horiz-adv-x="1384" d="M4 0l948 1401h97l331 -1401h-114l-105 440h-741l-297 -440h-119zM485 539h654l-170 708zM715 1407l311 328h76l178 -328h-127l-115 211l-204 -211h-119z" />
<glyph unicode="&#xc3;" horiz-adv-x="1384" d="M4 0l948 1399h97l331 -1399h-114l-105 440h-741l-297 -440h-119zM485 537h654l-170 708zM715 1470q14 72 74.5 121t134.5 49q39 0 139 -57q92 -51 113 -51q70 0 104 131l84 -53q-23 -82 -83 -128t-126 -46q-43 0 -143 57q-90 51 -113 51q-68 0 -102 -135z" />
<glyph unicode="&#xc4;" horiz-adv-x="1384" d="M4 0l948 1397h97l331 -1397h-114l-105 440h-741l-297 -440h-119zM485 537h654l-170 708zM840 1477l24 108q10 51 64 51q51 0 41 -51l-25 -108q-10 -51 -61 -52q-53 1 -43 52zM1077 1477l25 108q10 51 61 51q53 0 43 -51l-24 -108q-10 -51 -64 -52q-51 1 -41 52z" />
<glyph unicode="&#xc5;" horiz-adv-x="1384" d="M4 0l950 1403h97l329 -1403h-114l-105 442h-741l-297 -442h-119zM485 539h654l-168 710zM842 1575q0 100 88 164q68 49 145 49q66 0 112 -36t46 -99q0 -100 -88 -164q-66 -49 -146 -49q-63 0 -110 36t-47 99zM952 1591q2 -51 70 -51q102 0 102 94q0 51 -71 52 q-82 0 -99 -72q-2 -13 -2 -23z" />
<glyph unicode="&#xc6;" horiz-adv-x="2205" d="M-94 0l1571 1389h950l-21 -97h-847l-111 -520h94v-2h645l-20 -94h-740l-120 -580h856l-21 -96h-964l143 676h-518l-764 -676h-133zM913 772h428l103 465z" />
<glyph unicode="&#xc7;" horiz-adv-x="1472" d="M197 498q0 84 20 180q72 334 316.5 529.5t588.5 195.5q399 0 531 -268l-101 -56q-109 225 -452 226q-295 0 -505 -166t-271 -453q-18 -88 -19 -164q0 -221 146 -340q135 -111 364 -110q330 0 553 229l78 -55q-264 -272 -649 -273q-336 0 -492 191q-110 133 -108 334z M467 -313l72 90q102 -35 166 -35q133 0 147 70q10 41 -80 49q-57 6 -115 -21l15 60l51 166h104l-26 -107q170 0 170 -115q0 -18 -4 -41q-35 -160 -277 -159q-80 0 -223 43z" />
<glyph unicode="&#xc8;" horiz-adv-x="1155" d="M86 0l297 1401h1057l-21 -98h-954l-111 -525h846l-20 -96h-846l-125 -584h965l-21 -98h-1067zM766 1692q4 20 26.5 34.5t38.5 14.5q18 0 35 -21l181 -241q12 -14 8 -35q-6 -25 -29 -39q-45 -29 -72 8l-180 242q-12 17 -8 37z" />
<glyph unicode="&#xc9;" horiz-adv-x="1155" d="M86 0l297 1401h1057l-21 -98h-954l-111 -525h846l-20 -96h-846l-125 -584h965l-21 -98h-1067zM715 1444q4 20 20 35l287 241q20 18 41 19q55 0 45 -49q-2 -18 -23 -35l-282 -242q-23 -18 -45 -18q-53 0 -43 49z" />
<glyph unicode="&#xca;" horiz-adv-x="1155" d="M86 0l297 1401h1057l-21 -96h-954l-111 -527h846l-20 -96h-846l-125 -584h965l-21 -98h-1067zM598 1427l311 328h76l180 -328h-129l-114 211l-205 -211h-119z" />
<glyph unicode="&#xcb;" horiz-adv-x="1155" d="M86 0l297 1399h1057l-21 -99h-954l-111 -524h846l-20 -94h-846l-125 -586h965l-21 -96h-1067zM725 1493l23 109q12 51 63 51q53 0 41 -51l-23 -109q-10 -51 -63 -51q-51 0 -41 51zM961 1493l22 109q12 51 66 51q51 0 38 -51l-22 -109q-10 -51 -61 -51q-53 0 -43 51z" />
<glyph unicode="&#xcc;" horiz-adv-x="274" d="M86 0l297 1401h104l-297 -1401h-104zM332 1720q4 23 30 39q43 29 72 -8l180 -242q10 -14 7 -34q-6 -25 -29 -39q-45 -27 -72 8l-180 242q-12 16 -8 34z" />
<glyph unicode="&#xcd;" horiz-adv-x="274" d="M86 0l297 1401h104l-297 -1401h-104zM276 1466q4 18 25 35l283 242q25 20 47 20q53 0 43 -49q-4 -18 -25 -35l-282 -243q-20 -18 -45 -19q-56 0 -46 49z" />
<glyph unicode="&#xce;" horiz-adv-x="274" d="M86 0l297 1401h104l-297 -1401h-104zM156 1419l311 328h76l180 -328h-127l-115 211l-209 -211h-116z" />
<glyph unicode="&#xcf;" horiz-adv-x="274" d="M86 0l297 1399h104l-297 -1399h-104zM287 1509l22 109q10 49 66 49q51 0 41 -49l-23 -109q-12 -53 -63 -53q-55 0 -43 53zM526 1509l23 109q10 49 61 49q53 0 43 -49l-22 -109q-12 -53 -66 -53q-51 0 -39 53z" />
<glyph unicode="&#xd0;" horiz-adv-x="1392" d="M86 0l137 647h-76l21 98h76l137 644h559q567 0 567 -486q0 -96 -24 -211q-72 -338 -324 -520q-240 -172 -592 -172h-481zM211 96h383q309 0 510 148q211 154 274 448q23 104 23 191q0 410 -483 409h-453l-117 -547h406l-21 -98h-405z" />
<glyph unicode="&#xd1;" horiz-adv-x="1392" d="M86 0l297 1397h109q143 -252 372 -621q281 -453 373 -614l262 1235h105l-297 -1397h-109l-743 1241l-265 -1241h-104zM696 1458q16 70 77 120t132 50q41 0 142 -57q90 -51 112 -51q68 0 103 129l86 -50q-23 -82 -83.5 -129t-125.5 -47q-43 0 -144 58q-92 51 -112 51 q-68 0 -103 -135z" />
<glyph unicode="&#xd2;" horiz-adv-x="1550" d="M168 510q0 88 22 190q70 332 305.5 513.5t577.5 181.5q270 0 430 -117q180 -133 180 -389q0 -88 -20 -189q-72 -332 -309 -522q-164 -133 -295 -168q-86 -25 -285 -24q-274 0 -434 125q-174 137 -172 399zM274 535q0 -225 150 -342q137 -109 371 -109q297 0 498.5 163 t265.5 453q18 92 18 170q0 166 -92 272.5t-193 137.5q-66 18 -239 18q-297 0 -498 -155.5t-260 -442.5q-21 -89 -21 -165zM971 1720q8 43 63 43q25 0 37 -16l180 -242q12 -14 9 -35q-6 -25 -31 -38q-43 -25 -70 8l-180 241q-12 21 -8 39z" />
<glyph unicode="&#xd3;" horiz-adv-x="1550" d="M168 510q0 88 22 190q70 332 305.5 513.5t577.5 181.5q270 0 430 -117q180 -133 180 -389q0 -88 -20 -189q-72 -332 -309 -522q-164 -133 -295 -168q-86 -25 -285 -24q-274 0 -434 125q-174 137 -172 399zM274 535q0 -225 150 -342q137 -109 371 -109q297 0 498.5 163 t265.5 453q18 92 18 170q0 166 -92 272.5t-193 137.5q-66 18 -239 18q-297 0 -498 -155.5t-260 -442.5q-21 -89 -21 -165zM918 1477q4 20 24 34l283 244q39 35 75 8q20 -14 15 -37q-4 -20 -25 -36l-286 -244q-25 -16 -43 -16q-53 0 -43 47z" />
<glyph unicode="&#xd4;" horiz-adv-x="1550" d="M168 510q0 88 22 190q70 332 305.5 513.5t577.5 181.5q270 0 430 -117q180 -133 180 -389q0 -88 -20 -189q-72 -332 -309 -522q-164 -133 -295 -168q-86 -25 -285 -24q-274 0 -434 125q-174 137 -172 399zM274 535q0 -225 150 -342q137 -109 371 -109q297 0 498.5 163 t265.5 453q18 92 18 170q0 166 -92 272.5t-193 137.5q-66 18 -239 18q-297 0 -498 -155.5t-260 -442.5q-21 -89 -21 -165zM801 1444l309 325h74l182 -325h-125l-117 209l-206 -209h-117z" />
<glyph unicode="&#xd5;" horiz-adv-x="1550" d="M168 502q0 90 20 196q72 332 307.5 513.5t577.5 181.5q270 0 430 -117q180 -133 180 -389q0 -88 -22 -189q-70 -330 -307 -520q-164 -133 -295 -168q-86 -25 -285 -24q-272 0 -430 123q-176 135 -176 393zM274 532q0 -223 150 -342q137 -106 371 -106q297 0 498.5 162 t262.5 452q20 90 21 168q0 168 -92 274.5t-193 137.5q-66 18 -239 18q-297 0 -498 -155.5t-262 -442.5q-19 -88 -19 -166zM791 1501q14 70 75.5 120t130.5 50q41 0 142 -57q92 -51 110 -51q72 0 107 131l84 -54q-27 -82 -86.5 -128t-124.5 -46q-39 0 -142 58q-90 51 -112 51 q-66 0 -107 -135z" />
<glyph unicode="&#xd6;" horiz-adv-x="1550" d="M168 502q0 90 20 196q72 332 307.5 513.5t577.5 181.5q270 0 430 -117q180 -133 180 -389q0 -88 -22 -189q-70 -330 -307 -520q-164 -133 -295 -168q-86 -25 -285 -24q-272 0 -430 123q-176 135 -176 393zM274 532q0 -223 150 -342q137 -106 371 -106q297 0 498.5 162 t262.5 452q20 90 21 166q0 170 -92 275.5t-193 136.5q-66 18 -241 18q-295 0 -496 -154.5t-262 -441.5q-19 -88 -19 -166zM928 1509l22 109q10 49 62 49q53 0 43 -49l-23 -109q-12 -53 -65 -53q-51 0 -39 53zM1163 1509l23 109q10 49 63 49q51 0 41 -49l-22 -109 q-12 -53 -64 -53q-53 0 -41 53z" />
<glyph unicode="&#xd7;" horiz-adv-x="1003" d="M211 289l324 227l-228 223l90 64l228 -225l323 225l66 -66l-324 -221l230 -231l-93 -62l-229 228l-326 -224z" />
<glyph unicode="&#xd8;" horiz-adv-x="1550" d="M168 512q0 86 20 182q70 330 310 512q231 178 573 178q154 0 268 -34l68 92h111l-93 -127q256 -135 256 -434q0 -86 -20 -187q-70 -330 -307 -520q-164 -131 -295 -166q-86 -25 -287 -24q-156 0 -270 41l-62 -84h-110l86 120q-248 136 -248 451zM274 537q0 -119 52 -222 q55 -109 155 -161l795 1106q-98 29 -225 28q-295 0 -494 -151q-203 -158 -264 -443q-19 -83 -19 -157zM567 115q96 -35 226 -35q297 0 499.5 161.5t263.5 452.5q18 90 19 166q0 258 -215 365z" />
<glyph unicode="&#xd9;" horiz-adv-x="1359" d="M178 358q0 78 21 170l184 873h104l-184 -871q-14 -72 -14 -133q0 -313 409 -313q487 0 580 438l186 879h105l-187 -877q-113 -539 -704 -538q-500 -1 -500 372zM870 1702q4 25 37 41q39 20 66 -12l180 -240q12 -16 8 -37q-4 -23 -31 -39q-37 -23 -69 6l-182 246 q-13 17 -9 35z" />
<glyph unicode="&#xda;" horiz-adv-x="1359" d="M178 358q0 78 21 170l184 873h104l-184 -871q-14 -72 -14 -133q0 -313 409 -313q487 0 580 438l186 879h105l-187 -877q-113 -539 -704 -538q-500 -1 -500 372zM817 1458q4 20 25 37l282 240q25 20 47 20q53 0 43 -49q-4 -18 -24 -35l-285 -244q-18 -16 -45 -16 q-53 0 -43 47z" />
<glyph unicode="&#xdb;" horiz-adv-x="1359" d="M178 358q0 78 21 170l184 873h104l-184 -871q-14 -72 -14 -133q0 -313 409 -313q487 0 580 438l186 879h105l-187 -877q-113 -539 -704 -538q-500 -1 -500 372zM700 1423l312 328h75l181 -328h-125l-119 211l-205 -211h-119z" />
<glyph unicode="&#xdc;" horiz-adv-x="1359" d="M178 358q0 76 21 168l184 873h104l-184 -871q-16 -72 -16 -133q0 -311 411 -311q487 0 580 436l186 879h105l-187 -877q-113 -537 -704 -536q-500 -1 -500 372zM831 1509l23 109q10 49 61 49q53 0 43 -49l-22 -109q-12 -53 -66 -53q-51 0 -39 53zM1067 1509l23 109 q10 49 63 49q51 0 41 -49l-23 -109q-12 -53 -63 -53q-53 0 -41 53z" />
<glyph unicode="&#xdd;" horiz-adv-x="1345" d="M262 1401h135l441 -627l708 627h133l-809 -723l-143 -678h-104l143 678zM815 1466q4 20 23 35l284 242q25 20 47 20q53 0 43 -49q-4 -18 -24 -35l-285 -243q-23 -18 -45 -19q-53 0 -43 49z" />
<glyph unicode="&#xde;" horiz-adv-x="870" d="M88 0l295 1389h104l-63 -302h291q242 0 241 -235q0 -63 -16 -141q-78 -367 -385 -367h-289l-73 -344h-105zM285 436l290 2q201 2 259 273q12 63 12 112q0 166 -154 166h-289z" />
<glyph unicode="&#xdf;" horiz-adv-x="1034" d="M88 -2l170 801h-72l21 100h72q18 82 49 197q84 317 458 317q383 0 383 -223q0 -37 -10 -80q-49 -207 -254 -266q74 -37 129 -117q70 -100 70 -217q0 -45 -10 -92q-100 -479 -703 -479l21 96q498 0 577 383q10 47 10 88q0 158 -141 233q-111 59 -285 60l21 98 q217 0 303 31q129 45 156 172q8 33 8 61q0 102 -107 137q-61 18 -192 19q-289 0 -348 -275l-221 -1044h-105z" />
<glyph unicode="&#xe0;" horiz-adv-x="1130" d="M121 362q0 68 16 144q49 238 217 385t408 147q274 0 364 -196l41 192h105l-219 -1034h-105l39 180q-180 -203 -459 -203q-240 0 -342 154q-65 96 -65 231zM225 383q0 -147 85 -228t237 -81q186 0 327.5 122.5t182.5 309.5q14 70 14 129q0 152 -91 229.5t-249 77.5 q-188 0 -320 -124t-171 -312q-15 -66 -15 -123zM629 1329q4 23 30 37q16 12 33 12q23 0 39 -20l180 -240q12 -14 7 -35q-4 -25 -31 -39q-41 -25 -68 9l-182 239q-12 17 -8 37z" />
<glyph unicode="&#xe1;" horiz-adv-x="1130" d="M145 362q0 68 17 144q49 238 217 385t407 147q274 0 365 -196l41 192h104l-219 -1034h-104l39 180q-180 -203 -459 -203q-240 0 -342 154q-66 96 -66 231zM250 383q0 -147 85 -228t236 -81q186 0 327.5 122.5t182.5 309.5q14 70 15 129q0 152 -91.5 229.5t-248.5 77.5 q-188 0 -320.5 -124t-171.5 -312q-14 -66 -14 -123zM600 1083q4 18 25 35l282 240q25 20 47 20q51 0 41 -47q-4 -23 -22 -37l-287 -241q-23 -16 -41 -17q-53 0 -45 47z" />
<glyph unicode="&#xe2;" horiz-adv-x="1130" d="M145 362q0 68 17 144q49 238 217 385t407 147q274 0 365 -196l41 192h104l-219 -1034h-104l39 180q-180 -203 -459 -203q-240 0 -342 154q-66 96 -66 231zM250 383q0 -147 85 -228t236 -81q186 0 327.5 122.5t182.5 309.5q14 70 15 129q0 152 -91.5 229.5t-248.5 77.5 q-188 0 -320.5 -124t-171.5 -312q-14 -66 -14 -123zM485 1059l308 321h73l185 -321h-125l-119 205l-205 -205h-117z" />
<glyph unicode="&#xe3;" horiz-adv-x="1130" d="M143 362q0 66 17 142q51 238 215 383q172 150 411 149q274 0 365 -196l41 192h104l-219 -1032h-104l39 180q-180 -203 -459 -203q-238 0 -342 154q-68 96 -68 231zM250 383q0 -147 85 -228t236 -81q188 0 328.5 120.5t179.5 309.5q14 70 15 129q0 152 -90.5 229.5 t-247.5 77.5q-186 0 -324 -129q-129 -121 -170 -307q-12 -66 -12 -121zM473 1114q14 70 75.5 119t131.5 49q39 0 141 -57q88 -49 111 -49q72 0 104 129l86 -54q-29 -82 -87 -127t-124 -45q-41 0 -139 53.5t-115 53.5q-66 0 -106 -133z" />
<glyph unicode="&#xe4;" horiz-adv-x="1130" d="M143 362q0 66 17 142q51 236 219 384t407 148q274 0 365 -196l41 192h104l-219 -1034h-104l39 182q-180 -203 -459 -203q-238 0 -342 154q-68 96 -68 231zM250 383q0 -147 85 -228t236 -81q188 0 328.5 120.5t179.5 309.5q14 70 15 129q0 152 -90.5 229.5t-247.5 77.5 q-186 0 -324 -129q-129 -121 -170 -307q-12 -66 -12 -121zM635 1120l24 109q10 49 62 49q53 0 43 -49l-25 -109q-10 -51 -63 -51q-51 0 -41 51zM870 1120l25 109q10 49 63 49q51 0 41 -49l-24 -109q-10 -51 -62 -51q-53 0 -43 51z" />
<glyph unicode="&#xe5;" horiz-adv-x="1130" d="M145 362q0 68 17 144q49 240 213 385q172 150 411 149q274 0 367 -196l41 192h104l-221 -1036h-104l39 180q-180 -203 -459 -203q-240 0 -342 154q-66 96 -66 231zM250 385q0 -147 85 -229t236 -82q186 0 327.5 122.5t182.5 309.5q14 70 15 131q0 307 -340 307 q-186 0 -324 -129q-129 -121 -168 -309q-14 -66 -14 -121zM625 1223q0 100 86 163q68 47 147 48q63 0 109.5 -37t46.5 -99q0 -100 -86 -161q-66 -49 -144 -50q-66 0 -112.5 36.5t-46.5 99.5zM735 1239q0 -51 70 -51q82 0 98 72q2 12 2 22q0 51 -69 51q-103 0 -101 -94z" />
<glyph unicode="&#xe6;" horiz-adv-x="2015" d="M119 358q0 66 16 140q49 238 217 382t406 144q274 0 366 -195l41 191h105l-41 -193q195 197 454 197q188 0 304 -88q127 -96 127 -277q0 -57 -15 -122l-16 -72l-932 -2l-4 -19q-12 -59 -12 -110q0 -260 344 -260q297 0 442 243h107q-180 -340 -574 -340q-274 0 -371 168 l-30 -147h-105l37 180q-178 -201 -457 -201q-240 0 -344 152q-65 96 -65 229zM223 379q0 -147 86 -226t238 -79q188 0 327.5 118.5t180.5 305.5q14 68 14 127q0 152 -92 227.5t-250 75.5q-188 0 -319.5 -121t-169.5 -309q-15 -64 -15 -119zM1171 559h818q6 39 6 76 q0 143 -94 221q-88 72 -238 72q-170 0 -313.5 -102.5t-178.5 -266.5z" />
<glyph unicode="&#xe7;" d="M123 342q0 61 14 133q53 252 231.5 400.5t432.5 148.5q164 0 260 -76q106 -82 115 -239l-107 -50q-12 268 -293 269q-205 0 -348 -124t-186 -329q-12 -61 -13 -113q0 -150 97 -229q90 -74 245 -74q324 0 441 291l90 -43q-76 -168 -219.5 -256t-329.5 -88q-193 0 -307 92 q-123 101 -123 287zM274 -313l68 90q106 -37 168 -37q135 0 149 70q8 41 -84 49q-55 6 -112 -21l12 60l55 163h103l-27 -106q170 0 170 -113q0 -18 -4 -39q-35 -160 -276 -159q-79 0 -222 43z" />
<glyph unicode="&#xe8;" d="M113 348q0 72 18 158q49 236 221 384t412 148q188 0 301 -88q127 -98 127 -278q0 -59 -14 -127l-17 -74l-936 -2q-10 -55 -10 -102q0 -293 338 -293q297 0 442 248h107q-178 -344 -574 -345q-195 0 -301 91q-114 94 -114 280zM248 567h819q6 41 6 78q0 145 -94 223 q-86 74 -236 74q-178 0 -309 -101.5t-186 -273.5zM647 1331q10 43 66 43q27 0 37 -14l182 -242q12 -16 8 -35q-4 -25 -33 -39q-39 -20 -67 9l-185 241q-12 17 -8 37z" />
<glyph unicode="&#xe9;" d="M113 348q0 72 18 158q49 236 221 384t412 148q188 0 301 -88q127 -98 127 -278q0 -59 -14 -127l-17 -74l-936 -2q-10 -55 -10 -102q0 -293 338 -293q297 0 442 248h107q-178 -344 -574 -345q-195 0 -301 91q-114 94 -114 280zM248 567h819q6 41 6 78q0 145 -94 223 q-86 74 -236 74q-178 0 -309 -101.5t-186 -273.5zM598 1087q4 18 23 35l282 240q41 33 78 8q14 -16 10 -37q-2 -14 -18 -35l-289 -241q-25 -16 -43 -17q-53 0 -43 47z" />
<glyph unicode="&#xea;" d="M113 348q0 72 18 158q49 236 221 384t412 148q188 0 301 -88q127 -98 127 -278q0 -59 -14 -127l-17 -74l-936 -2q-10 -55 -10 -102q0 -293 338 -293q297 0 442 248h107q-178 -344 -574 -345q-195 0 -301 91q-114 94 -114 280zM248 567h819q6 41 6 78q0 145 -94 223 q-86 74 -236 74q-178 0 -309 -101.5t-186 -273.5zM479 1059l312 321h75l181 -321h-125l-119 205l-205 -205h-119z" />
<glyph unicode="&#xeb;" d="M111 346q0 72 18 158q51 236 223 384t412 148q186 0 301 -90q125 -96 125 -276q0 -59 -14 -127l-15 -72l-936 -2q-10 -55 -10 -102q0 -293 338 -293q297 0 442 245h107q-178 -342 -574 -342q-417 0 -417 369zM248 565h819q6 41 6 78q0 145 -91 221t-239 76 q-180 0 -310 -101.5t-185 -273.5zM606 1120l25 109q10 49 63 49q51 0 41 -49l-24 -109q-10 -51 -62 -51q-53 0 -43 51zM844 1120l24 109q10 49 62 49q53 0 43 -49l-25 -109q-10 -51 -63 -51q-51 0 -41 51z" />
<glyph unicode="&#xec;" horiz-adv-x="278" d="M88 0l215 1016h105l-215 -1016h-105zM250 1329q4 23 31 37q16 12 32 12q20 0 37 -20l182 -240q12 -16 9 -35q-4 -25 -33 -39q-39 -20 -68 9l-182 239q-12 17 -8 37z" />
<glyph unicode="&#xed;" horiz-adv-x="278" d="M88 0l215 1016h105l-215 -1016h-105zM199 1075q4 20 20 35l285 242q23 18 45 18q51 0 41 -49q-4 -20 -23 -35l-280 -239q-23 -18 -45 -19q-53 0 -43 47z" />
<glyph unicode="&#xee;" horiz-adv-x="278" d="M88 0l215 1016h105l-215 -1016h-105zM96 1059l299 321h76l168 -321h-125l-104 203l-195 -203h-119z" />
<glyph unicode="&#xef;" horiz-adv-x="278" d="M88 0l215 1012h105l-215 -1012h-105zM213 1122l25 107q10 49 63 49q51 0 41 -49l-25 -107q-10 -53 -61 -53q-53 0 -43 53zM451 1122l24 107q10 49 62 49q53 0 43 -49l-25 -107q-10 -53 -63 -53q-51 0 -41 53z" />
<glyph unicode="&#xf0;" horiz-adv-x="1155" d="M121 362q0 68 16 144q49 238 217 385t408 147q274 0 366 -194l64 305h-680l20 98h680l31 142h105l-295 -1389h-105l39 180q-180 -203 -459 -203q-240 0 -342 154q-65 96 -65 231zM225 385q0 -147 85 -229t237 -82q186 0 327.5 122.5t182.5 309.5q14 70 14 129 q0 152 -91 229.5t-249 77.5q-188 0 -320 -124t-171 -312q-15 -66 -15 -121z" />
<glyph unicode="&#xf1;" d="M88 0l215 1012h105l-29 -138q154 162 403 162q150 0 244 -59q111 -70 111 -211q0 -41 -9 -86l-145 -680h-104l141 662q8 39 8 73q0 205 -264 205q-172 0 -294 -102.5t-157 -270.5l-120 -567h-105zM473 1114q14 68 76.5 118t130.5 50q39 0 141 -57q88 -49 113 -49 q70 0 102 129l86 -54q-23 -80 -83 -126t-126 -46q-41 0 -139 53.5t-117 53.5q-68 0 -102 -133z" />
<glyph unicode="&#xf2;" horiz-adv-x="1116" d="M121 371q0 63 16 137q51 240 226.5 385t418.5 145q195 0 310 -98q121 -104 120 -293q0 -66 -14 -139q-51 -240 -226 -385.5t-419 -145.5q-195 0 -313.5 102t-118.5 292zM227 391q0 -152 99 -237q92 -80 249 -80q197 0 336.5 119.5t182.5 314.5q12 63 12 117 q0 117 -59.5 198.5t-124.5 104.5q-45 14 -162 14q-199 0 -338 -118.5t-180 -315.5q-15 -62 -15 -117zM670 1329q4 23 30 37q16 12 33 12q23 0 39 -20l180 -240q12 -14 6 -35q-4 -25 -30 -39q-41 -25 -68 9l-182 239q-12 17 -8 37z" />
<glyph unicode="&#xf3;" horiz-adv-x="1116" d="M121 371q0 63 16 137q51 240 226.5 385t418.5 145q195 0 310 -98q121 -104 120 -293q0 -66 -14 -139q-51 -240 -226 -385.5t-419 -145.5q-195 0 -313.5 102t-118.5 292zM227 391q0 -152 99 -237q92 -80 249 -80q197 0 336.5 119.5t182.5 314.5q12 63 12 117 q0 117 -59.5 198.5t-124.5 104.5q-45 14 -162 14q-199 0 -338 -118.5t-180 -315.5q-15 -62 -15 -117zM616 1077q4 18 21 33l285 242q23 18 47 18q53 0 43 -49q-4 -18 -25 -35l-285 -242q-18 -16 -40 -16q-56 0 -46 49z" />
<glyph unicode="&#xf4;" horiz-adv-x="1116" d="M121 371q0 63 16 137q51 240 226.5 385t418.5 145q195 0 310 -98q121 -104 120 -293q0 -66 -14 -139q-51 -240 -226 -385.5t-419 -145.5q-195 0 -313.5 102t-118.5 292zM227 391q0 -152 99 -237q92 -80 249 -80q197 0 336.5 119.5t182.5 314.5q12 63 12 119 q0 117 -59.5 197.5t-124.5 103.5q-45 14 -162 14q-199 0 -338 -118.5t-180 -315.5q-15 -62 -15 -117zM500 1059l311 321h74l184 -321h-125l-119 205l-207 -205h-118z" />
<glyph unicode="&#xf5;" horiz-adv-x="1116" d="M121 367q0 66 16 139q49 240 225.5 385t419.5 145q193 0 310 -98q121 -104 120 -293q0 -66 -14 -139q-51 -240 -226 -384.5t-419 -144.5t-358 150q-74 99 -74 240zM227 389q0 -152 99 -235q92 -80 249 -80q197 0 336.5 118.5t182.5 313.5q12 63 12 119q0 117 -59.5 197.5 t-126.5 103.5q-43 14 -160 14q-201 0 -339 -119t-179 -315q-15 -62 -15 -117zM487 1114q14 72 75 120t134 48q37 0 140 -57q88 -49 112 -49q63 0 109 129l80 -54q-27 -80 -85.5 -126t-123.5 -46q-45 0 -142.5 53.5t-111.5 53.5q-70 0 -105 -133z" />
<glyph unicode="&#xf6;" horiz-adv-x="1116" d="M121 367q0 66 16 139q49 238 225.5 384t419.5 146q193 0 310 -98q121 -104 120 -293q0 -66 -14 -139q-51 -240 -226 -384.5t-419 -144.5t-358 150q-74 99 -74 240zM227 389q0 -152 99 -235q92 -80 249 -80q197 0 336.5 118.5t182.5 313.5q12 63 12 117q0 117 -59.5 198.5 t-126.5 104.5q-43 14 -160 14q-199 0 -338 -119t-180 -315q-15 -62 -15 -117zM627 1120l24 109q10 49 62 49q53 0 43 -49l-25 -109q-10 -51 -63 -51q-51 0 -41 51zM862 1120l25 109q10 49 63 49q51 0 41 -49l-24 -109q-10 -51 -62 -51q-53 0 -43 51z" />
<glyph unicode="&#xf7;" horiz-adv-x="1212" d="M166 444l20 95h1039l-21 -95h-1038zM598 201l25 121q12 51 63 51q53 0 41 -51l-25 -121q-10 -49 -63 -49q-51 0 -41 49zM692 645l27 123q10 47 61 47q53 0 43 -47l-26 -123q-10 -49 -64 -49q-51 0 -41 49z" />
<glyph unicode="&#xf8;" horiz-adv-x="1116" d="M119 358q0 66 16 142q51 238 226.5 383t418.5 145q102 0 181 -24l90 120h110l-114 -163q166 -106 165 -318q0 -68 -16 -143q-51 -238 -226 -382.5t-419 -144.5q-113 0 -197 31l-71 -100h-111l102 143q-155 108 -155 311zM227 387q0 -158 111 -248l559 774q-61 18 -139 19 q-201 0 -339 -118t-179 -314q-13 -62 -13 -113zM420 94q63 -25 153 -24q197 0 337.5 117.5t181.5 312.5q12 57 12 110q0 174 -125 262z" />
<glyph unicode="&#xf9;" d="M152 258q0 45 12 98l139 660h105l-140 -658q-8 -45 -10 -82q0 -203 270 -202q180 0 299 108q111 100 150 283l117 551h104l-215 -1016h-104l28 139q-154 -162 -399 -162q-156 0 -248 62q-108 74 -108 219zM647 1321q4 20 29 35q16 14 33 14q23 0 39 -20l182 -240 q12 -16 8 -37q-4 -23 -31 -37q-45 -25 -69 8l-183 242q-12 17 -8 35z" />
<glyph unicode="&#xfa;" d="M152 258q0 45 12 98l139 660h105l-140 -658q-8 -45 -10 -82q0 -203 270 -202q180 0 299 108q113 102 150 285l117 549h104l-215 -1016h-104l28 139q-154 -162 -399 -162q-156 0 -248 62q-108 74 -108 219zM598 1083q6 20 23 35l282 240q25 20 47 20q53 0 43 -49 q-4 -20 -24 -37l-283 -239q-18 -16 -43 -17q-53 0 -45 47z" />
<glyph unicode="&#xfb;" d="M152 258q0 45 12 98l139 660h105l-140 -658q-8 -45 -10 -82q0 -203 270 -202q180 0 299 108q113 102 150 285l117 549h104l-215 -1016h-104l28 139q-154 -162 -399 -162q-156 0 -248 62q-108 74 -108 219zM479 1059l312 321h75l181 -321h-125l-119 205l-205 -205h-119z " />
<glyph unicode="&#xfc;" d="M152 256q0 47 12 98l139 658h105l-140 -656q-10 -45 -10 -82q0 -201 270 -200q367 0 449 391l117 547h104l-215 -1014h-104l28 141q-154 -162 -399 -162q-154 0 -248 62q-108 74 -108 217zM604 1120l25 109q10 49 63 49q51 0 41 -49l-24 -109q-10 -51 -62 -51 q-53 0 -43 51zM842 1120l24 109q10 49 62 49q53 0 43 -49l-25 -109q-10 -51 -63 -51q-51 0 -41 51z" />
<glyph unicode="&#xfd;" horiz-adv-x="1036" d="M33 -84q0 39 8 82h104q-4 -25 -4 -49q0 -217 299 -217q381 0 451 321l14 76q-156 -164 -401 -164q-154 0 -246 64q-106 74 -106 219q0 47 10 100l141 664h105l-142 -662q-8 -45 -8 -84q0 -203 268 -203q182 0 299 109q113 102 152 287l117 553h104l-205 -961 q-88 -418 -577 -418q-383 0 -383 283zM578 1087q4 18 24 33l283 242q41 35 78 8q14 -16 10 -37q-2 -14 -19 -35l-290 -245q-23 -14 -41 -15q-20 0 -34.5 14.5t-10.5 34.5z" />
<glyph unicode="&#xfe;" horiz-adv-x="1155" d="M14 -344l369 1733h104l-116 -549q178 197 448 196q190 0 302 -98t112 -285q0 -70 -19 -149q-51 -242 -210 -387q-168 -150 -410 -150q-272 0 -367 197l-108 -508h-105zM285 369q0 -305 338 -306q190 0 323 127q125 119 166 312q14 66 14 123q0 147 -84 231t-231 84 q-195 0 -332 -120t-178 -312q-16 -76 -16 -139z" />
<glyph unicode="&#xff;" horiz-adv-x="1044" d="M33 -84q0 39 8 82h104q-4 -27 -4 -49q0 -219 299 -219q381 0 449 321l16 76q-156 -162 -401 -162q-154 0 -246 62q-109 74 -108 219q0 47 12 100l141 664h105l-142 -662q-10 -45 -10 -84q0 -203 268 -203q184 0 301 109q111 102 150 287l119 553h104l-205 -961 q-88 -416 -577 -416q-383 0 -383 283zM590 1120l24 109q10 49 64 49q51 0 41 -47l-25 -111q-10 -53 -61 -53q-53 0 -43 53zM827 1120l25 109q10 49 61 49q53 0 43 -47l-24 -111q-10 -53 -64 -53q-51 0 -41 53z" />
<glyph unicode="&#x152;" horiz-adv-x="2068" d="M172 504q0 88 23 186q70 332 308 520.5t578 188.5q70 0 133 -10h1090l-20 -97h-807q213 -145 213 -415q0 -51 -9 -107h428l-20 -94h-424q-90 -393 -430 -580h807l-21 -96h-1056q-88 -16 -185 -16q-340 0 -497 190q-111 133 -111 330zM279 524q0 -223 151 -340 q137 -106 371 -106q78 0 151 14l254 1198q-68 12 -145 13q-295 0 -498 -162t-264 -451q-20 -88 -20 -166zM1059 119q131 43 239 129q203 162 263 428h-383zM1198 770h379q4 41 4 78q0 315 -278 416z" />
<glyph unicode="&#x153;" horiz-adv-x="2154" d="M170 367q0 61 14 133q51 238 226.5 381t416.5 143q160 0 267 -66q121 -76 155 -221q51 76 123 137q176 150 404 150q188 0 303 -88q127 -96 127 -277q0 -57 -15 -122l-16 -72l-934 -2q-8 -53 -8 -101q0 -289 338 -288q297 0 442 243h107q-180 -340 -574 -340 q-356 0 -409 275q-195 -274 -535 -275q-195 0 -309 99q-123 103 -123 291zM276 385q0 -152 99 -233q92 -78 250 -78q197 0 336 115.5t180 310.5q12 61 12 114q0 115 -59.5 196t-126.5 103q-45 14 -162 15q-199 0 -337 -116t-179 -312q-13 -62 -13 -115zM1264 559h817 q6 39 6 76q0 143 -94 221q-88 72 -238 72q-172 0 -306 -101.5t-185 -267.5z" />
<glyph unicode="&#x178;" horiz-adv-x="1357" d="M266 1399h137l441 -627l708 627h134l-809 -723l-144 -676h-104l143 676zM840 1509l22 109q10 49 64 49q51 0 41 -49l-23 -109q-12 -53 -63 -53q-53 0 -41 53zM1077 1509l23 109q10 49 61 49q53 0 43 -49l-22 -109q-12 -53 -66 -53q-51 0 -39 53z" />
<glyph unicode="&#x2c6;" horiz-adv-x="530" d="M217 1106l301 274h72l196 -274h-127l-124 174l-199 -174h-119z" />
<glyph unicode="&#x2dc;" horiz-adv-x="749" d="M311 1155q12 55 78 94q59 35 121 35q39 0 145 -43q90 -37 113 -37q72 0 98 96l88 -40q-25 -61 -81 -96.5t-121 -35.5q-37 0 -144 43q-92 37 -116 37q-66 0 -95 -98z" />
<glyph unicode="&#x2000;" horiz-adv-x="894" />
<glyph unicode="&#x2001;" horiz-adv-x="1789" />
<glyph unicode="&#x2002;" horiz-adv-x="894" />
<glyph unicode="&#x2003;" horiz-adv-x="1789" />
<glyph unicode="&#x2004;" horiz-adv-x="595" />
<glyph unicode="&#x2005;" horiz-adv-x="446" />
<glyph unicode="&#x2006;" horiz-adv-x="296" />
<glyph unicode="&#x2007;" horiz-adv-x="296" />
<glyph unicode="&#x2008;" horiz-adv-x="223" />
<glyph unicode="&#x2009;" horiz-adv-x="356" />
<glyph unicode="&#x200a;" horiz-adv-x="98" />
<glyph unicode="&#x2010;" horiz-adv-x="716" d="M184 520l9 41h587l-8 -41h-588z" />
<glyph unicode="&#x2011;" horiz-adv-x="716" d="M184 520l9 41h587l-8 -41h-588z" />
<glyph unicode="&#x2012;" horiz-adv-x="716" d="M184 520l9 41h587l-8 -41h-588z" />
<glyph unicode="&#x2013;" horiz-adv-x="1013" d="M80 520l8 41h1071l-8 -41h-1071z" />
<glyph unicode="&#x2014;" horiz-adv-x="1830" d="M80 520l8 41h1888l-8 -41h-1888z" />
<glyph unicode="&#x2018;" horiz-adv-x="358" d="M315 1069q2 6 7 14l143 271q18 33 57 32q55 0 45 -43q0 -6 -6 -14l-145 -270q-18 -33 -58 -33q-53 0 -43 43z" />
<glyph unicode="&#x2019;" horiz-adv-x="358" d="M315 1067q2 8 7 16l145 271q25 43 70 32q39 -10 30 -43q0 -6 -6 -14l-143 -270q-18 -33 -60 -33q-53 0 -43 41z" />
<glyph unicode="&#x201a;" horiz-adv-x="598" d="M135 -143l8 16l146 270q23 43 67 33q39 -10 33 -43q-2 -6 -8 -14l-143 -271q-18 -35 -58 -34q-53 0 -45 43z" />
<glyph unicode="&#x201c;" horiz-adv-x="546" d="M315 1069q2 6 7 14l143 271q18 33 57 32q55 0 45 -43q0 -6 -6 -14l-145 -270q-18 -33 -58 -33q-53 0 -43 43zM530 1069q2 6 7 14l143 271q18 33 57 32q55 0 45 -43q0 -6 -6 -14l-145 -270q-18 -33 -58 -33q-53 0 -43 43z" />
<glyph unicode="&#x201d;" horiz-adv-x="565" d="M315 1067q2 8 7 16l145 271q25 43 70 32q39 -10 30 -43q0 -6 -6 -14l-143 -270q-18 -33 -60 -33q-53 0 -43 41zM530 1067q2 8 7 16l145 271q25 43 70 32q39 -10 30 -43q0 -6 -6 -14l-143 -270q-18 -33 -60 -33q-53 0 -43 41z" />
<glyph unicode="&#x201e;" horiz-adv-x="718" d="M135 -143l8 16l146 270q23 43 67 33q39 -10 33 -43q-2 -6 -8 -14l-143 -271q-18 -35 -58 -34q-53 0 -45 43zM350 -143l8 16l146 270q23 43 67 33q39 -10 33 -43q-2 -6 -8 -14l-143 -271q-18 -35 -58 -34q-53 0 -45 43z" />
<glyph unicode="&#x2022;" horiz-adv-x="598" d="M201 557l45 217q6 23 82 37q51 8 94 8q39 0 88 -8q74 -12 68 -37l-46 -217q-6 -23 -81 -37q-51 -8 -95 -8q-39 0 -88 8q-73 12 -67 37z" />
<glyph unicode="&#x2026;" horiz-adv-x="1306" d="M254 37l20 96q8 41 62 41q51 0 43 -41l-21 -96q-8 -41 -59 -41q-53 0 -45 41zM641 37l21 96q8 41 61 41q51 0 43 -41l-21 -96q-8 -41 -59 -41q-53 0 -45 41zM1028 37l21 96q8 41 61 41q51 0 43 -41l-20 -96q-8 -41 -60 -41q-53 0 -45 41z" />
<glyph unicode="&#x202f;" horiz-adv-x="356" />
<glyph unicode="&#x2039;" horiz-adv-x="602" d="M227 528l13 64l417 237l-22 -108l-277 -160l207 -162l-20 -102z" />
<glyph unicode="&#x203a;" horiz-adv-x="602" d="M178 297l21 102l276 162l-207 160l23 108l315 -237l-12 -64z" />
<glyph unicode="&#x205f;" horiz-adv-x="446" />
<glyph unicode="&#x2122;" horiz-adv-x="1615" d="M354 1305l21 96h723l194 -543l420 543h125l-145 -690h-115l104 493l-376 -493h-84l-179 503l-104 -503h-113l125 594h-180l-125 -594h-113l125 594h-303z" />
<glyph unicode="&#xe000;" horiz-adv-x="1000" d="M0 1000h1000v-1000h-1000v1000z" />
<glyph unicode="&#xfb01;" horiz-adv-x="825" d="M635 0l215 1016h105l-215 -1016h-105zM895 1223l31 143q27 41 57 41q25 0 47 -37l-32 -151q-35 -37 -62 -37q-33 0 -41 41zM178 -2l172 815h-147l22 98h148l12 66q84 387 604 387l-20 -94q-416 0 -480 -293l-12 -66h228l-23 -98h-227l-172 -815h-105z" />
<glyph unicode="&#xfb02;" horiz-adv-x="825" d="M635 0l295 1389h104l-294 -1389h-105zM178 -2l172 815h-147l22 98h148l12 66q84 387 604 387l-20 -94q-416 0 -480 -293l-12 -66h228l-23 -98h-227l-172 -815h-105z" />
<glyph unicode="&#xfb03;" horiz-adv-x="1372" d="M1182 0l215 1016h105l-215 -1016h-105zM1442 1223l31 143q27 41 57 41q25 0 47 -37l-32 -151q-35 -37 -62 -37q-33 0 -41 41zM725 -2l172 815h-147l22 98h148l12 66q84 387 604 387l-20 -94q-416 0 -480 -293l-12 -66h228l-23 -98h-227l-172 -815h-105zM178 -2l172 815 h-147l22 98h148l12 66q84 387 604 387l-20 -94q-416 0 -480 -293l-12 -66h228l-23 -98h-227l-172 -815h-105z" />
<glyph unicode="&#xfb04;" horiz-adv-x="1372" d="M1182 0l295 1389h104l-294 -1389h-105zM725 -2l172 815h-147l22 98h148l12 66q84 387 604 387l-20 -94q-416 0 -480 -293l-12 -66h228l-23 -98h-227l-172 -815h-105zM178 -2l172 815h-147l22 98h148l12 66q84 387 604 387l-20 -94q-416 0 -480 -293l-12 -66h228l-23 -98 h-227l-172 -815h-105z" />
</font>
</defs>
</svg>
