<?xml version="1.0" standalone="no"?>
<!DOCTYPE svg PUBLIC "-//W3C//DTD SVG 1.1//EN" "http://www.w3.org/Graphics/SVG/1.1/DTD/svg11.dtd" >
<svg xmlns="http://www.w3.org/2000/svg">
<metadata>
This is a custom SVG webfont generated by Font Squirrel.
Copyright   : GM
</metadata>
<defs>
<font id="webfontvkc25cHK" horiz-adv-x="1075" >
<font-face units-per-em="2048" ascent="1638" descent="-410" />
<missing-glyph horiz-adv-x="724" />
<glyph unicode=" "  horiz-adv-x="724" />
<glyph unicode="&#x09;" horiz-adv-x="724" />
<glyph unicode="&#xa0;" horiz-adv-x="724" />
<glyph unicode="!" horiz-adv-x="397" d="M131 66v124q0 63 68 64q68 0 67 -64v-124q0 -66 -67 -66q-68 0 -68 66zM133 332v1057h135v-1057h-135z" />
<glyph unicode="&#x22;" horiz-adv-x="598" d="M113 1176v147q0 53 65 53q70 0 70 -53v-147q0 -55 -70 -56q-65 1 -65 56zM348 1176v147q0 53 68 53t67 -53v-147q0 -55 -67 -56q-68 1 -68 56z" />
<glyph unicode="#" horiz-adv-x="1087" d="M104 471l29 119h182l31 108h-186l37 119h180l39 141h139l-39 -141h150l36 141h138l-37 -141h182l-29 -119h-184l-29 -108h181l-29 -119h-182l-39 -141h-139l38 141h-149l-39 -141h-139l39 141h-181zM455 590h149l29 108h-148z" />
<glyph unicode="$" horiz-adv-x="1314" d="M29 453v63h135v-55q0 -268 266 -344v577q-356 90 -356 350q0 293 356 367v131h135v-117q35 2 72 2q49 0 94 -2v117h135v-137q360 -84 367 -465h-133q-18 268 -234 336v-539q195 -49 277 -114q119 -90 119 -267q0 -152 -127 -256q-106 -88 -269 -120v-123h-135v106 q-29 -2 -55 -2q-57 0 -111 6v-110h-135v129q-401 98 -401 467zM209 1044q0 -154 221 -217v451q-221 -58 -221 -234zM565 92q53 -4 113 -4h53v547l-166 31v-574zM565 797l166 -31v532q-45 4 -94 5q-39 0 -72 -3v-503zM866 109q260 59 260 253q0 96 -39 138q-55 55 -221 104 v-495z" />
<glyph unicode="%" horiz-adv-x="1536" d="M72 965q0 383 319 383q322 0 322 -383q0 -375 -324 -375q-317 0 -317 375zM182 -2l1043 1391h164l-1041 -1391h-166zM209 965q0 -252 182 -252q184 0 184 252q0 258 -186 258q-180 0 -180 -258zM827 338q0 385 322 385q319 0 319 -385q0 -377 -321 -377q-320 0 -320 377z M965 338q0 -252 184 -252q182 0 182 252q0 260 -184 260q-182 0 -182 -260z" />
<glyph unicode="&#x26;" horiz-adv-x="1234" d="M49 328q0 250 402 454q-217 123 -218 322q0 137 115 217q102 68 244 68q150 0 248 -68q115 -76 114 -221q0 -201 -399 -408q-195 -100 -258 -155q-113 -98 -113 -209q0 -106 111 -174q104 -61 240 -62q258 0 376 209q70 119 70 291h135v-631h-135v209 q-172 -203 -434 -203q-186 0 -330 84q-168 103 -168 277zM369 1102q0 -160 217 -254q233 129 233 254q0 78 -63.5 120t-159.5 42q-94 0 -158 -41q-69 -45 -69 -121z" />
<glyph unicode="'" horiz-adv-x="358" d="M113 1176v147q0 53 65 53q70 0 70 -53v-147q0 -55 -70 -56q-65 1 -65 56z" />
<glyph unicode="(" horiz-adv-x="477" d="M100 580q0 514 273 923h153q-291 -428 -290 -923q0 -496 290 -924h-153q-273 412 -273 924z" />
<glyph unicode=")" horiz-adv-x="477" d="M-59 -344q301 428 301 924t-301 923h153q283 -403 283 -923q0 -518 -283 -924h-153z" />
<glyph unicode="*" horiz-adv-x="696" d="M55 1053q0 31 51 57l76 33q-39 14 -78 31q-49 25 -49 57q0 14 11 31q23 25 55 24q12 0 20.5 -2t120.5 -49v82q0 59 68 59t67 -59v-82l105 45q18 6 33 6q35 0 57 -24q10 -16 10 -33q0 -35 -39 -51l-84 -37q37 -14 74 -31q49 -27 49 -57q0 -14 -8 -29q-18 -27 -55 -27 q-25 0 -142 52v-82q0 -59 -67 -60q-68 0 -68 60v82q-119 -51 -143 -52q-37 0 -56 27q-8 15 -8 29z" />
<glyph unicode="+" horiz-adv-x="1146" d="M115 455v120h391v312h135v-312h393v-120h-393v-318h-135v318h-391z" />
<glyph unicode="," horiz-adv-x="536" d="M158 -133q0 8 4 20l86 248q16 41 63 41q70 0 70 -53q0 -8 -2 -19l-86 -247q-14 -41 -70 -41q-65 0 -65 51z" />
<glyph unicode="-" horiz-adv-x="716" d="M59 520v41h619v-41h-619z" />
<glyph unicode="." horiz-adv-x="428" d="M147 43v84q0 47 68 47t68 -47v-84q0 -47 -68 -47t-68 47z" />
<glyph unicode="/" horiz-adv-x="716" d="M-70 0l729 1421h146l-729 -1421h-146z" />
<glyph unicode="0" horiz-adv-x="1196" d="M53 508v332q0 236 147.5 385t399.5 149q254 0 398.5 -148.5t144.5 -385.5v-332q0 -238 -144.5 -385.5t-398.5 -147.5q-252 0 -399.5 148.5t-147.5 384.5zM188 508q0 -182 110 -295t300 -113q193 0 301.5 113t108.5 295v332q0 184 -110 296.5t-300 112.5 q-193 0 -301.5 -112.5t-108.5 -296.5v-332z" />
<glyph unicode="1" horiz-adv-x="845" d="M82 934l493 389h107v-1323h-135v1130l-254 -196h-211z" />
<glyph unicode="2" horiz-adv-x="1196" d="M72 0q4 401 428 645l288 160q166 94 166 196q0 115 -102 170q-88 49 -231 50q-201 0 -294.5 -91.5t-93.5 -298.5h-135q0 268 135.5 391.5t374.5 123.5q199 0 324 -72q156 -92 155 -279q0 -180 -346 -366q-168 -90 -245 -137q-246 -180 -279 -367h934v-125h-1079z" />
<glyph unicode="3" horiz-adv-x="1196" d="M39 440v64h135v-90q0 -154 129 -238q115 -74 297 -74q172 0 287 64q135 76 135 213q0 266 -383 266h-139v125h141q352 0 352 231q0 113 -119 173q-98 47 -247 47q-215 0 -313.5 -87t-98.5 -280h-135q0 270 158 389q141 102 383 103q201 0 333 -68q174 -88 174 -277 q0 -207 -186 -290q213 -92 213 -332q0 -201 -180 -311q-152 -90 -367 -91q-248 0 -399 109q-170 123 -170 354z" />
<glyph unicode="4" horiz-adv-x="1196" d="M-8 430l473 895h147l-407 -770h565v772l135 -6v-766h264v-125h-264v-430h-135v430h-778z" />
<glyph unicode="5" horiz-adv-x="1196" d="M35 483h135q0 -215 117 -301q109 -80 305 -80q186 0 300 90.5t114 258.5t-125 262q-115 88 -306 88q-246 0 -372 -191h-127l33 713h970v-125h-835l-19 -383q139 111 359 111q238 0 391 -121q166 -129 166 -352q0 -225 -164 -357q-147 -119 -387 -119q-248 0 -393 107 q-162 120 -162 399z" />
<glyph unicode="6" horiz-adv-x="1196" d="M82 424v22l2 15v442q0 209 156 326q143 109 364 108q219 0 359 -112q154 -121 153 -373h-133q0 193 -107.5 280t-273.5 87q-170 0 -274.5 -84t-106.5 -238v-154q135 121 375 121q221 0 360 -112q152 -119 152 -328t-154 -328q-141 -109 -362 -108q-221 0 -361 110 q-149 119 -149 326zM215 424q0 -152 104.5 -236t274.5 -84t275.5 84t105.5 236q0 143 -96 229q-104 92 -285 92q-170 0 -274.5 -83.5t-104.5 -237.5z" />
<glyph unicode="7" horiz-adv-x="1196" d="M90 1198v125h1063l-690 -1323h-146l627 1198h-854z" />
<glyph unicode="8" horiz-adv-x="1230" d="M41 391q0 246 250 338q-178 90 -178 256q0 197 166 289q129 72 337 72q207 0 338 -74q168 -92 168 -287q0 -166 -182 -256q252 -92 252 -342q0 -221 -193 -328q-147 -82 -383 -82q-238 0 -387 86q-188 107 -188 328zM176 389q0 -152 137 -225q115 -61 303 -62 q440 0 441 287q0 268 -439 268q-442 0 -442 -268zM248 983q0 -98 127 -154q106 -47 243 -47q141 0 246 49q123 57 123 156q0 233 -371 234q-368 0 -368 -238z" />
<glyph unicode="9" horiz-adv-x="1196" d="M82 451h133q0 -195 104.5 -280t274.5 -85q168 0 273.5 85t107.5 237v192q-135 -121 -375 -121q-221 0 -360 111q-150 119 -150 328q0 207 152 327q143 111 362 111t361 -113q152 -119 151 -325v-25l-2 -10v-480q0 -209 -160 -327q-143 -106 -362 -107q-219 0 -359 111 q-151 119 -151 371zM223 918q0 -154 104.5 -238t274.5 -84t275.5 84t105.5 238q0 141 -96 227q-102 94 -285 94q-170 0 -272 -82q-107 -87 -107 -239z" />
<glyph unicode=":" horiz-adv-x="499" d="M184 59v121q0 63 68 64q59 0 65 -62l2 -123q0 -63 -67 -63q-68 0 -68 63zM184 768v121q0 63 68 63q59 0 65 -61l2 -123q0 -63 -67 -63q-68 0 -68 63z" />
<glyph unicode=";" horiz-adv-x="514" d="M145 -125q0 8 2 21l89 292q14 47 63 48q70 0 70 -60q0 -10 -2 -20l-86 -293q-14 -49 -66 -49q-70 0 -70 61zM225 764v123q0 66 68 65q68 0 67 -65v-123q0 -63 -67 -64q-68 1 -68 64z" />
<glyph unicode="&#x3c;" horiz-adv-x="1095" d="M53 442v101l973 360v-127l-764 -284l764 -285v-127z" />
<glyph unicode="=" horiz-adv-x="1290" d="M57 342v104h1178v-104h-1178zM57 537v104h1178v-104h-1178z" />
<glyph unicode="&#x3e;" horiz-adv-x="1095" d="M53 80v127l762 285l-762 284v127l973 -360v-101z" />
<glyph unicode="?" d="M33 1008q31 219 174 321q131 92 336 92q182 0 311 -78q156 -96 156 -270q0 -184 -219 -352q-199 -156 -199 -299v-90h-137v80q0 207 217 376q119 94 157 146q45 59 45 139q0 115 -104 172q-88 51 -229 51q-178 0 -269.5 -81.5t-111.5 -276.5zM455 66v124q0 63 65 64 q70 0 70 -64v-124q0 -66 -70 -66q-65 0 -65 66z" />
<glyph unicode="@" horiz-adv-x="1720" d="M76 707q0 326 250 528q233 188 567 188q299 0 512 -151q238 -172 237 -461q0 -199 -139 -375q-49 -59 -123 -106q-88 -53 -163 -54q-104 0 -109 107q-139 -133 -356 -135q-219 0 -328 145q-74 100 -74 236q0 229 135 379q145 158 389 159q221 2 324 -125l16 125h132 l-107 -761q0 -10 0 -5q-8 0 -12 5h4q39 2 96 45q49 39 74 75q104 154 104 289q0 219 -184 356q-174 129 -420 129q-285 0 -477 -155q-207 -170 -207 -449q0 -274 207 -440q195 -156 475 -156q166 0 332 72q176 76 264 219h156q-125 -223 -344 -323q-201 -90 -398 -91 q-340 0 -577 191q-256 207 -256 539zM477 635q0 -127 73 -198.5t206 -69.5q154 0 264 100t133 250q4 25 4 65q0 225 -211 260q-39 6 -84 7q-174 -2 -279.5 -122t-105.5 -292z" />
<glyph unicode="A" horiz-adv-x="1302" d="M-61 0l667 1389h115l643 -1389h-150l-198 428h-723l-203 -428h-151zM354 553h604l-294 637z" />
<glyph unicode="B" horiz-adv-x="1314" d="M55 0v1389h707q199 0 328 -84q152 -98 151 -289q0 -184 -199 -285q244 -86 244 -338q0 -209 -186 -313q-143 -80 -365 -80h-680zM190 125h570q166 0 270 59q123 72 123 207q0 61 -23 109q-76 160 -378 159h-562v-534zM190 784h566q150 0 241 56q109 66 109 186 q0 94 -64 152q-96 86 -284 86h-568v-480z" />
<glyph unicode="C" horiz-adv-x="1472" d="M59 684q0 330 207 524.5t557 194.5q408 0 611 -279l-115 -71q-160 225 -496 225q-289 0 -458.5 -158.5t-169.5 -427.5q0 -266 161.5 -423.5t444.5 -157.5q324 0 502 229l112 -72q-221 -283 -612 -282q-342 0 -543 189.5t-201 508.5z" />
<glyph unicode="D" horiz-adv-x="1392" d="M72 0v1389h573q348 0 531 -189q176 -180 176 -508q0 -336 -219 -518q-207 -174 -566 -174h-495zM207 125h366q305 0 474.5 143.5t169.5 423.5q0 279 -141.5 425.5t-432.5 146.5h-436v-1139z" />
<glyph unicode="E" horiz-adv-x="1155" d="M72 0v1389h1087v-125h-954v-480h846v-122h-846v-537h964v-125h-1097z" />
<glyph unicode="F" horiz-adv-x="1034" d="M72 0v1389h1013v-125h-880v-480h753v-122h-753v-662h-133z" />
<glyph unicode="G" horiz-adv-x="1552" d="M25 690q0 330 205.5 521.5t555.5 191.5q260 0 435 -103q199 -119 262 -405h-140q-47 199 -181 291t-374 92q-293 0 -460.5 -155.5t-167.5 -430.5q0 -279 170 -430t471 -151q231 0 391 114q170 121 170 324v20h-596v125h723q10 -82 10 -123q0 -297 -237 -456 q-193 -129 -461 -129q-354 0 -561 180q-215 186 -215 524z" />
<glyph unicode="H" horiz-adv-x="1392" d="M72 0v1389h135v-605h981v605h135v-1389h-135v662h-981v-662h-135z" />
<glyph unicode="I" horiz-adv-x="274" d="M72 0v1389h135v-1389h-135z" />
<glyph unicode="J" horiz-adv-x="995" d="M-10 367h137q12 -137 87 -196.5t235 -59.5q184 0 257.5 68.5t73.5 240.5v969h135v-981q0 -422 -458 -422q-426 0 -467 381z" />
<glyph unicode="K" horiz-adv-x="1372" d="M72 0v1389h135v-730l999 730h219l-829 -603l850 -786h-191l-770 711l-278 -209v-502h-135z" />
<glyph unicode="L" horiz-adv-x="1034" d="M72 0v1389h135v-1264h876v-125h-1011z" />
<glyph unicode="M" horiz-adv-x="1677" d="M72 0v1389h143l623 -1203l624 1203h144v-1389h-136v1118l-579 -1118h-105l-579 1118v-1118h-135z" />
<glyph unicode="N" horiz-adv-x="1392" d="M72 0v1389h131l493 -592l492 -582v1174h135v-1389h-133l-983 1178v-1178h-135z" />
<glyph unicode="O" horiz-adv-x="1550" d="M27 694q0 326 202 510q199 178 547 178t549 -178q205 -184 205 -510q0 -328 -203 -518t-551 -190q-350 0 -549.5 188t-199.5 520zM162 694q0 -270 162.5 -426.5t451.5 -156.5q293 0 456 154.5t163 428.5q0 270 -163 416.5t-456 146.5q-291 0 -452.5 -147.5t-161.5 -415.5 z" />
<glyph unicode="P" horiz-adv-x="1271" d="M72 0v1389h659q522 0 522 -404q0 -205 -182 -309q-145 -84 -362 -84h-502v-592h-135zM207 717h538q154 0 256 65q115 72 115 201q0 281 -373 281h-536v-547z" />
<glyph unicode="Q" horiz-adv-x="1550" d="M27 690q0 328 200.5 510t548.5 182t551 -182t203 -510q0 -244 -121 -418q-123 -180 -350 -252q53 -31 127 -30h235v-125h-235q-176 0 -283 123q-59 -8 -127 -8q-350 0 -549.5 189t-199.5 521zM162 690q0 -240 129 -389q43 84 131 131t188 47q143 0 249 -86t106 -223 q0 -23 6 -43q207 51 317 205q106 145 107 358q0 272 -163 419.5t-456 147.5q-291 0 -452.5 -148.5t-161.5 -418.5zM393 211q156 -106 383 -107q33 0 66 2q-8 33 -8 66q0 82 -64.5 133t-159.5 51q-80 0 -141.5 -39.5t-75.5 -105.5z" />
<glyph unicode="R" horiz-adv-x="1314" d="M72 0v1389h684q504 0 504 -373q0 -240 -213 -338q193 -92 192 -318v-360h-135v354q0 254 -367 254h-530v-608h-135zM207 735h520q172 0 277 62q121 72 120 215q0 252 -364 252h-553v-529z" />
<glyph unicode="S" horiz-adv-x="1314" d="M29 455v63h135v-55q0 -352 514 -352q180 0 299 51q150 68 149 205q0 94 -53 143q-45 43 -155 74q-61 18 -291 65q-264 55 -359 103q-195 96 -194 288q0 362 563 363q588 0 596 -467h-133q-14 215 -142 285q-106 57 -321 57q-428 0 -428 -238q0 -117 113 -174 q80 -43 278 -75q377 -68 504 -142q158 -92 158 -289q0 -199 -207 -299q-158 -76 -379 -75q-272 0 -438 96q-209 119 -209 373z" />
<glyph unicode="T" horiz-adv-x="1116" d="M-41 1264v125h1198v-125h-530v-1264h-135v1264h-533z" />
<glyph unicode="U" horiz-adv-x="1359" d="M72 526v863h135v-861q0 -418 473 -417q473 0 473 409v869h135v-867q0 -281 -160 -411q-150 -125 -448 -125q-608 -1 -608 540z" />
<glyph unicode="V" horiz-adv-x="1286" d="M-45 1389h145l553 -1192l535 1192h143l-624 -1389h-109z" />
<glyph unicode="W" horiz-adv-x="1986" d="M-37 1389h143l531 -1188l287 669l-230 519h144l530 -1188l512 1188h143l-602 -1389h-108l-316 707l-307 -707h-108z" />
<glyph unicode="X" horiz-adv-x="1236" d="M-94 0l629 713l-601 676h179l510 -578l514 578h176l-600 -676l620 -713h-174l-536 614l-545 -614h-172z" />
<glyph unicode="Y" horiz-adv-x="1282" d="M-102 1389h176l567 -603l569 603h174l-673 -723v-666h-136v666z" />
<glyph unicode="Z" horiz-adv-x="1282" d="M31 0v111l1018 1153h-959v125h1149v-109l-1022 -1155h1038v-125h-1224z" />
<glyph unicode="[" horiz-adv-x="477" d="M162 -344v1847h334v-127h-199v-1593h199v-127h-334z" />
<glyph unicode="\" horiz-adv-x="716" d="M-90 1421h145l736 -1421h-146z" />
<glyph unicode="]" horiz-adv-x="477" d="M-18 -217h198l2 49l-2 1544h-198v127h335l-4 -1847h-331v127z" />
<glyph unicode="^" horiz-adv-x="610" d="M43 1047l209 276h94l223 -276h-159l-109 139l-108 -139h-150z" />
<glyph unicode="_" d="M-47 -145h1169v-99h-1169v99z" />
<glyph unicode="`" horiz-adv-x="395" d="M10 1327q0 23 31 37q47 31 92 -6l168 -128q84 -65 84 -97q0 -23 -31 -39q-39 -20 -86 6q-82 59 -209 160q-49 40 -49 67z" />
<glyph unicode="a" horiz-adv-x="1155" d="M14 498q0 229 133 372q143 154 394 154q252 0 393 -160v156h135v-1022h-135v145q-143 -166 -402 -166q-244 0 -387 152q-131 144 -131 369zM147 498q0 -176 97 -283q102 -115 286 -115q182 0 293 114t111 284q0 186 -103.5 294.5t-300.5 108.5q-182 0 -286 -119 q-97 -110 -97 -284z" />
<glyph unicode="b" horiz-adv-x="1155" d="M74 -2v1391h135v-504q139 162 391 162t393 -156q131 -145 131 -383q0 -236 -133 -377q-141 -152 -393 -151q-242 0 -389 167v-149h-135zM209 504q0 -174 109.5 -287t291.5 -113q184 0 285 117q96 109 96 289q0 184 -94 293q-102 119 -289 119q-201 0 -300 -111.5 t-99 -306.5z" />
<glyph unicode="c" d="M23 483q0 242 148 391.5t413 149.5q227 0 356 -131q70 -72 102 -195l-122 -59q-39 141 -119 201.5t-221 60.5q-203 0 -312.5 -114.5t-109.5 -303.5q0 -176 105.5 -279.5t295.5 -103.5q135 0 234.5 60.5t132.5 224.5l129 -53q-47 -193 -191 -279q-127 -76 -303 -76 q-248 0 -393 138.5t-145 367.5z" />
<glyph unicode="d" horiz-adv-x="1155" d="M14 510q0 233 133 381q143 156 394 156q252 0 393 -162v504h135v-1391h-135v147q-143 -168 -402 -168q-246 0 -387 156q-131 146 -131 377zM147 510q0 -180 97 -291q102 -117 286 -117q182 0 295 119q109 113 109 289q0 188 -103.5 300t-300.5 112q-180 0 -286 -121 q-97 -115 -97 -291z" />
<glyph unicode="e" d="M8 498q0 227 143.5 376.5t391.5 149.5q242 0 388 -132t146 -357v-84l-936 -2q27 -348 396 -349q287 0 378 236h140q-68 -211 -215 -289q-131 -70 -308 -70q-260 0 -397 146q-127 135 -127 375zM145 571h785q-12 139 -103 228q-104 102 -284 102q-162 0 -268.5 -86 t-129.5 -244z" />
<glyph unicode="f" horiz-adv-x="546" d="M16 795v127h148v49q0 393 551 393v-123q-225 0 -326 -70q-90 -63 -90 -200v-49h227v-127h-227v-797h-135v797h-148z" />
<glyph unicode="g" horiz-adv-x="1116" d="M16 504q0 231 139.5 375.5t385.5 144.5q233 0 372 -154v131h136v-948q0 -420 -504 -420q-188 0 -309 72q-150 88 -162 311h135q12 -137 91 -197.5t247 -60.5q367 0 366 297v88q-147 -152 -387 -151q-236 0 -373 143.5t-137 368.5zM152 506q0 -172 92 -277 q100 -113 278 -112q182 0 286.5 105.5t104.5 277.5q0 168 -102 283.5t-274 115.5q-178 0 -281.5 -111.5t-103.5 -281.5z" />
<glyph unicode="h" d="M74 0v1389h135v-474q125 131 352 132q186 0 305 -89q133 -98 133 -276v-682h-135v664q0 127 -79.5 192.5t-221.5 65.5q-166 0 -260 -96.5t-94 -254.5v-571h-135z" />
<glyph unicode="i" horiz-adv-x="278" d="M74 0v1024h135v-1024h-135zM74 1208v148q25 51 63 51q33 0 72 -45v-160q-37 -45 -72 -45q-43 0 -63 51z" />
<glyph unicode="j" horiz-adv-x="278" d="M-350 -242q225 0 321.5 74t96.5 229v959h135v-961q0 -426 -553 -426v125zM74 1206v148q23 53 63 53q33 0 72 -47v-160q-37 -45 -72 -45q-43 0 -63 51z" />
<glyph unicode="k" horiz-adv-x="1089" d="M74 0v1389h135v-840l682 477l237 -6l-600 -404l600 -616h-184l-524 541l-211 -148v-393h-135z" />
<glyph unicode="l" horiz-adv-x="278" d="M74 0v1389h135v-1389h-135z" />
<glyph unicode="m" horiz-adv-x="1673" d="M74 0v1001h135v-100q119 123 323 123q223 0 324 -158q109 158 352 158q391 0 391 -356v-668h-135v649q0 252 -252 252q-141 0 -224 -74.5t-83 -203.5v-623h-135v649q0 252 -258 252q-147 0 -229 -104q-74 -94 -74 -238v-559h-135z" />
<glyph unicode="n" d="M74 0v1001h135v-106q125 129 352 129q186 0 305 -86q133 -96 133 -270v-668h-135v649q0 123 -79.5 187.5t-221.5 64.5q-166 0 -260 -94t-94 -248v-559h-135z" />
<glyph unicode="o" horiz-adv-x="1116" d="M14 500q0 231 147.5 377.5t399.5 146.5t398.5 -146.5t146.5 -377.5t-148.5 -377t-400.5 -146t-397.5 146t-145.5 377zM150 500q0 -178 109.5 -289t299.5 -111t301 111t111 289q0 182 -108.5 291.5t-303.5 109.5q-193 0 -301 -110.5t-108 -290.5z" />
<glyph unicode="p" horiz-adv-x="1155" d="M74 -344v1345h135v-139q141 162 389 162q252 0 393 -152q133 -143 133 -378q0 -238 -131 -381q-139 -156 -393 -156q-250 0 -391 162v-463h-135zM209 498q0 -416 399 -416q184 0 287 119q96 111 96 291q0 184 -101.5 295.5t-279.5 111.5q-184 0 -292.5 -111.5 t-108.5 -289.5z" />
<glyph unicode="q" horiz-adv-x="1155" d="M14 494q0 227 136 374q145 156 387 156q254 0 395 -162v139h135v-1345h-135v455q-135 -154 -404 -154q-238 0 -381 158q-133 150 -133 379zM150 492q0 -176 94 -289q104 -121 284 -121q199 0 306 113q100 106 100 297q0 158 -84 264q-113 143 -324 143q-182 0 -284 -119 q-92 -110 -92 -288z" />
<glyph unicode="r" horiz-adv-x="651" d="M74 0v1001h135v-137q143 160 436 160v-123q-248 0 -350 -153q-86 -133 -86 -342v-406h-135z" />
<glyph unicode="s" horiz-adv-x="995" d="M39 401h139q0 -162 79 -231.5t255 -69.5q121 0 197 37q90 45 90 133q0 109 -193 152l-205 31q-319 47 -319 274q0 147 127 229q111 70 266 70q455 0 457 -383h-141q0 137 -72 196.5t-234 59.5q-109 0 -182 -41q-82 -49 -82 -131q0 -106 187 -139q53 -10 217 -37 q313 -53 313 -281q0 -160 -147 -239q-109 -57 -281 -58q-471 0 -471 428z" />
<glyph unicode="t" horiz-adv-x="538" d="M-4 840v125h205v292h135v-292h207v-125h-207v-840h-131l-4 840h-205z" />
<glyph unicode="u" d="M74 354v645h135v-643q0 -256 303 -256q176 0 266 101q86 92 86 258v540h135v-1001h-135v108q-129 -129 -352 -129q-199 0 -315 95q-123 100 -123 282z" />
<glyph unicode="v" horiz-adv-x="964" d="M-53 999h153l400 -819l370 819h148l-459 -999h-113z" />
<glyph unicode="w" horiz-adv-x="1579" d="M-14 999h153l377 -813l209 484l-160 329h156l375 -813l350 813h147l-436 -999h-117l-239 510l-226 -510h-114z" />
<glyph unicode="x" horiz-adv-x="956" d="M-94 0l485 516l-442 483h176l352 -389l361 389h172l-443 -483l484 -516h-177l-397 422l-395 -422h-176z" />
<glyph unicode="y" d="M25 16h135q12 -137 91 -197.5t247 -60.5q367 0 366 297v33q-129 -133 -352 -133q-199 0 -315 96q-123 102 -123 289v659h135v-657q0 -262 303 -262q176 0 266 102q86 94 86 267v550h135v-946q0 -420 -505 -420q-186 0 -308 72q-149 90 -161 311z" />
<glyph unicode="z" horiz-adv-x="968" d="M12 0v104l717 773h-657v122h852v-102l-719 -774h753v-123h-946z" />
<glyph unicode="{" horiz-adv-x="716" d="M137 535v92q111 45 127 63q29 33 29 137v447q0 229 205 229h69v-127h-67q-49 0 -64 -39q-8 -29 -8 -112v-402q0 -182 -100 -243q35 -20 51 -41q49 -61 49 -203v-399q0 -86 8 -115q14 -39 64 -39h67v-127h-69q-205 0 -205 229v447q0 104 -29 137q-16 19 -127 66z" />
<glyph unicode="|" horiz-adv-x="477" d="M172 -66v1512h135v-1512h-135z" />
<glyph unicode="}" horiz-adv-x="716" d="M137 -217h66q49 0 63 39q10 29 10 115v399q0 141 48 203q16 20 51 41q-98 61 -99 243v402q0 84 -10 112q-14 39 -63 39h-66v127h68q207 0 207 -229v-447q0 -104 26 -137q16 -18 129 -63v-92q-113 -47 -129 -66q-27 -33 -26 -137v-447q0 -229 -207 -229h-68v127z" />
<glyph unicode="~" horiz-adv-x="1122" d="M63 717q23 115 102 165t183 50q66 0 236 -58q154 -49 194 -49q100 0 125 109h158q-23 -117 -101.5 -166t-181.5 -49q-70 0 -239 55q-156 49 -195 49q-98 0 -123 -106h-158z" />
<glyph unicode="&#xa0;" />
<glyph unicode="&#xa1;" horiz-adv-x="397" d="M131 -195v1057h135v-1057h-135zM133 1004v124q0 66 68 66t67 -66v-124q0 -63 -67 -64q-68 1 -68 64z" />
<glyph unicode="&#xa2;" d="M23 485q0 244 148 395.5t413 151.5q68 0 129 -14l57 110h145l-79 -153q152 -76 208 -273l-124 -59q-45 164 -142 219l-381 -739q72 -25 162 -25q135 0 234.5 60.5t132.5 226.5l129 -53q-47 -195 -191 -281q-127 -78 -303 -78q-123 0 -223 37l-45 -84h-148l78 146 q-200 141 -200 413zM158 485q0 -195 125 -299l370 717q-35 4 -73 4q-203 0 -312.5 -116t-109.5 -306z" />
<glyph unicode="&#xa3;" horiz-adv-x="1196" d="M23 483l20 125h139v119h-114l28 125h86q4 227 149.5 374.5t397.5 147.5q244 0 426 -182l-98 -86q-145 143 -330 143q-193 0 -300.5 -110.5t-109.5 -286.5h613l-29 -125h-584v-119h557l-20 -125h-537q6 -164 109 -270q111 -113 301 -113q186 0 330 142l100 -82 q-184 -184 -428 -185q-246 0 -393 144q-145 137 -154 364h-159z" />
<glyph unicode="&#xa4;" horiz-adv-x="1196" d="M68 465l213 172q-55 68 -56 156q0 90 58 161l-215 172l100 78l213 -170q86 49 194 49q111 0 197 -49l213 170l100 -78l-215 -172q61 -72 62 -159q0 -90 -58 -160l211 -170l-100 -78l-209 168q-86 -51 -198 -51q-113 0 -201 51l-209 -168zM358 795q0 -76 63.5 -124 t156.5 -48q92 0 157.5 47t65.5 123q0 84 -74 131q-61 41 -149 41q-92 0 -156 -47t-64 -123z" />
<glyph unicode="&#xa5;" horiz-adv-x="1320" d="M-82 1389h176l568 -603l569 603h174l-674 -723v-50h434v-124h-434v-119h434v-125h-434v-248h-135v248h-434v125h434v119h-434v124h434v50z" />
<glyph unicode="&#xa6;" horiz-adv-x="477" d="M172 -47v696h135v-696h-135zM172 729v696h135v-696h-135z" />
<glyph unicode="&#xa7;" horiz-adv-x="1196" d="M158 575q14 166 170 236q-139 74 -140 217q0 150 127 234q111 72 265 71q453 0 454 -389h-135q0 141 -71.5 202.5t-235.5 61.5q-111 0 -186 -43q-82 -49 -82 -137q0 -82 96 -119q43 -16 258 -57q98 -10 186 -49q176 -78 176 -244q0 -184 -174 -260q139 -74 140 -215 q0 -150 -129 -234q-111 -72 -265 -71q-451 0 -450 387h135q0 -139 70.5 -200.5t234.5 -61.5q115 0 186 41q82 49 82 139q0 109 -149 137l-320 64q-104 31 -174 104q-79 84 -69 186zM297 580q0 -96 104 -152q90 -47 215 -47q283 0 287 172q-45 178 -328 178q-233 0 -278 -127 v-24z" />
<glyph unicode="&#xa8;" horiz-adv-x="438" d="M35 1167v66q0 45 67 45q68 0 68 -45v-66q0 -47 -68 -47q-67 0 -67 47zM272 1167v66q0 45 66 45q70 0 70 -45v-66q0 -47 -70 -47q-66 0 -66 47z" />
<glyph unicode="&#xa9;" horiz-adv-x="1146" d="M43 928q0 205 170 332q156 117 367 116q213 0 368 -114q174 -127 174 -332t-172 -332q-156 -115 -366 -115q-217 0 -371 111q-170 125 -170 334zM182 930q0 -150 127 -242q115 -82 271 -82q158 0 272 80q131 92 131 242t-129 241q-115 82 -270 82q-158 0 -273 -80 q-129 -91 -129 -241zM256 924q0 135 96 215q94 74 240 73q260 0 305 -260h-139q-18 76 -56 105.5t-112 29.5q-90 0 -142.5 -43t-52.5 -120q0 -80 55.5 -126t149.5 -46q113 0 160 143h147q-86 -268 -307 -268q-152 0 -248 80t-96 217z" />
<glyph unicode="&#xaa;" horiz-adv-x="774" d="M43 1024q0 141 91 232.5t253 91.5q123 0 207 -56v54h139v-633h-139v45q-86 -57 -211 -58q-160 0 -254 95q-86 90 -86 229zM182 1024q0 -203 201 -203q96 0 153.5 57.5t57.5 145.5q0 94 -53.5 148.5t-157.5 54.5q-98 0 -149.5 -56.5t-51.5 -146.5z" />
<glyph unicode="&#xab;" horiz-adv-x="800" d="M100 522v76l398 244v-137l-230 -144l230 -145v-131zM338 522v76l397 244v-137l-229 -144l229 -145v-131z" />
<glyph unicode="&#xac;" horiz-adv-x="1232" d="M55 510v108h1098v-344h-135v236h-963z" />
<glyph unicode="&#xad;" horiz-adv-x="1212" d="M57 473v39h1069v-39h-1069z" />
<glyph unicode="&#x2212;" horiz-adv-x="1212" d="M57 473v39h1069v-39h-1069z" />
<glyph unicode="&#xae;" horiz-adv-x="1112" d="M23 928q0 205 170 332q156 117 366 116q213 0 369 -114q172 -125 172 -332q0 -209 -170 -334q-154 -113 -369 -113t-368 113q-170 125 -170 332zM162 930q0 -145 117 -236q111 -88 280 -88q158 0 272 80q129 90 130 242q0 145 -116 234t-284 89q-158 0 -272 -80 q-127 -89 -127 -241zM336 643v563h278q219 0 220 -172q0 -72 -46 -119q39 -41 39 -106v-166h-141v164q0 47 -78 47h-133v-211h-139zM475 981h129q90 0 90 53q0 45 -80 45h-139v-98z" />
<glyph unicode="&#xaf;" horiz-adv-x="641" d="M27 1223v39h591v-39h-591z" />
<glyph unicode="&#x2c9;" horiz-adv-x="641" d="M27 1223v39h591v-39h-591z" />
<glyph unicode="&#xb0;" horiz-adv-x="860" d="M78 1065q0 123 108 203q102 74 242 73q141 0 244 -71q111 -78 110 -203q0 -129 -116 -209q-102 -70 -236 -70q-139 0 -242 74q-110 80 -110 203zM211 1067q0 -72 63.5 -118t155.5 -46t156.5 45t64.5 117q0 80 -73 125q-61 37 -148 37q-92 0 -155.5 -45t-63.5 -115z" />
<glyph unicode="&#xb1;" horiz-adv-x="1290" d="M186 446v123h392v318h135v-318h393v-123h-393v-323h-135v323h-392zM188 -6v123h920v-123h-920z" />
<glyph unicode="&#xb2;" horiz-adv-x="802" d="M29 524q0 264 299 428l192 101q76 43 76 75q0 102 -190 103q-119 0 -170.5 -50.5t-51.5 -174.5h-141q0 350 354 350q338 0 338 -230q0 -111 -164 -194l-178 -92q-176 -90 -213 -193h596v-123h-747z" />
<glyph unicode="&#xb3;" horiz-adv-x="872" d="M47 809v63h143v-79q0 -76 76 -117q68 -35 172 -35q100 0 168 29q80 37 80 104q0 129 -221 129h-119v123h121q203 0 203 104q0 100 -213 101q-131 0 -185.5 -48t-54.5 -165h-141q0 338 379 338q133 0 227 -43q129 -57 129 -183q0 -109 -90 -165q106 -63 106 -191 q0 -133 -131 -203q-104 -55 -250 -55q-166 0 -270 64q-129 77 -129 229z" />
<glyph unicode="&#xb4;" horiz-adv-x="434" d="M31 1135q0 20 20 39l232 186q23 18 51 18q29 0 50.5 -16t21.5 -37q0 -23 -23 -39l-231 -186q-23 -16 -52 -17q-27 0 -48 16t-21 36z" />
<glyph unicode="&#xb5;" d="M74 -350v1349h135v-550q0 -172 84 -267q90 -102 266 -102q305 0 305 262v657h135v-659q0 -236 -192 -332q-16 -8 -16 -22q0 -53 165 -54v-129q-133 0 -208 35q-94 43 -105 123q-41 -4 -84 -4q-225 0 -350 129v-436h-135z" />
<glyph unicode="&#xb6;" horiz-adv-x="1015" d="M82 932q0 209 170 340q158 119 373 119q8 0 18 -2h293v-1661h-135v1536h-84v-1536h-135v745q-205 2 -349 127q-151 131 -151 332z" />
<glyph unicode="&#xb7;" horiz-adv-x="428" d="M176 623v82q0 47 68 47t67 -47v-82q0 -49 -67 -50q-68 1 -68 50z" />
<glyph unicode="&#x2219;" horiz-adv-x="428" d="M176 623v82q0 47 68 47t67 -47v-82q0 -49 -67 -50q-68 1 -68 50z" />
<glyph unicode="&#xb8;" horiz-adv-x="530" d="M0 -315l63 100q121 -31 183 -31q121 0 121 43q0 18 -82 25q-51 4 -121 -25v72l18 149h131l-4 -88q201 -6 201 -141q0 -145 -258 -145q-80 0 -252 41z" />
<glyph unicode="&#xb9;" horiz-adv-x="587" d="M-90 1063l459 274h106v-805h-145v627l-168 -96h-252z" />
<glyph unicode="&#xba;" horiz-adv-x="845" d="M49 1030q0 145 106.5 229t270.5 84t269.5 -84.5t105.5 -228.5q0 -145 -108.5 -229t-272.5 -84t-267.5 85t-103.5 228zM180 1030q0 -94 64.5 -147.5t177.5 -53.5t180.5 53.5t67.5 147.5q0 92 -67.5 146.5t-180.5 54.5q-111 0 -176.5 -54.5t-65.5 -146.5z" />
<glyph unicode="&#xbb;" horiz-adv-x="780" d="M100 285v131l228 145l-228 144v137l398 -244v-76zM338 285v131l227 145l-227 144v137l397 -244v-76z" />
<glyph unicode="&#xbc;" horiz-adv-x="1671" d="M-29 1063l439 276h102v-833h-135v661l-172 -104h-234zM338 0l727 1421h145l-727 -1421h-145zM698 262l367 590h149l-290 -469h350v471l133 -6v-465h188v-121h-188v-262h-133v262h-576z" />
<glyph unicode="&#xbd;" horiz-adv-x="1644" d="M-51 1063l438 276h102v-833h-135v659l-170 -102h-235zM315 0l729 1421h146l-729 -1421h-146zM850 0q6 283 289 432l180 96q100 63 100 101q0 113 -194 112q-119 0 -172.5 -54t-55.5 -183h-131q4 356 351 356q332 0 331 -235q0 -111 -149 -191l-185 -102 q-186 -104 -221 -213h596v-119h-739z" />
<glyph unicode="&#xbe;" horiz-adv-x="1855" d="M76 788v62h131v-78q0 -82 80 -125q70 -39 176 -39q102 0 170 33q84 39 84 113q0 139 -230 139h-112v119h114q209 0 209 114q0 111 -219 111q-131 0 -187 -51t-59 -172h-131q6 342 375 342q133 0 225 -43q127 -59 127 -187q0 -115 -100 -174q119 -68 119 -198 q0 -135 -129 -207q-104 -57 -250 -58q-393 0 -393 299zM524 0l729 1421h146l-729 -1421h-146zM885 262l368 590h152l-293 -469h348v471l133 -6v-465h189v-121h-189v-262h-133v262h-575z" />
<glyph unicode="&#xbf;" d="M37 156q0 129 108 247l201 189q111 109 111 215v90h137v-82q0 -205 -221 -377q-119 -94 -158 -145q-43 -59 -43 -137q0 -115 102 -174q90 -51 232 -52q178 0 268 83t111 280l127 -76q-31 -217 -174 -317q-131 -94 -334 -95q-184 0 -314 78q-153 97 -153 273zM459 1036 v125q0 66 65 66q70 0 70 -66v-125q0 -63 -70 -63q-65 0 -65 63z" />
<glyph unicode="&#xc0;" horiz-adv-x="1384" d="M-20 0l667 1407h115l643 -1407h-150l-198 434h-721l-203 -434h-153zM395 559h604l-294 647zM510 1696q0 29 27 47q18 16 41 16q29 0 51 -24l233 -238q20 -23 21 -47q0 -31 -31 -49q-16 -10 -37 -10q-29 0 -53 20l-232 240q-20 20 -20 45z" />
<glyph unicode="&#xc1;" horiz-adv-x="1384" d="M-20 0l667 1407h115l643 -1407h-150l-198 434h-721l-203 -434h-153zM395 559h604l-294 647zM510 1456q0 25 20 45l234 238q23 25 51 24q27 0 47.5 -19.5t20.5 -43.5q0 -25 -21 -45l-231 -240q-20 -23 -51 -22q-27 0 -48.5 19t-21.5 44z" />
<glyph unicode="&#xc2;" horiz-adv-x="1384" d="M-20 0l667 1407h115l643 -1407h-150l-198 434h-721l-203 -434h-153zM385 1382l266 353h88l273 -353h-164l-154 197l-153 -197h-156zM395 559h604l-294 645z" />
<glyph unicode="&#xc3;" horiz-adv-x="1384" d="M-20 0l667 1403h115l643 -1403h-150l-198 432h-721l-203 -432h-153zM387 1450q0 94 59.5 142t128.5 48q41 0 160 -57q96 -49 115 -49q55 0 61 139l127 -69q-8 -94 -62 -144.5t-126 -50.5q-45 0 -164 57q-96 49 -115 50q-53 0 -59 -144zM395 557h604l-294 645z" />
<glyph unicode="&#xc4;" horiz-adv-x="1384" d="M-20 0l667 1403h115l643 -1403h-150l-198 432h-721l-203 -432h-153zM395 557h604l-294 645zM512 1464v107q0 66 68 65q68 0 67 -65v-107q0 -66 -67 -65q-68 -1 -68 65zM750 1464v107q0 66 65 65q70 0 70 -65v-107q0 -66 -70 -65q-65 -1 -65 65z" />
<glyph unicode="&#xc5;" horiz-adv-x="1384" d="M-20 0l667 1409h115l643 -1409h-150l-198 434h-721l-203 -434h-153zM395 559h604l-294 647zM489 1602q0 82 60.5 134t144.5 52t145.5 -52.5t61.5 -133.5q0 -84 -61.5 -135.5t-145.5 -51.5t-144.5 52.5t-60.5 134.5zM629 1602q0 -57 65 -58q70 0 70 58q0 57 -70 57 q-65 0 -65 -57z" />
<glyph unicode="&#xc6;" horiz-adv-x="2205" d="M-131 0l1307 1389h972v-125h-848v-478h95v-2h645v-122h-740v-537h859v-125h-996v662h-497l-621 -662h-176zM784 786h379l2 402z" />
<glyph unicode="&#xc7;" horiz-adv-x="1472" d="M59 676q0 332 207 529.5t557 197.5q408 0 611 -283l-115 -71q-160 227 -496 227q-289 0 -458.5 -160t-169.5 -432q0 -270 161.5 -430t444.5 -160q324 0 502 232l112 -72q-221 -285 -612 -285q-342 0 -543 190.5t-201 516.5zM510 -307l68 114q123 -37 182 -36 q119 0 119 53q0 27 -80 35q-51 4 -121 -31v84l18 176h131l-4 -104q201 -8 201 -168q0 -172 -258 -172q-80 0 -242 45z" />
<glyph unicode="&#xc8;" horiz-adv-x="1155" d="M72 0v1407h1087v-127h-954v-485h846v-125h-846v-545h964v-125h-1097zM391 1677q0 29 29 47q18 14 41 15q29 0 49 -23l233 -239q20 -18 21 -43q0 -27 -21.5 -45.5t-48.5 -18.5q-29 0 -51 23l-231 237q-21 20 -21 47z" />
<glyph unicode="&#xc9;" horiz-adv-x="1155" d="M72 0v1407h1087v-127h-954v-485h846v-125h-846v-545h964v-125h-1097zM391 1434q0 25 21 45l233 237q20 23 49 23t49.5 -19.5t20.5 -44.5t-21 -45l-231 -237q-23 -23 -51 -23q-27 0 -48.5 19.5t-21.5 44.5z" />
<glyph unicode="&#xca;" horiz-adv-x="1155" d="M72 0v1407h1087v-125h-954v-487h846v-125h-846v-543h964v-127h-1097zM264 1403l266 352h88l275 -352h-166l-154 196l-153 -196h-156z" />
<glyph unicode="&#xcb;" horiz-adv-x="1155" d="M72 0v1403h1087v-125h-954v-485h846v-125h-846v-543h964v-125h-1097zM393 1481v106q0 66 66 66q70 0 69 -66v-106q0 -66 -69 -66q-66 0 -66 66zM629 1481v106q0 66 67 66q68 0 68 -66v-106q0 -66 -68 -66q-67 0 -67 66z" />
<glyph unicode="&#xcc;" horiz-adv-x="274" d="M-49 1706q0 25 21.5 44t47.5 19q29 0 52 -22l231 -240q20 -18 21 -43q0 -27 -21.5 -45t-48.5 -18q-29 0 -51 22l-232 238q-20 20 -20 45zM72 0v1407h135v-1407h-135z" />
<glyph unicode="&#xcd;" horiz-adv-x="274" d="M-49 1456q0 23 20 43l232 240q23 25 51 24q29 0 49.5 -18.5t20.5 -44.5q0 -25 -21 -45l-231 -240q-20 -23 -52 -22q-27 0 -48 19t-21 44zM72 0v1407h135v-1407h-135z" />
<glyph unicode="&#xce;" horiz-adv-x="274" d="M-176 1395l266 352h88l275 -352h-164l-154 196l-155 -196h-156zM72 0v1407h135v-1407h-135z" />
<glyph unicode="&#xcf;" horiz-adv-x="274" d="M-51 1497v107q0 63 71 63q59 0 66 -61l2 -109q0 -68 -68 -67q-71 -1 -71 67zM72 0v1403h135v-1403h-135zM190 1497v107q0 63 66 63q61 0 68 -61l2 -109q0 -68 -70 -67q-66 -1 -66 67z" />
<glyph unicode="&#xd0;" horiz-adv-x="1392" d="M-6 633v127h78v629h573q348 0 531 -189q176 -180 176 -508q0 -336 -219 -518q-207 -174 -566 -174h-495v633h-78zM207 125h366q305 0 474.5 143.5t169.5 423.5q0 279 -141.5 425.5t-432.5 146.5h-436v-504h405v-127h-405v-508z" />
<glyph unicode="&#xd1;" horiz-adv-x="1392" d="M72 0v1403h131l493 -598l492 -588v1186h135v-1403h-133l-983 1190v-1190h-135zM373 1438q0 92 60.5 141t125.5 49q43 0 162 -57q96 -49 115 -49q55 0 61 135l127 -62q-8 -96 -62.5 -147t-125.5 -51q-45 0 -164 57q-96 49 -115 49q-53 0 -59 -143z" />
<glyph unicode="&#xd2;" horiz-adv-x="1550" d="M27 702q0 332 202 519q199 180 547 180t549 -180q205 -186 205 -519q0 -332 -203 -524t-551 -192q-352 0 -550.5 191t-198.5 525zM162 702q0 -274 162.5 -431.5t451.5 -157.5q291 0 455 156.5t164 432.5q0 274 -163 424t-456 150q-291 0 -452.5 -150t-161.5 -424z M588 1706q0 57 71 57q33 0 52 -20l231 -240q20 -18 21 -45q0 -25 -21.5 -43t-46.5 -18q-31 0 -51 22l-236 240q-20 24 -20 47z" />
<glyph unicode="&#xd3;" horiz-adv-x="1550" d="M27 702q0 332 202 519q199 180 547 180t549 -180q205 -186 205 -519q0 -332 -203 -524t-551 -192q-352 0 -550.5 191t-198.5 525zM162 702q0 -274 162.5 -431.5t451.5 -157.5q291 0 455 156.5t164 432.5t-163 425t-456 149q-291 0 -452.5 -150t-161.5 -424zM590 1466 q0 25 20 45l232 240q39 41 92 10q29 -18 29 -49q0 -27 -21 -47l-235 -240q-25 -20 -50 -20q-67 0 -67 61z" />
<glyph unicode="&#xd4;" horiz-adv-x="1550" d="M27 702q0 332 202 519q199 180 547 180t549 -180q205 -186 205 -519q0 -332 -203 -524t-551 -192q-352 0 -550.5 191t-198.5 525zM162 702q0 -274 162.5 -431.5t451.5 -157.5q291 0 455 156.5t164 432.5t-163 425t-456 149q-291 0 -452.5 -150t-161.5 -424zM463 1419 l264 350h88l275 -350h-164l-154 195l-154 -195h-155z" />
<glyph unicode="&#xd5;" horiz-adv-x="1550" d="M27 702q0 330 200.5 513.5t548.5 183.5t551 -183.5t203 -513.5q0 -332 -203 -524t-551 -192q-352 0 -550.5 191t-198.5 525zM162 702q0 -274 162.5 -432.5t451.5 -158.5q291 0 455 157.5t164 433.5q0 272 -163 421t-456 149q-291 0 -452.5 -149t-161.5 -421zM457 1483 q0 90 60.5 139t125.5 49q43 0 162 -57q96 -49 113 -49q57 0 63 139l127 -70q-12 -96 -65.5 -145t-124.5 -49q-43 0 -162 57q-96 49 -115 49q-39 0 -55 -57q-4 -16 -11 -88z" />
<glyph unicode="&#xd6;" horiz-adv-x="1550" d="M27 700q0 332 200.5 514.5t548.5 182.5t551 -182.5t203 -514.5q0 -330 -203 -522t-551 -192q-352 0 -550.5 190t-198.5 524zM162 700q0 -272 162.5 -430.5t451.5 -158.5q291 0 455 157.5t164 431.5t-163 423t-456 149q-291 0 -452.5 -149t-161.5 -423zM592 1497v107 q0 63 65 63q61 0 68 -61l2 -109q0 -68 -70 -67q-65 -1 -65 67zM827 1497v107q0 63 68 63q59 0 66 -61l2 -109q0 -68 -68 -67q-68 -1 -68 67z" />
<glyph unicode="&#xd7;" horiz-adv-x="1003" d="M125 301l274 215l-272 211l100 80l275 -213l276 213l101 -80l-275 -211l279 -219l-103 -78l-278 215l-279 -211z" />
<glyph unicode="&#xd8;" horiz-adv-x="1550" d="M27 694q0 328 200.5 510t548.5 182q147 0 268 -32l46 88h145l-68 -133q362 -176 363 -615q0 -330 -203 -520t-551 -190q-150 0 -272 34l-41 -77h-146l66 127q-94 47 -166 122q-190 197 -190 504zM162 694q0 -254 153 -415q59 -59 127 -95l543 1055q-94 23 -209 23 q-291 0 -452.5 -149t-161.5 -419zM563 135q96 -27 213 -26q293 0 456 155.5t163 429.5q0 365 -287 502z" />
<glyph unicode="&#xd9;" horiz-adv-x="1359" d="M72 535v872h135v-870q0 -424 473 -424t473 415v879h135v-877q0 -285 -160 -419q-150 -125 -448 -125q-608 0 -608 549zM494 1686q0 27 21.5 45t47.5 18q29 0 51 -23l232 -237q20 -20 20 -45t-20.5 -44.5t-46.5 -19.5q-25 0 -51 21l-234 241q-20 21 -20 44z" />
<glyph unicode="&#xda;" horiz-adv-x="1359" d="M72 535v872h135v-870q0 -424 473 -424t473 415v879h135v-877q0 -285 -160 -419q-150 -125 -448 -125q-608 0 -608 549zM494 1448q0 25 20 45l231 238q23 25 52 24q29 0 49 -18.5t20 -44.5q0 -25 -20 -45l-232 -240q-25 -20 -53 -21q-27 0 -47 18.5t-20 43.5z" />
<glyph unicode="&#xdb;" horiz-adv-x="1359" d="M72 535v872h135v-870q0 -424 473 -424t473 415v879h135v-877q0 -285 -160 -419q-150 -125 -448 -125q-608 0 -608 549zM367 1399l266 352h88l274 -352h-164l-155 196l-154 -196h-155z" />
<glyph unicode="&#xdc;" horiz-adv-x="1359" d="M72 532v871h135v-868q0 -424 473 -424t473 415v877h135v-875q0 -283 -160 -417q-150 -125 -448 -125q-608 -1 -608 546zM496 1497v107q0 63 65 63q70 0 70 -63v-107q0 -68 -70 -67q-65 -1 -65 67zM731 1497v107q0 63 68 63t67 -63v-107q0 -68 -67 -67q-68 -1 -68 67z" />
<glyph unicode="&#xdd;" horiz-adv-x="1345" d="M-70 1407h176l568 -610l569 610h174l-674 -731v-676h-135v676zM487 1456q0 25 21 45l233 238q23 25 52 24q29 0 49 -19.5t20 -43.5q0 -25 -20 -45l-234 -240q-23 -23 -51 -22q-27 0 -48.5 19t-21.5 44z" />
<glyph unicode="&#xde;" horiz-adv-x="870" d="M74 0v1389h135v-295h274q322 0 322 -385q0 -373 -324 -373h-272v-336h-135zM209 457l274 2q184 0 185 250q0 260 -187 260h-272v-512z" />
<glyph unicode="&#xdf;" horiz-adv-x="1034" d="M2 782v127h72q0 82 6 178q16 326 405 326q463 0 453 -313q-4 -195 -174 -262q70 -37 129 -103q129 -139 129 -311q0 -248 -174 -375q-154 -111 -459 -110v124q264 0 381 89.5t117 271.5q0 172 -133 266q-125 92 -365 92v125q229 0 307 29q109 41 109 156q0 119 -84 161 q-72 35 -240 35q-272 0 -272 -252v-1040h-135v786h-72z" />
<glyph unicode="&#xe0;" horiz-adv-x="1130" d="M14 508q0 236 133 383q143 156 394 156q252 0 393 -164v159h135v-1044h-135v147q-143 -168 -402 -168q-246 0 -387 156q-131 146 -131 375zM147 508q0 -178 97 -289q102 -117 286 -117q182 0 295 119q109 113 109 287q0 190 -103.5 302t-300.5 112q-180 0 -286 -123 q-97 -113 -97 -291zM330 1317q0 29 28 47q18 14 41 14q31 0 54 -24l231 -236q20 -20 21 -45q0 -25 -20.5 -42t-47.5 -17q-29 0 -51 20l-234 236q-22 20 -22 47z" />
<glyph unicode="&#xe1;" horiz-adv-x="1130" d="M39 510q0 233 133 381q143 156 393 156q252 0 393 -164v159h136v-1044h-136v147q-143 -168 -401 -168q-246 0 -387 156q-131 146 -131 377zM172 510q0 -180 96 -291q102 -117 287 -117q182 0 295 119q109 113 108 289q0 188 -103 300t-300 112q-180 0 -287 -123 q-96 -113 -96 -289zM356 1073q0 25 21 45l231 236q23 25 54 24q27 0 47 -17.5t20 -43.5q0 -25 -18 -47l-238 -238q-25 -18 -49 -18q-68 0 -68 59z" />
<glyph unicode="&#xe2;" horiz-adv-x="1130" d="M39 510q0 233 133 381q143 156 393 156q252 0 393 -164v159h136v-1044h-136v147q-143 -168 -401 -168q-246 0 -387 156q-131 146 -131 377zM172 510q0 -180 96 -291q102 -117 287 -117q182 0 295 119q109 113 108 289q0 188 -103 300t-300 112q-180 0 -287 -121 q-96 -115 -96 -291zM229 1034l265 346h88l274 -346h-164l-153 193l-154 -193h-156z" />
<glyph unicode="&#xe3;" horiz-adv-x="1130" d="M39 508q0 233 133 379q143 156 393 155q252 0 393 -161v157h136v-1040h-136v147q-143 -168 -401 -168q-246 0 -387 156q-131 146 -131 375zM172 508q0 -180 96 -289q102 -117 287 -117q182 0 292.5 116t110.5 290q0 188 -103 299t-300 111q-182 0 -287 -121 q-96 -113 -96 -289zM221 1096q0 88 60.5 137t126.5 49q43 0 161 -57q96 -47 113 -47q57 0 63 137l127 -70q-12 -94 -65 -143t-125 -49q-45 0 -164 57q-96 49 -112 49q-39 0 -56 -57q-4 -16 -10 -86z" />
<glyph unicode="&#xe4;" horiz-adv-x="1130" d="M39 506q0 233 133 381q143 154 393 153q252 0 393 -161v159h136v-1040h-136v147q-143 -168 -401 -168q-246 0 -387 156q-131 146 -131 373zM172 506q0 -178 96 -287q102 -117 287 -117q182 0 292.5 115t110.5 289q0 190 -102 297q-104 115 -301 115q-182 0 -287 -123 q-96 -113 -96 -289zM383 1110v104q0 63 66 64q70 0 69 -64v-104q0 -68 -69 -68q-66 0 -66 68zM618 1110v104q0 63 68 64q68 0 68 -64v-104q0 -68 -68 -68t-68 68z" />
<glyph unicode="&#xe5;" horiz-adv-x="1130" d="M39 510q0 236 133 383q143 156 393 156q252 0 393 -162v157h136v-1046h-136v149q-143 -170 -401 -170q-246 0 -387 156q-131 148 -131 377zM172 510q0 -180 96 -289q102 -119 287 -119q182 0 292.5 117t110.5 291q0 190 -103 302t-300 112q-180 0 -287 -123 q-96 -113 -96 -291zM346 1249q0 82 61.5 133.5t145.5 51.5t144.5 -51.5t60.5 -133.5t-60.5 -133t-144.5 -51t-145.5 51t-61.5 133zM485 1249q0 -55 68 -55t68 55t-68 56q-68 -1 -68 -56z" />
<glyph unicode="&#xe6;" horiz-adv-x="2015" d="M14 498q0 229 133 372q143 154 394 154q252 0 393 -160v156h135v-162q154 166 397 166q242 0 388.5 -132t146.5 -357v-84l-932 -2v-5q0 -344 393 -344q287 0 379 236h141q-70 -207 -219 -287q-131 -72 -305 -72q-254 0 -389 140v-119h-135v145q-143 -166 -402 -166 q-244 0 -387 152q-131 144 -131 369zM147 498q0 -176 97 -283q102 -115 286 -115q182 0 293 114t111 284q0 186 -103.5 294.5t-300.5 108.5q-182 0 -286 -119q-97 -110 -97 -284zM1069 559q14 12 784 12q-12 139 -102 228q-104 102 -285 102q-164 0 -280.5 -96t-116.5 -246z " />
<glyph unicode="&#xe7;" d="M23 471q0 248 148 400.5t413 152.5q223 0 350 -129q74 -72 108 -203l-122 -61q-39 145 -119 206.5t-221 61.5q-203 0 -312.5 -116.5t-109.5 -311.5q0 -178 105.5 -284.5t295.5 -106.5q135 0 234.5 62.5t132.5 228.5l129 -54q-47 -197 -191 -282q-127 -78 -303 -78 q-248 0 -393 141.5t-145 372.5zM322 -309l61 114q125 -37 182 -36q121 0 121 53q0 27 -82 33q-51 4 -121 -29v84l21 172h131l-4 -102q199 -8 198 -166q0 -170 -258 -170q-79 0 -249 47z" />
<glyph unicode="&#xe8;" d="M8 508q0 233 143.5 386t391.5 153q242 0 388 -135.5t146 -364.5v-86l-936 -2q25 -356 396 -357q287 0 378 242h140q-68 -215 -215 -295q-129 -72 -308 -72q-260 0 -397 148q-127 139 -127 383zM145 584h785q-12 141 -103 233q-104 104 -284 105q-164 0 -271 -89 t-127 -249zM348 1317q0 57 72 57q33 0 51 -20l234 -236q20 -20 20 -45q0 -31 -31 -49q-45 -27 -88 10l-237 236q-21 24 -21 47z" />
<glyph unicode="&#xe9;" d="M8 508q0 233 143.5 386t391.5 153q242 0 388 -135.5t146 -364.5v-86l-936 -2q25 -356 396 -357q287 0 378 242h140q-68 -215 -215 -295q-129 -72 -308 -72q-260 0 -397 148q-127 139 -127 383zM145 584h785q-12 141 -103 233q-104 104 -284 105q-164 0 -271 -89 t-127 -249zM352 1077q0 25 21 45l231 236q20 23 49 22q23 0 47 -12q25 -23 25 -49q0 -18 -16 -43l-240 -240q-25 -18 -49 -18q-68 0 -68 59z" />
<glyph unicode="&#xea;" d="M8 510q0 231 143.5 384t391.5 153q242 0 388 -135.5t146 -364.5v-86l-936 -2q25 -356 396 -357q287 0 378 242h140q-68 -215 -215 -295q-129 -72 -308 -72q-260 0 -397 150q-127 137 -127 383zM145 584h785q-12 141 -103 233q-104 104 -284 105q-164 0 -271 -89 t-127 -249zM223 1034l269 346h88l272 -346h-164l-153 193l-154 -193h-158z" />
<glyph unicode="&#xeb;" d="M8 506q0 231 143.5 382.5t391.5 151.5q242 0 388 -134t146 -361v-86l-936 -2q25 -354 396 -355q287 0 378 240h140q-68 -213 -215 -293q-129 -72 -308 -72q-260 0 -397 148q-127 139 -127 381zM145 582h785q-12 141 -103 231q-104 104 -284 105q-164 0 -271 -89 t-127 -247zM354 1110v104q0 63 68 64q68 0 67 -64v-104q0 -68 -67 -68q-68 0 -68 68zM592 1110v104q0 63 65 64q70 0 70 -64v-104q0 -68 -70 -68q-65 0 -65 68z" />
<glyph unicode="&#xec;" horiz-adv-x="278" d="M-47 1315q0 25 21.5 44t45.5 19q29 0 52 -24l233 -236q20 -20 21 -45q0 -31 -31 -49q-45 -27 -88 10l-234 236q-20 18 -20 45zM74 0v1024h135v-1024h-135z" />
<glyph unicode="&#xed;" horiz-adv-x="278" d="M-47 1067q0 25 20 43l234 238q23 23 51 22q27 0 47.5 -19.5t20.5 -43.5q0 -23 -21 -43l-231 -236q-20 -23 -51 -22q-27 0 -48.5 18t-21.5 43zM74 0v1024h135v-1024h-135z" />
<glyph unicode="&#xee;" horiz-adv-x="278" d="M-158 1034l252 346h92l258 -346h-163l-140 191l-145 -191h-154zM74 0v1024h135v-1024h-135z" />
<glyph unicode="&#xef;" horiz-adv-x="278" d="M-41 1110v104q0 63 70 64q68 0 67 -64v-104q0 -68 -67 -68q-70 0 -70 68zM74 0v1018h135v-1018h-135zM199 1110v104q0 63 65 64q70 0 70 -64v-104q0 -68 -70 -68q-65 0 -65 68z" />
<glyph unicode="&#xf0;" horiz-adv-x="1155" d="M14 510q0 233 133 381q143 156 394 156q252 0 393 -162v239h-680v125h680v140h135v-1391h-135v147q-143 -168 -402 -168q-246 0 -387 156q-131 146 -131 377zM147 510q0 -180 97 -291q102 -117 286 -117q182 0 295 119q109 113 109 289q0 188 -103.5 300t-300.5 112 q-180 0 -286 -121q-97 -115 -97 -291z" />
<glyph unicode="&#xf1;" d="M74 0v1020h135v-109q125 131 352 131q186 0 305 -88q133 -98 133 -274v-680h-135v662q0 125 -79.5 190.5t-221.5 65.5q-166 0 -260 -96.5t-94 -252.5v-569h-135zM221 1096q0 88 61.5 137t125.5 49q43 0 161 -57q96 -47 115 -47q55 0 61 137l127 -70q-8 -94 -62 -143 t-126 -49q-45 0 -164 57q-96 49 -114 49q-53 0 -60 -141z" />
<glyph unicode="&#xf2;" horiz-adv-x="1116" d="M14 510q0 238 147.5 387.5t399.5 149.5t398.5 -149.5t146.5 -387.5q0 -236 -148.5 -384.5t-400.5 -148.5t-399 152q-144 145 -144 381zM150 510q0 -182 109.5 -295t299.5 -113t301 113t111 295q0 186 -108.5 299t-303.5 113q-193 0 -301 -114t-108 -298zM371 1317 q0 29 28 47q18 14 41 14q31 0 54 -24l231 -236q20 -20 20 -45t-20 -42t-47 -17q-29 0 -51 20l-234 236q-22 20 -22 47z" />
<glyph unicode="&#xf3;" horiz-adv-x="1116" d="M14 510q0 238 147.5 387.5t399.5 149.5t398.5 -149.5t146.5 -387.5q0 -236 -148.5 -384.5t-400.5 -148.5t-399 152q-144 145 -144 381zM150 510q0 -182 109.5 -295t299.5 -113t301 113t111 295q0 186 -108.5 299t-303.5 113q-193 0 -301 -114t-108 -298zM371 1069 q0 23 20 41l234 238q23 23 51 22q29 0 49 -18.5t20 -44.5q0 -23 -20 -43l-233 -238q-20 -20 -50 -20q-29 0 -50 18t-21 45z" />
<glyph unicode="&#xf4;" horiz-adv-x="1116" d="M14 510q0 238 147.5 387.5t399.5 149.5t398.5 -149.5t146.5 -387.5q0 -236 -148.5 -384.5t-400.5 -148.5t-399 152q-144 145 -144 381zM150 510q0 -180 109.5 -294t299.5 -114t301 114t111 294q0 186 -108.5 299t-303.5 113q-193 0 -301 -114t-108 -298zM244 1034 l268 346h88l274 -346h-163l-154 193l-156 -193h-157z" />
<glyph unicode="&#xf5;" horiz-adv-x="1116" d="M14 508q0 236 147.5 385t399.5 149t398.5 -149.5t146.5 -384.5q0 -236 -148.5 -383.5t-400.5 -147.5t-397.5 149t-145.5 382zM150 508q0 -180 109.5 -293t299.5 -113t301 113t111 293q0 186 -108.5 298t-303.5 112q-193 0 -301 -113t-108 -297zM236 1094q0 92 59 143 q59 45 129 45q41 0 160 -57q96 -47 114 -47q51 0 72 135l117 -68q-12 -94 -64.5 -143t-124.5 -49q-45 0 -163 57q-98 49 -113 49q-41 0 -55 -55q-4 -18 -7 -88z" />
<glyph unicode="&#xf6;" horiz-adv-x="1116" d="M14 508q0 236 147.5 384t399.5 148t398.5 -148.5t146.5 -383.5q0 -236 -148.5 -383.5t-400.5 -147.5t-397.5 147.5t-145.5 383.5zM150 508q0 -180 109.5 -293t299.5 -113t301 113t111 293q0 186 -108.5 298t-303.5 112q-193 0 -301 -113t-108 -297zM375 1110v104 q0 63 65 64q70 0 70 -64v-104q0 -68 -70 -68q-65 0 -65 68zM610 1110v104q0 63 68 64q68 0 67 -64v-104q0 -68 -67 -68q-68 0 -68 68z" />
<glyph unicode="&#xf7;" horiz-adv-x="1212" d="M57 432v119h1069v-119h-1069zM541 213v117q0 61 65 61q70 0 70 -61v-117q0 -61 -70 -61q-65 0 -65 61zM541 639v117q0 59 65 59q70 0 70 -59v-117q0 -61 -70 -61q-65 0 -65 61z" />
<glyph unicode="&#xf8;" horiz-adv-x="1116" d="M14 502q0 233 147.5 381.5t399.5 148.5q96 0 180 -24l60 116h145l-86 -168q246 -143 246 -454q0 -236 -148.5 -383.5t-400.5 -147.5q-106 0 -195 29l-49 -96h-145l78 149q-232 144 -232 449zM150 502q0 -215 153 -332l377 725q-55 12 -121 12q-193 0 -301 -111.5 t-108 -293.5zM420 115q63 -18 139 -19q190 0 301 111.5t111 294.5q0 102 -39 184q-45 98 -133 156z" />
<glyph unicode="&#xf9;" d="M74 362v660h135v-657q0 -262 303 -263q176 0 266 103q86 94 86 266v551h135v-1024h-135v111q-129 -131 -352 -132q-199 0 -315 97q-123 102 -123 288zM352 1309q0 27 25 45q18 16 41 16q31 0 53 -24l234 -236q20 -20 20 -45q0 -31 -31 -49q-45 -27 -90 10l-231 238 q-21 20 -21 45z" />
<glyph unicode="&#xfa;" d="M74 362v662h135v-659q0 -262 303 -263q176 0 266 103q86 94 86 266v553h135v-1026h-135v111q-129 -131 -352 -132q-199 0 -315 97q-123 102 -123 288zM352 1075q0 23 21 43l231 236q23 25 51 24q29 0 50.5 -19.5t21.5 -43.5q0 -25 -22 -45l-232 -236q-23 -23 -51 -22 q-27 0 -48.5 19t-21.5 44z" />
<glyph unicode="&#xfb;" d="M74 362v662h135v-659q0 -262 303 -263q176 0 266 103q86 94 86 266v553h135v-1026h-135v111q-129 -131 -352 -132q-199 0 -315 97q-123 102 -123 288zM223 1034l269 346h88l272 -346h-164l-153 193l-154 -193h-158z" />
<glyph unicode="&#xfc;" d="M74 360v658h135v-656q0 -260 303 -260q176 0 264 98.5t88 268.5v549h135v-1020h-135v111q-129 -131 -352 -132q-199 0 -315 97q-123 100 -123 286zM352 1110v104q0 63 68 64q68 0 67 -64v-104q0 -68 -67 -68q-68 0 -68 68zM590 1110v104q0 63 65 64q70 0 70 -64v-104 q0 -68 -70 -68q-65 0 -65 68z" />
<glyph unicode="&#xfd;" horiz-adv-x="1036" d="M25 23h135q12 -139 91 -202t247 -63q367 0 366 303v33q-129 -135 -352 -135q-199 0 -315 98q-123 102 -123 293v668h135v-666q0 -266 303 -266q176 0 266 102q86 96 86 271v559h135v-959q0 -426 -505 -426q-186 0 -308 74q-149 91 -161 316zM332 1075q0 23 20 45l234 238 q20 23 49 22q23 0 47 -12q25 -25 25 -49q0 -18 -17 -43l-239 -244q-25 -18 -50 -18q-23 0 -46 18t-23 43z" />
<glyph unicode="&#xfe;" horiz-adv-x="1155" d="M74 -344v1733h135v-510q141 164 389 163q252 0 393 -153q133 -145 133 -385t-131 -385q-139 -158 -393 -158q-250 0 -391 164v-469h-135zM209 508q0 -422 399 -422q184 0 287 121q96 113 96 297t-101.5 299t-279.5 115q-184 0 -292.5 -114t-108.5 -296z" />
<glyph unicode="&#xff;" horiz-adv-x="1044" d="M25 20h135q12 -139 91 -200.5t247 -61.5q367 0 366 301v33q-129 -133 -352 -133q-199 0 -315 96q-123 104 -123 293v666h135v-664q0 -266 303 -266q176 0 266 104q86 96 86 269v557h135v-957q0 -424 -505 -424q-186 0 -308 72q-149 90 -161 315zM338 1108v106q0 63 68 64 q59 0 65 -61l2 -109q0 -68 -67 -68q-68 0 -68 68zM575 1108v106q0 63 66 64q61 0 68 -61l2 -109q0 -68 -70 -68q-66 0 -66 68z" />
<glyph unicode="&#x152;" horiz-adv-x="2068" d="M33 690q0 328 201.5 518.5t549.5 190.5q70 0 138 -10h1103v-125h-772q248 -170 279 -480h430v-122h-426q-12 -352 -270 -539h772v-123h-1071q-86 -16 -183 -16q-346 0 -548.5 190t-202.5 516zM168 690q0 -272 163 -428t453 -156q70 0 134 11v1147q-63 10 -134 10 q-291 0 -453.5 -156t-162.5 -428zM1051 152q104 41 184 116q158 150 166 394h-350v-510zM1051 784h346q-18 158 -109.5 276t-236.5 171v-447z" />
<glyph unicode="&#x153;" horiz-adv-x="2154" d="M63 500q0 231 147.5 377.5t399.5 146.5q344 0 482 -260q147 260 467 260q242 0 388 -132t146 -357v-84l-934 -2q27 -348 395 -349q287 0 379 236h142q-70 -207 -220 -287q-131 -72 -305 -72q-346 0 -467 248q-147 -248 -477 -248q-252 0 -397.5 146t-145.5 377zM199 500 q0 -178 109.5 -289t299.5 -111t301 111t111 289q0 182 -108.5 291.5t-303.5 109.5q-193 0 -301 -110.5t-108 -290.5zM1161 571h785q-12 139 -103 228q-104 102 -284 102q-158 0 -266.5 -88t-131.5 -242z" />
<glyph unicode="&#x178;" horiz-adv-x="1357" d="M-66 1403h179l567 -608l569 608h174l-673 -729v-674h-136v674zM504 1497v107q0 63 67 63q59 0 66 -61l2 -109q0 -68 -68 -67q-67 -1 -67 67zM741 1497v107q0 63 66 63q61 0 67 -61l3 -109q0 -68 -70 -67q-66 -1 -66 67z" />
<glyph unicode="&#x2c6;" horiz-adv-x="530" d="M-53 1106l270 274h88l281 -274h-170l-154 149l-153 -149h-162z" />
<glyph unicode="&#x2dc;" horiz-adv-x="749" d="M51 1153q0 68 66 102q59 31 121 31q43 0 159 -37q98 -33 115 -32q41 0 53 28q8 16 10 62l130 -45q-14 -72 -68.5 -104t-124.5 -32q-41 0 -182 43q-78 25 -94 25q-39 0 -52 -31q-6 -14 -10 -61z" />
<glyph unicode="&#x2000;" horiz-adv-x="894" />
<glyph unicode="&#x2001;" horiz-adv-x="1789" />
<glyph unicode="&#x2002;" horiz-adv-x="894" />
<glyph unicode="&#x2003;" horiz-adv-x="1789" />
<glyph unicode="&#x2004;" horiz-adv-x="595" />
<glyph unicode="&#x2005;" horiz-adv-x="446" />
<glyph unicode="&#x2006;" horiz-adv-x="296" />
<glyph unicode="&#x2007;" horiz-adv-x="296" />
<glyph unicode="&#x2008;" horiz-adv-x="223" />
<glyph unicode="&#x2009;" horiz-adv-x="356" />
<glyph unicode="&#x200a;" horiz-adv-x="98" />
<glyph unicode="&#x2010;" horiz-adv-x="716" d="M59 520v41h619v-41h-619z" />
<glyph unicode="&#x2011;" horiz-adv-x="716" d="M59 520v41h619v-41h-619z" />
<glyph unicode="&#x2012;" horiz-adv-x="716" d="M59 520v41h619v-41h-619z" />
<glyph unicode="&#x2013;" horiz-adv-x="1013" d="M-47 520v41h1104v-41h-1104z" />
<glyph unicode="&#x2014;" horiz-adv-x="1830" d="M-47 520v41h1921v-41h-1921z" />
<glyph unicode="&#x2018;" horiz-adv-x="358" d="M74 1079q0 8 2 19l86 248q14 41 65 40q70 0 70 -53q0 -8 -2 -18l-88 -248q-16 -41 -66 -41q-67 0 -67 53z" />
<glyph unicode="&#x2019;" horiz-adv-x="358" d="M74 1077q0 10 2 21l88 248q16 41 63 40q70 0 70 -53q0 -8 -2 -18l-86 -248q-14 -41 -68 -41q-67 0 -67 51z" />
<glyph unicode="&#x201a;" horiz-adv-x="598" d="M152 -133q0 8 4 20l86 248q16 41 63 41q70 0 70 -53q0 -8 -2 -19l-86 -247q-14 -41 -70 -41q-65 0 -65 51z" />
<glyph unicode="&#x201c;" horiz-adv-x="546" d="M74 1079q0 8 2 19l86 248q14 41 65 40q70 0 70 -53q0 -8 -2 -18l-88 -248q-16 -41 -66 -41q-67 0 -67 53zM289 1079q0 8 2 19l86 248q14 41 65 40q70 0 70 -53q0 -8 -2 -18l-88 -248q-16 -41 -66 -41q-67 0 -67 53z" />
<glyph unicode="&#x201d;" horiz-adv-x="565" d="M74 1077q0 10 2 21l88 248q16 41 63 40q70 0 70 -53q0 -8 -2 -18l-86 -248q-14 -41 -68 -41q-67 0 -67 51zM289 1077q0 10 2 21l88 248q16 41 63 40q70 0 70 -53q0 -8 -2 -18l-86 -248q-14 -41 -68 -41q-67 0 -67 51z" />
<glyph unicode="&#x201e;" horiz-adv-x="718" d="M152 -133q0 8 4 20l86 248q16 41 63 41q70 0 70 -53q0 -8 -2 -19l-86 -247q-14 -41 -70 -41q-65 0 -65 51zM367 -133q0 8 4 20l86 248q16 41 63 41q70 0 70 -53q0 -8 -2 -19l-86 -247q-14 -41 -70 -41q-65 0 -65 51z" />
<glyph unicode="&#x2022;" horiz-adv-x="598" d="M68 567v197q0 16 41 33q55 23 139 22q84 0 139 -22q43 -16 43 -33v-197q0 -16 -43 -32q-55 -23 -139 -23t-139 23q-41 16 -41 32z" />
<glyph unicode="&#x2026;" horiz-adv-x="1306" d="M231 43v84q0 47 68 47t68 -47v-84q0 -47 -68 -47t-68 47zM618 43v84q0 47 68 47t68 -47v-84q0 -47 -68 -47t-68 47zM1006 43v84q0 47 67 47q68 0 68 -47v-84q0 -47 -68 -47q-67 0 -67 47z" />
<glyph unicode="&#x202f;" horiz-adv-x="356" />
<glyph unicode="&#x2039;" horiz-adv-x="602" d="M100 522v76l398 244v-137l-230 -144l230 -145v-131z" />
<glyph unicode="&#x203a;" horiz-adv-x="602" d="M100 285v131l228 145l-228 144v137l398 -244v-76z" />
<glyph unicode="&#x205f;" horiz-adv-x="446" />
<glyph unicode="&#x2122;" horiz-adv-x="1615" d="M63 1278v123h746l301 -506l297 506h149v-690h-145v430l-248 -430h-102l-260 440q0 -143 2 -440h-144v567h-149v-567h-143v567h-304z" />
<glyph unicode="&#xe000;" horiz-adv-x="1000" d="M0 1000h1000v-1000h-1000v1000z" />
<glyph unicode="&#xfb01;" horiz-adv-x="825" d="M621 0v1024h135v-1024h-135zM621 1208v148q25 51 63 51q33 0 72 -45v-160q-37 -45 -72 -45q-43 0 -63 51zM16 795v127h148v49q0 393 551 393v-123q-225 0 -326 -70q-90 -63 -90 -200v-49h227v-127h-227v-797h-135v797h-148z" />
<glyph unicode="&#xfb02;" horiz-adv-x="825" d="M621 0v1389h135v-1389h-135zM16 795v127h148v49q0 393 551 393v-123q-225 0 -326 -70q-90 -63 -90 -200v-49h227v-127h-227v-797h-135v797h-148z" />
<glyph unicode="&#xfb03;" horiz-adv-x="1372" d="M1168 0v1024h135v-1024h-135zM1168 1208v148q25 51 63 51q33 0 72 -45v-160q-37 -45 -72 -45q-43 0 -63 51zM563 795v127h148v49q0 393 551 393v-123q-225 0 -326 -70q-90 -63 -90 -200v-49h227v-127h-227v-797h-135v797h-148zM16 795v127h148v49q0 393 551 393v-123 q-225 0 -326 -70q-90 -63 -90 -200v-49h227v-127h-227v-797h-135v797h-148z" />
<glyph unicode="&#xfb04;" horiz-adv-x="1372" d="M1168 0v1389h135v-1389h-135zM563 795v127h148v49q0 393 551 393v-123q-225 0 -326 -70q-90 -63 -90 -200v-49h227v-127h-227v-797h-135v797h-148zM16 795v127h148v49q0 393 551 393v-123q-225 0 -326 -70q-90 -63 -90 -200v-49h227v-127h-227v-797h-135v797h-148z" />
</font>
</defs>
</svg>
