<?xml version="1.0" standalone="no"?>
<!DOCTYPE svg PUBLIC "-//W3C//DTD SVG 1.1//EN" "http://www.w3.org/Graphics/SVG/1.1/DTD/svg11.dtd" >
<svg xmlns="http://www.w3.org/2000/svg">
<metadata></metadata>
<defs>
<font id="rbno2.1amediumitalic" horiz-adv-x="862" >
<font-face units-per-em="2048" ascent="1638" descent="-410" />
<missing-glyph horiz-adv-x="307" />
<glyph unicode="&#xfb01;" horiz-adv-x="817" d="M43 0l139 993h-84l23 164h84l12 82q21 139 76.5 182t204.5 43h157l-22 -174h-158q-32 0 -46 -16.5t-19 -48.5l-11 -68h443l-162 -1157h-195l140 993h-248l-139 -993h-195z" />
<glyph unicode="&#xfb02;" horiz-adv-x="815" d="M43 0l139 993h-84l23 164h84l12 82q21 139 76.5 182t204.5 43h387l-205 -1464h-195l185 1311h-193q-32 0 -46 -17t-19 -49l-13 -88h131l-22 -164h-131l-139 -993h-195z" />
<glyph horiz-adv-x="2048" />
<glyph horiz-adv-x="2048" />
<glyph unicode="&#xd;" horiz-adv-x="2048" />
<glyph unicode=" "  horiz-adv-x="307" />
<glyph unicode="&#x09;" horiz-adv-x="307" />
<glyph unicode="&#xa0;" horiz-adv-x="307" />
<glyph unicode="!" horiz-adv-x="391" d="M47 0l37 260h174l-37 -260h-174zM143 428l41 625l54 381h194l-53 -381l-135 -625h-101z" />
<glyph unicode="&#x22;" horiz-adv-x="612" d="M141 850l78 584h174l-33 -228l-100 -356h-119zM420 850l78 584h174l-33 -228l-100 -356h-119z" />
<glyph unicode="#" horiz-adv-x="1181" d="M31 322l43 141h170l139 481h-164l43 143h166l102 347h152l-100 -347h288l101 347h153l-102 -347h201l-45 -143h-201l-141 -481h198l-45 -141h-198l-95 -322h-151l94 322h-291l-92 -322h-152l95 322h-168zM395 463h289l139 481h-288z" />
<glyph unicode="$" horiz-adv-x="823" d="M41 295l27 188h204l-28 -202q-5 -23 -2.5 -40t4 -29t10.5 -20t16 -13t21 -7.5t25.5 -3t29.5 -0.5h51q32 0 51 3t39 13.5t31.5 34.5t16.5 62l30 211q2 17 2.5 30.5t-2.5 24.5t-6 19.5t-10.5 16t-13.5 12.5t-17.5 11t-19.5 9.5t-23.5 10t-25.5 11.5l-142 51q-23 9 -37 15.5 t-33.5 16.5t-31 19t-26 22t-22.5 26.5t-16 32.5t-10.5 40t-2 47.5t4.5 57.5l25 174q17 118 53 181.5t99 90t173 29.5l19 141h166l-21 -145q137 -9 182.5 -72t22.5 -225l-27 -187h-204l28 203q10 73 -14.5 92t-89.5 19h-43q-32 0 -50.5 -2.5t-38.5 -13t-31 -34t-17 -61.5 l-21 -139q-3 -20 -3.5 -35.5t2.5 -28.5t6.5 -22.5t12.5 -18.5t16.5 -15t22 -13t26.5 -12t31 -13l15 -6l135 -49q27 -10 46 -18.5t40.5 -22t34 -27.5t26.5 -35.5t17.5 -46t6.5 -58.5t-5 -73l-33 -227q-24 -165 -87.5 -228t-206.5 -71l-25 -172h-166l23 170 q-109 3 -164.5 29.5t-74 90.5t-1.5 181z" />
<glyph unicode="%" horiz-adv-x="1292" d="M133 834l60 415q14 102 62 145.5t153 43.5h77q104 0 140 -43t22 -146l-59 -415q-14 -104 -62 -147.5t-153 -43.5h-78q-104 0 -140 43.5t-22 147.5zM242 0l755 1434h123l-755 -1434h-123zM254 819q-6 -43 9.5 -59.5t51.5 -16.5h66q36 0 56 16.5t26 59.5l63 445 q6 43 -9.5 59t-51.5 16h-66q-37 0 -56.5 -16t-25.5 -59zM725 186l59 416q14 103 61.5 146t151.5 43h78q104 0 140 -43t22 -146l-57 -416q-14 -104 -62 -148t-153 -44h-78q-105 0 -141 44t-21 148zM846 172q-6 -43 9.5 -59.5t51.5 -16.5h66q36 0 56 16.5t26 59.5l63 444 q6 43 -9.5 59.5t-51.5 16.5h-66q-37 0 -57.5 -16.5t-26.5 -59.5z" />
<glyph unicode="&#x26;" horiz-adv-x="983" d="M50 191q1 42 9 100l31 209q33 220 207 235q-127 20 -96 230l16 118q13 91 35 146t65 87.5t101.5 44t152.5 11.5h209l-22 -174h-209q-53 0 -85 -24.5t-42 -90.5l-23 -149q-10 -65 15.5 -90t77.5 -25h530l-21 -133l-208 -41l-93 -645h-366q-57 0 -93.5 2t-72.5 9t-56 20 t-36.5 33.5t-21.5 52.5t-4 74zM262 270q-10 -66 14 -85t82 -19h177l65 467h-172q-54 0 -87.5 -24.5t-43.5 -90.5z" />
<glyph unicode="'" horiz-adv-x="333" d="M141 850l78 584h174l-33 -228l-100 -356h-119z" />
<glyph unicode="(" horiz-adv-x="425" d="M25 53l161 1147q16 121 93 201q30 33 78.5 73.5t82.5 61.5l68 -76q-7 -9 -31 -33.5t-43.5 -47t-27.5 -36.5q-19 -30 -28 -57.5t-18 -85.5l-161 -1147q-8 -64 -7 -88.5t11 -56.5q6 -18 36.5 -63.5t34.5 -53.5l-90 -76q-28 22 -66 62.5t-59 72.5q-51 75 -34 203z" />
<glyph unicode=")" horiz-adv-x="425" d="M-31 -209q3 3 48.5 51t56.5 66q19 30 27.5 57t17.5 88l162 1147q7 62 6 87t-11 56q-6 18 -35.5 64t-33.5 53l88 76q28 -22 66 -62.5t59 -72.5q52 -77 35 -201l-162 -1147q-16 -124 -92 -203q-30 -32 -79 -73t-83 -62z" />
<glyph unicode="*" horiz-adv-x="684" d="M123 989l104 60l160 57l14 -33l-133 -112l-106 -62zM158 1239l63 90l90 -61l101 -115l-23 -33l-143 58zM342 793l14 114l56 160h37l10 -160l-15 -114h-102zM416 1319l14 115h102l-14 -115l-55 -160h-37zM463 1073l22 33l144 -57l88 -60l-64 -90l-90 62zM473 1153l133 115 l107 61l39 -90l-105 -61l-160 -58z" />
<glyph unicode="+" horiz-adv-x="686" d="M76 668l18 135h232l32 231h136l-33 -231h235l-18 -135h-236l-32 -236h-136l33 236h-231z" />
<glyph unicode="," horiz-adv-x="333" d="M-4 -184q51 67 65.5 98.5t22.5 85.5h-68l35 250h178l-28 -199q-13 -89 -45 -143.5t-107 -134.5z" />
<glyph unicode="-" horiz-adv-x="585" d="M57 535l23 159h500l-23 -159h-500z" />
<glyph unicode="." horiz-adv-x="372" d="M37 0l35 250h176l-35 -250h-176z" />
<glyph unicode="/" horiz-adv-x="518" d="M-29 -74l510 1587h125l-512 -1587h-123z" />
<glyph unicode="0" d="M55 315l113 803q26 186 106 254t265 68h67q185 0 246 -68t35 -254l-113 -803q-26 -184 -106 -252.5t-265 -68.5h-67q-184 0 -245.5 69t-35.5 252zM256 283q-10 -73 15.5 -94t88.5 -21h68q63 0 95 21t42 94l121 868q10 73 -15.5 94t-88.5 21h-68q-63 0 -95 -21t-42 -94z " />
<glyph unicode="1" horiz-adv-x="669" d="M0 0l23 166h208l152 1073l-236 -59l-32 135l293 119h196l-178 -1268h199l-23 -166h-602z" />
<glyph unicode="2" horiz-adv-x="765" d="M-4 0l51 360q11 74 40 132t60.5 91t83.5 74l211 164q83 60 123.5 117t50.5 135l13 88q10 73 -16 93t-91 20h-35q-64 0 -94.5 -20t-40.5 -93l-24 -170h-189l21 148q13 93 39.5 152.5t72.5 92t102.5 44.5t143.5 12h51q161 0 212.5 -66.5t29.5 -234.5l-12 -95 q-8 -61 -26 -108.5t-49.5 -86.5t-58 -63t-73.5 -61l-193 -152q-12 -9 -37 -28.5t-33.5 -26.5t-26 -22.5t-23.5 -26.5t-16 -28t-15 -36.5t-8 -44.5l-27 -194h469l-23 -166h-663z" />
<glyph unicode="3" horiz-adv-x="778" d="M22 199q1 41 9 96l16 113h184l-18 -134q-10 -73 15 -93.5t89 -20.5h62q64 0 95.5 20.5t41.5 93.5l39 273q8 59 -11.5 80.5t-64.5 23.5h-235l22 166h236q44 0 70 22t34 81l35 239q10 73 -16.5 94t-89.5 21h-66q-64 0 -94.5 -21t-40.5 -94l-17 -123h-182l15 103 q13 96 36 153.5t67.5 91t104 45t156.5 11.5h55q49 0 85 -3.5t68 -12t53 -23.5t36.5 -37.5t22 -54.5t6 -74t-8.5 -96l-24 -172q-17 -116 -53 -166.5t-101 -61.5q63 -9 85 -57t5 -166l-30 -221q-11 -82 -33.5 -138.5t-50 -88t-72 -48.5t-85 -21.5t-105.5 -4.5h-56 q-55 0 -95 3.5t-74.5 12t-56 23.5t-37 37.5t-21.5 55t-5 73.5z" />
<glyph unicode="4" horiz-adv-x="901" d="M-16 311l20 146l496 977h329l-135 -957h187l-23 -166h-186l-43 -311h-195l43 311h-493zM213 477h287l110 789h-18z" />
<glyph unicode="5" horiz-adv-x="772" d="M19.5 185q1.5 45 11.5 110l20 139h187l-25 -180q-2 -16 -2 -28.5t0.5 -22t5 -16.5t7.5 -12t11 -8t12.5 -4.5t16 -2t17.5 -0.5h20h21h55h20.5h19.5t17.5 0.5t16.5 2t14 4.5t13 8t10.5 12t9.5 16.5t6.5 22t5.5 28.5l51 354q8 63 -14 84t-72 21h-358l110 721h598l-24 -174 h-410l-51 -367h211q31 0 54 -1.5t47 -6.5t40.5 -13.5t32 -22t24 -33t14 -45.5t4.5 -60.5t-7 -77.5l-49 -338q-8 -60 -20 -104.5t-26.5 -77t-38 -54t-47.5 -35t-63 -20t-76.5 -8.5t-95.5 -2h-84q-57 0 -95 4.5t-68.5 17.5t-46.5 33.5t-24 55.5t-6.5 80z" />
<glyph unicode="6" horiz-adv-x="780" d="M31 295l119 833q13 96 37 155.5t69 95t106 48.5t156 13h45q42 0 74.5 -3.5t62.5 -12t50.5 -23.5t36 -38t23 -54.5t7.5 -73.5t-8 -96l-18 -127h-187l21 147q3 21 3 37t-3 28t-7 20.5t-12.5 14t-16 8.5t-20 4.5t-22 2t-25.5 0.5h-43q-61 0 -91 -21t-40 -94l-49 -352 q53 31 129 31h86q59 0 95 -3.5t70 -15t50 -32.5t26.5 -57.5t8.5 -88t-12 -125.5l-31 -221q-13 -96 -35 -153.5t-65.5 -91t-101.5 -45t-154 -11.5h-54q-183 0 -243 66t-37 235zM223 212q5 -24 21.5 -35t34.5 -14t49 -3h59q31 0 50 3t39 14t31.5 35t16.5 62l39 273 q11 76 -16 100.5t-88 24.5h-86q-46 0 -72 -16t-33 -66l-45 -316q-5 -38 0 -62z" />
<glyph unicode="7" horiz-adv-x="706" d="M55 0l529 1227l4 33h-443l25 174h643l-25 -187l-532 -1247h-201z" />
<glyph unicode="8" horiz-adv-x="798" d="M8.5 200.5q0.5 37.5 7.5 84.5l33 227q20 134 64 184.5t137 59.5q-70 13 -96.5 61.5t-12.5 159.5l23 158q13 96 36 154t67 92.5t103.5 46.5t155.5 12h33q55 0 95.5 -3.5t74.5 -12.5t56.5 -24.5t38 -38.5t21.5 -55.5t5.5 -74t-8.5 -96.5l-21 -138q-18 -124 -58.5 -176.5 t-119.5 -64.5q87 -9 117 -60.5t10 -183.5l-33 -227q-14 -94 -40.5 -151.5t-76.5 -88.5t-110.5 -41t-159.5 -10h-28q-49 0 -85 2t-70.5 8t-58.5 15.5t-44.5 25.5t-31.5 37.5t-17.5 51t-6 67zM207 242.5q0 -12.5 2 -22.5t4.5 -17.5t9 -13t11 -9t14 -6t15 -4t18 -2t18.5 -0.5 h20h7h69h7q27 0 40 0.5t33.5 6t31 15.5t20.5 30t14 50l39 279q5 39 0.5 62.5t-21.5 34t-34.5 13.5t-49.5 3h-94q-31 -1 -49 -4t-37.5 -14t-30.5 -34t-16 -61l-39 -279q-2 -15 -2 -27.5zM327 908.5q0 -14.5 2.5 -25t6.5 -18.5t11.5 -12.5t14 -7.5t18 -4.5t20.5 -2t24 -0.5h68 q27 1 38.5 2t30 6t27.5 15.5t17.5 30.5t12.5 50l31 215q0 20 2.5 35t-2.5 26.5t-7 19.5t-12 13l-16 8t-19.5 4.5t-23 2t-26.5 0.5h-47q-27 0 -41.5 -1t-33.5 -7t-29.5 -17t-20 -32t-13.5 -52l-30 -215q-3 -19 -3 -33.5z" />
<glyph unicode="9" horiz-adv-x="790" d="M29.5 185q0.5 45 9.5 110l14 102h187l-17 -112q-10 -74 16.5 -99.5t86.5 -25.5h49q62 0 95.5 25.5t43.5 99.5l43 305q-56 -29 -129 -29h-76q-59 0 -96 3.5t-72 15t-52.5 32.5t-29.5 57t-11 88t11 126l35 256q13 95 37 153.5t70 91.5t105.5 44.5t156.5 11.5h43 q124 0 189 -29t85 -93t4 -179l-116 -834q-13 -97 -36 -155.5t-66 -94t-102.5 -48.5t-154.5 -13h-45q-64 0 -107.5 4.5t-78 17.5t-53.5 34t-29 55.5t-9.5 79.5zM291 780q5 -24 21.5 -35t34.5 -14.5t48 -3.5h86q50 0 75.5 19t33.5 81l47 338q5 38 0 61.5t-23 33t-35 12 t-49 2.5h-59q-32 0 -49.5 -2.5t-38 -12t-31.5 -33t-16 -61.5l-45 -323q-5 -38 0 -62z" />
<glyph unicode=":" horiz-adv-x="333" d="M18 0l35 250h176l-34 -250h-177zM145 907l35 250h176l-34 -250h-177z" />
<glyph unicode=";" horiz-adv-x="333" d="M-4 -184q51 67 65.5 98.5t22.5 85.5h-68l35 250h178l-28 -199q-13 -89 -45 -143.5t-107 -134.5zM145 907l35 250h176l-34 -250h-177z" />
<glyph unicode="&#x3c;" horiz-adv-x="665" d="M76 670l20 141l619 287l-23 -162l-418 -197l363 -194l-23 -162z" />
<glyph unicode="=" horiz-adv-x="686" d="M51 500l19 129h602l-19 -129h-602zM96 827l19 129h602l-19 -129h-602z" />
<glyph unicode="&#x3e;" horiz-adv-x="665" d="M35 383l22 162l418 194l-362 197l22 162l539 -287l-19 -141z" />
<glyph unicode="?" horiz-adv-x="800" d="M137 971l25 168q14 93 40 152.5t71.5 92t102 44.5t142.5 12h51q49 0 85.5 -3.5t70.5 -12.5t55 -24t39.5 -37.5t24 -54.5t8 -74t-7.5 -95l-19 -125q-3 -22 -8 -41t-13.5 -37t-14.5 -30.5t-20.5 -29t-21 -24t-26.5 -24.5t-27 -22.5t-32.5 -24.5t-32.5 -25 q-26 -20 -57 -42.5t-44.5 -32t-30.5 -24t-23 -22.5t-13.5 -22.5t-10.5 -29.5t-6 -38l-16 -117h-160l27 190q3 25 12 45.5t27.5 41t31 32.5t42.5 36t43 36q15 12 44.5 37t40 34t30.5 28t27.5 30t18 29t15.5 36.5t8 40.5l16 121q0 20 2.5 35t-2.5 26.5t-7 19.5t-12 13l-16 8 t-19.5 4.5t-23 2t-26.5 0.5h-51q-63 0 -95.5 -22t-42.5 -95l-26 -186h-195zM197 0l36 260h175l-37 -260h-174z" />
<glyph unicode="@" horiz-adv-x="1101" d="M20 152l117 835q24 166 96 227.5t226 61.5h422q155 0 209 -61.5t30 -227.5l-106 -754q-14 -99 -54 -132t-116 -33q-109 0 -146.5 8t-76.5 43q-36 -25 -63 -35t-81 -10h-39q-105 0 -158.5 49t-37.5 156l30 206q17 109 74.5 157t159.5 48h184l23 154q1 22 2.5 38t-5 26.5 t-11 16.5t-16.5 9t-21 3.5t-25 0.5h-29q-26 0 -38.5 -1.5t-28.5 -9t-24.5 -26t-12.5 -49.5l-12 -94h-156l12 82q13 90 39 138t82.5 72.5t157.5 24.5h30q78 0 125.5 -12.5t72.5 -40.5t29 -73t-5 -109l-86 -607q-8 -60 1.5 -81t57.5 -21q61 0 82 25.5t29 87.5l104 743 q18 131 -22 187.5t-171 56.5h-421q-130 0 -187.5 -57t-75.5 -187l-116 -835q-18 -130 22 -187t170 -57h555l-6 -45h-555q-154 0 -209 61.5t-31 227.5zM414 305q-6 -40 11 -63t54 -23h29q30 0 65 11.5t58 27.5l43 305h-146q-47 0 -66 -25.5t-26 -72.5z" />
<glyph unicode="A" horiz-adv-x="901" d="M-51 0l477 1434h328l75 -1434h-204l-21 289h-350l-100 -289h-205zM309 483h293l-24 789h-23z" />
<glyph unicode="B" horiz-adv-x="831" d="M14 0l201 1434h363q63 0 106 -5t79 -17t54.5 -33t31.5 -53q11 -28 11 -65v-12q-2 -45 -8 -104l-25 -180q-16 -118 -54 -169.5t-103 -64.5q66 -11 90 -61q14 -30 14 -85q0 -37 -6 -85l-29 -209q-9 -67 -21.5 -114t-34.5 -80t-45.5 -51.5t-64.5 -29t-82.5 -13.5t-107.5 -3 h-369zM244 174h164q56 0 85 19.5t39 85.5l37 262q2 15 2 28q1 41 -19 55q-26 19 -85 19h-158zM334 817h166q52 0 80 20.5t36 84.5l33 233q2 17 2 30q1 40 -17 55q-24 20 -81 20h-158z" />
<glyph unicode="C" horiz-adv-x="835" d="M51 295l119 844q11 76 29 127.5t45 86t70 53.5t95.5 26.5t129.5 7.5h61q55 0 95 -3.5t74.5 -12t56.5 -24t38 -38.5q16 -22 22 -54q6 -30 6 -68v-6q0 -42 -9 -95l-37 -260h-205l39 272q3 21 3 37q-1 42 -19 57q-26 21 -89 21h-61q-63 0 -95 -21t-42 -94l-123 -868 q-3 -21 -3 -37q1 -42 19 -57q26 -21 88 -21h62q64 0 95.5 21t41.5 94l45 313h205l-43 -301q-13 -94 -37 -152t-69 -91.5t-105.5 -45.5t-157.5 -12h-61q-128 0 -192 24q-63 24 -86 88q-13 36 -13 91q0 43 8 98z" />
<glyph unicode="D" horiz-adv-x="839" d="M14 0l201 1434h381q53 0 92.5 -3.5t72.5 -12t54.5 -24t37 -37t21.5 -52.5q6 -29 6 -64v-6q0 -39 -8 -90l-120 -854q-13 -90 -35.5 -145.5t-66 -88.5t-102.5 -45t-153 -12h-381zM244 174h176q57 0 86 20.5t39 86.5l125 880q2 16 2 29q0 38 -18 52q-24 18 -83 18h-174z" />
<glyph unicode="E" horiz-adv-x="720" d="M18 0l201 1434h596l-24 -174h-392l-61 -439h360l-24 -174h-361l-65 -473h391l-25 -174h-596z" />
<glyph unicode="F" horiz-adv-x="690" d="M18 0l201 1434h586l-25 -174h-381l-63 -463h350l-24 -174h-351l-88 -623h-205z" />
<glyph unicode="G" horiz-adv-x="843" d="M51 295l119 844q11 76 29 127.5t45 86t70 53.5t95.5 26.5t129.5 7.5h57q55 0 95 -3.5t74.5 -12t56.5 -24t38 -38t22 -54.5q6 -30 6 -67v-7q-1 -41 -9 -95l-25 -168h-203l25 180q5 38 0 62.5t-21.5 35t-35 14t-48.5 3.5h-57q-31 0 -50 -3.5t-39 -14t-31.5 -35t-16.5 -62.5 l-125 -879q-2 -17 -2 -31t1 -24.5t6.5 -18.5t9 -13t13.5 -8.5t15 -5t19.5 -2.5t20.5 -1h23h58q36 0 51 1.5t36.5 10.5t32 31.5t15.5 60.5l43 310h-156l25 174h362l-65 -461q-13 -94 -37 -152t-69.5 -91.5t-106 -45.5t-156.5 -12h-57q-128 0 -191.5 23.5t-86.5 88.5 q-13 36 -13 91q0 43 8 98z" />
<glyph unicode="H" horiz-adv-x="866" d="M18 0l201 1434h205l-86 -613h299l86 613h205l-201 -1434h-205l88 627h-299l-88 -627h-205z" />
<glyph unicode="I" horiz-adv-x="364" d="M18 0l201 1434h205l-201 -1434h-205z" />
<glyph unicode="J" horiz-adv-x="546" d="M-47 0l24 168h144q57 0 87 19t38 83l164 1166h202l-155 -1112q-11 -77 -25 -131t-34.5 -92.5t-47.5 -59.5t-64 -33.5t-84 -13.5h-49.5h-56.5z" />
<glyph unicode="K" horiz-adv-x="851" d="M18 0l201 1434h205l-88 -639h129l278 639h215l-325 -721l145 -713h-225l-104 600h-142l-84 -600h-205z" />
<glyph unicode="L" horiz-adv-x="661" d="M18 0l201 1434h205l-176 -1260h360l-24 -174h-566z" />
<glyph unicode="M" horiz-adv-x="1136" d="M18 0l201 1434h299l41 -1026h8l328 1026h301l-201 -1434h-211l148 981h-2l-322 -981h-200l-50 979h-4l-127 -979h-209z" />
<glyph unicode="N" horiz-adv-x="882" d="M18 0l201 1434h217l176 -920h2l129 920h201l-201 -1434h-223l-162 891h-10l-125 -891h-205z" />
<glyph unicode="O" d="M51 295l119 844q13 95 37 153t69 91.5t105 45t156 11.5h67q64 0 108.5 -5t82 -17.5t57 -34t33.5 -55.5q12 -29 12 -68v-12q-2 -47 -8 -109l-119 -844q-13 -94 -37 -152t-69.5 -91.5t-106 -45.5t-156.5 -12h-67q-128 0 -191.5 24t-86.5 88q-13 36 -13 92q0 43 8 97z M254 220q5 -24 22.5 -34.5t36 -14t49.5 -3.5h60q31 0 51 3.5t40.5 14t32.5 35t17 62.5l123 868q3 19 3 34q1 43 -21 59q-28 22 -93 22h-59q-64 0 -96.5 -21t-42.5 -94l-123 -868q-2 -19 -2 -35t2 -28z" />
<glyph unicode="P" horiz-adv-x="790" d="M14 0l201 1434h377q121 0 181 -23q61 -23 81 -83q12 -33 11 -84q0 -40 -7 -89l-53 -389q-13 -87 -35 -140.5t-64 -85t-98.5 -42.5t-148.5 -11h-172l-68 -487h-205zM311 662h164q26 0 43 2.5t35.5 11t29.5 28.5t15 52l57 409q2 15 2 27q0 38 -19 50q-25 18 -79 18h-164z " />
<glyph unicode="Q" d="M51 295l119 844q13 95 37 153t69 91.5t105 45t156 11.5h67q64 0 108.5 -5t82 -17.5t57 -34t33.5 -55.5q12 -29 12 -68v-12q-2 -47 -8 -109l-119 -844q-15 -114 -49.5 -176.5t-97.5 -91.5l55 -197h-154l-75 166q-14 -2 -48 -2h-67q-128 0 -191.5 24t-86.5 88 q-13 37 -13 92q0 43 8 97zM254 220q5 -24 22.5 -34.5t36 -14t49.5 -3.5h60q31 0 51 3.5t40.5 14t32.5 35t17 62.5l123 868q3 19 3 34q0 44 -21 59q-29 22 -93 22h-59q-64 0 -96.5 -21t-42.5 -94l-123 -868q-2 -19 -2 -34.5t2 -28.5z" />
<glyph unicode="R" horiz-adv-x="811" d="M14 0l201 1434h387q61 0 103 -5t76.5 -16.5t52.5 -32t30 -51.5q11 -27 11 -62v-12q-2 -43 -7 -100l-32 -242q-27 -203 -162 -223q66 -14 90 -68q14 -31 14 -83q0 -39 -8 -90l-63 -449h-205l67 479q2 16 2 30q1 40 -17 59q-24 26 -73 26h-178l-84 -594h-205zM328 768h182 q26 0 41.5 2.5t32 11.5t26 28.5t13.5 51.5l43 307q2 14 2 26q0 15 -3 25q-5 20 -21 28t-31 10t-42 2h-176z" />
<glyph unicode="S" horiz-adv-x="823" d="M32 200q0 41 9 95l27 188h204l-28 -202q-5 -23 -2.5 -40t4 -29t10.5 -20t16 -13t21 -7.5t25.5 -3t29.5 -0.5h51q32 0 51 3t39 13.5t31.5 34.5t16.5 62l28 211q2 17 2.5 30.5t-2 24.5t-5.5 19.5t-10.5 16t-13 12.5t-17.5 11t-19.5 9.5t-23 10.5t-25.5 11l-142 51 q-23 9 -37 15.5t-33.5 16.5t-31 19t-26 22t-22.5 26.5t-16 32.5t-10.5 40t-2 47.5t4.5 57.5l25 174q13 95 37 153t69.5 91.5t105.5 45t156 11.5h43q55 0 95 -3.5t74.5 -12t56.5 -24t37.5 -38t21.5 -54.5q6 -30 7 -68q-1 -4 -1 -6q0 -42 -8 -95l-27 -187h-204l28 203 q3 21 3 38q0 41 -18 54q-24 19 -89 19h-43q-32 0 -50.5 -2.5t-38.5 -13t-31 -34t-17 -61.5l-21 -139q-3 -20 -3.5 -35.5t2.5 -28.5t6.5 -22.5t12.5 -18.5t16.5 -15t22 -13t26.5 -12t31 -13l15 -6l135 -49q27 -10 46 -18.5t40.5 -22t34 -27.5t26.5 -35.5t17.5 -46t6.5 -58.5 q1 -9 1 -19q0 -26 -6 -54l-33 -227q-13 -94 -37 -152t-69.5 -91.5t-105.5 -45.5t-156 -12h-51q-55 0 -95 3.5t-74.5 12.5t-56.5 24.5t-38 37.5q-16 23 -22 55q-6 30 -6 67v6z" />
<glyph unicode="T" horiz-adv-x="770" d="M127 1260l25 174h745l-25 -174h-270l-176 -1260h-205l176 1260h-270z" />
<glyph unicode="U" d="M51 295l160 1139h207l-162 -1145q-4 -28 -4 -48q0 -37 12 -51q18 -22 74 -22h108q58 0 83.5 23t35.5 98l162 1145h203l-160 -1139q-13 -94 -37 -152t-69.5 -91.5t-106 -45.5t-156.5 -12h-67q-128 0 -192 24q-63 24 -86 88q-13 36 -13 91q0 43 8 98z" />
<glyph unicode="V" horiz-adv-x="935" d="M162 1434h205l51 -1211h37l393 1211h205l-467 -1434h-359z" />
<glyph unicode="W" horiz-adv-x="1241" d="M121 0l37 1434h211l-37 -1176h8l289 1176h264l-41 -1176h8l293 1176h211l-365 -1434h-358l59 961h-12l-209 -961h-358z" />
<glyph unicode="X" horiz-adv-x="804" d="M-47 0l360 725l-149 709h205l100 -523l246 523h205l-347 -709l156 -725h-205l-108 543l-258 -543h-205z" />
<glyph unicode="Y" horiz-adv-x="843" d="M154 1434h204l113 -633l291 633h207l-428 -873l-78 -561h-205l78 561z" />
<glyph unicode="Z" horiz-adv-x="720" d="M-20 0l24 176l598 1081h-432l25 177h624l-24 -174l-578 -1086h426l-25 -174h-638z" />
<glyph unicode="[" horiz-adv-x="532" d="M-4 -184l237 1689h431l-21 -147h-256l-197 -1395h256l-20 -147h-430z" />
<glyph unicode="\" horiz-adv-x="518" d="M215 1513h125l63 -1587h-122z" />
<glyph unicode="]" horiz-adv-x="532" d="M-70 -184l21 147h256l196 1395h-256l21 147h430l-238 -1689h-430z" />
<glyph unicode="^" horiz-adv-x="870" d="M182 956l324 478h141l189 -478h-152l-127 338l-223 -338h-152z" />
<glyph unicode="_" horiz-adv-x="866" d="M-100 -223l18 135h883l-19 -135h-882z" />
<glyph unicode="`" horiz-adv-x="1024" d="M479 1425h199l55 -188h-131z" />
<glyph unicode="a" horiz-adv-x="774" d="M33 225l39 279q18 123 87 176t187 53h201l24 170q3 17 3.5 31t-2 24t-5.5 17t-9.5 11.5t-12 7t-16 3.5t-17.5 1.5t-20 0.5h-37q-27 0 -39.5 -1.5t-29 -9.5t-25.5 -27t-13 -52l-14 -96h-180l12 88q11 76 28 122t52 79.5t91 47t144 13.5h37q88 0 141 -14t81 -45 q28 -32 32 -82q1 -16 0 -33q0 -39 -6 -88l-125 -891q-221 -16 -338 -16h-61q-118 0 -172 54q-41 41 -41 120q0 26 4 57zM231 256q-2 -13 -1 -25q0 -65 63 -65h176l57 420h-176q-72 0 -84 -84z" />
<glyph unicode="b" horiz-adv-x="796" d="M12 0l207 1475h195l-45 -318h215q120 -1 174 -51q41 -38 41 -116q0 -26 -4 -56l-101 -709q-18 -123 -86.5 -177t-185.5 -54h-64q-101 0 -187.5 1.5t-122.5 2.5zM229 166h181q40 0 65 23.5t31 66.5l90 647q1 10 1 19q1 28 -13 47q-18 24 -58 24h-180z" />
<glyph unicode="c" horiz-adv-x="768" d="M42 136q-2 17 -2 36q0 38 7 84l90 645q14 100 45 154t98 81t185 27h63q89 0 143 -14t82.5 -45.5t33.5 -81.5q2 -17 1 -36q0 -38 -6 -85l-26 -194h-195l27 192q2 17 2 31q0 35 -14 49q-20 20 -70 20h-64q-49 0 -75.5 -20t-34.5 -80l-90 -641q-2 -17 -3 -30q-1 -36 15 -50 q20 -20 70 -20h63q49 0 76 20.5t35 79.5l30 213h195l-31 -215q-14 -99 -45 -153t-98 -81.5t-184 -27.5h-64q-89 0 -143 14.5t-82.5 46t-33.5 81.5z" />
<glyph unicode="d" horiz-adv-x="796" d="M43 225l98 709q18 122 87 172.5t188 50.5h215l43 318h194l-206 -1475q-212 -6 -345 -6h-65q-118 0 -172 54q-41 41 -41 120q0 26 4 57zM242 256q-2 -11 -1 -21q1 -27 13 -45q18 -24 57 -24h181l114 827h-180q-39 0 -63.5 -24t-30.5 -66z" />
<glyph unicode="e" horiz-adv-x="784" d="M42 136q-2 17 -2 36q0 38 7 84l90 645q14 100 45 154t98 81t185 27h61q170 1 222 -57q38 -41 38 -128q0 -35 -6 -77l-57 -401l-449 -4l-32 -238q-2 -17 -3 -31q-1 -35 15 -49q20 -20 70 -20h71q50 0 76.5 20t34.5 80l14 107h185l-15 -109q-19 -146 -87.5 -204t-240.5 -58 h-61q-89 0 -143 14.5t-82.5 46t-33.5 81.5zM299 662h254l33 237q2 17 2 30q0 35 -14 49q-20 20 -70 21h-62q-49 0 -75.5 -20.5t-34.5 -79.5z" />
<glyph unicode="f" horiz-adv-x="473" d="M43 0l139 993h-84l23 164h84l10 72q10 72 27.5 114.5t51.5 68t80.5 34t123.5 8.5q18 0 45.5 -2.5t46.5 -5.5l18 -2l-20 -154h-113q-32 0 -46 -16.5t-19 -48.5l-11 -68h162l-22 -164h-162l-139 -993h-195z" />
<glyph unicode="g" horiz-adv-x="796" d="M34 -142q-6 31 -6 70q0 45 9 103l4 30h180l-10 -71q-2 -17 -2 -30q0 -30 12 -42q18 -16 64 -16h80q49 0 71.5 18t30.5 78l16 111h-217q-118 0 -172 53q-41 41 -41 120q0 26 4 56l80 575q18 123 99.5 186.5t199.5 63.5h47l340 -6l-161 -1157q-12 -84 -30.5 -133t-57 -79 t-93 -40t-147.5 -10h-58q-116 0 -171.5 27.5t-70.5 92.5zM256 369q-2 -11 -2 -20q0 -29 14 -47q18 -23 58 -23h180l100 714h-180q-39 0 -63.5 -24t-30.5 -66z" />
<glyph unicode="h" horiz-adv-x="796" d="M12 0l207 1475h195l-45 -318h213q120 -1 174 -51q41 -38 41 -116q0 -26 -4 -56l-131 -934h-195l127 903q1 10 1 19q1 28 -13 47q-18 24 -58 24h-178l-139 -993h-195z" />
<glyph unicode="i" horiz-adv-x="344" d="M14 0l162 1157h195l-162 -1157h-195zM186 1260l27 184h201l-27 -184h-201z" />
<glyph unicode="j" horiz-adv-x="342" d="M-125 -143q6 6 16 17q47 49 68 75.5t42.5 78.5t31.5 126l141 1003h195l-144 -1024q-36 -247 -260 -377zM186 1260l27 184h201l-27 -184h-201z" />
<glyph unicode="k" horiz-adv-x="786" d="M12 0l207 1475h195l-107 -762h129l230 444h196l-276 -536l129 -621h-197l-106 524h-131l-74 -524h-195z" />
<glyph unicode="l" horiz-adv-x="342" d="M12 0l207 1475h195l-207 -1475h-195z" />
<glyph unicode="m" horiz-adv-x="1228" d="M12 0l162 1157l789 6h55q118 1 172 -53q41 -40 41 -120q0 -26 -4 -56l-131 -934h-195l127 903q1 10 1 19q1 28 -13 47q-18 24 -58 24h-167l-140 -993h-194l133 944q4 37 0 43t-35 6h-209l-139 -993h-195z" />
<glyph unicode="n" horiz-adv-x="796" d="M12 0l162 1157q196 6 346 6h64q118 1 172 -53q41 -40 41 -120q0 -26 -4 -56l-131 -934h-195l127 903q1 10 1 19q1 28 -13 47q-18 24 -58 24h-178l-139 -993h-195z" />
<glyph unicode="o" horiz-adv-x="792" d="M42 136q-2 17 -2 36q0 38 7 84l90 645q14 100 45 154t98 81t185 27h70q170 1 222 -57q37 -41 37 -128q0 -35 -6 -77l-90 -645q-14 -98 -45.5 -152.5t-98.5 -82t-183 -27.5h-70q-89 0 -143 14.5t-82.5 46t-33.5 81.5zM242 258q-2 -17 -3 -30q-1 -36 15 -50q20 -20 70 -20 h69q49 0 76 20.5t35 79.5l92 643q2 17 2 31q0 35 -14 49q-20 20 -70 20h-70q-49 0 -75.5 -20t-34.5 -80z" />
<glyph unicode="p" horiz-adv-x="796" d="M-23 -246l197 1403q164 6 346 6h66q115 0 169 -63q41 -46 41 -128q0 -28 -5 -59l-97 -688q-18 -123 -87 -177t-187 -54h-64l-149 6l-35 -246h-195zM229 166h181q81 0 94 90l92 647q1 10 1 19q0 29 -13 47q-19 24 -58 24h-180z" />
<glyph unicode="q" horiz-adv-x="796" d="M43 225l96 688q18 123 98.5 186.5t198.5 63.5h47l342 -6l-198 -1403h-195l35 246q-107 -6 -150 -6h-65q-118 0 -172 54q-41 41 -41 120q0 26 4 57zM242 256q-2 -11 -2 -21q0 -28 14 -45q17 -24 57 -24h181l114 827h-180q-39 0 -63.5 -24t-30.5 -66z" />
<glyph unicode="r" horiz-adv-x="559" d="M12 0l135 956q11 91 73.5 149t170.5 58h21q36 0 96.5 -3t102.5 -6l42 -3l-20 -143q-146 -9 -205 -13q-53 -3 -69.5 -21t-24.5 -69l-127 -905h-195z" />
<glyph unicode="s" horiz-adv-x="706" d="M18 137q-2 17 -2 36q0 38 7 85l14 107h196l-16 -115q-2 -17 -3 -30q0 -32 14 -44q20 -16 71 -16h31q49 0 75.5 19.5t34.5 78.5l21 141q2 12 2 23t-1.5 19.5t-5 16t-6.5 13t-10 11t-11.5 9t-13.5 8.5t-14 7t-16 7t-16 7l-127 55q-76 33 -101 55q-47 41 -47 122q0 23 4 49 l15 100q14 100 45 154t97.5 81t184.5 27h21q116 0 173 -25q58 -26 72 -84q7 -29 6 -67q0 -39 -7 -86l-13 -92h-184l14 102q2 17 2 30q0 33 -14 43q-20 15 -72 15h-20q-52 0 -76.5 -15t-32.5 -73l-12 -92q-1 -10 -1 -18.5t0.5 -15t4 -12.5t5.5 -10.5t8 -9l10 -7.5t13 -8 t14.5 -7.5t17 -8t18.5 -9.5l131 -54q41 -17 65.5 -32t46.5 -41q24 -25 30 -63q3 -18 3 -40q0 -23 -4 -51l-22 -166q-14 -100 -45.5 -156t-99.5 -85t-185 -29h-31q-89 0 -143 14t-82 45.5t-33 81.5z" />
<glyph unicode="t" horiz-adv-x="487" d="M76 221l108 772h-84l23 164h84l37 256h194l-37 -256h162l-22 -164h-162l-107 -762q-5 -32 3.5 -48.5t41.5 -16.5h123l-22 -166l-125 -6h-28q-124 0 -164 41q-31 32 -31 109q0 34 6 77z" />
<glyph unicode="u" horiz-adv-x="792" d="M41 225l131 932h195l-127 -901q-2 -11 -1 -21q1 -27 13 -45q18 -24 57 -24h178l140 991h194l-164 -1157q-266 -6 -342 -6h-65q-118 0 -172 54q-41 41 -41 120q0 26 4 57z" />
<glyph unicode="v" horiz-adv-x="770" d="M109 1157h204l37 -915h12l295 915h205l-387 -1157h-303z" />
<glyph unicode="w" horiz-adv-x="1114" d="M109 1157h204l-14 -901h10l236 901h225l-18 -901h8l241 901h205l-327 -1157h-308l21 680h-6l-166 -680h-307z" />
<glyph unicode="x" horiz-adv-x="743" d="M-41 0l283 592l-121 565h205l88 -426l207 426h204l-276 -565l115 -592h-205l-84 455l-211 -455h-205z" />
<glyph unicode="y" horiz-adv-x="763" d="M94 1157h211l27 -964h16l307 964h195l-457 -1415h-186l86 268h-141z" />
<glyph unicode="z" horiz-adv-x="684" d="M-33 0l23 166l522 819h-395l22 172h613l-23 -172l-516 -813h405l-24 -172h-627z" />
<glyph unicode="{" horiz-adv-x="485" d="M37 582l14 104l20 10t34.5 20t36.5 28.5t34 45t19 60.5l49 350q16 118 92 201q56 62 162 135l63 -55q-7 -9 -45 -54t-49 -63q-32 -50 -49 -164l-49 -350q-17 -132 -148 -217q106 -82 88 -215l-51 -365q-17 -114 2 -166q6 -16 30.5 -61t28.5 -55l-75 -56q-27 21 -65.5 62 t-59.5 73q-52 76 -35 203l51 365q15 104 -92 161z" />
<glyph unicode="|" horiz-adv-x="483" d="M84 -143l240 1699h153l-239 -1699h-154z" />
<glyph unicode="}" horiz-adv-x="485" d="M-25 -229q7 10 46 55t49 61q29 46 47 166l51 365q18 133 149 215q-105 82 -88 217l50 350q16 110 -3 164q-4 14 -16 36t-26.5 47.5t-18.5 33.5l78 55q28 -23 66.5 -63.5t58.5 -71.5q51 -81 35 -201l-50 -350q-4 -33 2.5 -60.5t21.5 -45t29 -29t29 -20t17 -9.5l-15 -104 l-10 -5q-10 -5 -14.5 -7t-16 -8.5t-18.5 -11.5t-18 -13.5t-18.5 -17t-16.5 -20t-15 -23.5t-11 -27t-7 -31l-51 -365q-16 -120 -92 -203q-29 -31 -79.5 -72.5t-82.5 -62.5z" />
<glyph unicode="~" horiz-adv-x="819" d="M207 645l31 207h110l227 -86l15 80h106l-30 -207h-109l-223 125l-19 -119h-108z" />
<glyph unicode="&#xa1;" horiz-adv-x="354" d="M18 0l54 381l135 625h100l-41 -625l-53 -381h-195zM195 1174l34 260h174l-34 -260h-174z" />
<glyph unicode="&#xa2;" horiz-adv-x="727" d="M45.5 117q-11.5 56 1.5 141l90 645q10 68 26 112t46.5 77.5t77 50t116.5 20.5l21 142h166l-21 -142q99 -4 149 -31.5t64 -84t0 -144.5l-26 -194h-195l27 192q8 60 -12.5 80t-69.5 20h-64q-49 0 -75.5 -20t-34.5 -80l-90 -641q-8 -59 12.5 -79.5t69.5 -20.5h63 q49 0 76 20.5t35 79.5l30 213h195l-31 -215q-19 -139 -79.5 -197.5t-206.5 -62.5l-23 -156h-166l23 156q-90 6 -136.5 34.5t-58 84.5z" />
<glyph unicode="&#xa3;" horiz-adv-x="851" d="M-39 0l23 164h90l57 407h-90l22 164h93l53 383q26 186 106 254t265 68h30q55 0 95 -3.5t74.5 -12t56.5 -24t37.5 -38t22 -54.5t6 -73.5t-8.5 -95.5l-29 -199h-184l31 217q10 73 -15.5 94t-89.5 21h-51q-63 0 -95 -21t-42 -94l-60 -422h359l-23 -164h-358l-57 -407h503 l-22 -164h-799z" />
<glyph unicode="&#xa5;" horiz-adv-x="843" d="M74 381l14 98h238l10 82l-4 25h-230l15 98h194l-157 750h204l113 -633l291 633h207l-367 -750h189l-15 -98h-223l-12 -25l-11 -82h232l-14 -98h-232l-53 -381h-205l53 381h-237z" />
<glyph unicode="&#xa7;" horiz-adv-x="868" d="M57 0l21 139h328q31 0 44.5 0.5t38.5 6.5t37.5 17t25.5 34t19 57l4 20q5 15 2.5 28.5t-3 23t-8 18t-12 14t-16 11t-19.5 9t-22 7t-23.5 6t-25 6t-26.5 6.5l-170 35q-104 21 -144 70.5t-26 159.5l22 168q8 56 34 90t65 61q-40 90 -17 174l2 8q4 80 34.5 135t83 83.5 t112 40.5t135.5 12q75 0 148.5 -1.5t110.5 -2.5l36 -2l-19 -140h-317q-32 0 -51 -3t-39 -14t-31.5 -35t-15.5 -62l-2 -19q-4 -33 1.5 -54.5t23.5 -34.5t36 -19.5t51 -14.5q20 -5 31 -8l170 -35q105 -21 145.5 -70.5t26.5 -158.5l-24 -172q-7 -51 -33.5 -84t-67.5 -61 q36 -69 17 -175l-2 -10q-13 -72 -37.5 -122.5t-54 -79t-75.5 -44t-88.5 -20t-107.5 -4.5zM246 709q-8 -61 4 -76t70 -29q15 -4 24 -6l170 -41q27 -6 73.5 -22t57.5 -27q20 23 23 51l24 166q10 68 -10.5 88.5t-99.5 34.5l-164 33q-69 14 -91 22.5t-34 22.5q-23 -26 -25 -49z " />
<glyph unicode="&#xa8;" horiz-adv-x="1024" d="M438 1253l25 172h131l-25 -172h-131zM684 1253l25 172h131l-25 -172h-131z" />
<glyph unicode="&#xa9;" horiz-adv-x="1073" d="M55 291l121 854q21 149 111.5 219t234.5 70h312q145 0 216 -70t50 -219l-121 -854q-21 -151 -112 -221t-236 -70h-312q-143 0 -214 71t-50 220zM92 291q-18 -130 42 -194t190 -64h311q271 0 307 258l121 854q37 258 -234 258h-311q-268 0 -305 -258zM268 432l78 559 q21 145 77.5 201.5t190.5 56.5h70q138 0 180.5 -52.5t22.5 -195.5l-25 -178h-151l28 211q4 30 0.5 48.5t-17.5 26t-26.5 9.5t-38.5 2h-49q-25 0 -36 -1.5t-28 -8.5t-26.5 -26t-13.5 -50l-90 -639q-7 -56 12.5 -74t67.5 -18h49q48 0 73 17t33 75l33 238h152l-29 -211 q-20 -142 -78 -195t-195 -53h-69q-134 0 -175 57t-20 201z" />
<glyph unicode="&#xaa;" horiz-adv-x="522" d="M80 530l16 113h385l-16 -113h-385zM133 877l25 176q11 78 52.5 107.5t113.5 29.5h116l13 90q6 38 -5 48.5t-40 10.5h-29q-29 0 -42.5 -10t-19.5 -47l-8 -53h-110l8 53q12 85 51.5 121.5t130.5 36.5h33q103 0 133 -34t18 -124l-75 -532q-77 -11 -181 -11h-36 q-74 0 -116 32.5t-32 105.5zM254 895q-6 -51 39 -51h100l35 256h-100q-45 0 -54 -60z" />
<glyph unicode="&#xab;" horiz-adv-x="626" d="M41 573l4 23l242 348h131l-207 -348l-4 -23l110 -346h-131zM295 573l4 23l221 348h139l-196 -348l-4 -23l100 -346h-139z" />
<glyph unicode="&#xad;" horiz-adv-x="585" d="M57 535l23 159h500l-23 -159h-500z" />
<glyph unicode="&#xae;" horiz-adv-x="720" d="M129 817l59 416q16 116 73.5 158.5t166.5 42.5h147q54 0 89.5 -8.5t61.5 -30.5t34 -62t0 -100l-60 -416q-16 -117 -74 -160t-167 -43h-148q-109 0 -153.5 43t-28.5 160zM154 817q-14 -102 24.5 -141t136.5 -39h148q101 0 150 38t63 142l59 416q14 105 -25.5 141.5 t-138.5 36.5h-147q-97 0 -147 -37t-64 -141zM272 756l76 542h152q73 0 97.5 -23t14.5 -93l-12 -88q-6 -49 -23 -68.5t-55 -24.5q35 -6 46 -26.5t5 -67.5l-20 -151h-86l22 159q7 52 -28 52h-72l-31 -211h-86zM399 1040h72q36 0 41 41l14 101q3 24 -6.5 33.5t-30.5 9.5h-65z " />
<glyph unicode="&#xaf;" horiz-adv-x="1024" d="M418 1274l16 115h422l-16 -115h-422z" />
<glyph unicode="&#xb0;" horiz-adv-x="524" d="M117.5 854.5q-3.5 45.5 5.5 112.5l39 268q8 57 17.5 90t31.5 62t59.5 41t96.5 12h75q77 0 113.5 -23t40 -68.5t-5.5 -113.5l-39 -268q-8 -56 -17.5 -89t-31 -62t-59.5 -41.5t-97 -12.5h-76q-77 0 -113 23.5t-39.5 69zM240 946q-7 -44 2 -60t49 -16h67q40 0 52.5 16 t19.5 60l43 311q7 42 -2 59t-49 17h-68q-39 0 -51.5 -16t-19.5 -60z" />
<glyph unicode="&#xb1;" horiz-adv-x="686" d="M27 328l18 135h602l-18 -135h-602zM94 809l19 135h231l33 232h135l-33 -232h236l-19 -135h-235l-33 -236h-135l33 236h-232z" />
<glyph unicode="&#xb4;" horiz-adv-x="1024" d="M514 1237l111 188h198l-178 -188h-131z" />
<glyph unicode="&#xb6;" horiz-adv-x="890" d="M127 858l51 373q12 82 66 142.5t145 60.5h561l-200 -1434h-119l182 1296h-176l-182 -1296h-119l92 655h-147q-59 0 -97.5 31.5t-51 76t-5.5 95.5z" />
<glyph unicode="&#xb7;" horiz-adv-x="360" d="M109 547l34 250h176l-34 -250h-176z" />
<glyph unicode="&#xb8;" horiz-adv-x="1024" d="M281 -242l122 242h111l-86 -242h-147z" />
<glyph unicode="&#xba;" horiz-adv-x="538" d="M84 530l16 113h396l-17 -113h-395zM137 905l51 367q13 90 55 129t142 39h47q102 0 133.5 -39t18.5 -129l-52 -367q-13 -89 -54.5 -127.5t-143.5 -38.5h-47q-100 0 -131.5 38.5t-18.5 127.5zM256 901q-4 -34 8 -45.5t39 -11.5h47q28 0 43 11.5t19 45.5l53 375 q4 36 -7 46.5t-40 10.5h-47q-27 0 -41.5 -11t-20.5 -46z" />
<glyph unicode="&#xbb;" horiz-adv-x="626" d="M8 227l199 346l2 23l-100 348h141l125 -348l-2 -23l-223 -346h-142zM252 227l209 346l2 23l-111 348h129l146 -348l-2 -23l-244 -346h-129z" />
<glyph unicode="&#xbf;" horiz-adv-x="729" d="M-22 199.5q0 41.5 8 95.5l18 125q3 22 7.5 41t14 37.5t14.5 30.5t20 28.5t20.5 24t27 25t26.5 22t32 25t33 24.5q28 21 64.5 47.5t49 36.5t30 25t23 27.5t10.5 30t9 44.5l16 117h160l-26 -191q-3 -25 -12 -45.5t-27 -40.5t-31.5 -32.5t-42.5 -36t-43 -35.5l-39 -33 t-35.5 -30t-28.5 -25.5t-26 -26.5t-19 -24.5t-17 -28.5t-10.5 -30.5t-8.5 -37.5l-19 -121q-3 -20 -3.5 -35t3 -26.5t7.5 -19.5t13 -13t16 -8t21 -4t23.5 -1.5t26.5 -0.5h51q63 0 95 21.5t42 94.5l27 187h194l-24 -168q-14 -93 -40.5 -152.5t-72.5 -92t-103 -44.5t-143 -12 h-51q-49 0 -85.5 3.5t-69.5 12.5t-55 24t-38.5 37.5t-24 54.5t-7.5 73.5zM420 1174l37 260h174l-37 -260h-174z" />
<glyph unicode="&#xc0;" horiz-adv-x="833" d="M-84 0l477 1434h328l76 -1434h-205l-21 289h-350l-100 -289h-205zM276 483h293l-24 789h-23zM383 1702h199l55 -189h-131z" />
<glyph unicode="&#xc1;" horiz-adv-x="833" d="M-84 0l477 1434h328l76 -1434h-205l-21 289h-350l-100 -289h-205zM276 483h293l-24 789h-23zM489 1513l111 189h199l-178 -189h-132z" />
<glyph unicode="&#xc2;" horiz-adv-x="833" d="M-84 0l477 1434h328l76 -1434h-205l-21 289h-350l-100 -289h-205zM276 483h293l-24 789h-23zM342 1513l160 189h188l107 -189h-131l-82 107l-111 -107h-131z" />
<glyph unicode="&#xc3;" horiz-adv-x="833" d="M-84 0l477 1434h328l76 -1434h-205l-21 289h-350l-100 -289h-205zM276 483h293l-24 789h-23zM379 1528l29 172h90l188 -72l16 70h89l-29 -174h-90l-185 102l-20 -98h-88z" />
<glyph unicode="&#xc4;" horiz-adv-x="833" d="M-84 0l477 1434h328l76 -1434h-205l-21 289h-350l-100 -289h-205zM276 483h293l-24 789h-23zM383 1530l25 172h131l-25 -172h-131zM629 1530l24 172h131l-24 -172h-131z" />
<glyph unicode="&#xc5;" horiz-adv-x="833" d="M-84 0l477 1434h328l76 -1434h-205l-21 289h-350l-100 -289h-205zM276 483h293l-24 789h-23zM432 1608l4 28q11 71 41 98t107 27h39q79 0 100 -26.5t10 -98.5l-4 -28q-9 -72 -37.5 -98.5t-107.5 -26.5h-39q-77 0 -99.5 27t-13.5 98zM502 1604q-5 -38 4.5 -48t50.5 -10h31 q42 0 56 10t18 48l6 38q5 37 -4.5 46.5t-53.5 9.5h-30q-43 0 -55.5 -9.5t-16.5 -46.5z" />
<glyph unicode="&#xc6;" horiz-adv-x="1288" d="M-39 0l674 1434h747l-24 -174h-391l-62 -439h361l-25 -176h-360l-66 -469h391l-24 -176h-596l43 309h-324l-141 -309h-203zM383 483h270l109 777h-31z" />
<glyph unicode="&#xc7;" horiz-adv-x="794" d="M45 189.5q2 45.5 8 105.5l117 844q11 76 29 127.5t45 86t70 53.5t95.5 26.5t129.5 7.5h61q55 0 95 -3.5t74.5 -12t56.5 -24t37.5 -38t22 -54.5t6 -73.5t-8.5 -95.5l-37 -260h-205l39 272q10 73 -15.5 94t-89.5 21h-61q-63 0 -95 -21t-42 -94l-121 -868q-10 -73 15.5 -94 t88.5 -21h62q64 0 95.5 21t41.5 94l45 313h203l-43 -301q-13 -91 -35.5 -147.5t-64 -91t-97 -47.5t-143.5 -15l-82 -236h-147l118 236q-59 1 -100.5 7t-75 19.5t-52 35.5t-30.5 55t-10 78.5z" />
<glyph unicode="&#xc8;" horiz-adv-x="720" d="M18 0l201 1434h596l-24 -174h-392l-61 -439h360l-24 -174h-361l-65 -473h391l-25 -174h-596zM385 1702h199l55 -189h-131z" />
<glyph unicode="&#xc9;" horiz-adv-x="720" d="M18 0l201 1434h596l-24 -174h-392l-61 -439h360l-24 -174h-361l-65 -473h391l-25 -174h-596zM428 1513l111 189h198l-178 -189h-131z" />
<glyph unicode="&#xca;" horiz-adv-x="720" d="M18 0l201 1434h596l-24 -174h-392l-61 -439h360l-24 -174h-361l-65 -473h391l-25 -174h-596zM301 1513l160 189h188l107 -189h-131l-82 107l-111 -107h-131z" />
<glyph unicode="&#xcb;" horiz-adv-x="720" d="M18 0l201 1434h596l-24 -174h-392l-61 -439h360l-24 -174h-361l-65 -473h391l-25 -174h-596zM352 1530l25 172h131l-25 -172h-131zM598 1530l25 172h131l-25 -172h-131z" />
<glyph unicode="&#xcc;" horiz-adv-x="364" d="M18 0l201 1434h205l-201 -1434h-205zM154 1702h198l56 -189h-132z" />
<glyph unicode="&#xcd;" horiz-adv-x="364" d="M18 0l201 1434h205l-201 -1434h-205zM262 1513l111 189h198l-178 -189h-131z" />
<glyph unicode="&#xce;" horiz-adv-x="364" d="M18 0l201 1434h205l-201 -1434h-205zM106 1513l160 189h189l106 -189h-131l-82 107l-110 -107h-132z" />
<glyph unicode="&#xcf;" horiz-adv-x="364" d="M18 0l201 1434h205l-201 -1434h-205zM147 1530l25 172h131l-24 -172h-132zM393 1530l25 172h131l-25 -172h-131z" />
<glyph unicode="&#xd0;" horiz-adv-x="868" d="M35 659l20 144h101l88 631h381q62 0 105.5 -5t79.5 -17.5t54.5 -33.5t31.5 -53t11 -76.5t-8 -103.5l-119 -854q-13 -90 -35.5 -145.5t-65.5 -88.5t-102 -45t-153 -12h-381l92 659h-100zM272 174h177q57 0 85.5 20.5t38.5 86.5l123 880q10 64 -13.5 81.5t-82.5 17.5h-174 l-66 -457h121l-20 -144h-121z" />
<glyph unicode="&#xd1;" horiz-adv-x="882" d="M18 0l201 1434h217l176 -920h2l129 920h201l-201 -1434h-223l-162 891h-10l-125 -891h-205zM399 1528l29 172h90l189 -72l16 70h88l-29 -174h-90l-184 102l-21 -98h-88z" />
<glyph unicode="&#xd2;" d="M51 295l119 844q13 95 37 153t69 91.5t105 45t156 11.5h67q64 0 108.5 -5t82 -17.5t57 -34t33.5 -55t12 -80.5t-8 -109l-119 -844q-13 -94 -37 -152t-69.5 -91.5t-106 -45.5t-156.5 -12h-67q-128 0 -191.5 24t-86.5 88.5t-5 188.5zM254 220.5q5 -24.5 22.5 -35t36 -14 t49.5 -3.5h60q31 0 51 3.5t40.5 14t32.5 35t17 62.5l123 868q10 72 -18.5 93.5t-92.5 21.5h-59q-64 0 -96.5 -21t-42.5 -94l-123 -868q-5 -38 0 -62.5zM408 1702h198l56 -189h-132z" />
<glyph unicode="&#xd3;" d="M51 295l119 844q13 95 37 153t69 91.5t105 45t156 11.5h67q64 0 108.5 -5t82 -17.5t57 -34t33.5 -55t12 -80.5t-8 -109l-119 -844q-13 -94 -37 -152t-69.5 -91.5t-106 -45.5t-156.5 -12h-67q-128 0 -191.5 24t-86.5 88.5t-5 188.5zM254 220.5q5 -24.5 22.5 -35t36 -14 t49.5 -3.5h60q31 0 51 3.5t40.5 14t32.5 35t17 62.5l123 868q10 72 -18.5 93.5t-92.5 21.5h-59q-64 0 -96.5 -21t-42.5 -94l-123 -868q-5 -38 0 -62.5zM492 1513l110 189h199l-178 -189h-131z" />
<glyph unicode="&#xd4;" d="M51 295l119 844q13 95 37 153t69 91.5t105 45t156 11.5h67q64 0 108.5 -5t82 -17.5t57 -34t33.5 -55t12 -80.5t-8 -109l-119 -844q-13 -94 -37 -152t-69.5 -91.5t-106 -45.5t-156.5 -12h-67q-128 0 -191.5 24t-86.5 88.5t-5 188.5zM254 220.5q5 -24.5 22.5 -35t36 -14 t49.5 -3.5h60q31 0 51 3.5t40.5 14t32.5 35t17 62.5l123 868q10 72 -18.5 93.5t-92.5 21.5h-59q-64 0 -96.5 -21t-42.5 -94l-123 -868q-5 -38 0 -62.5zM354 1513l160 189h188l107 -189h-131l-80 107l-113 -107h-131z" />
<glyph unicode="&#xd5;" d="M51 295l119 844q13 95 37 153t69 91.5t105 45t156 11.5h67q64 0 108.5 -5t82 -17.5t57 -34t33.5 -55t12 -80.5t-8 -109l-119 -844q-13 -94 -37 -152t-69.5 -91.5t-106 -45.5t-156.5 -12h-67q-128 0 -191.5 24t-86.5 88.5t-5 188.5zM254 220.5q5 -24.5 22.5 -35t36 -14 t49.5 -3.5h60q31 0 51 3.5t40.5 14t32.5 35t17 62.5l123 868q10 72 -18.5 93.5t-92.5 21.5h-59q-64 0 -96.5 -21t-42.5 -94l-123 -868q-5 -38 0 -62.5zM389 1528l29 172h90l188 -72l17 70h88l-29 -174h-90l-184 102l-21 -98h-88z" />
<glyph unicode="&#xd6;" d="M51 295l119 844q13 95 37 153t69 91.5t105 45t156 11.5h67q64 0 108.5 -5t82 -17.5t57 -34t33.5 -55t12 -80.5t-8 -109l-119 -844q-13 -94 -37 -152t-69.5 -91.5t-106 -45.5t-156.5 -12h-67q-128 0 -191.5 24t-86.5 88.5t-5 188.5zM254 220.5q5 -24.5 22.5 -35t36 -14 t49.5 -3.5h60q31 0 51 3.5t40.5 14t32.5 35t17 62.5l123 868q10 72 -18.5 93.5t-92.5 21.5h-59q-64 0 -96.5 -21t-42.5 -94l-123 -868q-5 -38 0 -62.5zM397 1530l23 172h131l-23 -172h-131zM643 1530l23 172h131l-23 -172h-131z" />
<glyph unicode="&#xd7;" horiz-adv-x="665" d="M78 559l201 174l-148 174l109 94l147 -172l203 177l82 -95l-203 -178l147 -172l-106 -96l-152 172l-200 -174z" />
<glyph unicode="&#xd8;" d="M4 -74l74 137q-50 68 -27 232l119 844q11 76 29 127.5t45 86t70 53.5t95.5 26.5t129.5 7.5h67q111 0 172 -17l47 93h111l-76 -144q53 -64 29 -233l-119 -844q-13 -94 -37 -152t-69 -91.5t-105 -45.5t-156 -12h-67q-110 0 -178 18l-45 -86h-109zM270 190q22 -22 95 -22h59 q64 0 96.5 21t42.5 94l99 700zM274 422l404 811q-20 33 -100 33h-60q-31 0 -51 -3.5t-40.5 -14t-32.5 -35t-17 -62.5z" />
<glyph unicode="&#xd9;" d="M51 295l160 1139h207l-162 -1145q-10 -76 7.5 -98.5t74.5 -22.5h108q58 0 83.5 23t35.5 98l162 1145h203l-160 -1139q-13 -94 -37 -152t-69.5 -91.5t-106 -45.5t-156.5 -12h-67q-128 0 -191.5 23.5t-86.5 88t-5 189.5zM430 1702h199l55 -189h-131z" />
<glyph unicode="&#xda;" d="M51 295l160 1139h207l-162 -1145q-10 -76 7.5 -98.5t74.5 -22.5h108q58 0 83.5 23t35.5 98l162 1145h203l-160 -1139q-13 -94 -37 -152t-69.5 -91.5t-106 -45.5t-156.5 -12h-67q-128 0 -191.5 23.5t-86.5 88t-5 189.5zM500 1513l110 189h199l-178 -189h-131z" />
<glyph unicode="&#xdb;" d="M51 295l160 1139h207l-162 -1145q-10 -76 7.5 -98.5t74.5 -22.5h108q58 0 83.5 23t35.5 98l162 1145h203l-160 -1139q-13 -94 -37 -152t-69.5 -91.5t-106 -45.5t-156.5 -12h-67q-128 0 -191.5 23.5t-86.5 88t-5 189.5zM356 1513l160 189h189l106 -189h-131l-82 107 l-111 -107h-131z" />
<glyph unicode="&#xdc;" d="M51 295l160 1139h207l-162 -1145q-10 -76 7.5 -98.5t74.5 -22.5h108q58 0 83.5 23t35.5 98l162 1145h203l-160 -1139q-13 -94 -37 -152t-69.5 -91.5t-106 -45.5t-156.5 -12h-67q-128 0 -191.5 23.5t-86.5 88t-5 189.5zM397 1530l25 172h131l-25 -172h-131zM643 1530 l25 172h131l-25 -172h-131z" />
<glyph unicode="&#xdd;" horiz-adv-x="843" d="M154 1434h204l113 -633l291 633h207l-428 -873l-78 -561h-205l78 561zM492 1513l110 189h199l-178 -189h-131z" />
<glyph unicode="&#xde;" horiz-adv-x="790" d="M14 0l201 1434h205l-33 -242h172q121 0 181 -23t80.5 -82.5t4.5 -173.5l-53 -378q-13 -87 -34.5 -140t-63 -85t-98.5 -43t-148 -11h-172l-37 -256h-205zM279 428h172q50 0 78 21.5t36 82.5l56 383q8 61 -14 83t-72 22h-173z" />
<glyph unicode="&#xdf;" horiz-adv-x="856" d="M47 0l143 1016l-96 20l17 121h104l8 55q14 105 93.5 163.5t185.5 58.5h92q63 0 106 -5t79 -17t54.5 -33t31.5 -53t11 -77t-8 -104l-20 -150q-17 -120 -58.5 -169.5t-132.5 -61.5q100 -8 134 -57.5t16 -176.5l-33 -239q-9 -67 -21.5 -114t-34.5 -80t-45.5 -51.5t-64.5 -29 t-82.5 -13.5t-107.5 -3h-105l23 154h115q55 0 84.5 23.5t39.5 90.5l43 293q8 65 -19 89t-81 24h-110l24 174h90q55 0 86 24t41 91l29 204q8 65 -15.5 84t-80.5 19h-52q-58 0 -87 -19t-37 -84l-164 -1167h-195z" />
<glyph unicode="&#xe0;" horiz-adv-x="774" d="M33 225l39 279q18 123 87 176t187 53h201l24 170q3 17 3.5 31t-2 24t-5.5 17t-9.5 11.5t-12 7t-16 3.5t-17.5 1.5t-20 0.5h-37q-27 0 -39.5 -1.5t-29 -9.5t-25.5 -27t-13 -52l-14 -96h-180l12 88q11 76 28 122t52 79.5t91 47t144 13.5h37q88 0 141 -14t80.5 -45.5 t32 -81.5t-5.5 -121l-125 -891q-221 -16 -338 -16h-61q-118 0 -172.5 54t-36.5 177zM231 256q-13 -90 62 -90h176l57 420h-176q-72 0 -84 -84zM346 1425h199l55 -188h-131z" />
<glyph unicode="&#xe1;" horiz-adv-x="774" d="M33 225l39 279q18 123 87 176t187 53h201l24 170q3 17 3.5 31t-2 24t-5.5 17t-9.5 11.5t-12 7t-16 3.5t-17.5 1.5t-20 0.5h-37q-27 0 -39.5 -1.5t-29 -9.5t-25.5 -27t-13 -52l-14 -96h-180l12 88q11 76 28 122t52 79.5t91 47t144 13.5h37q88 0 141 -14t80.5 -45.5 t32 -81.5t-5.5 -121l-125 -891q-221 -16 -338 -16h-61q-118 0 -172.5 54t-36.5 177zM231 256q-13 -90 62 -90h176l57 420h-176q-72 0 -84 -84zM422 1237l110 188h199l-178 -188h-131z" />
<glyph unicode="&#xe2;" horiz-adv-x="774" d="M33 225l39 279q18 123 87 176t187 53h201l24 170q3 17 3.5 31t-2 24t-5.5 17t-9.5 11.5t-12 7t-16 3.5t-17.5 1.5t-20 0.5h-37q-27 0 -39.5 -1.5t-29 -9.5t-25.5 -27t-13 -52l-14 -96h-180l12 88q11 76 28 122t52 79.5t91 47t144 13.5h37q88 0 141 -14t80.5 -45.5 t32 -81.5t-5.5 -121l-125 -891q-221 -16 -338 -16h-61q-118 0 -172.5 54t-36.5 177zM231 256q-13 -90 62 -90h176l57 420h-176q-72 0 -84 -84zM279 1237l159 188h189l106 -188h-131l-82 106l-110 -106h-131z" />
<glyph unicode="&#xe3;" horiz-adv-x="774" d="M33 225l39 279q18 123 87 176t187 53h201l24 170q3 17 3.5 31t-2 24t-5.5 17t-9.5 11.5t-12 7t-16 3.5t-17.5 1.5t-20 0.5h-37q-27 0 -39.5 -1.5t-29 -9.5t-25.5 -27t-13 -52l-14 -96h-180l12 88q11 76 28 122t52 79.5t91 47t144 13.5h37q88 0 141 -14t80.5 -45.5 t32 -81.5t-5.5 -121l-125 -891q-221 -16 -338 -16h-61q-118 0 -172.5 54t-36.5 177zM231 256q-13 -90 62 -90h176l57 420h-176q-72 0 -84 -84zM313 1251l29 172h90l189 -71l16 69h88l-29 -174h-90l-184 103l-21 -99h-88z" />
<glyph unicode="&#xe4;" horiz-adv-x="774" d="M33 225l39 279q18 123 87 176t187 53h201l24 170q3 17 3.5 31t-2 24t-5.5 17t-9.5 11.5t-12 7t-16 3.5t-17.5 1.5t-20 0.5h-37q-27 0 -39.5 -1.5t-29 -9.5t-25.5 -27t-13 -52l-14 -96h-180l12 88q11 76 28 122t52 79.5t91 47t144 13.5h37q88 0 141 -14t80.5 -45.5 t32 -81.5t-5.5 -121l-125 -891q-221 -16 -338 -16h-61q-118 0 -172.5 54t-36.5 177zM231 256q-13 -90 62 -90h176l57 420h-176q-72 0 -84 -84zM315 1253l25 172h131l-25 -172h-131zM561 1253l25 172h131l-25 -172h-131z" />
<glyph unicode="&#xe5;" horiz-adv-x="774" d="M33 225l39 279q18 123 87 176t187 53h201l24 170q3 17 3.5 31t-2 24t-5.5 17t-9.5 11.5t-12 7t-16 3.5t-17.5 1.5t-20 0.5h-37q-27 0 -39.5 -1.5t-29 -9.5t-25.5 -27t-13 -52l-14 -96h-180l12 88q11 76 28 122t52 79.5t91 47t144 13.5h37q88 0 141 -14t80.5 -45.5 t32 -81.5t-5.5 -121l-125 -891q-221 -16 -338 -16h-61q-118 0 -172.5 54t-36.5 177zM231 256q-13 -90 62 -90h176l57 420h-176q-72 0 -84 -84zM362 1348l5 28q9 71 38.5 98t106.5 27h39q79 0 100.5 -26.5t12.5 -98.5l-5 -28q-11 -72 -39.5 -98.5t-107.5 -26.5h-39 q-77 0 -99.5 27t-11.5 98zM430 1343q-4 -38 5 -47.5t50 -9.5h31q42 0 56 10t18 47l6 39q5 37 -4 46.5t-53 9.5h-31q-43 0 -55.5 -9.5t-16.5 -46.5z" />
<glyph unicode="&#xe6;" horiz-adv-x="1228" d="M33 225l35 258q17 122 86.5 176t187.5 54h213l27 194q7 57 -12.5 75.5t-63.5 18.5h-80q-40 -3 -61.5 -23.5t-28.5 -76.5l-12 -88h-170l12 88q14 99 42 152.5t90.5 81.5t172.5 28h57q71 0 115 -14t64 -53q33 39 82 53t120 14h62q170 0 222.5 -57.5t31.5 -204.5l-60 -422 l-450 -4l-31 -223q-8 -60 13 -80t71 -20h82q49 0 74.5 20t33.5 80l17 113h174l-14 -109q-19 -144 -87 -203t-235 -59h-68q-119 0 -174 15.5t-71 70.5q-5 -3 -27 -19t-35.5 -24.5t-36.5 -20t-47.5 -17t-50.5 -5.5h-61q-118 0 -172 54t-37 177zM231 256q-6 -43 12 -66.5 t58 -23.5h49q10 0 21 2t23 7t20.5 8.5t21.5 11.5t18 11t18.5 11.5t14.5 9.5l48 332h-179q-38 0 -65 -29.5t-33 -72.5zM737 633h254l39 274q8 59 -12.5 80t-69.5 21h-61q-47 0 -74.5 -18.5t-34.5 -71.5z" />
<glyph unicode="&#xe7;" horiz-adv-x="727" d="M40.5 139.5q-4.5 48.5 4.5 116.5l92 645q14 100 45 154t98 81t185 27h63q89 0 143 -14t82.5 -45.5t33.5 -81.5t-5 -121l-26 -194h-197l27 192q8 60 -12.5 80t-69.5 20h-64q-49 0 -74.5 -20t-33.5 -80l-90 -641q-8 -59 12.5 -79.5t69.5 -20.5h63q49 0 76 20.5t35 79.5 l30 213h193l-31 -215q-14 -97 -43.5 -150.5t-92.5 -81.5t-173 -30l-82 -236h-147l118 236q-78 2 -126.5 18t-73.5 47.5t-29.5 80z" />
<glyph unicode="&#xe8;" horiz-adv-x="784" d="M42 136q-5 50 5 120l90 645q14 100 45 154t98 81t185 27h61q170 0 222.5 -57.5t31.5 -204.5l-57 -401l-449 -4l-32 -238q-8 -60 12.5 -80t69.5 -20h71q50 0 76.5 20t34.5 80l14 107h185l-15 -109q-19 -146 -87.5 -204t-240.5 -58h-61q-89 0 -143 14.5t-82.5 46 t-33.5 81.5zM299 662h254l33 237q8 59 -12.5 79.5t-69.5 20.5h-62q-49 0 -75.5 -20.5t-34.5 -79.5zM332 1425h198l56 -188h-131z" />
<glyph unicode="&#xe9;" horiz-adv-x="784" d="M42 136q-5 50 5 120l90 645q14 100 45 154t98 81t185 27h61q170 0 222.5 -57.5t31.5 -204.5l-57 -401l-449 -4l-32 -238q-8 -60 12.5 -80t69.5 -20h71q50 0 76.5 20t34.5 80l14 107h185l-15 -109q-19 -146 -87.5 -204t-240.5 -58h-61q-89 0 -143 14.5t-82.5 46 t-33.5 81.5zM299 662h254l33 237q8 59 -12.5 79.5t-69.5 20.5h-62q-49 0 -75.5 -20.5t-34.5 -79.5zM436 1237l111 188h198l-178 -188h-131z" />
<glyph unicode="&#xea;" horiz-adv-x="784" d="M42 136q-5 50 5 120l90 645q14 100 45 154t98 81t185 27h61q170 0 222.5 -57.5t31.5 -204.5l-57 -401l-449 -4l-32 -238q-8 -60 12.5 -80t69.5 -20h71q50 0 76.5 20t34.5 80l14 107h185l-15 -109q-19 -146 -87.5 -204t-240.5 -58h-61q-89 0 -143 14.5t-82.5 46 t-33.5 81.5zM279 1237l159 188h189l106 -188h-131l-80 106l-112 -106h-131zM299 662h254l33 237q8 59 -12.5 79.5t-69.5 20.5h-62q-49 0 -75.5 -20.5t-34.5 -79.5z" />
<glyph unicode="&#xeb;" horiz-adv-x="784" d="M42 136q-5 50 5 120l90 645q14 100 45 154t98 81t185 27h61q170 0 222.5 -57.5t31.5 -204.5l-57 -401l-449 -4l-32 -238q-8 -60 12.5 -80t69.5 -20h71q50 0 76.5 20t34.5 80l14 107h185l-15 -109q-19 -146 -87.5 -204t-240.5 -58h-61q-89 0 -143 14.5t-82.5 46 t-33.5 81.5zM299 662h254l33 237q8 59 -12.5 79.5t-69.5 20.5h-62q-49 0 -75.5 -20.5t-34.5 -79.5zM319 1253l25 172h131l-24 -172h-132zM565 1253l25 172h131l-25 -172h-131z" />
<glyph unicode="&#xec;" horiz-adv-x="344" d="M14 0l162 1157h195l-162 -1157h-195zM100 1425h199l55 -188h-131z" />
<glyph unicode="&#xed;" horiz-adv-x="344" d="M14 0l162 1157h195l-162 -1157h-195zM215 1237l111 188h198l-178 -188h-131z" />
<glyph unicode="&#xee;" horiz-adv-x="344" d="M14 0l162 1157h195l-162 -1157h-195zM59 1237l160 188h189l106 -188h-131l-82 106l-111 -106h-131z" />
<glyph unicode="&#xef;" horiz-adv-x="344" d="M14 0l162 1157h195l-162 -1157h-195zM100 1253l25 172h131l-25 -172h-131zM346 1253l25 172h131l-25 -172h-131z" />
<glyph unicode="&#xf0;" horiz-adv-x="792" d="M40.5 131q-4.5 49 4.5 119l96 684q18 122 87.5 175.5t187.5 53.5h65q19 0 148 -6l2 10q6 32 7 71.5t-5 57.5l-144 -51l-22 78l137 49q-31 47 -90 109l135 45q9 -8 27 -22.5t29 -23.5t25.5 -22.5t25.5 -25.5l127 45l24 -78l-108 -39q42 -74 28 -182l-131 -928 q-11 -73 -30 -119.5t-56.5 -78.5t-95 -45t-145.5 -13h-70q-89 0 -143 13.5t-82.5 44t-33 79.5zM240 256q-8 -59 12.5 -79.5t69.5 -20.5h69q49 0 76 20.5t35 79.5l104 737h-180q-39 0 -63.5 -24t-30.5 -66z" />
<glyph unicode="&#xf1;" horiz-adv-x="796" d="M12 0l162 1157q196 6 346 6h64q118 0 172.5 -53.5t36.5 -175.5l-131 -934h-195l127 903q6 42 -12.5 66t-57.5 24h-178l-139 -993h-195zM315 1251l29 172h90l189 -71l16 69h88l-29 -174h-90l-184 103l-21 -99h-88z" />
<glyph unicode="&#xf2;" horiz-adv-x="792" d="M42 136q-5 50 5 120l90 645q14 100 45 154t98 81t185 27h70q170 0 222 -57.5t31 -204.5l-90 -645q-14 -98 -45.5 -152.5t-98.5 -82t-183 -27.5h-70q-89 0 -143 14.5t-82.5 46t-33.5 81.5zM242 258q-8 -59 12.5 -79.5t69.5 -20.5h69q49 0 76 20.5t35 79.5l92 643 q8 60 -12.5 80t-69.5 20h-70q-49 0 -75.5 -20t-34.5 -80zM356 1425h199l55 -188h-131z" />
<glyph unicode="&#xf3;" horiz-adv-x="792" d="M42 136q-5 50 5 120l90 645q14 100 45 154t98 81t185 27h70q170 0 222 -57.5t31 -204.5l-90 -645q-14 -98 -45.5 -152.5t-98.5 -82t-183 -27.5h-70q-89 0 -143 14.5t-82.5 46t-33.5 81.5zM242 258q-8 -59 12.5 -79.5t69.5 -20.5h69q49 0 76 20.5t35 79.5l92 643 q8 60 -12.5 80t-69.5 20h-70q-49 0 -75.5 -20t-34.5 -80zM432 1237l111 188h198l-178 -188h-131z" />
<glyph unicode="&#xf4;" horiz-adv-x="792" d="M42 136q-5 50 5 120l90 645q14 100 45 154t98 81t185 27h70q170 0 222 -57.5t31 -204.5l-90 -645q-14 -98 -45.5 -152.5t-98.5 -82t-183 -27.5h-70q-89 0 -143 14.5t-82.5 46t-33.5 81.5zM242 258q-8 -59 12.5 -79.5t69.5 -20.5h69q49 0 76 20.5t35 79.5l92 643 q8 60 -12.5 80t-69.5 20h-70q-49 0 -75.5 -20t-34.5 -80zM283 1237l159 188h189l106 -188h-131l-80 106l-112 -106h-131z" />
<glyph unicode="&#xf5;" horiz-adv-x="792" d="M42 136q-5 50 5 120l90 645q14 100 45 154t98 81t185 27h70q170 0 222 -57.5t31 -204.5l-90 -645q-14 -98 -45.5 -152.5t-98.5 -82t-183 -27.5h-70q-89 0 -143 14.5t-82.5 46t-33.5 81.5zM242 258q-8 -59 12.5 -79.5t69.5 -20.5h69q49 0 76 20.5t35 79.5l92 643 q8 60 -12.5 80t-69.5 20h-70q-49 0 -75.5 -20t-34.5 -80zM319 1251l29 172h90l189 -71l16 69h88l-29 -174h-90l-184 103l-20 -99h-89z" />
<glyph unicode="&#xf6;" horiz-adv-x="792" d="M42 136q-5 50 5 120l90 645q14 100 45 154t98 81t185 27h70q170 0 222 -57.5t31 -204.5l-90 -645q-14 -98 -45.5 -152.5t-98.5 -82t-183 -27.5h-70q-89 0 -143 14.5t-82.5 46t-33.5 81.5zM242 258q-8 -59 12.5 -79.5t69.5 -20.5h69q49 0 76 20.5t35 79.5l92 643 q8 60 -12.5 80t-69.5 20h-70q-49 0 -75.5 -20t-34.5 -80zM324 1253l24 172h131l-24 -172h-131zM569 1253l25 172h131l-25 -172h-131z" />
<glyph unicode="&#xf7;" horiz-adv-x="677" d="M76 668l18 135h602l-18 -135h-602zM276 401l23 162h131l-22 -162h-132zM346 905l23 162h131l-23 -162h-131z" />
<glyph unicode="&#xf8;" horiz-adv-x="792" d="M2 -66l72 121q-46 54 -27 201l90 645q14 100 45 154t98 81t185 27h70q66 0 124 -10l50 92h102l-72 -123q40 -30 51 -84.5t-2 -136.5l-90 -645q-14 -98 -45.5 -152.5t-98.5 -82t-183 -27.5h-70q-92 0 -151 16l-48 -76h-100zM250 182q17 -24 74 -24h69q49 0 76 20.5 t35 79.5l84 584zM260 393l307 600q-19 8 -53 8h-70q-49 0 -75.5 -20t-34.5 -80z" />
<glyph unicode="&#xf9;" horiz-adv-x="792" d="M41 225l131 932h195l-127 -901q-6 -43 11.5 -66.5t57.5 -23.5h178l140 991h194l-164 -1157q-266 -6 -342 -6h-65q-118 0 -172.5 54t-36.5 177zM356 1425h199l55 -188h-131z" />
<glyph unicode="&#xfa;" horiz-adv-x="792" d="M41 225l131 932h195l-127 -901q-6 -43 11.5 -66.5t57.5 -23.5h178l140 991h194l-164 -1157q-266 -6 -342 -6h-65q-118 0 -172.5 54t-36.5 177zM420 1237l110 188h199l-178 -188h-131z" />
<glyph unicode="&#xfb;" horiz-adv-x="792" d="M41 225l131 932h195l-127 -901q-6 -43 11.5 -66.5t57.5 -23.5h178l140 991h194l-164 -1157q-266 -6 -342 -6h-65q-118 0 -172.5 54t-36.5 177zM281 1237l159 188h189l106 -188h-131l-82 106l-110 -106h-131z" />
<glyph unicode="&#xfc;" horiz-adv-x="792" d="M41 225l131 932h195l-127 -901q-6 -43 11.5 -66.5t57.5 -23.5h178l140 991h194l-164 -1157q-266 -6 -342 -6h-65q-118 0 -172.5 54t-36.5 177zM324 1253l24 172h131l-24 -172h-131zM569 1253l25 172h131l-25 -172h-131z" />
<glyph unicode="&#xfd;" horiz-adv-x="763" d="M94 1157h211l27 -964h16l307 964h195l-457 -1415h-186l86 268h-141zM414 1237l110 188h199l-178 -188h-131z" />
<glyph unicode="&#xfe;" horiz-adv-x="796" d="M-23 -246l236 1682h195l-39 -279h235q114 0 160 -59t27 -185l-91 -647q-19 -130 -84.5 -201t-175.5 -71h-63l-170 6l-35 -246h-195zM229 166h181q81 0 94 90l92 647q6 42 -12.5 66t-57.5 24h-180z" />
<glyph unicode="&#xff;" horiz-adv-x="763" d="M94 1157h211l27 -964h16l307 964h195l-457 -1415h-186l86 268h-141zM301 1253l23 172h131l-23 -172h-131zM547 1253l22 172h131l-22 -172h-131z" />
<glyph unicode="&#x152;" horiz-adv-x="1196" d="M55 322l111 792q26 184 106 252t265 68h761l-24 -174h-391l-62 -439h361l-25 -174h-360l-66 -473h391l-24 -174h-762q-184 0 -245.5 69.5t-35.5 252.5zM258 289q-11 -74 15 -99.5t85 -25.5h166l156 1106h-166q-60 0 -92.5 -24.5t-42.5 -98.5z" />
<glyph unicode="&#x153;" horiz-adv-x="1241" d="M42 136q-5 50 5 120l90 645q14 100 45 154t98 81t185 27h70q126 0 188 -33q65 33 199 33h61q170 0 222.5 -57.5t31.5 -204.5l-57 -401l-449 -4l-33 -238q-8 -60 12.5 -80t69.5 -20h72q50 0 76.5 20t34.5 80l14 107h184l-14 -109q-19 -146 -87.5 -204t-240.5 -58h-61 q-136 0 -191 31q-63 -31 -196 -31h-70q-89 0 -143 14.5t-82.5 46t-33.5 81.5zM242 258q-8 -59 12.5 -79.5t69.5 -20.5h69q49 0 76 20.5t35 79.5l90 643l4 31q0 40 -21 54.5t-63 14.5h-70q-49 0 -75.5 -20t-34.5 -80zM756 662h254l32 237q8 59 -12 79.5t-69 20.5h-62 q-47 0 -72.5 -18t-35.5 -70l-3 -10z" />
<glyph unicode="&#x178;" horiz-adv-x="843" d="M154 1434h204l113 -633l291 633h207l-428 -873l-78 -561h-205l78 561zM387 1530l23 172h131l-23 -172h-131zM633 1530l22 172h131l-22 -172h-131z" />
<glyph unicode="&#x2c6;" horiz-adv-x="1024" d="M397 1237l160 188h188l107 -188h-131l-82 106l-111 -106h-131z" />
<glyph unicode="&#x2dc;" horiz-adv-x="1024" d="M426 1251l29 172h90l188 -71l17 69h88l-29 -174h-90l-184 103l-21 -99h-88z" />
<glyph unicode="&#x2000;" horiz-adv-x="880" />
<glyph unicode="&#x2001;" horiz-adv-x="1761" />
<glyph unicode="&#x2002;" horiz-adv-x="880" />
<glyph unicode="&#x2003;" horiz-adv-x="1761" />
<glyph unicode="&#x2004;" horiz-adv-x="587" />
<glyph unicode="&#x2005;" horiz-adv-x="440" />
<glyph unicode="&#x2006;" horiz-adv-x="293" />
<glyph unicode="&#x2007;" horiz-adv-x="293" />
<glyph unicode="&#x2008;" horiz-adv-x="220" />
<glyph unicode="&#x2009;" horiz-adv-x="352" />
<glyph unicode="&#x200a;" horiz-adv-x="97" />
<glyph unicode="&#x2010;" horiz-adv-x="585" d="M57 535l23 159h500l-23 -159h-500z" />
<glyph unicode="&#x2011;" horiz-adv-x="585" d="M57 535l23 159h500l-23 -159h-500z" />
<glyph unicode="&#x2012;" horiz-adv-x="585" d="M57 535l23 159h500l-23 -159h-500z" />
<glyph unicode="&#x2013;" horiz-adv-x="806" d="M45 545l21 139h745l-20 -139h-746z" />
<glyph unicode="&#x2014;" horiz-adv-x="1155" d="M45 545l21 139h1093l-20 -139h-1094z" />
<glyph unicode="&#x2018;" horiz-adv-x="333" d="M150 956l28 199q13 89 45 144t107 135l53 -43q-50 -67 -65 -98.5t-23 -86.5h67l-34 -250h-178z" />
<glyph unicode="&#x2019;" horiz-adv-x="333" d="M166 1001q50 67 65 98.5t23 86.5h-68l35 250h178l-28 -199q-13 -89 -45 -144t-107 -135z" />
<glyph unicode="&#x201a;" horiz-adv-x="333" d="M-2 -184q51 67 65.5 98.5t22.5 85.5h-68l35 250h178l-28 -199q-13 -89 -45 -143.5t-107 -134.5z" />
<glyph unicode="&#x201c;" horiz-adv-x="595" d="M150 956l28 199q13 89 45 144t107 135l53 -43q-50 -67 -65 -98.5t-23 -86.5h67l-34 -250h-178zM410 956l28 199q13 89 45 144t107 135l53 -43q-50 -67 -65 -98.5t-23 -86.5h68l-35 -250h-178z" />
<glyph unicode="&#x201d;" horiz-adv-x="595" d="M166 1001q50 67 65 98.5t23 86.5h-68l35 250h178l-28 -199q-13 -89 -45 -144t-107 -135zM426 1001q50 67 65 98.5t23 86.5h-68l35 250h178l-28 -199q-13 -89 -45 -144t-107 -135z" />
<glyph unicode="&#x201e;" horiz-adv-x="595" d="M-2 -184q51 67 65.5 98.5t22.5 85.5h-68l35 250h178l-28 -199q-13 -89 -45 -143.5t-107 -134.5zM258 -184q51 67 65.5 98.5t22.5 85.5h-67l34 250h179l-29 -199q-13 -89 -45 -143.5t-107 -134.5z" />
<glyph unicode="&#x2022;" horiz-adv-x="540" d="M122 557q-5 34 5 92l20 152q7 50 14.5 75.5t26.5 46t50.5 27t85.5 6.5h45q69 0 98 -13.5t34 -48t-5 -93.5l-21 -152q-7 -49 -14.5 -74t-25.5 -45.5t-48.5 -27t-83.5 -6.5h-45q-71 0 -101 13.5t-35 47.5z" />
<glyph unicode="&#x2026;" horiz-adv-x="999" d="M16 0l35 250h178l-34 -250h-179zM350 0l35 250h176l-35 -250h-176zM682 0l35 250h178l-35 -250h-178z" />
<glyph unicode="&#x202f;" horiz-adv-x="352" />
<glyph unicode="&#x2039;" horiz-adv-x="385" d="M41 573l4 23l242 348h131l-207 -348l-4 -23l110 -346h-131z" />
<glyph unicode="&#x203a;" horiz-adv-x="385" d="M6 227l209 346l2 23l-111 348h132l145 -348l-2 -23l-244 -346h-131z" />
<glyph unicode="&#x205f;" horiz-adv-x="440" />
<glyph unicode="&#x20ac;" horiz-adv-x="858" d="M41 575l16 119h82l13 86h-82l16 119h84l33 240q13 95 36.5 152.5t68.5 91.5t105 45.5t156 11.5h58q64 0 108 -5t81.5 -17.5t57 -34t33.5 -55t12 -80.5t-8 -109l-16 -117h-195l19 127q10 74 -16.5 99.5t-86.5 25.5h-69q-61 0 -95 -25.5t-44 -99.5l-35 -250h407l-16 -119 h-408l-12 -86h408l-17 -119h-407l-41 -290q-10 -74 16 -99.5t86 -25.5h74q62 0 95.5 25.5t43.5 99.5l25 178h194l-24 -168q-11 -76 -29.5 -127t-45 -86t-69.5 -54t-95.5 -26.5t-129.5 -7.5h-61q-128 0 -191.5 23.5t-86.5 88t-5 189.5l39 280h-82z" />
<glyph unicode="&#x2122;" horiz-adv-x="995" d="M152 1343l12 91h371l-13 -91h-133l-88 -626h-104l88 626h-133zM475 717l100 717h160l15 -502h6l153 502h160l-100 -717h-101l80 528h-4l-176 -528h-92l-27 528h-4l-70 -528h-100z" />
<glyph unicode="&#xe000;" horiz-adv-x="1157" d="M0 0v1157h1157v-1157h-1157z" />
</font>
</defs>
</svg>
