<?xml version="1.0" standalone="no"?>
<!DOCTYPE svg PUBLIC "-//W3C//DTD SVG 1.1//EN" "http://www.w3.org/Graphics/SVG/1.1/DTD/svg11.dtd" >
<svg xmlns="http://www.w3.org/2000/svg">
<metadata></metadata>
<defs>
<font id="rbno2.1bbold" horiz-adv-x="884" >
<font-face units-per-em="2048" ascent="1638" descent="-410" />
<missing-glyph horiz-adv-x="286" />
<glyph unicode="&#xfb01;" horiz-adv-x="888" d="M16 965v217h82v59q0 87 13 137t50 79t90 37.5t148 8.5h174v-221h-174q-45 0 -45 -49v-51h477v-1182h-256v965h-221v-965h-256v965h-82z" />
<glyph unicode="&#xfb02;" horiz-adv-x="888" d="M16 965v217h82v59q0 87 13 137t50 79t90 37.5t148 8.5h432v-1503h-256v1296h-176q-27 0 -36 -13.5t-9 -37.5v-63h127v-217h-127v-965h-256v965h-82z" />
<glyph horiz-adv-x="2048" />
<glyph horiz-adv-x="2048" />
<glyph unicode="&#xd;" horiz-adv-x="2048" />
<glyph unicode=" "  horiz-adv-x="286" />
<glyph unicode="&#x09;" horiz-adv-x="286" />
<glyph unicode="&#xa0;" horiz-adv-x="286" />
<glyph unicode="!" horiz-adv-x="405" d="M76 1040v394h256v-394l-64 -604h-131zM88 0v293h229v-293h-229z" />
<glyph unicode="&#x22;" horiz-adv-x="665" d="M63 1434h228v-230l-64 -364h-157zM373 1434h227v-230l-63 -364h-158z" />
<glyph unicode="#" horiz-adv-x="1216" d="M37 301l29 186h161l68 426h-156l31 189h156l55 332h199l-54 -332h258l54 332h202l-55 -332h193l-31 -189h-195l-67 -426h190l-31 -186h-192l-49 -301h-199l47 301h-258l-47 -301h-199l48 301h-158zM426 487h258l68 426h-258z" />
<glyph unicode="$" horiz-adv-x="854" d="M49 934v180q0 185 60 252.5t233 73.5v143h188v-143l228 -6v-224h-348q-50 0 -71.5 -15.5t-21.5 -70.5v-100q0 -25 2 -42.5t11 -32.5t16 -23t28.5 -19t36 -17t50.5 -20l135 -47q28 -10 40.5 -15t36 -15t34 -17t28 -20t26 -26t19.5 -32.5t15.5 -41t8 -50t3.5 -61.5v-226 q0 -179 -58.5 -248.5t-218.5 -76.5v-166h-188v166l-283 6v223h387q48 0 69.5 15.5t21.5 70.5v160q0 22 -4.5 38.5t-8 26t-18.5 20t-21 14t-32.5 14.5t-36.5 16l-146 51q-36 14 -53 21t-46 21.5t-42.5 27t-32 34t-26.5 46t-14.5 59t-6.5 76.5z" />
<glyph unicode="%" horiz-adv-x="1329" d="M61 825v410q0 110 44.5 157.5t160.5 47.5h70q117 0 161 -47.5t44 -157.5v-410q0 -112 -44 -160.5t-161 -48.5h-70q-116 0 -160.5 49t-44.5 160zM223 805q0 -33 12 -45t39 -12h54q28 0 40.5 12.5t12.5 44.5v448q0 33 -12.5 45.5t-40.5 12.5h-54q-27 0 -39 -12.5t-12 -45.5 v-448zM317 0l529 1434h160l-529 -1434h-160zM788 201v409q0 110 44 157.5t161 47.5h70q116 0 160.5 -47.5t44.5 -157.5v-409q0 -111 -44.5 -160t-160.5 -49h-70q-117 0 -161 48.5t-44 160.5zM948 182q0 -32 12.5 -44.5t40.5 -12.5h54q27 0 39 12t12 45v447q0 34 -12 46.5 t-39 12.5h-54q-28 0 -40.5 -12.5t-12.5 -46.5v-447z" />
<glyph unicode="&#x26;" horiz-adv-x="1007" d="M63 319v181q0 137 46.5 189.5t146.5 58.5q-81 11 -115.5 65t-34.5 178v84q0 100 15 159.5t57 96.5t107 49.5t176 12.5h213v-224h-213q-42 0 -63 -18.5t-21 -69.5v-145q0 -50 19.5 -69t58.5 -21h532v-174l-182 -35v-637h-387q-59 0 -96.5 1.5t-77.5 6.5t-63 14t-46 25.5 t-34.5 39t-21.5 56.5t-13 76.5t-3 99.5zM332 299q0 -50 20.5 -66t65.5 -16h127v412h-125q-43 0 -65.5 -18.5t-22.5 -69.5v-242z" />
<glyph unicode="'" horiz-adv-x="354" d="M63 1434h228v-230l-64 -364h-157z" />
<glyph unicode="(" horiz-adv-x="446" d="M63 78v1112q0 134 74 217q51 64 160 143l96 -86l-27 -36t-34 -47t-19 -33q-13 -32 -17.5 -63.5t-4.5 -94.5v-1112q0 -66 4.5 -97.5t17.5 -62.5q6 -15 20.5 -36t33 -46t26.5 -37l-96 -84q-104 71 -160 142q-74 87 -74 221z" />
<glyph unicode=")" horiz-adv-x="446" d="M51 -201q8 12 26.5 37t33 46t20.5 36q14 31 18.5 63t4.5 97v1112q0 62 -4.5 93.5t-18.5 64.5q-6 14 -19 33t-34 47l-27 36l96 86q109 -79 160 -143q74 -83 74 -217v-1112q0 -134 -74 -221q-56 -71 -160 -142z" />
<glyph unicode="*" horiz-adv-x="710" d="M33 975l100 61l164 49l22 -41l-118 -122l-103 -62zM33 1212l65 117l103 -63l118 -123l-22 -43l-164 51zM289 754v118l43 166h47l43 -166v-118h-133zM289 1315v119h133v-119l-43 -166h-47zM391 1044l25 41l162 -49l102 -61l-68 -115l-102 62zM391 1143l119 123l102 63 l68 -117l-102 -61l-162 -51z" />
<glyph unicode="+" horiz-adv-x="710" d="M35 647v176h231v228h176v-228h234v-176h-234v-231h-176v231h-231z" />
<glyph unicode="," horiz-adv-x="354" d="M61 0v285h232v-230q0 -89 -28 -151.5t-101 -159.5l-88 51q52 104 58 127q7 26 7 78h-80z" />
<glyph unicode="-" horiz-adv-x="595" d="M35 510v211h526v-211h-526z" />
<glyph unicode="." horiz-adv-x="380" d="M76 0v285h229v-285h-229z" />
<glyph unicode="/" horiz-adv-x="532" d="M29 -70l301 1583h162l-304 -1583h-159z" />
<glyph unicode="0" d="M55 334v768q0 137 31.5 208t107.5 101.5t222 30.5h51q110 0 177 -15t109.5 -55.5t58 -103.5t15.5 -166v-768q0 -103 -15.5 -166t-58 -104t-109.5 -56.5t-177 -15.5h-51q-109 0 -177 16t-110 56.5t-58 104t-16 165.5zM326 305q0 -57 21.5 -73.5t68.5 -16.5h51 q49 0 70.5 16.5t21.5 73.5v823q0 57 -21.5 74t-70.5 17h-51q-47 0 -68.5 -17t-21.5 -74v-823z" />
<glyph unicode="1" horiz-adv-x="735" d="M-16 1294l311 140h229v-1217h201v-217h-664v217h201v954l-225 -51z" />
<glyph unicode="2" horiz-adv-x="790" d="M43 0v360q0 99 33 164.5t96 122.5l199 191q71 59 98 112t27 127v43q0 55 -20.5 70.5t-69.5 15.5h-334v228q292 8 368 8q94 1 154 -17t93 -61t45.5 -101t12.5 -149v-72q0 -116 -37 -189t-116 -144l-162 -142q-7 -7 -31 -29t-29.5 -28t-22 -23.5t-21 -27t-13 -25.5 t-10.5 -32t-2 -35v-150h451v-217h-709z" />
<glyph unicode="3" horiz-adv-x="749" d="M25 0v215h337q47 0 69 17.5t22 72.5v236q0 47 -17.5 64.5t-52.5 17.5h-231v219h231q35 0 52.5 17t17.5 63v196q0 55 -21.5 71.5t-69.5 16.5h-325v228q283 8 346 8q97 2 157.5 -11t102 -50.5t58 -101t16.5 -165.5v-131q0 -128 -34.5 -180.5t-121.5 -63.5q89 -9 122.5 -58 t33.5 -181v-181q0 -65 -8 -115t-21 -85t-36.5 -59t-48 -38t-62.5 -21t-72.5 -8.5t-85.5 -0.5z" />
<glyph unicode="4" horiz-adv-x="956" d="M2 297v188l352 949h398v-934h182v-203h-182v-297h-263v297h-487zM272 500h217v712h-2z" />
<glyph unicode="5" horiz-adv-x="790" d="M43 0v217h363h11q23 0 33.5 1t23.5 7.5t17.5 22.5t4.5 43v311q0 48 -18.5 65t-57.5 17h-365l13 750h647v-230h-408v-301h160q62 0 100 -3t74.5 -14.5t56 -31.5t35.5 -55t21.5 -85t5.5 -122v-273q0 -59 -3 -102.5t-13 -78.5t-21.5 -58t-35 -40t-47 -26.5t-63.5 -14.5 t-79 -6t-99 -1z" />
<glyph unicode="6" horiz-adv-x="811" d="M37 319v781q0 105 15.5 169t57.5 104.5t109 55t178 13.5l303 -8v-230h-317q-47 0 -66.5 -16t-19.5 -72v-235q39 26 111 26h61q67 0 108.5 -3.5t80.5 -16.5t59.5 -35.5t37 -63t22 -96.5t5.5 -139v-234q0 -105 -14.5 -166t-56.5 -98.5t-106.5 -50t-176.5 -12.5h-37 q-143 0 -220 34.5t-105.5 102.5t-28.5 190zM297 299q0 -55 22 -72.5t68 -17.5h41q47 0 68.5 17.5t21.5 72.5v295q0 57 -22 75.5t-68 18.5h-61q-36 0 -53 -10.5t-17 -44.5v-334z" />
<glyph unicode="7" horiz-adv-x="735" d="M20 1204v230h689v-242l-318 -1192h-278l319 1165v39h-412z" />
<glyph unicode="8" horiz-adv-x="843" d="M29 313v183q0 143 39.5 193t148.5 59q-84 12 -119.5 60.5t-36.5 162.5v141q0 84 10 138.5t32 94t64.5 59.5t100 29t146.5 9h22q112 0 178 -13t109 -51t58.5 -100t15.5 -166v-115q0 -132 -35 -184.5t-127 -64.5q103 -9 141.5 -60.5t38.5 -191.5v-183q0 -103 -18.5 -165 t-66.5 -97.5t-115 -47t-181 -11.5h-24q-114 0 -181 11.5t-115 47t-66.5 97.5t-18.5 165zM293 297q0 -29 6.5 -46.5t22 -24.5t29 -9t38.5 -2h66q25 0 38.5 2t29.5 9t23 24.5t7 46.5v244q0 55 -22 70.5t-70 15.5h-84q-44 -2 -64 -18t-20 -68v-244zM313 934q0 -52 19 -67 t63 -15h56q23 1 35 3t25 10t18.5 24.5t5.5 44.5v199q0 56 -21.5 71t-71.5 15h-39q-25 0 -38 -2t-27 -10t-19.5 -26t-5.5 -48v-199z" />
<glyph unicode="9" horiz-adv-x="829" d="M29 854v260q0 83 10.5 138t33.5 93.5t66.5 59t102 29t147.5 8.5h31q108 0 176.5 -17.5t108 -59t54.5 -100t15 -151.5v-780q0 -107 -13.5 -169.5t-53.5 -103.5t-105.5 -55.5t-175.5 -13.5l-336 8v217h334q47 0 68.5 19t21.5 75v213q-39 -24 -111 -24h-55q-67 0 -109 3.5 t-81.5 16.5t-61 35.5t-38.5 63t-23 97t-6 138.5zM281 807q0 -55 22 -71.5t68 -16.5h73q40 0 55 13.5t15 62.5v344q0 55 -21.5 70.5t-68.5 15.5h-53q-47 0 -68.5 -15.5t-21.5 -70.5v-332z" />
<glyph unicode=":" horiz-adv-x="354" d="M66 0v285h229v-285h-229zM66 895v285h229v-285h-229z" />
<glyph unicode=";" horiz-adv-x="354" d="M61 0v285h232v-230q0 -89 -28 -151.5t-101 -159.5l-88 51q52 104 58 127q7 26 7 78h-80zM66 895v285h229v-285h-229z" />
<glyph unicode="&#x3c;" horiz-adv-x="684" d="M35 649v185l612 286v-211l-362 -168l362 -166v-213z" />
<glyph unicode="=" horiz-adv-x="710" d="M35 479v170h641v-170h-641zM35 807v170h641v-170h-641z" />
<glyph unicode="&#x3e;" horiz-adv-x="684" d="M35 362v213l362 166l-362 168v211l612 -286v-185z" />
<glyph unicode="?" horiz-adv-x="751" d="M57 1225v209q141 8 299 8q99 0 161 -13.5t105.5 -50t61.5 -100t18 -164.5v-119q0 -85 -33 -135.5t-118 -118.5q-26 -21 -59 -46.5t-46 -36t-29.5 -26t-21 -27t-8.5 -28.5t-4 -40v-103h-205v182q0 17 3 32.5t6 27t12.5 25.5t14 21.5t19 22t20 19.5t24 21.5t24.5 21.5 q16 15 44.5 40.5t39 36t27.5 29.5t23 32.5t11 33.5t5 43v117q0 55 -21.5 70.5t-71.5 15.5h-301zM166 0v293h227v-293h-227z" />
<glyph unicode="@" horiz-adv-x="1120" d="M49 166v821q0 171 67 238t226 67h436q160 0 226.5 -67t66.5 -238v-754q0 -56 -11.5 -92.5t-35 -53.5t-48 -22.5t-61.5 -5.5q-126 0 -170 10t-83 52q-22 -19 -32 -26.5t-36 -16t-62 -8.5h-34q-120 0 -183 51.5t-63 175.5v240q0 127 51.5 177t167.5 50h164v72 q0 48 -15 61.5t-51 13.5h-262v172q196 9 266 9q90 0 145.5 -13.5t85 -47.5t39 -77.5t9.5 -115.5v-605q0 -55 10.5 -73.5t52.5 -18.5q58 0 73.5 23.5t15.5 83.5v739q0 62 -8.5 103.5t-32 76.5t-69 51.5t-116.5 16.5h-436q-69 0 -115 -16.5t-69.5 -51t-32 -76.5t-8.5 -104 v-821q0 -61 8.5 -103t32 -76.5t69.5 -51.5t115 -17h580v-55h-580q-159 0 -226 67t-67 236zM471 332q0 -72 61 -72h21q43 0 82 27v317h-103q-38 0 -49.5 -22t-11.5 -66v-184z" />
<glyph unicode="A" horiz-adv-x="919" d="M8 0l244 1434h416l243 -1434h-268l-45 264h-276l-43 -264h-271zM346 508h225l-106 704h-12z" />
<glyph unicode="B" horiz-adv-x="854" d="M59 0v1434h385q111 0 176 -12.5t107 -49.5t57 -97t15 -161v-137q0 -129 -34 -181.5t-118 -64.5q87 -11 121.5 -61.5t34.5 -182.5v-168q0 -77 -5.5 -128t-24 -87.5t-40.5 -56t-67.5 -31t-91 -14t-125.5 -2.5h-390zM328 223h121q44 0 63.5 15.5t19.5 66.5v236q0 50 -22 66 t-66 16h-116v-400zM328 831h123q41 0 59 16t18 66v215q0 50 -20.5 66t-63.5 16h-116v-379z" />
<glyph unicode="C" horiz-adv-x="821" d="M55 319v795q0 103 15.5 164.5t59 98.5t109 50t177.5 13l366 -6v-220l-366 3q-47 0 -68.5 -17.5t-21.5 -73.5v-819q0 -55 21.5 -72.5t68.5 -17.5h366v-217q-255 -6 -366 -6q-90 0 -148.5 8.5t-102 29t-66.5 59t-33.5 92.5t-10.5 136z" />
<glyph unicode="D" horiz-adv-x="866" d="M59 0v1434h404q109 0 174 -13t106.5 -50.5t56.5 -97t15 -159.5v-795q0 -100 -15 -159.5t-56.5 -96.5t-106.5 -50t-174 -13h-404zM328 223h135q43 0 63.5 16.5t20.5 67.5v826q0 49 -19.5 63t-64.5 14h-133z" />
<glyph unicode="E" horiz-adv-x="741" d="M63 0v1434h642v-230h-373v-356h338v-230h-338v-389h373v-229h-642z" />
<glyph unicode="F" horiz-adv-x="714" d="M63 0v1434h631v-230h-362v-385h327v-250h-327v-569h-269z" />
<glyph unicode="G" horiz-adv-x="872" d="M55 319v795q0 200 73 265q71 63 275 63h13l323 -8v-215h-323q-46 0 -68 -17.5t-22 -73.5v-831q0 -29 5.5 -46.5t19.5 -25t27 -9t38 -1.5h45q25 0 38 1.5t27 9t19.5 25t5.5 46.5v272h-123v224h393v-474q0 -103 -15.5 -164t-58.5 -99t-109 -51t-177 -13h-45 q-111 0 -177.5 13t-109.5 51t-58.5 99.5t-15.5 163.5z" />
<glyph unicode="H" horiz-adv-x="890" d="M63 0v1434h269v-586h227v586h270v-1434h-270v604h-227v-604h-269z" />
<glyph unicode="I" horiz-adv-x="395" d="M63 0v1434h269v-1434h-269z" />
<glyph unicode="J" horiz-adv-x="579" d="M12 0v229h156q44 0 65 15t21 65v1127h268v-1071q0 -68 -3.5 -117.5t-11.5 -91t-21.5 -67.5t-33.5 -47t-47 -30t-61 -16q-29 -6 -64 -6h-15q-44 2 -97 2z" />
<glyph unicode="K" d="M63 0v1434h269v-590h86l153 590h289l-205 -725l219 -709h-296l-150 561h-96v-561h-269z" />
<glyph unicode="L" horiz-adv-x="686" d="M63 0v1434h269v-1205h342v-229h-611z" />
<glyph unicode="M" horiz-adv-x="1169" d="M63 0v1434h332l189 -818h2l188 818h332v-1434h-266l14 817h-6l-164 -817h-197l-163 817h-9l13 -817h-265z" />
<glyph unicode="N" horiz-adv-x="897" d="M63 0v1434h271l248 -791h2v791h252v-1434h-281l-227 752h-2v-752h-263z" />
<glyph unicode="O" d="M55 319v795q0 103 15.5 164.5t59 99.5t109.5 51t177 13h51q111 0 177 -13t109 -51t58.5 -99.5t15.5 -164.5v-795q0 -103 -15.5 -164t-58.5 -99t-109 -51t-177 -13h-51q-111 0 -177.5 14t-109.5 52t-58.5 99t-15.5 162zM326 305q0 -57 22.5 -73.5t71.5 -16.5h45 q48 0 71 17t23 73v823q0 56 -23 73.5t-71 17.5h-45q-49 0 -71.5 -17t-22.5 -74v-823z" />
<glyph unicode="P" horiz-adv-x="833" d="M59 0v1434h400q108 0 172.5 -13.5t105.5 -50t55.5 -94.5t14.5 -154v-346q0 -98 -14.5 -156t-55.5 -94t-105 -48.5t-173 -12.5h-131v-465h-269zM328 688h127q42 0 62 13.5t20 60.5v373q0 48 -20 61.5t-62 13.5h-127v-522z" />
<glyph unicode="Q" d="M55 319v795q0 103 15.5 164.5t59 99.5t109.5 51t177 13h51q111 0 177 -13t109 -51t58.5 -99.5t15.5 -164.5v-795q0 -124 -25.5 -191t-88.5 -99l80 -203h-201l-96 166h-29h-51q-111 0 -177.5 14t-109.5 52t-58.5 99t-15.5 162zM326 305q0 -57 22.5 -73.5t71.5 -16.5h45 q48 0 71 17t23 73v823q0 56 -23 73.5t-71 17.5h-45q-49 0 -71.5 -17t-22.5 -74v-823z" />
<glyph unicode="R" horiz-adv-x="845" d="M59 0v1434h408q108 0 171.5 -12.5t104.5 -48.5t55.5 -94.5t14.5 -156.5v-200q0 -131 -38 -181.5t-120 -58.5q88 -14 123 -69t35 -189v-424h-270v459q0 102 -80 102h-135v-561h-269zM328 778h139q41 0 58.5 14t17.5 62v285q0 46 -19 58.5t-61 12.5h-135v-432z" />
<glyph unicode="S" horiz-adv-x="845" d="M45 934v180q0 104 15.5 165.5t57.5 99.5q44 38 110 51q62 12 162 12h16l348 -8v-224h-348q-50 0 -71.5 -15.5t-21.5 -70.5v-100q0 -25 2 -42.5t11 -32.5t16 -23t28.5 -19t36 -17t50.5 -20l135 -47q28 -10 40.5 -15t36 -15t34 -17t28 -20t26 -26t19.5 -32.5t15.5 -41 t8 -50t3.5 -61.5v-226q0 -103 -15.5 -164.5t-58.5 -99t-109 -51.5q-62 -13 -163 -12h-15l-387 8v223h387q48 0 69 15.5t21 70.5v160q0 19 -2 33t-8 25.5t-10.5 18t-18 14.5t-21 11.5t-28.5 12.5t-32 14l-146 51q-36 14 -53 21t-46 21.5t-42.5 27t-32 34t-26.5 46t-14.5 59 t-6.5 76.5z" />
<glyph unicode="T" horiz-adv-x="798" d="M10 1204v230h778v-230h-253v-1204h-271v1204h-254z" />
<glyph unicode="U" d="M55 319v1115h271v-1125q0 -59 16 -76.5t61 -17.5h78q44 0 61 18t17 76v1125h268v-1115q0 -103 -15.5 -164t-58.5 -99t-109 -51t-177 -13h-51q-111 0 -177.5 13t-109.5 51t-58.5 99.5t-15.5 163.5z" />
<glyph unicode="V" horiz-adv-x="964" d="M16 1434h271l190 -1115h6l195 1115h270l-246 -1434h-440z" />
<glyph unicode="W" horiz-adv-x="1292" d="M14 1434h273l92 -1078h2l125 1078h282l123 -1078h2l93 1078h274l-150 -1434h-417l-66 805h-2l-65 -805h-416z" />
<glyph unicode="X" horiz-adv-x="860" d="M10 0l250 721l-244 713h271l141 -467l145 467h269l-242 -713l250 -721h-270l-152 479l-147 -479h-271z" />
<glyph unicode="Y" d="M10 1434h271l159 -576l164 576h270l-296 -891v-543h-271v543z" />
<glyph unicode="Z" horiz-adv-x="743" d="M33 0v231l403 971h-395v232h670v-230l-383 -975h383v-229h-678z" />
<glyph unicode="[" horiz-adv-x="565" d="M70 -178v1687h477v-188h-250v-1311h250v-188h-477z" />
<glyph unicode="\" horiz-adv-x="532" d="M41 1513h162l303 -1583h-160z" />
<glyph unicode="]" horiz-adv-x="565" d="M18 10h250v1311h-250v188h478v-1687h-478v188z" />
<glyph unicode="^" horiz-adv-x="888" d="M92 938l260 496h185l258 -496h-197l-154 313l-153 -313h-199z" />
<glyph unicode="_" horiz-adv-x="905" d="M-8 -76h923v-176h-923v176z" />
<glyph unicode="`" horiz-adv-x="1024" d="M305 1458h258l99 -209h-170z" />
<glyph unicode="a" horiz-adv-x="802" d="M49 254v293q0 146 60.5 203t195.5 57h184v90q0 28 -4 44.5t-15 23.5t-20.5 8.5t-29.5 1.5h-299v207q176 6 305 8h13q74 0 127 -10q57 -12 92.5 -32.5t54.5 -58t25.5 -80.5t6.5 -108v-901q-235 -8 -378 -8h-50q-136 0 -202 58t-66 204zM305 295q0 -41 14 -59.5t48 -18.5 h39q79 0 83 2v402h-122q-62 0 -62 -82v-244z" />
<glyph unicode="b" horiz-adv-x="821" d="M57 0v1481h256v-299h197q135 0 194.5 -53.5t59.5 -198.5v-676q0 -146 -65.5 -204t-202.5 -58h-52q-96 0 -193 2t-145 4zM313 217h129q35 0 50.5 19t15.5 59v594q0 76 -66 76h-129v-748z" />
<glyph unicode="c" horiz-adv-x="741" d="M55 281v620q0 82 11.5 131.5t45.5 87.5q34 39 100 55q62 15 159 15h12l322 -8v-207h-322q-38 0 -55 -15.5t-17 -60.5v-616q0 -45 17 -61.5t55 -16.5h322l-3 -205q-229 -8 -319 -8h-22q-89 0 -147 14q-66 16 -100.5 55t-46.5 89.5t-12 130.5z" />
<glyph unicode="d" horiz-adv-x="821" d="M57 254v676q0 75 14.5 124t47.5 77.5t78.5 39.5t113.5 11h197v299h256v-1481q-233 -8 -387 -8h-51q-138 0 -203.5 58t-65.5 204zM311 295q0 -78 68 -78h129v748h-129q-68 0 -68 -76v-594z" />
<glyph unicode="e" horiz-adv-x="808" d="M55 281v620q0 81 12 131t47 88t100 54t169 16h45q103 0 167.5 -16t100 -54t48 -88t12.5 -131v-463l-445 -6v-153q0 -45 17 -60.5t55 -15.5h332v-203q-191 -6 -332 -8h-12q-95 0 -157 15q-66 16 -100.5 54.5t-46.5 89t-12 130.5zM311 645h195v258q0 44 -17 60t-55 16h-51 q-38 0 -55 -16t-17 -60v-258z" />
<glyph unicode="f" horiz-adv-x="518" d="M16 965v217h82v53q0 86 13 136t50 78.5t90 37t148 8.5q24 0 52 -2.5t45 -4.5l16 -3v-203h-113q-45 0 -45 -49v-51h154v-217h-154v-965h-256v965h-82z" />
<glyph unicode="g" horiz-adv-x="821" d="M57 336v579q0 146 72 210.5t209 64.5h41l385 -8v-1141q0 -63 -4.5 -105t-18.5 -77t-36 -54.5t-60 -33t-87 -17.5q-34 -3 -76 -3q-22 0 -46 1q-67 2 -142.5 5.5t-117.5 6.5l-43 3v198h307q39 0 53.5 14.5t14.5 59.5v37h-182q-138 0 -203.5 57t-65.5 203zM311 377 q0 -78 68 -78h129v666h-129q-68 0 -68 -76v-512z" />
<glyph unicode="h" horiz-adv-x="821" d="M57 0v1481h256v-299h201q135 0 191.5 -53t56.5 -199v-930h-256v889q0 76 -66 76h-127v-965h-256z" />
<glyph unicode="i" horiz-adv-x="370" d="M55 1264v198h262v-198h-262zM59 0v1182h254v-1182h-254z" />
<glyph unicode="j" horiz-adv-x="370" d="M-55 -127q6 8 23.5 29.5t22 28t17 24.5t16 26.5t11.5 27t10 33t6 36.5t5 46t1 54v1004h256v-1030q0 -80 -15 -141.5t-48.5 -110.5t-66.5 -81.5t-89 -76.5zM55 1264v198h262v-198h-262z" />
<glyph unicode="k" horiz-adv-x="841" d="M57 0v1481h256v-733h90l142 434h278l-186 -557l197 -625h-279l-149 504h-93v-504h-256z" />
<glyph unicode="l" horiz-adv-x="370" d="M57 0v1481h256v-1481h-256z" />
<glyph unicode="m" horiz-adv-x="1255" d="M57 0v1182q693 8 828 8h45q137 0 202.5 -57.5t65.5 -202.5v-930h-256v889q0 39 -15 57.5t-50 18.5h-121v-965h-256v915q0 36 -5 43t-34 7h-148v-965h-256z" />
<glyph unicode="n" horiz-adv-x="821" d="M57 0v1182q237 8 387 8h50q137 0 202.5 -57.5t65.5 -202.5v-930h-256v889q0 76 -66 76h-127v-965h-256z" />
<glyph unicode="o" horiz-adv-x="817" d="M55 281v620q0 81 12 131t47 88t100 54t169 16h51q104 0 169 -16t100 -54t47 -88t12 -131v-620q0 -64 -7.5 -107t-27.5 -80t-57 -58t-95 -32.5t-141 -11.5h-51q-83 0 -141 11.5t-95 32.5t-57 58t-27.5 80t-7.5 107zM311 283q0 -45 17 -61.5t55 -16.5h51q39 0 55.5 16.5 t16.5 61.5l2 618q0 45 -17 60.5t-55 15.5h-51q-38 0 -55 -15.5t-17 -60.5z" />
<glyph unicode="p" horiz-adv-x="821" d="M57 -252v1434q209 8 387 8h52q135 0 201.5 -63.5t66.5 -211.5v-661q0 -147 -59.5 -202.5t-194.5 -55.5h-51l-146 4v-252h-256zM313 217h129q35 0 50.5 19t15.5 59v594q0 76 -66 76h-129v-748z" />
<glyph unicode="q" horiz-adv-x="821" d="M57 254v661q0 146 72 210.5t209 64.5h41l385 -8v-1434h-256v252q-88 -4 -137 -4h-54q-137 0 -198.5 55.5t-61.5 202.5zM311 295q0 -78 68 -78h129v748h-129q-68 0 -68 -76v-594z" />
<glyph unicode="r" horiz-adv-x="589" d="M57 0v979q0 100 64 155.5t162 55.5h24q36 0 105.5 -3t120.5 -6l51 -3v-199q-172 -19 -211 -21q-39 -3 -49.5 -16t-10.5 -51v-891h-256z" />
<glyph unicode="s" horiz-adv-x="755" d="M39 797v104q0 65 7 108t26.5 80.5t55.5 58.5q38 20 96 32q54 11 130 10h13l301 -8v-207h-301q-39 0 -55.5 -12.5t-16.5 -55.5v-69q0 -15 1 -25t8 -19.5t10 -14t19.5 -13t22.5 -11.5t33 -14l148 -53q63 -24 99 -48.5t58.5 -71t22.5 -117.5v-158q0 -82 -12 -133 t-46.5 -91.5t-100.5 -58.5q-62 -17 -158 -16h-11l-338 6v207h338q37 0 54.5 18.5t17.5 63.5v112q0 14 -1.5 25t-7.5 20t-9.5 14.5t-15.5 12t-16.5 8.5t-22 9.5t-23.5 9.5l-146 59q-33 13 -49 20t-41.5 21.5t-38 29.5t-26.5 38.5t-19.5 55.5t-5.5 73z" />
<glyph unicode="t" horiz-adv-x="536" d="M18 965v217h82v260h256v-260h154v-217h-154v-697q0 -24 9 -36.5t36 -12.5h127v-219l-127 -8q-24 -1 -45 -1q-61 1 -101 7q-54 8 -91 37.5t-50.5 81t-13.5 137.5v711h-82z" />
<glyph unicode="u" horiz-adv-x="817" d="M55 254v928h256v-887q0 -40 15.5 -59t50.5 -19h127v965h256v-1182q-260 -8 -385 -8h-51q-138 0 -203.5 58t-65.5 204z" />
<glyph unicode="v" horiz-adv-x="827" d="M6 1182h268l134 -873h12l131 873h270l-215 -1182h-385z" />
<glyph unicode="w" horiz-adv-x="1196" d="M6 1182h268l88 -863h5l100 863h262l100 -863h2l91 863h270l-162 -1182h-373l-57 573h-6l-55 -573h-371z" />
<glyph unicode="x" horiz-adv-x="800" d="M14 0l185 596l-185 586h269l118 -402l117 402h270l-184 -586l184 -596h-270l-117 418l-118 -418h-269z" />
<glyph unicode="y" horiz-adv-x="829" d="M-4 1182h268l144 -873h6l159 873h246l-268 -1442h-242l51 274h-147z" />
<glyph unicode="z" horiz-adv-x="720" d="M20 0v217l377 741h-362v224h659v-221l-372 -740h376v-221h-678z" />
<glyph unicode="{" horiz-adv-x="524" d="M14 571v136q1 0 13 5t24.5 11.5t29.5 20t29.5 29.5t21.5 41.5t9 55.5v320q0 134 74 217q44 56 160 143l90 -71q-5 -8 -18.5 -28t-22 -33t-18.5 -29.5t-15 -28.5q-22 -50 -22 -170v-320q0 -147 -121 -233q121 -86 121 -229v-330q0 -121 22 -174q8 -17 74 -117l-90 -72 q-104 74 -160 142q-74 87 -74 221v330q0 21 -4.5 40t-11.5 33t-18 27t-20 21t-22.5 16t-20 11.5t-18 9t-12.5 5.5z" />
<glyph unicode="|" horiz-adv-x="475" d="M137 -150v1706h201v-1706h-201z" />
<glyph unicode="}" horiz-adv-x="524" d="M57 -213q66 100 74 117q23 55 23 174v330q0 143 120 229q-120 86 -120 233v320q0 118 -23 170q-6 15 -17 33.5t-33.5 51t-23.5 34.5l90 71q116 -87 160 -143q74 -83 74 -217v-320q0 -30 9 -55.5t21.5 -41.5t29.5 -29.5t29.5 -20t24.5 -11.5t13 -5v-136q-1 0 -12.5 -5.5 t-18 -9t-20 -11.5t-22.5 -16t-20 -21t-18 -27t-11.5 -33t-4.5 -40v-330q0 -134 -74 -221q-56 -68 -160 -142z" />
<glyph unicode="~" horiz-adv-x="819" d="M158 627l2 237h143l215 -76l2 74h139l-2 -237h-141l-215 127l-2 -125h-141z" />
<glyph unicode="&#xa1;" horiz-adv-x="382" d="M66 0v393l61 604h131l64 -604v-393h-256zM78 1141v293h229v-293h-229z" />
<glyph unicode="&#xa2;" horiz-adv-x="741" d="M55 301v621q0 75 10 122.5t38.5 85.5t82.5 56t140 22v140h188v-140l191 -6v-207h-322q-38 0 -55 -15t-17 -60v-617q0 -45 17 -61.5t55 -16.5h322l-3 -205q-98 -4 -188 -6v-149h-188v147q-84 3 -138 22t-83 57.5t-39.5 87t-10.5 122.5z" />
<glyph unicode="&#xa3;" horiz-adv-x="921" d="M16 0v217h95v332h-95v213h95v340q0 103 15.5 166t58 104t110 56t176.5 14l334 -8v-211h-334q-47 0 -68.5 -16.5t-21.5 -73.5v-371h358v-213h-358v-332h510v-217h-875z" />
<glyph unicode="&#xa5;" d="M10 1434h271l159 -576l164 576h270l-241 -721h172v-127h-213l-14 -43v-49h227v-127h-227v-367h-271v367h-231v127h231v49l-14 43h-217v127h174z" />
<glyph unicode="&#xa7;" horiz-adv-x="921" d="M39 645v146q0 119 88 174q-39 67 -39 172v12q0 167 84.5 231t276.5 62l315 -8v-177h-346q-46 0 -66 -14.5t-20 -66.5v-13q0 -16 3.5 -28.5t7 -21.5t15 -16.5t17 -11.5t24 -9t25 -6.5t31 -6t32.5 -6.5l181 -29q114 -15 160.5 -68t48.5 -167v-164q0 -99 -91 -160 q39 -59 39 -174v-12q0 -66 -8.5 -114t-30 -80.5t-47.5 -51.5t-70.5 -29.5t-89.5 -13.5t-114 -2l-336 8v176h356q24 0 34.5 0.5t29 4t27 11.5t15.5 24t7 40v18q0 15 -4 27.5t-9.5 21.5t-17 16.5t-20.5 11.5t-26.5 9t-27.5 7t-32 6l-33 6l-180 31q-116 19 -162.5 71t-46.5 164 zM246 715q0 -14 0.5 -23t3 -17.5t4 -13.5t8.5 -10.5t10 -7.5t15.5 -6t19 -5.5t25.5 -6t30 -7.5l158 -34q23 -5 77 -21t62 -22q11 14 11 45v137q0 25 -4.5 40t-10 25t-24.5 16.5t-34.5 10t-53.5 10.5l-154 33q-109 19 -133 39q-10 -17 -10 -53v-129z" />
<glyph unicode="&#xa8;" horiz-adv-x="1024" d="M297 1262v196h170v-196h-170zM557 1262v196h170v-196h-170z" />
<glyph unicode="&#xa9;" horiz-adv-x="1083" d="M76 291v854q0 149 80.5 219t224.5 70h311q145 0 226 -70t81 -219v-854q0 -151 -81 -221t-226 -70h-311q-143 0 -224 71t-81 220zM113 291q0 -130 69 -194t199 -64h311q271 0 271 258v854q0 258 -271 258h-311q-268 0 -268 -258v-854zM256 440v543q0 79 10.5 127 t39.5 80.5t78.5 45t129.5 11.5l283 -8v-156h-275q-23 0 -35 -2.5t-22 -17.5t-10 -45v-608q0 -42 16 -56t51 -14h275v-158q-185 -6 -283 -6q-80 -1 -129.5 11.5t-78.5 45.5t-39.5 81t-10.5 126z" />
<glyph unicode="&#xaa;" horiz-adv-x="536" d="M59 485v148h418v-148h-418zM63 879v186q0 91 37 123.5t119 32.5h107v43q0 31 -9.5 39t-31.5 8h-174v123q123 8 178 8q63 1 101 -8t58 -32.5t26.5 -53.5t6.5 -80v-541q-105 -2 -211 -2h-30q-84 0 -130.5 34.5t-46.5 119.5zM219 903q0 -24 8 -33.5t29 -9.5h70v248h-70 q-37 0 -37 -55v-150z" />
<glyph unicode="&#xab;" horiz-adv-x="679" d="M16 578v26l199 361h170l-154 -361v-26l154 -361h-170zM301 578v26l170 361h182l-139 -361v-26l139 -361h-182z" />
<glyph unicode="&#xad;" horiz-adv-x="595" d="M35 510v211h526v-211h-526z" />
<glyph unicode="&#xae;" horiz-adv-x="708" d="M76 817v416q0 116 51 158.5t160 42.5h147q109 0 161 -42.5t52 -158.5v-416q0 -117 -52 -160t-161 -43h-147q-109 0 -160 43t-51 160zM100 817q0 -102 44.5 -141t142.5 -39h147q101 0 145 38.5t44 141.5v416q0 104 -45 141t-144 37h-147q-97 0 -142 -37t-45 -141v-416z M211 743v553h160q86 0 114.5 -25t28.5 -102v-75q0 -54 -15 -74t-57 -23q42 -6 57 -27t15 -75v-152h-111v164q0 19 -7.5 32t-20.5 13h-56v-209h-108zM319 1040h56q28 0 28 33v98q0 19 -8 26t-24 7h-52v-164z" />
<glyph unicode="&#xaf;" horiz-adv-x="1024" d="M283 1278v147h458v-147h-458z" />
<glyph unicode="&#xb0;" horiz-adv-x="538" d="M37 930v299q0 62 5.5 96.5t25 64t59 41t106.5 11.5h76q66 0 105.5 -11.5t59 -41t25 -64t5.5 -96.5v-299q0 -61 -5.5 -95.5t-25 -64t-59 -41.5t-105.5 -12h-76q-54 0 -89.5 9t-57 23.5t-32.5 43.5t-14 58.5t-3 78.5zM193 909q0 -34 7.5 -46.5t37.5 -12.5h65 q30 0 38.5 12.5t8.5 46.5v344q0 32 -8.5 44t-38.5 12h-65q-30 0 -37.5 -11.5t-7.5 -44.5v-344z" />
<glyph unicode="&#xb1;" horiz-adv-x="710" d="M35 297v176h641v-176h-641zM35 803v176h231v227h176v-227h234v-176h-234v-232h-176v232h-231z" />
<glyph unicode="&#xb4;" horiz-adv-x="1024" d="M360 1249l101 209h258l-189 -209h-170z" />
<glyph unicode="&#xb6;" horiz-adv-x="907" d="M66 842v383q0 38 10 73.5t31.5 66.5t59 50t87.5 19h590v-1434h-154v1255h-137v-1255h-154v631h-145q-91 0 -139.5 64.5t-48.5 146.5z" />
<glyph unicode="&#xb7;" horiz-adv-x="364" d="M68 549v285h229v-285h-229z" />
<glyph unicode="&#xb8;" horiz-adv-x="1024" d="M354 -250l97 250h143l-51 -250h-189z" />
<glyph unicode="&#xba;" horiz-adv-x="548" d="M61 485v148h428v-148h-428zM61 903v359q0 49 7.5 80t28.5 55t60 34.5t101 10.5h35q62 0 101.5 -10.5t60 -35t27.5 -55t7 -79.5v-359q0 -48 -7 -78.5t-27.5 -54.5t-60 -34.5t-101.5 -10.5h-35q-118 0 -157.5 41t-39.5 137zM217 901q0 -26 10 -35.5t31 -9.5h35 q22 0 31.5 9.5t9.5 35.5v363q0 26 -9.5 34.5t-31.5 8.5h-35q-21 0 -31 -8.5t-10 -34.5v-363z" />
<glyph unicode="&#xbb;" horiz-adv-x="679" d="M27 217l139 361v26l-139 361h184l170 -361v-26l-170 -361h-184zM297 217l152 361v26l-152 361h170l197 -361v-26l-197 -361h-170z" />
<glyph unicode="&#xbf;" horiz-adv-x="751" d="M61 319v119q0 85 33.5 135.5t118.5 118.5q25 21 59 47t46.5 36t29 26t21 27.5t8.5 28.5t4 40v102h205v-182q0 -19 -2.5 -35.5t-11 -32.5t-13 -25.5t-20.5 -26t-21 -21.5t-27.5 -24.5t-27.5 -24.5q-16 -15 -44.5 -40.5t-39 -36t-27.5 -29.5t-23 -32.5t-11 -33.5t-5 -43 v-117q0 -55 21.5 -70.5t71.5 -15.5h301v-209q-141 -8 -299 -8q-99 0 -161 13.5t-106 49.5t-62 99.5t-18 164.5zM371 1141v293h227v-293h-227z" />
<glyph unicode="&#xc0;" horiz-adv-x="874" d="M-12 0l243 1434h416l244 -1434h-268l-45 264h-277l-43 -264h-270zM170 1710h258l98 -209h-170zM326 508h225l-107 704h-12z" />
<glyph unicode="&#xc1;" horiz-adv-x="874" d="M-12 0l243 1434h416l244 -1434h-268l-45 264h-277l-43 -264h-270zM326 508h225l-107 704h-12zM336 1501l100 209h258l-188 -209h-170z" />
<glyph unicode="&#xc2;" horiz-adv-x="874" d="M-12 0l243 1434h416l244 -1434h-268l-45 264h-277l-43 -264h-270zM186 1501l133 209h242l133 -209h-172l-82 101l-82 -101h-172zM326 508h225l-107 704h-12z" />
<glyph unicode="&#xc3;" horiz-adv-x="874" d="M-12 0l243 1434h416l244 -1434h-268l-45 264h-277l-43 -264h-270zM231 1511l2 197h117l178 -63l4 61h117l-4 -197h-117l-178 105l-4 -103h-115zM326 508h225l-107 704h-12z" />
<glyph unicode="&#xc4;" horiz-adv-x="874" d="M-12 0l243 1434h416l244 -1434h-268l-45 264h-277l-43 -264h-270zM221 1513v197h170v-197h-170zM326 508h225l-107 704h-12zM481 1513v197h170v-197h-170z" />
<glyph unicode="&#xc5;" horiz-adv-x="874" d="M-12 0l243 1434h416l244 -1434h-268l-45 264h-277l-43 -264h-270zM274 1620v31q0 82 26.5 110.5t115.5 28.5h45q90 0 116.5 -28.5t26.5 -110.5v-31q0 -81 -26.5 -110t-116.5 -29h-45q-89 0 -115.5 29t-26.5 110zM326 508h225l-107 704h-12zM356 1614q0 -38 11 -49t53 -11 h39q42 0 53.5 11t11.5 49v43q0 38 -11 48.5t-54 10.5h-39q-43 0 -53.5 -10.5t-10.5 -48.5v-43z" />
<glyph unicode="&#xc6;" horiz-adv-x="1329" d="M16 0l453 1434h823v-230h-370v-356h335v-232h-335v-385h370v-231h-641v276h-286l-82 -276h-267zM426 508h225v696h-24z" />
<glyph unicode="&#xc7;" horiz-adv-x="821" d="M55 319v795q0 103 15.5 164.5t59 98.5t109 50t177.5 13l366 -6v-220l-366 3q-47 0 -68.5 -17.5t-21.5 -73.5v-819q0 -55 21.5 -72.5t68.5 -17.5h366v-217q-145 -4 -264 -6l-49 -244h-188l94 244q-98 2 -157.5 17t-97.5 53t-51.5 97.5t-13.5 157.5z" />
<glyph unicode="&#xc8;" horiz-adv-x="741" d="M63 0v1434h642v-230h-373v-356h338v-230h-338v-389h373v-229h-642zM156 1710h258l98 -209h-170z" />
<glyph unicode="&#xc9;" horiz-adv-x="741" d="M63 0v1434h642v-230h-373v-356h338v-230h-338v-389h373v-229h-642zM266 1501l101 209h258l-189 -209h-170z" />
<glyph unicode="&#xca;" horiz-adv-x="741" d="M63 0v1434h642v-230h-373v-356h338v-230h-338v-389h373v-229h-642zM129 1501l133 209h242l133 -209h-172l-82 101l-82 -101h-172z" />
<glyph unicode="&#xcb;" horiz-adv-x="741" d="M63 0v1434h642v-230h-373v-356h338v-230h-338v-389h373v-229h-642zM174 1513v197h170v-197h-170zM434 1513v197h170v-197h-170z" />
<glyph unicode="&#xcc;" horiz-adv-x="395" d="M-53 1710h258l98 -209h-170zM63 0v1434h269v-1434h-269z" />
<glyph unicode="&#xcd;" horiz-adv-x="395" d="M63 0v1434h269v-1434h-269zM92 1501l101 209h258l-189 -209h-170z" />
<glyph unicode="&#xce;" horiz-adv-x="395" d="M-55 1501l133 209h241l134 -209h-172l-82 101l-82 -101h-172zM63 0v1434h269v-1434h-269z" />
<glyph unicode="&#xcf;" horiz-adv-x="395" d="M-16 1513v197h170v-197h-170zM63 0v1434h269v-1434h-269zM244 1513v197h170v-197h-170z" />
<glyph unicode="&#xd0;" horiz-adv-x="903" d="M4 635v188h92v611h404q109 0 174 -13t106.5 -50.5t56.5 -97t15 -159.5v-795q0 -100 -15 -159.5t-56.5 -96.5t-106.5 -50t-174 -13h-404v635h-92zM365 223h135q43 0 63.5 16.5t20.5 67.5v826q0 49 -19.5 63t-64.5 14h-133l-2 -387h100v-188h-100v-412z" />
<glyph unicode="&#xd1;" horiz-adv-x="897" d="M63 0v1434h271l248 -791h2v791h252v-1434h-281l-227 752h-2v-752h-263zM240 1511l2 197h116l179 -63l4 61h116l-4 -197h-116l-179 105l-4 -103h-114z" />
<glyph unicode="&#xd2;" d="M55 319v795q0 103 15.5 164.5t59 99.5t109.5 51t177 13h51q111 0 177 -13t109 -51t58.5 -99.5t15.5 -164.5v-795q0 -103 -15.5 -164t-58.5 -99t-109 -51t-177 -13h-51q-111 0 -177.5 14t-109.5 52t-58.5 99t-15.5 162zM184 1710h258l99 -209h-170zM326 305 q0 -57 22.5 -73.5t71.5 -16.5h45q48 0 71 17t23 73v823q0 56 -23 73.5t-71 17.5h-45q-49 0 -71.5 -17t-22.5 -74v-823z" />
<glyph unicode="&#xd3;" d="M55 319v795q0 103 15.5 164.5t59 99.5t109.5 51t177 13h51q111 0 177 -13t109 -51t58.5 -99.5t15.5 -164.5v-795q0 -103 -15.5 -164t-58.5 -99t-109 -51t-177 -13h-51q-111 0 -177.5 14t-109.5 52t-58.5 99t-15.5 162zM326 305q0 -57 22.5 -73.5t71.5 -16.5h45 q48 0 71 17t23 73v823q0 56 -23 73.5t-71 17.5h-45q-49 0 -71.5 -17t-22.5 -74v-823zM334 1501l100 209h258l-188 -209h-170z" />
<glyph unicode="&#xd4;" d="M55 319v795q0 103 15.5 164.5t59 99.5t109.5 51t177 13h51q111 0 177 -13t109 -51t58.5 -99.5t15.5 -164.5v-795q0 -103 -15.5 -164t-58.5 -99t-109 -51t-177 -13h-51q-111 0 -177.5 14t-109.5 52t-58.5 99t-15.5 162zM190 1501l134 209h241l133 -209h-172l-82 101 l-82 -101h-172zM326 305q0 -57 22.5 -73.5t71.5 -16.5h45q48 0 71 17t23 73v823q0 56 -23 73.5t-71 17.5h-45q-49 0 -71.5 -17t-22.5 -74v-823z" />
<glyph unicode="&#xd5;" d="M55 319v795q0 103 15.5 164.5t59 99.5t109.5 51t177 13h51q111 0 177 -13t109 -51t58.5 -99.5t15.5 -164.5v-795q0 -103 -15.5 -164t-58.5 -99t-109 -51t-177 -13h-51q-111 0 -177.5 14t-109.5 52t-58.5 99t-15.5 162zM236 1511l2 197h116l178 -63l5 61h116l-4 -197h-117 l-178 105l-4 -103h-114zM326 305q0 -57 22.5 -73.5t71.5 -16.5h45q48 0 71 17t23 73v823q0 56 -23 73.5t-71 17.5h-45q-49 0 -71.5 -17t-22.5 -74v-823z" />
<glyph unicode="&#xd6;" d="M55 319v795q0 103 15.5 164.5t59 99.5t109.5 51t177 13h51q111 0 177 -13t109 -51t58.5 -99.5t15.5 -164.5v-795q0 -103 -15.5 -164t-58.5 -99t-109 -51t-177 -13h-51q-111 0 -177.5 14t-109.5 52t-58.5 99t-15.5 162zM229 1513v197h170v-197h-170zM326 305 q0 -57 22.5 -73.5t71.5 -16.5h45q48 0 71 17t23 73v823q0 56 -23 73.5t-71 17.5h-45q-49 0 -71.5 -17t-22.5 -74v-823zM489 1513v197h170v-197h-170z" />
<glyph unicode="&#xd7;" horiz-adv-x="696" d="M47 559l176 174l-170 172l125 125l168 -172l178 176l127 -123l-178 -178l170 -172l-123 -125l-174 172l-176 -176z" />
<glyph unicode="&#xd8;" d="M55 319v795q0 103 15.5 164.5t59 99.5t109.5 51t177 13h51q106 0 180 -15l29 80h143l-53 -141q61 -66 61 -252v-795q0 -103 -15.5 -164t-58.5 -99t-109 -51t-177 -13h-51q-122 0 -187 16l-30 -78h-142l58 140q-60 71 -60 249zM326 524l229 645q-8 30 -30.5 40t-59.5 10 h-45q-49 0 -71.5 -17t-22.5 -74v-604zM332 258q8 -27 28.5 -35t59.5 -8h45q48 0 71 17t23 73v594z" />
<glyph unicode="&#xd9;" d="M55 319v1115h271v-1125q0 -59 16 -76.5t61 -17.5h78q44 0 61 18t17 76v1125h268v-1115q0 -103 -15.5 -164t-58.5 -99t-109 -51t-177 -13h-51q-111 0 -177.5 13t-109.5 51t-58.5 99.5t-15.5 163.5zM211 1710h258l98 -209h-170z" />
<glyph unicode="&#xda;" d="M55 319v1115h271v-1125q0 -59 16 -76.5t61 -17.5h78q44 0 61 18t17 76v1125h268v-1115q0 -103 -15.5 -164t-58.5 -99t-109 -51t-177 -13h-51q-111 0 -177.5 13t-109.5 51t-58.5 99.5t-15.5 163.5zM338 1501l100 209h258l-188 -209h-170z" />
<glyph unicode="&#xdb;" d="M55 319v1115h271v-1125q0 -59 16 -76.5t61 -17.5h78q44 0 61 18t17 76v1125h268v-1115q0 -103 -15.5 -164t-58.5 -99t-109 -51t-177 -13h-51q-111 0 -177.5 13t-109.5 51t-58.5 99.5t-15.5 163.5zM190 1501l134 209h241l133 -209h-172l-82 101l-82 -101h-172z" />
<glyph unicode="&#xdc;" d="M55 319v1115h271v-1125q0 -59 16 -76.5t61 -17.5h78q44 0 61 18t17 76v1125h268v-1115q0 -103 -15.5 -164t-58.5 -99t-109 -51t-177 -13h-51q-111 0 -177.5 13t-109.5 51t-58.5 99.5t-15.5 163.5zM229 1513v197h170v-197h-170zM489 1513v197h170v-197h-170z" />
<glyph unicode="&#xdd;" d="M10 1434h271l159 -576l164 576h270l-296 -891v-543h-271v543zM348 1501l101 209h258l-189 -209h-170z" />
<glyph unicode="&#xde;" horiz-adv-x="833" d="M59 0v1434h269v-230h131q108 0 172.5 -13t105.5 -50t55.5 -95t14.5 -155v-338q0 -98 -14.5 -156t-55.5 -94t-105 -48.5t-173 -12.5h-131v-242h-269zM328 463h131q40 0 59 17t19 65v356q0 48 -19 65t-59 17h-131v-520z" />
<glyph unicode="&#xdf;" horiz-adv-x="897" d="M6 1016v166h103v39q0 100 77 156.5t187 56.5h104q110 0 174.5 -12.5t106.5 -49.5t56.5 -97t14.5 -161v-117q0 -130 -36.5 -181.5t-137.5 -61.5q109 -9 150 -60t41 -188v-187q0 -77 -5.5 -128t-24 -87.5t-40.5 -56t-67.5 -31t-91 -14t-125.5 -2.5h-74v203h88q42 0 63 18 t21 70v264q0 50 -22.5 69t-63.5 19h-86v209h71q42 0 63 18t21 70v203q0 51 -20 66.5t-64 15.5h-49q-44 0 -64 -15.5t-20 -66.5v-1143h-256v995z" />
<glyph unicode="&#xe0;" horiz-adv-x="802" d="M49 254v293q0 146 60.5 203t195.5 57h184v90q0 28 -4 44.5t-15 23.5t-20.5 8.5t-29.5 1.5h-299v207q176 6 305 8q83 1 140 -10.5t92.5 -32t54.5 -58t25.5 -80.5t6.5 -108v-901q-235 -8 -378 -8h-50q-136 0 -202 58t-66 204zM184 1458h258l99 -209h-170zM305 295 q0 -41 14 -59.5t48 -18.5h39q79 0 83 2v402h-122q-62 0 -62 -82v-244z" />
<glyph unicode="&#xe1;" horiz-adv-x="802" d="M49 254v293q0 146 60.5 203t195.5 57h184v90q0 28 -4 44.5t-15 23.5t-20.5 8.5t-29.5 1.5h-299v207q176 6 305 8q83 1 140 -10.5t92.5 -32t54.5 -58t25.5 -80.5t6.5 -108v-901q-235 -8 -378 -8h-50q-136 0 -202 58t-66 204zM301 1249l100 209h258l-188 -209h-170z M305 295q0 -41 14 -59.5t48 -18.5h39q79 0 83 2v402h-122q-62 0 -62 -82v-244z" />
<glyph unicode="&#xe2;" horiz-adv-x="802" d="M49 254v293q0 146 60.5 203t195.5 57h184v90q0 28 -4 44.5t-15 23.5t-20.5 8.5t-29.5 1.5h-299v207q176 6 305 8q83 1 140 -10.5t92.5 -32t54.5 -58t25.5 -80.5t6.5 -108v-901q-235 -8 -378 -8h-50q-136 0 -202 58t-66 204zM156 1249l133 209h241l134 -209h-172l-82 101 l-82 -101h-172zM305 295q0 -41 14 -59.5t48 -18.5h39q79 0 83 2v402h-122q-62 0 -62 -82v-244z" />
<glyph unicode="&#xe3;" horiz-adv-x="802" d="M49 254v293q0 146 60.5 203t195.5 57h184v90q0 28 -4 44.5t-15 23.5t-20.5 8.5t-29.5 1.5h-299v207q176 6 305 8q83 1 140 -10.5t92.5 -32t54.5 -58t25.5 -80.5t6.5 -108v-901q-235 -8 -378 -8h-50q-136 0 -202 58t-66 204zM201 1260l2 196h116l179 -63l4 61h116l-4 -197 h-116l-179 105l-4 -102h-114zM305 295q0 -41 14 -59.5t48 -18.5h39q79 0 83 2v402h-122q-62 0 -62 -82v-244z" />
<glyph unicode="&#xe4;" horiz-adv-x="802" d="M49 254v293q0 146 60.5 203t195.5 57h184v90q0 28 -4 44.5t-15 23.5t-20.5 8.5t-29.5 1.5h-299v207q176 6 305 8q83 1 140 -10.5t92.5 -32t54.5 -58t25.5 -80.5t6.5 -108v-901q-235 -8 -378 -8h-50q-136 0 -202 58t-66 204zM188 1262v196h170v-196h-170zM305 295 q0 -41 14 -59.5t48 -18.5h39q79 0 83 2v402h-122q-62 0 -62 -82v-244zM449 1262v196h169v-196h-169z" />
<glyph unicode="&#xe5;" horiz-adv-x="802" d="M49 254v293q0 146 60.5 203t195.5 57h184v90q0 28 -4 44.5t-15 23.5t-20.5 8.5t-29.5 1.5h-299v207q176 6 305 8q83 1 140 -10.5t92.5 -32t54.5 -58t25.5 -80.5t6.5 -108v-901q-235 -8 -378 -8h-50q-136 0 -202 58t-66 204zM233 1376v31q0 82 26.5 110.5t115.5 28.5h45 q90 0 116.5 -28.5t26.5 -110.5v-31q0 -81 -26.5 -110t-116.5 -29h-45q-89 0 -115.5 29t-26.5 110zM305 295q0 -41 14 -59.5t48 -18.5h39q79 0 83 2v402h-122q-62 0 -62 -82v-244zM315 1370q0 -38 11 -48.5t53 -10.5h39q42 0 53.5 11t11.5 48v43q0 38 -11 49t-54 11h-39 q-43 0 -53.5 -11t-10.5 -49v-43z" />
<glyph unicode="&#xe6;" horiz-adv-x="1257" d="M49 254v266q0 146 60.5 203t195.5 57h199v125q-1 43 -17.5 57.5t-48.5 14.5h-317v205q227 8 317 8q142 0 195 -53q55 53 198 53h43q104 0 169 -16t100 -54t47 -88t12 -131v-442l-444 -6v-179q0 -45 17 -60t56 -15h316v-199q-207 -8 -316 -8q-125 -2 -184 13.5t-88 66.5 q-93 -80 -192 -80h-50q-136 0 -202 58t-66 204zM305 295q0 -40 16 -59t52 -19h33q11 0 22 3t22.5 8.5t19 10t19.5 12t15 9.5v330h-131q-35 0 -51.5 -26t-16.5 -68v-201zM758 655h196v252q0 45 -17 61.5t-56 16.5h-50q-36 0 -54.5 -14t-18.5 -51v-265z" />
<glyph unicode="&#xe7;" horiz-adv-x="741" d="M55 281v620q0 82 11.5 131.5t46 88t100 54.5t170.5 15l322 -8v-207h-322q-38 0 -55 -15.5t-17 -60.5v-616q0 -45 17 -61.5t55 -16.5h322l-3 -205q-125 -4 -227 -6l-49 -244h-188l92 242q-85 3 -140 21.5t-84.5 57t-40 87t-10.5 123.5z" />
<glyph unicode="&#xe8;" horiz-adv-x="808" d="M55 281v620q0 81 12 131t47 88t100 54t169 16h45q103 0 167.5 -16t100 -54t48 -88t12.5 -131v-463l-445 -6v-153q0 -45 17 -60.5t55 -15.5h332v-203q-191 -6 -332 -8q-103 -1 -168.5 15t-100.5 54.5t-47 89t-12 130.5zM154 1458h258l98 -209h-170zM311 645h195v258 q0 44 -17 60t-55 16h-51q-38 0 -55 -16t-17 -60v-258z" />
<glyph unicode="&#xe9;" horiz-adv-x="808" d="M55 281v620q0 81 12 131t47 88t100 54t169 16h45q103 0 167.5 -16t100 -54t48 -88t12.5 -131v-463l-445 -6v-153q0 -45 17 -60.5t55 -15.5h332v-203q-191 -6 -332 -8q-103 -1 -168.5 15t-100.5 54.5t-47 89t-12 130.5zM303 1249l100 209h259l-189 -209h-170zM311 645h195 v258q0 44 -17 60t-55 16h-51q-38 0 -55 -16t-17 -60v-258z" />
<glyph unicode="&#xea;" horiz-adv-x="808" d="M55 281v620q0 81 12 131t47 88t100 54t169 16h45q103 0 167.5 -16t100 -54t48 -88t12.5 -131v-463l-445 -6v-153q0 -45 17 -60.5t55 -15.5h332v-203q-191 -6 -332 -8q-103 -1 -168.5 15t-100.5 54.5t-47 89t-12 130.5zM154 1249l133 209h241l134 -209h-173l-81 101 l-82 -101h-172zM311 645h195v258q0 44 -17 60t-55 16h-51q-38 0 -55 -16t-17 -60v-258z" />
<glyph unicode="&#xeb;" horiz-adv-x="808" d="M55 281v620q0 81 12 131t47 88t100 54t169 16h45q103 0 167.5 -16t100 -54t48 -88t12.5 -131v-463l-445 -6v-153q0 -45 17 -60.5t55 -15.5h332v-203q-191 -6 -332 -8q-103 -1 -168.5 15t-100.5 54.5t-47 89t-12 130.5zM193 1262v196h169v-196h-169zM311 645h195v258 q0 44 -17 60t-55 16h-51q-38 0 -55 -16t-17 -60v-258zM453 1262v196h170v-196h-170z" />
<glyph unicode="&#xec;" horiz-adv-x="370" d="M-80 1458h258l98 -209h-170zM59 0v1182h254v-1182h-254z" />
<glyph unicode="&#xed;" horiz-adv-x="370" d="M59 0v1182h254v-1182h-254zM96 1249l101 209h258l-189 -209h-170z" />
<glyph unicode="&#xee;" horiz-adv-x="370" d="M-66 1249l134 209h241l133 -209h-172l-82 101l-82 -101h-172zM59 0v1182h254v-1182h-254z" />
<glyph unicode="&#xef;" horiz-adv-x="370" d="M-27 1262v196h170v-196h-170zM59 0v1182h254v-1182h-254zM233 1262v196h170v-196h-170z" />
<glyph unicode="&#xf0;" horiz-adv-x="817" d="M55 276v639q0 149 58 212t190 63q176 -6 203 -8v12q0 82 -10 100l-134 -51l-43 100l138 54q-25 36 -97 108l170 58q82 -56 115 -88l125 47l43 -101l-100 -39q49 -74 49 -180v-926q0 -80 -12 -129t-47 -86.5t-100 -53t-169 -15.5h-51q-104 0 -169 15.5t-100 53t-47 86.5 t-12 129zM311 281q0 -44 17 -60t55 -16h51q39 0 55.5 16t16.5 60v684h-127q-36 0 -52 -18.5t-16 -57.5v-608z" />
<glyph unicode="&#xf1;" horiz-adv-x="821" d="M57 0v1182q237 8 387 8h50q137 0 202.5 -57.5t65.5 -202.5v-930h-256v889q0 76 -66 76h-127v-965h-256zM201 1260l2 196h116l179 -63l4 61h116l-4 -197h-116l-179 105l-4 -102h-114z" />
<glyph unicode="&#xf2;" horiz-adv-x="817" d="M55 281v620q0 81 12 131t47 88t100 54t169 16h51q104 0 169 -16t100 -54t47 -88t12 -131v-620q0 -64 -7.5 -107t-27.5 -80t-57 -58t-95 -32.5t-141 -11.5h-51q-83 0 -141 11.5t-95 32.5t-57 58t-27.5 80t-7.5 107zM170 1458h258l98 -209h-170zM311 283q0 -45 17 -61.5 t55 -16.5h51q39 0 55.5 16.5t16.5 61.5l2 618q0 45 -17 60.5t-55 15.5h-51q-38 0 -55 -15.5t-17 -60.5z" />
<glyph unicode="&#xf3;" horiz-adv-x="817" d="M55 281v620q0 81 12 131t47 88t100 54t169 16h51q104 0 169 -16t100 -54t47 -88t12 -131v-620q0 -64 -7.5 -107t-27.5 -80t-57 -58t-95 -32.5t-141 -11.5h-51q-83 0 -141 11.5t-95 32.5t-57 58t-27.5 80t-7.5 107zM309 1249l101 209h258l-189 -209h-170zM311 283 q0 -45 17 -61.5t55 -16.5h51q39 0 55.5 16.5t16.5 61.5l2 618q0 45 -17 60.5t-55 15.5h-51q-38 0 -55 -15.5t-17 -60.5z" />
<glyph unicode="&#xf4;" horiz-adv-x="817" d="M55 281v620q0 81 12 131t47 88t100 54t169 16h51q104 0 169 -16t100 -54t47 -88t12 -131v-620q0 -64 -7.5 -107t-27.5 -80t-57 -58t-95 -32.5t-141 -11.5h-51q-83 0 -141 11.5t-95 32.5t-57 58t-27.5 80t-7.5 107zM158 1249l133 209h241l134 -209h-172l-82 101l-82 -101 h-172zM311 283q0 -45 17 -61.5t55 -16.5h51q39 0 55.5 16.5t16.5 61.5l2 618q0 45 -17 60.5t-55 15.5h-51q-38 0 -55 -15.5t-17 -60.5z" />
<glyph unicode="&#xf5;" horiz-adv-x="817" d="M55 281v620q0 81 12 131t47 88t100 54t169 16h51q104 0 169 -16t100 -54t47 -88t12 -131v-620q0 -64 -7.5 -107t-27.5 -80t-57 -58t-95 -32.5t-141 -11.5h-51q-83 0 -141 11.5t-95 32.5t-57 58t-27.5 80t-7.5 107zM203 1260l2 196h117l178 -63l4 61h117l-5 -197h-116 l-178 105l-5 -102h-114zM311 283q0 -45 17 -61.5t55 -16.5h51q39 0 55.5 16.5t16.5 61.5l2 618q0 45 -17 60.5t-55 15.5h-51q-38 0 -55 -15.5t-17 -60.5z" />
<glyph unicode="&#xf6;" horiz-adv-x="817" d="M55 281v620q0 81 12 131t47 88t100 54t169 16h51q104 0 169 -16t100 -54t47 -88t12 -131v-620q0 -64 -7.5 -107t-27.5 -80t-57 -58t-95 -32.5t-141 -11.5h-51q-83 0 -141 11.5t-95 32.5t-57 58t-27.5 80t-7.5 107zM197 1262v196h170v-196h-170zM311 283q0 -45 17 -61.5 t55 -16.5h51q39 0 55.5 16.5t16.5 61.5l2 618q0 45 -17 60.5t-55 15.5h-51q-38 0 -55 -15.5t-17 -60.5zM457 1262v196h170v-196h-170z" />
<glyph unicode="&#xf7;" horiz-adv-x="698" d="M35 647v176h641v-176h-641zM274 367v190h170v-190h-170zM274 911v191h170v-191h-170z" />
<glyph unicode="&#xf8;" horiz-adv-x="817" d="M51 -59l60 122q-56 58 -56 218v620q0 81 12 131t47 88t100 54t169 16h51q74 0 139 -10l35 84h131l-59 -125q47 -33 64.5 -90t17.5 -148v-620q0 -64 -7.5 -107t-27.5 -80t-57 -58t-95 -32.5t-141 -11.5h-51q-99 0 -168 16l-35 -67h-129zM311 258q4 -31 21.5 -42t50.5 -11 h51q39 0 55.5 16.5t16.5 61.5l2 495zM311 487l181 474q-16 16 -56 16h-51q-38 0 -55 -15.5t-17 -60.5z" />
<glyph unicode="&#xf9;" horiz-adv-x="817" d="M55 254v928h256v-887q0 -40 15.5 -59t50.5 -19h127v965h256v-1182q-260 -8 -385 -8h-51q-138 0 -203.5 58t-65.5 204zM170 1458h258l98 -209h-170z" />
<glyph unicode="&#xfa;" horiz-adv-x="817" d="M55 254v928h256v-887q0 -40 15.5 -59t50.5 -19h127v965h256v-1182q-260 -8 -385 -8h-51q-138 0 -203.5 58t-65.5 204zM301 1249l100 209h258l-188 -209h-170z" />
<glyph unicode="&#xfb;" horiz-adv-x="817" d="M55 254v928h256v-887q0 -40 15.5 -59t50.5 -19h127v965h256v-1182q-260 -8 -385 -8h-51q-138 0 -203.5 58t-65.5 204zM156 1249l133 209h241l134 -209h-172l-82 101l-82 -101h-172z" />
<glyph unicode="&#xfc;" horiz-adv-x="817" d="M55 254v928h256v-887q0 -40 15.5 -59t50.5 -19h127v965h256v-1182q-260 -8 -385 -8h-51q-138 0 -203.5 58t-65.5 204zM197 1262v196h170v-196h-170zM457 1262v196h170v-196h-170z" />
<glyph unicode="&#xfd;" horiz-adv-x="829" d="M-4 1182h268l144 -873h6l159 873h246l-268 -1442h-242l51 274h-147zM319 1249l101 209h258l-189 -209h-170z" />
<glyph unicode="&#xfe;" horiz-adv-x="821" d="M57 -252v1688h256v-254h217q128 0 181 -63.5t53 -215.5v-608q0 -156 -53.5 -227.5t-180.5 -71.5h-51l-166 4v-252h-256zM313 217h129q35 0 50.5 19t15.5 59v594q0 76 -66 76h-129v-748z" />
<glyph unicode="&#xff;" horiz-adv-x="829" d="M-4 1182h268l144 -873h6l159 873h246l-268 -1442h-242l51 274h-147zM197 1262v196h170v-196h-170zM457 1262v196h170v-196h-170z" />
<glyph unicode="&#x152;" horiz-adv-x="1230" d="M55 340v754q0 137 31.5 208t107.5 101.5t222 30.5h782v-230h-371v-356h338v-230h-338v-389h371v-229h-782q-109 0 -177 16t-110 56.5t-58 103.5t-16 164zM326 311q0 -56 22.5 -75t67.5 -19h141v1002h-141q-45 0 -67.5 -20t-22.5 -77v-811z" />
<glyph unicode="&#x153;" horiz-adv-x="1261" d="M55 281v620q0 81 12 131t47 88t100 54t169 16h51q128 0 199 -27q73 27 201 27h45q103 0 167.5 -16t99.5 -54t47.5 -88t12.5 -131v-463l-444 -6v-151v-17q1 -36 18 -48.5t54 -12.5h331v-203q-190 -6 -331 -8q-130 0 -203 24q-71 -24 -197 -24h-51q-83 0 -141 11.5 t-95 32.5t-57 58t-27.5 80t-7.5 107zM311 283q0 -45 17 -61.5t55 -16.5h51q36 0 52.5 13t19.5 50v13v2v618v29q-6 28 -22 37.5t-48 9.5h-51q-38 0 -55 -15.5t-17 -60.5zM762 645h194v258q0 44 -17 60t-54 16h-51q-36 0 -53.5 -14t-18.5 -50v-14v-256z" />
<glyph unicode="&#x178;" d="M10 1434h271l159 -576l164 576h270l-296 -891v-543h-271v543zM229 1513v197h170v-197h-170zM489 1513v197h170v-197h-170z" />
<glyph unicode="&#x2c6;" horiz-adv-x="1024" d="M258 1249l133 209h242l133 -209h-172l-82 101l-82 -101h-172z" />
<glyph unicode="&#x2dc;" horiz-adv-x="1024" d="M299 1260l2 196h117l178 -63l4 61h117l-4 -197h-117l-178 105l-4 -102h-115z" />
<glyph unicode="&#x2000;" horiz-adv-x="895" />
<glyph unicode="&#x2001;" horiz-adv-x="1790" />
<glyph unicode="&#x2002;" horiz-adv-x="895" />
<glyph unicode="&#x2003;" horiz-adv-x="1790" />
<glyph unicode="&#x2004;" horiz-adv-x="596" />
<glyph unicode="&#x2005;" horiz-adv-x="447" />
<glyph unicode="&#x2006;" horiz-adv-x="298" />
<glyph unicode="&#x2007;" horiz-adv-x="298" />
<glyph unicode="&#x2008;" horiz-adv-x="223" />
<glyph unicode="&#x2009;" horiz-adv-x="358" />
<glyph unicode="&#x200a;" horiz-adv-x="99" />
<glyph unicode="&#x2010;" horiz-adv-x="595" d="M35 510v211h526v-211h-526z" />
<glyph unicode="&#x2011;" horiz-adv-x="595" d="M35 510v211h526v-211h-526z" />
<glyph unicode="&#x2012;" horiz-adv-x="595" d="M35 510v211h526v-211h-526z" />
<glyph unicode="&#x2013;" horiz-adv-x="817" d="M27 524v183h764v-183h-764z" />
<glyph unicode="&#x2014;" horiz-adv-x="1179" d="M27 524v183h1126v-183h-1126z" />
<glyph unicode="&#x2018;" horiz-adv-x="354" d="M59 899v229q0 89 28 152.5t101 159.5l88 -51q-52 -104 -58 -127q-7 -26 -7 -78h80v-285h-232z" />
<glyph unicode="&#x2019;" horiz-adv-x="354" d="M61 1149v285h232v-230q0 -89 -28 -151.5t-101 -159.5l-88 51q52 104 58 127q7 26 7 78h-80z" />
<glyph unicode="&#x201a;" horiz-adv-x="354" d="M61 0v285h232v-230q0 -89 -28 -151.5t-101 -159.5l-88 51q52 104 58 127q7 26 7 78h-80z" />
<glyph unicode="&#x201c;" horiz-adv-x="649" d="M59 899v229q0 89 28 152.5t101 159.5l88 -51q-52 -104 -58 -127q-7 -26 -7 -78h80v-285h-232zM352 899v229q0 89 28 152.5t101 159.5l88 -51q-52 -104 -58 -127q-7 -26 -7 -78h80v-285h-232z" />
<glyph unicode="&#x201d;" horiz-adv-x="649" d="M61 1149v285h232v-230q0 -89 -28 -151.5t-101 -159.5l-88 51q52 104 58 127q7 26 7 78h-80zM354 1149v285h232v-230q0 -89 -28 -151.5t-101 -159.5l-88 51q52 104 58 127q7 26 7 78h-80z" />
<glyph unicode="&#x201e;" horiz-adv-x="649" d="M61 0v285h232v-230q0 -89 -28 -151.5t-101 -159.5l-88 51q52 104 58 127q7 26 7 78h-80zM354 0v285h232v-230q0 -89 -28 -151.5t-101 -159.5l-88 51q52 104 58 127q7 26 7 78h-80z" />
<glyph unicode="&#x2022;" horiz-adv-x="575" d="M84 637v172q0 59 4.5 88t22.5 53t53.5 31.5t99.5 7.5h49q42 0 70 -3.5t48 -13t31.5 -21t17.5 -34.5t7.5 -46t1.5 -62v-172q0 -57 -4.5 -86t-22 -52.5t-52.5 -31.5t-97 -8h-49q-43 0 -72 3.5t-49.5 13t-31.5 21t-17.5 34.5t-8 45.5t-1.5 60.5z" />
<glyph unicode="&#x2026;" horiz-adv-x="1062" d="M61 0v285h232v-285h-232zM416 0v285h231v-285h-231zM770 0v285h231v-285h-231z" />
<glyph unicode="&#x202f;" horiz-adv-x="358" />
<glyph unicode="&#x2039;" horiz-adv-x="411" d="M16 578v26l199 361h170l-154 -361v-26l154 -361h-170z" />
<glyph unicode="&#x203a;" horiz-adv-x="411" d="M25 217l153 361v26l-153 361h170l198 -361v-26l-198 -361h-170z" />
<glyph unicode="&#x205f;" horiz-adv-x="447" />
<glyph unicode="&#x20ac;" horiz-adv-x="854" d="M16 555v141h84v70h-84v141h84v207q0 200 73 265t288 63l346 -8v-209h-346q-47 0 -69.5 -20.5t-22.5 -76.5v-221h385v-141h-385v-70h385v-141h-385v-250q0 -56 22.5 -76t69.5 -20h340v-209q-221 -8 -340 -8q-111 -2 -177.5 11.5t-109.5 51.5t-58.5 99.5t-15.5 164.5v236 h-84z" />
<glyph unicode="&#x2122;" horiz-adv-x="1015" d="M16 1317v117h390v-117h-127v-600h-136v600h-127zM436 717v717h187l75 -433h2l74 433h189v-717h-132l9 467h-6l-80 -467h-109l-80 467h-4l6 -467h-131z" />
<glyph unicode="&#xe000;" horiz-adv-x="1177" d="M0 0v1178h1178v-1178h-1178z" />
</font>
</defs>
</svg>
