<?xml version="1.0" standalone="no"?>
<!DOCTYPE svg PUBLIC "-//W3C//DTD SVG 1.1//EN" "http://www.w3.org/Graphics/SVG/1.1/DTD/svg11.dtd" >
<svg xmlns="http://www.w3.org/2000/svg">
<metadata></metadata>
<defs>
<font id="rbno2.1bbolditalic" horiz-adv-x="884" >
<font-face units-per-em="2048" ascent="1638" descent="-410" />
<missing-glyph horiz-adv-x="286" />
<glyph unicode="&#xfb01;" horiz-adv-x="888" d="M37 0l135 965h-82l31 217h82l8 59q10 70 25.5 115t38.5 75t63 45.5t87.5 21t123.5 5.5h174l-31 -221h-174q-26 0 -36.5 -13t-14.5 -36l-8 -51h477l-166 -1182h-256l135 965h-221l-135 -965h-256z" />
<glyph unicode="&#xfb02;" horiz-adv-x="888" d="M37 0l135 965h-82l31 217h82l8 59q10 70 25.5 115t38.5 75t63 45.5t87.5 21t123.5 5.5h432l-211 -1503h-256l182 1296h-176q-27 0 -38 -13.5t-15 -37.5l-8 -63h127l-31 -217h-127l-135 -965h-256z" />
<glyph horiz-adv-x="2048" />
<glyph horiz-adv-x="2048" />
<glyph unicode="&#xd;" horiz-adv-x="2048" />
<glyph unicode=" "  horiz-adv-x="286" />
<glyph unicode="&#x09;" horiz-adv-x="286" />
<glyph unicode="&#xa0;" horiz-adv-x="286" />
<glyph unicode="!" horiz-adv-x="405" d="M27 0l41 293h229l-41 -293h-229zM137 436l23 604l55 394h256l-55 -394l-148 -604h-131z" />
<glyph unicode="&#x22;" horiz-adv-x="665" d="M127 840l78 594h227l-33 -230l-114 -364h-158zM436 840l78 594h227l-32 -230l-115 -364h-158z" />
<glyph unicode="#" horiz-adv-x="1216" d="M18 301l56 186h162l126 426h-155l57 189h156l102 332h199l-100 -332h258l100 332h203l-103 -332h193l-58 -189h-194l-127 -426h190l-57 -186h-192l-93 -301h-198l90 301h-258l-90 -301h-199l90 301h-158zM434 487h258l127 426h-258z" />
<glyph unicode="$" horiz-adv-x="854" d="M-2 0l31 223h387q48 0 71.5 15.5t30.5 70.5l23 160q2 15 2.5 27t-2 21.5t-4.5 16.5t-8.5 13.5t-11.5 11t-15.5 10t-17.5 8.5t-21.5 9.5t-24.5 11.5l-137 51q-27 11 -39.5 16.5t-35 16t-33 18.5t-26.5 21.5t-23 27t-16 33t-11 41.5t-2 50t4 61l24 180q26 185 96 252.5 t244 73.5l21 143h188l-20 -143l225 -6l-31 -224h-348q-49 0 -72.5 -15.5t-31.5 -70.5l-15 -100q-3 -22 -2.5 -38t1.5 -28t10.5 -23t15 -17.5t25 -16t30.5 -14.5t41 -17l129 -47q25 -9 38.5 -14.5t34 -14.5t31.5 -17t26 -20.5t22 -26t14.5 -32.5t9.5 -41t1.5 -50.5 t-5.5 -61.5l-30 -226q-25 -179 -93 -248.5t-229 -76.5l-25 -166h-188l25 166z" />
<glyph unicode="%" horiz-adv-x="1329" d="M117 825l57 410q16 110 67 157.5t167 47.5h69q118 0 155 -47.5t21 -157.5l-57 -410q-16 -112 -66.5 -160.5t-167.5 -48.5h-69q-116 0 -154 49t-22 160zM256 0l731 1434h160l-731 -1434h-160zM274 805q-4 -33 6 -45t37 -12h54q28 0 42.5 12.5t18.5 44.5l64 448 q4 33 -7 45.5t-38 12.5h-54q-27 0 -41 -12.5t-18 -45.5zM756 201l57 409q16 110 66.5 157.5t167.5 47.5h69q116 0 154 -47.5t22 -157.5l-57 -409q-16 -111 -67 -160t-167 -49h-69q-117 0 -154.5 48.5t-21.5 160.5zM913 182q-4 -32 6.5 -44.5t38.5 -12.5h54q27 0 41 12t18 45 l62 447q4 34 -6 46.5t-37 12.5h-54q-28 0 -42.5 -12.5t-18.5 -46.5z" />
<glyph unicode="&#x26;" horiz-adv-x="1007" d="M36.5 219.5q2.5 42.5 10.5 99.5l25 181q19 137 72.5 189.5t154.5 58.5q-78 11 -104 64.5t-11 178.5l11 84q13 100 36 159.5t70.5 96.5t114.5 49.5t178 12.5h213l-31 -224h-213q-42 0 -65.5 -18.5t-30.5 -69.5l-21 -145q-7 -51 10 -70.5t56 -19.5h532l-24 -174l-189 -35 l-88 -637h-387q-59 0 -96.5 1.5t-76.5 6.5t-60.5 14t-42 25.5t-28.5 39t-13 56.5t-2.5 76.5zM311 299q-7 -50 11 -66t63 -16h127l59 412h-125q-43 0 -68 -18.5t-32 -69.5z" />
<glyph unicode="'" horiz-adv-x="354" d="M127 840l78 594h227l-33 -230l-114 -364h-158z" />
<glyph unicode="(" horiz-adv-x="446" d="M12 78l156 1112q19 129 104 217q73 73 181 143l84 -86q-10 -12 -32.5 -37t-39.5 -45t-25 -34q-18 -32 -27 -63t-18 -95l-155 -1112q-9 -66 -9 -97.5t9 -62.5q6 -20 33.5 -67.5t29.5 -51.5l-108 -84q-93 69 -142 142q-60 85 -41 221z" />
<glyph unicode=")" horiz-adv-x="446" d="M-39 -201q6 8 45.5 54t50.5 65q18 30 27 61.5t18 98.5l156 1112q9 63 9 94.5t-9 63.5q-4 14 -14.5 33t-27.5 47.5t-21 35.5l108 86q38 -30 77.5 -69.5t63.5 -73.5q60 -85 41 -217l-155 -1112q-18 -131 -105 -221q-73 -77 -180 -142z" />
<glyph unicode="*" horiz-adv-x="710" d="M109 975l108 61l172 49l17 -41l-138 -122l-110 -62zM141 1212l82 117l94 -63l103 -123l-29 -43l-158 51zM334 754l16 118l66 166h47l20 -166l-16 -118h-133zM412 1315l16 119h133l-16 -119l-66 -166h-47zM477 1044l31 41l154 -49l94 -61l-84 -115l-94 62zM492 1143 l135 123l110 63l51 -117l-110 -61l-168 -51z" />
<glyph unicode="+" horiz-adv-x="710" d="M63 647l25 176h231l33 228h176l-32 -228h233l-24 -176h-234l-33 -231h-176l33 231h-232z" />
<glyph unicode="," horiz-adv-x="354" d="M-14 -205q66 104 76 128q10 25 18 77h-80l41 285h231l-32 -230q-13 -89 -50 -151t-124 -160z" />
<glyph unicode="-" horiz-adv-x="595" d="M45 510l29 211h526l-29 -211h-526z" />
<glyph unicode="." horiz-adv-x="380" d="M14 0l41 285h230l-41 -285h-230z" />
<glyph unicode="/" horiz-adv-x="532" d="M-43 -70l524 1583h162l-526 -1583h-160z" />
<glyph unicode="0" d="M32 197q-5 58 9 137l109 768q19 137 60 208t121 101.5t226 30.5h51q88 0 145.5 -10t98.5 -33t57.5 -62t21.5 -97.5t-9 -137.5l-109 -768q-19 -137 -60 -208.5t-121.5 -102.5t-225.5 -31h-52q-87 0 -145.5 10t-98.5 34t-56.5 63.5t-21.5 97.5zM307 305q-7 -57 12 -73.5 t66 -16.5h51q49 0 73 16.5t32 73.5l116 823q7 57 -12 74t-67 17h-52q-47 0 -70.5 -17t-31.5 -74z" />
<glyph unicode="1" horiz-adv-x="735" d="M0 0l31 217h200l134 954l-232 -51l-29 174l330 140h230l-170 -1217h200l-30 -217h-664z" />
<glyph unicode="2" horiz-adv-x="790" d="M-18 0l51 360q14 98 56 164t112 123l225 191q80 59 114.5 112t45.5 127l6 43q8 55 -10.5 70.5t-67.5 15.5h-334l31 228q295 8 371 8q124 1 186.5 -33.5t76.5 -107.5t-3 -187l-11 -72q-16 -116 -63.5 -189.5t-136.5 -143.5l-182 -142q-8 -7 -40 -33.5t-38.5 -32.5 t-27.5 -27t-27 -33t-14 -32t-11 -42l-21 -150h451l-31 -217h-708z" />
<glyph unicode="3" horiz-adv-x="749" d="M-37 0l31 215h338q47 0 71 17.5t31 72.5l33 236q7 47 -7.5 64.5t-49.5 17.5h-232l31 219h231q35 0 54 16.5t26 63.5l29 196q7 55 -12 71.5t-66 16.5h-326l31 228q285 8 348 8q64 1 110 -4t83.5 -19t57.5 -38t34 -61t11.5 -88t-9.5 -118l-18 -131q-19 -128 -60 -180.5 t-129 -63.5q87 -9 113 -58t8 -181l-25 -181q-9 -65 -24 -115t-33 -84.5t-45 -58.5t-53.5 -38t-66 -21.5t-74 -9.5t-85.5 -2z" />
<glyph unicode="4" horiz-adv-x="956" d="M-18 297l26 188l486 949h397l-131 -934h182l-29 -203h-182l-41 -297h-262l41 297h-487zM281 500h217l100 712h-2z" />
<glyph unicode="5" horiz-adv-x="790" d="M-18 0l30 217h363h11q23 0 34 1t24.5 7.5t20.5 22.5t10 43l43 311q7 48 -8.5 65t-54.5 17h-365l117 750h647l-31 -230h-407l-43 -301h159q46 0 77 -1.5t62 -7t49.5 -15t35.5 -25.5t24 -38.5t11 -55t1.5 -73.5t-10.5 -95l-39 -273q-8 -59 -17.5 -102.5t-24 -78t-29.5 -58 t-41 -40t-50.5 -26t-65.5 -14.5t-79.5 -6.5t-99.5 -1.5z" />
<glyph unicode="6" horiz-adv-x="811" d="M14.5 170q-6.5 62 5.5 149l111 781q15 105 39.5 168.5t72 104t116.5 55t180 14.5l301 -8l-31 -230h-317q-47 0 -69.5 -16.5t-29.5 -71.5l-33 -235q42 26 113 26h62q67 0 108 -3.5t78.5 -16.5t54.5 -35.5t28 -63t8.5 -96.5t-13.5 -139l-33 -234q-12 -84 -29.5 -138 t-45 -93t-73 -59t-104 -28.5t-147.5 -8.5h-37q-108 0 -174.5 18.5t-100.5 58t-40.5 101.5zM279 299q-8 -55 10.5 -72.5t64.5 -17.5h41q47 0 72 17.5t33 72.5l41 295q8 57 -11.5 75.5t-66.5 18.5h-62q-36 0 -54.5 -10.5t-22.5 -44.5z" />
<glyph unicode="7" horiz-adv-x="735" d="M51 0l484 1165l6 39h-412l31 230h688l-33 -242l-485 -1192h-279z" />
<glyph unicode="8" horiz-adv-x="843" d="M4 221q1 40 8 92l25 183q20 142 67 192.5t156 59.5q-80 12 -109 60.5t-14 162.5l21 141q15 105 37.5 166t69 99.5t113 51.5t177.5 13h23q75 0 126 -5.5t91.5 -20t62.5 -38t34 -61.5t11.5 -87t-10.5 -118l-16 -115q-19 -132 -61.5 -184.5t-137.5 -64.5q103 -9 134 -60.5 t11 -191.5l-24 -183q-11 -83 -32 -138.5t-51.5 -92t-81 -56t-110.5 -27t-151 -7.5h-25q-56 0 -98 2.5t-80 9.5t-63.5 18t-47 28.5t-33 41.5t-17.5 56.5t-5 72.5zM274 250.5q4 -17.5 18.5 -24.5t27.5 -9t38 -2h66q25 0 39 2t31.5 9t27 24.5t13.5 46.5l32 244q8 55 -11.5 70.5 t-68.5 15.5h-84q-45 -2 -67 -18t-29 -68l-33 -244q-4 -29 0 -46.5zM383 934q-7 -52 10.5 -67t61.5 -15h55q23 1 35.5 3t26.5 10t21 24.5t11 44.5l29 199q8 56 -11 71t-69 15h-39q-25 0 -38.5 -2t-28 -10t-23 -26t-12.5 -48z" />
<glyph unicode="9" horiz-adv-x="829" d="M29 0l30 217h334q47 0 71.5 19t31.5 75l30 213q-41 -24 -114 -24h-56q-67 0 -108 3.5t-79 16.5t-55.5 35.5t-28.5 63t-9.5 97t12.5 138.5l35 260q11 83 29.5 138t47 93.5t75.5 59t106.5 29t148.5 8.5h31q108 0 174 -18t100.5 -57.5t40.5 -102t-6 -150.5l-110 -780 q-15 -107 -37.5 -169t-68.5 -103t-113.5 -55.5t-178.5 -14.5zM332 807q-7 -55 12.5 -71.5t65.5 -16.5h73q40 0 56.5 13.5t23.5 62.5l49 344q7 55 -12 70.5t-65 15.5h-54q-47 0 -70.5 -15.5t-31.5 -70.5z" />
<glyph unicode=":" horiz-adv-x="354" d="M4 0l41 285h229l-41 -285h-229zM129 895l41 285h229l-41 -285h-229z" />
<glyph unicode=";" horiz-adv-x="354" d="M-14 -205q66 104 76 128q10 25 18 77h-80l41 285h231l-32 -230q-13 -89 -50 -151t-124 -160zM129 895l41 285h229l-41 -285h-229z" />
<glyph unicode="&#x3c;" horiz-adv-x="684" d="M66 649l26 185l651 286l-28 -211l-387 -168l340 -166l-31 -213z" />
<glyph unicode="=" horiz-adv-x="710" d="M41 479l25 170h641l-25 -170h-641zM86 807l25 170h641l-25 -170h-641z" />
<glyph unicode="&#x3e;" horiz-adv-x="684" d="M25 362l30 213l385 166l-338 168l29 211l571 -286l-24 -185z" />
<glyph unicode="?" horiz-adv-x="751" d="M104 0l41 293h228l-41 -293h-228zM168 1225l29 209q143 8 301 8q56 0 98 -4t78 -14t59.5 -27t40.5 -41.5t24 -59.5t7 -79.5t-8 -102.5l-17 -119q-11 -85 -51 -135.5t-135 -118.5q-29 -21 -66.5 -46.5t-51.5 -36t-33 -26t-25 -27t-12 -28t-9 -40.5l-14 -103h-207l27 182 q3 19 7.5 35.5t15 32.5t16.5 25.5t24.5 26.5t24 22t30.5 25t31 24q16 13 50.5 40.5t45 36.5t31.5 29t27.5 33t14.5 33t11 43l17 117q7 55 -12 70.5t-68 15.5h-301z" />
<glyph unicode="@" horiz-adv-x="1120" d="M12 166l115 821q24 171 100.5 238t235.5 67h436q161 0 217.5 -67t32.5 -238l-107 -754q-8 -56 -25 -92.5t-42.5 -53.5t-50.5 -22.5t-62 -5.5q-126 0 -168.5 10t-75.5 52q-26 -20 -36 -27t-37.5 -15.5t-63.5 -8.5h-35q-120 0 -175.5 51.5t-37.5 175.5l33 240 q18 127 77 177t175 50h164l10 72q7 48 -6 61.5t-49 13.5h-262l24 172q197 9 267 9q119 0 176 -26.5t69 -82.5t-2 -145l-86 -605q-7 -56 1 -74t50 -18q31 0 50 6t29.5 22t15 32t8.5 47l104 739q9 77 2.5 132t-53 85.5t-139.5 30.5h-436q-70 0 -118 -16.5t-76.5 -51t-43 -76.5 t-22.5 -104l-115 -821q-9 -76 -2 -131t54 -86t138 -31h580l-8 -55h-580q-159 0 -216.5 67t-33.5 236zM457 332q-9 -72 51 -72h20q42 0 86 27l45 317h-102q-38 0 -53.5 -22.5t-20.5 -65.5z" />
<glyph unicode="A" horiz-adv-x="919" d="M-53 0l444 1434h416l43 -1434h-268l-9 264h-276l-80 -264h-270zM356 508h226l-9 704h-12z" />
<glyph unicode="B" horiz-adv-x="854" d="M-2 0l201 1434h385q63 0 108.5 -4t82.5 -13.5t60.5 -26.5t39.5 -40q15 -23 21 -58q5 -32 6 -70v-8q0 -42 -9 -100l-19 -137q-18 -129 -59.5 -181.5t-126.5 -64.5q58 -7 87 -29.5t41 -74.5q5 -22 4 -50q0 -39 -9 -90l-25 -168q-8 -57 -17.5 -99.5t-24 -76.5t-29 -56.5 t-39.5 -39t-49 -25.5t-64.5 -14t-78.5 -6.5t-97 -1.5h-389zM297 223h121q44 0 66.5 15.5t29.5 66.5l33 236q2 13 2 24q-1 30 -15 42q-20 16 -63 16h-117zM383 831h123q41 0 62 16t28 66l29 215q2 14 2 25q0 29 -13 41q-18 16 -61 16h-117z" />
<glyph unicode="C" horiz-adv-x="821" d="M30 228q2 40 9 91l113 795q10 69 23 117.5t35.5 86t51 60t72.5 37t96.5 20t126.5 5.5l367 -6l-31 -220l-367 3q-47 0 -71 -17.5t-31 -73.5l-117 -819q-2 -15 -2 -27q0 -33 14 -46q19 -17 66 -17h367l-31 -217q-256 -6 -367 -6q-56 0 -98 3t-77.5 10.5t-60 19t-43.5 30 t-29 42.5t-14 57q-3 23 -3 49q0 11 1 23z" />
<glyph unicode="D" horiz-adv-x="866" d="M-2 0l201 1434h403q62 0 107.5 -4.5t83 -14t61 -26.5t39.5 -40.5t22 -58.5q5 -30 5 -65v-12q-1 -42 -9 -99l-112 -795q-14 -100 -37.5 -159.5t-70.5 -96.5t-114 -50t-176 -13h-403zM297 223h135q44 0 66.5 16.5t29.5 67.5l117 826q2 14 2 25q0 28 -13 38q-18 14 -63 14 h-133z" />
<glyph unicode="E" horiz-adv-x="741" d="M2 0l201 1434h641l-31 -230h-373l-51 -356h338l-33 -230h-338l-53 -389h373l-33 -229h-641z" />
<glyph unicode="F" horiz-adv-x="714" d="M2 0l201 1434h631l-31 -230h-363l-55 -385h328l-35 -250h-328l-80 -569h-268z" />
<glyph unicode="G" horiz-adv-x="872" d="M30 217q1 44 9 102l113 795q14 103 38 165t72 100t116 51q63 12 163 12h16l324 -8l-31 -215h-324q-46 0 -70 -17t-32 -74l-117 -831q-4 -29 -0.5 -46.5t16 -25t25 -9t37.5 -1.5h45q25 0 38.5 1.5t28.5 9t23 25t12 46.5l39 272h-125l33 224h391l-65 -474 q-14 -103 -38 -164t-72.5 -99t-116.5 -51t-179 -13h-45q-63 0 -109 4.5t-84 14t-62.5 26.5t-41 41.5t-22.5 59.5q-5 30 -5 67v12z" />
<glyph unicode="H" horiz-adv-x="890" d="M2 0l201 1434h268l-82 -586h227l82 586h271l-201 -1434h-270l84 604h-228l-84 -604h-268z" />
<glyph unicode="I" horiz-adv-x="395" d="M2 0l201 1434h268l-201 -1434h-268z" />
<glyph unicode="J" horiz-adv-x="579" d="M-49 0l33 229h155q44 0 67 15t30 65l157 1127h271l-152 -1071q-11 -77 -23.5 -132t-29.5 -98.5t-39 -68.5t-52 -43.5t-68 -24t-87 -8.5q-18 -1 -38 -1q-33 0 -71 3z" />
<glyph unicode="K" d="M2 0l201 1434h268l-82 -590h86l236 590h288l-305 -725l119 -709h-297l-70 561h-96l-80 -561h-268z" />
<glyph unicode="L" horiz-adv-x="686" d="M2 0l201 1434h268l-168 -1205h342l-33 -229h-610z" />
<glyph unicode="M" horiz-adv-x="1169" d="M2 0l201 1434h332l73 -818h2l303 818h332l-201 -1434h-266l129 817h-6l-278 -817h-197l-49 817h-8l-103 -817h-264z" />
<glyph unicode="N" horiz-adv-x="897" d="M2 0l201 1434h270l137 -791h2l111 791h252l-201 -1434h-280l-121 752h-2l-107 -752h-262z" />
<glyph unicode="O" d="M30 218q1 43 9 101l113 795q14 103 38 164.5t72 99.5t116 51t179 13h51q63 0 109 -4t84.5 -14t62.5 -27t40 -41q18 -24 24 -60q6 -31 5 -67v-12q-1 -44 -9 -103l-113 -795q-14 -103 -38 -164t-72 -99t-116 -51t-179 -13h-52q-63 0 -109.5 4.5t-84 14.5t-62 27.5t-41 41.5 t-22.5 60q-5 30 -5 66v12zM307 305q-2 -16 -2 -29q0 -32 14 -44q20 -17 70 -17h45q48 0 73.5 17t33.5 73l116 823q2 14 2 26q1 34 -15 48q-20 18 -69 17h-45q-49 0 -74.5 -17t-33.5 -74z" />
<glyph unicode="P" horiz-adv-x="833" d="M-2 0l201 1434h399q72 0 122 -6t89 -20t59 -37q22 -23 34 -58q11 -30 10 -69v-13q-2 -47 -9 -109l-49 -346q-14 -99 -36.5 -156.5t-68.5 -93.5t-111.5 -48.5t-174.5 -12.5h-131l-66 -465h-268zM362 688h127q42 0 64 13.5t29 60.5l53 373q2 13 2 24q1 27 -13 37 q-18 14 -61 14h-127z" />
<glyph unicode="Q" d="M30 218q1 43 9 101l113 795q14 103 38 164.5t72 99.5t116 51t179 13h51q63 0 109 -4t84.5 -14t62.5 -27t40.5 -41t23.5 -60q5 -30 5 -67v-12q-1 -44 -9 -103l-113 -795q-18 -124 -53 -191t-103 -99l52 -203h-201l-72 166h-28h-52q-63 0 -109.5 4.5t-84 14.5t-62 27.5 t-41 41.5t-22.5 60q-5 30 -5 66v12zM307 305q-2 -16 -2 -29q0 -32 14 -44q20 -17 70 -17h45q48 0 73.5 17t33.5 73l116 823q2 14 2 26q0 34 -15 48q-21 17 -69 17h-45q-49 0 -74.5 -17t-33.5 -74z" />
<glyph unicode="R" horiz-adv-x="845" d="M-2 0l201 1434h407q72 0 121.5 -5.5t88 -19.5t60 -35.5t32.5 -57.5t11 -82.5t-10 -111.5l-28 -200q-19 -131 -63.5 -181.5t-127.5 -58.5q58 -9 87.5 -34.5t39.5 -79.5q4 -21 3 -48q0 -42 -9 -96l-59 -424h-271l64 459q2 16 2 30q0 72 -66 72h-135l-80 -561h-268zM375 778 h139q41 0 61 14t27 62l39 285q2 13 2 24q-1 27 -13 35q-18 12 -59 12h-135z" />
<glyph unicode="S" horiz-adv-x="845" d="M-6 0l31 223h387q48 0 71.5 15.5t30.5 70.5l23 160q2 15 2.5 27t-2 21.5t-4.5 16.5t-8.5 13.5t-11.5 11t-15.5 10t-17.5 8.5t-21.5 9.5t-24.5 11.5l-137 51q-27 11 -39.5 16.5t-35 16t-33 18.5t-26.5 21.5t-23 27t-16 33t-11 41.5t-2 50t4 61l24 180q14 103 38 165 t72.5 100t116.5 51q64 12 165 12h16l346 -8l-31 -224h-348q-49 0 -72.5 -15.5t-31.5 -70.5l-15 -100q-3 -22 -3 -39q0 -40 16 -58q23 -26 108 -57l129 -47q25 -9 38.5 -14.5t34 -14.5t31.5 -17t26 -20.5t22 -26t14.5 -32.5t9.5 -41t1.5 -50.5t-5.5 -61.5l-31 -226 q-14 -102 -38.5 -163.5t-73 -99.5t-116.5 -51t-179 -13z" />
<glyph unicode="T" horiz-adv-x="798" d="M119 1204l33 230h778l-33 -230h-254l-170 -1204h-270l170 1204h-254z" />
<glyph unicode="U" d="M30 217q1 44 9 102l156 1115h272l-158 -1125q-4 -23 -4 -40q0 -27 9 -37q14 -18 59 -17h78q44 0 63.5 18t28.5 76l157 1125h267l-156 -1115q-14 -103 -38 -164t-72 -99t-116 -51t-179 -13h-52q-63 0 -109 4.5t-84 14t-62.5 26.5t-41 41.5t-22.5 59.5q-5 30 -5 67v12z" />
<glyph unicode="V" horiz-adv-x="964" d="M156 1434h270l35 -1115h6l350 1115h270l-446 -1434h-440z" />
<glyph unicode="W" horiz-adv-x="1292" d="M102 0l52 1434h272l-59 -1078h2l276 1078h283l-29 -1078h2l244 1078h274l-350 -1434h-418l47 805h-2l-178 -805h-416z" />
<glyph unicode="X" horiz-adv-x="860" d="M-51 0l350 721l-143 713h270l76 -467l211 467h268l-342 -713l149 -721h-270l-84 479l-215 -479h-270z" />
<glyph unicode="Y" d="M150 1434h270l80 -576l243 576h271l-422 -891l-76 -543h-270l76 543z" />
<glyph unicode="Z" horiz-adv-x="743" d="M-29 0l33 231l539 971h-396l33 232h670l-31 -230l-520 -975h383l-33 -229h-678z" />
<glyph unicode="[" horiz-adv-x="565" d="M-16 -178l237 1687h477l-26 -188h-250l-184 -1311h249l-26 -188h-477z" />
<glyph unicode="\" horiz-adv-x="532" d="M193 1513h161l80 -1583h-160z" />
<glyph unicode="]" horiz-adv-x="565" d="M-68 -178l27 188h250l184 1311h-250l27 188h477l-237 -1687h-478z" />
<glyph unicode="^" horiz-adv-x="888" d="M162 938l330 496h184l188 -496h-196l-109 313l-199 -313h-198z" />
<glyph unicode="_" horiz-adv-x="905" d="M-104 -252l24 176h924l-25 -176h-923z" />
<glyph unicode="`" horiz-adv-x="1024" d="M449 1458h258l69 -209h-170z" />
<glyph unicode="a" horiz-adv-x="802" d="M25 254l41 293q21 146 89 203t203 57h185l12 90q0 19 2 32t-3.5 22t-8.5 13.5t-12.5 7t-16.5 3t-20 0.5h-299l30 207q176 6 305 8h9q130 0 194 -30q67 -30 79 -94q6 -29 5 -66q0 -44 -8 -99l-127 -901q-236 -8 -379 -8h-49q-136 0 -194 58q-43 43 -43 133q0 32 6 71z M287 295q-2 -15 -3 -27q0 -20 8 -32q10 -18 44 -19h39q80 0 86 2l55 402h-123q-61 0 -74 -82z" />
<glyph unicode="b" horiz-adv-x="821" d="M-4 0l209 1481h256l-43 -299h196q136 0 188 -54q38 -38 38 -123q0 -34 -6 -75l-97 -676q-21 -146 -94.5 -204t-210.5 -58h-51q-96 0 -192.5 2t-144.5 4zM283 217h129q34 0 51.5 18.5t23.5 59.5l84 594q1 11 1 20q0 23 -9 37q-13 18 -47 19h-129z" />
<glyph unicode="c" horiz-adv-x="741" d="M34 117q-7 32 -7 72q0 42 8 92l86 620q9 65 22 108t38 80t64.5 57.5t99 32t144.5 11.5l320 -8l-29 -207h-321q-38 0 -57 -15.5t-25 -60.5l-86 -616q-6 -45 8 -61.5t51 -16.5h322l-31 -205q-229 -8 -319 -8h-16q-125 0 -189 29q-69 31 -83 96z" />
<glyph unicode="d" horiz-adv-x="821" d="M33 254l94 676q21 145 87.5 198.5t203.5 53.5h196l41 299h256l-209 -1481q-233 -8 -387 -8h-51q-136 0 -194 58q-42 42 -43 132q0 33 6 72zM293 295q-2 -12 -2 -22q0 -56 57 -56h129l107 748h-129q-69 0 -78 -76z" />
<glyph unicode="e" horiz-adv-x="808" d="M34 117q-7 32 -7 72q0 42 8 92l86 620q12 81 31 131t59 88t107 54t171 16h46q136 0 203.5 -30.5t83.5 -94.5q8 -31 7 -72q0 -42 -8 -92l-65 -463l-445 -6l-22 -153q-6 -45 8.5 -60.5t52.5 -15.5h332l-29 -203q-190 -6 -331 -8h-16q-125 0 -189 29q-69 31 -83 96zM340 645 h195l36 258q2 13 2 24q0 25 -10 36q-14 16 -51 16h-51q-38 0 -58 -16.5t-26 -59.5z" />
<glyph unicode="f" horiz-adv-x="518" d="M37 0l135 965h-82l31 217h82l8 53q9 58 20.5 97.5t30.5 69.5t42 47.5t60.5 28t79.5 14t105 3.5q24 0 51.5 -2.5t43.5 -4.5l15 -3l-28 -203h-113q-26 0 -36.5 -13t-14.5 -36l-8 -51h153l-30 -217h-154l-135 -965h-256z" />
<glyph unicode="g" horiz-adv-x="821" d="M39 -233l29 198h307q38 0 54.5 14t23.5 60l6 37h-185q-138 0 -195 57q-42 42 -42 131q0 33 6 72l82 579q21 146 101.5 210.5t217.5 64.5h41l383 -8l-159 -1141q-10 -76 -24.5 -123t-39 -83t-65.5 -53t-98 -24q-44 -6 -107 -6h-35q-67 2 -142 5.5t-117 6.5zM303 377 q-2 -12 -2 -21q0 -57 59 -57h129l93 666h-129q-66 0 -78 -76z" />
<glyph unicode="h" horiz-adv-x="821" d="M-4 0l209 1481h256l-43 -299h200q136 0 185 -53q34 -37 34 -120q0 -35 -6 -79l-131 -930h-256l125 889q2 12 2 21q0 55 -57 55h-127l-135 -965h-256z" />
<glyph unicode="i" horiz-adv-x="370" d="M-2 0l166 1182h254l-166 -1182h-254zM172 1264l27 198h262l-27 -198h-262z" />
<glyph unicode="j" horiz-adv-x="370" d="M-135 -127q8 8 28 29.5t25.5 28t20.5 24.5t20 26.5t15.5 27t14.5 33t11 36.5t11.5 46t8.5 54l142 1004h256l-146 -1030q-11 -80 -34.5 -141.5t-63.5 -110t-78 -81.5t-100 -77zM170 1264l29 198h262l-29 -198h-262z" />
<glyph unicode="k" horiz-adv-x="841" d="M-4 0l209 1481h256l-105 -733h90l203 434h279l-264 -557l108 -625h-278l-78 504h-92l-72 -504h-256z" />
<glyph unicode="l" horiz-adv-x="370" d="M-4 0l209 1481h256l-209 -1481h-256z" />
<glyph unicode="m" horiz-adv-x="1255" d="M-4 0l166 1182q694 8 829 8h45q138 0 196 -58q42 -42 42 -131q0 -33 -6 -71l-131 -930h-256l125 889q2 11 2 21q0 55 -58 55h-121l-135 -965h-256l129 915q5 35 1 42.5t-33 7.5h-148l-135 -965h-256z" />
<glyph unicode="n" horiz-adv-x="821" d="M-4 0l166 1182q239 8 389 8h49q136 0 194 -58q42 -42 43 -131q0 -33 -6 -71l-131 -930h-256l125 889q2 12 2 21q0 55 -57 55h-127l-135 -965h-256z" />
<glyph unicode="o" horiz-adv-x="817" d="M34 118q-7 32 -7 71q0 41 8 92l86 620q12 81 31 131t59 88t107 54t171 16h52q137 0 204.5 -30.5t82.5 -94.5q7 -31 7 -70q0 -42 -8 -94l-86 -620q-12 -80 -31 -130t-59 -88.5t-107 -54.5t-171 -16h-51q-137 0 -205.5 31t-82.5 95zM291 283q-2 -15 -3 -26q0 -23 10 -35 q14 -16 52 -17h51q39 0 58.5 16.5t25.5 61.5l88 618q2 14 2 26q0 25 -10 35q-15 16 -53 15h-51q-38 0 -57 -15.5t-25 -60.5z" />
<glyph unicode="p" horiz-adv-x="821" d="M-39 -252l201 1434q211 8 389 8h51q135 0 192 -64q43 -46 43 -138q0 -33 -6 -73l-92 -661q-21 -147 -88 -202.5t-202 -55.5h-52l-145 4l-35 -252h-256zM283 217h129q35 0 52.5 19t22.5 59l84 594q1 11 1 20q0 24 -9 37q-13 19 -47 19h-129z" />
<glyph unicode="q" horiz-adv-x="821" d="M33 254l92 661q21 146 101.5 210.5t217.5 64.5h41l385 -8l-202 -1434h-256l34 252q-88 -4 -137 -4h-53q-137 0 -190 56q-39 39 -39 126q0 35 6 76zM293 295q-2 -12 -2 -22q0 -56 57 -56h129l107 748h-129q-68 0 -80 -76z" />
<glyph unicode="r" horiz-adv-x="589" d="M-4 0l137 979q14 100 86 155.5t170 55.5h25q36 0 104.5 -3t119.5 -6l50 -3l-29 -199q-174 -19 -213 -21q-39 -3 -51.5 -16.5t-17.5 -50.5l-125 -891h-256z" />
<glyph unicode="s" horiz-adv-x="755" d="M-10 0l28 207h338q37 0 57 18t27 64l17 112q-1 12 1.5 20.5t-1.5 16.5t-5 13t-8 11t-10 9t-12.5 7.5t-14.5 7t-16 7t-18 7.5l-137 59q-21 9 -31 13t-27.5 13t-26.5 15.5t-22 18t-19 23t-13 28t-9 34.5t-2 41.5t4 51.5l14 104q12 82 30 131.5t58 88t108 54.5q64 15 161 15 h12l299 -8l-29 -207h-301q-39 0 -57.5 -12.5t-24.5 -55.5l-10 -69q-4 -29 4.5 -46t21 -24t54.5 -27l141 -53q60 -22 92.5 -47t48.5 -72q10 -29 11 -68q0 -23 -4 -50l-23 -158q-12 -82 -31 -133t-59 -91.5t-108 -58.5q-64 -17 -159 -16h-11z" />
<glyph unicode="t" horiz-adv-x="536" d="M66 168q0 37 8 86l100 711h-82l31 217h82l37 260h256l-37 -260h153l-30 -217h-154l-98 -697q-3 -23 4.5 -36t34.5 -13h127l-31 -219l-129 -8q-26 -1 -48.5 -1t-41.5 1q-38 2 -69.5 9t-52 20t-34.5 33q-14 19 -20 48q-5 27 -6 60v6z" />
<glyph unicode="u" horiz-adv-x="817" d="M31 254l131 928h256l-125 -887q-6 -40 6 -59t47 -19h127l137 965h256l-168 -1182q-260 -8 -385 -8h-51q-136 0 -194 58q-42 42 -43 132q0 33 6 72z" />
<glyph unicode="v" horiz-adv-x="827" d="M111 1182h268l10 -873h12l254 873h271l-381 -1182h-385z" />
<glyph unicode="w" horiz-adv-x="1196" d="M106 0l5 1182h268l-33 -863h4l221 863h263l-21 -863h2l211 863h270l-327 -1182h-373l22 573h-6l-135 -573h-371z" />
<glyph unicode="x" horiz-adv-x="800" d="M-47 0l268 596l-102 586h268l64 -402l172 402h270l-266 -586l100 -596h-270l-58 418l-178 -418h-268z" />
<glyph unicode="y" horiz-adv-x="829" d="M100 1182h269l20 -873h6l283 873h246l-471 -1442h-242l90 274h-147z" />
<glyph unicode="z" horiz-adv-x="720" d="M-41 0l31 217l481 741h-362l30 224h660l-31 -221l-477 -740h377l-31 -221h-678z" />
<glyph unicode="{" horiz-adv-x="524" d="M33 571l18 136l14 5q14 6 27 12t32.5 19.5t34 29.5t27.5 41.5t17 55.5l43 320q19 129 104 217q57 57 180 143l80 -71q-7 -9 -29 -36t-37.5 -47.5t-23.5 -35.5q-17 -29 -26 -64.5t-19 -105.5l-45 -320q-20 -148 -156 -233q111 -88 91 -229l-48 -330q-18 -126 -2 -174 q5 -17 29 -62t29 -55l-101 -72q-92 75 -139 142q-62 87 -43 221l47 330q0 21 1 36t-5.5 30t-10.5 25.5t-14 20.5l-16.5 16.5t-17.5 13t-16.5 9.5t-14 7t-10.5 5z" />
<glyph unicode="|" horiz-adv-x="475" d="M55 -150l240 1706h201l-240 -1706h-201z" />
<glyph unicode="}" horiz-adv-x="524" d="M-35 -213q8 11 29.5 37t37 46.5t23.5 33.5q30 51 47 174l48 330q21 145 151 229q-108 85 -88 233l45 320q17 119 2 170q-6 20 -57 119l100 71q98 -84 139 -143q62 -87 43 -217l-45 -320q-4 -30 1.5 -55.5t16 -42t25.5 -29.5t27 -19.5t23 -11t12 -5.5l-19 -136l-13 -5 l-19.5 -9t-22 -11.5t-24.5 -16.5t-22.5 -21t-21.5 -27t-15.5 -33t-10.5 -40l-47 -330q-19 -135 -105 -221q-60 -63 -180 -142z" />
<glyph unicode="~" horiz-adv-x="819" d="M184 627l35 237h143l205 -76l13 74h139l-35 -237h-141l-197 127l-20 -125h-142z" />
<glyph unicode="&#xa1;" horiz-adv-x="382" d="M4 0l55 393l146 604h131l-21 -604l-55 -393h-256zM176 1141l41 293h229l-40 -293h-230z" />
<glyph unicode="&#xa2;" horiz-adv-x="741" d="M34 146q-10 63 3 155l86 621q11 76 27.5 123t50.5 85t90.5 56t142.5 22l19 140h188l-18 -140l188 -6l-29 -207h-321q-38 0 -57 -15t-25 -60l-86 -617q-6 -45 8 -61.5t51 -16.5h322l-31 -205q-98 -4 -188 -6l-21 -149h-188l20 147q-111 4 -166.5 37.5t-65.5 96.5z" />
<glyph unicode="&#xa3;" horiz-adv-x="921" d="M-45 0l31 217h94l47 332h-94l28 213h97l47 340q19 137 60 208t121 101.5t226 30.5l332 -8l-29 -211h-333q-47 0 -71 -16.5t-32 -73.5l-51 -371h356l-28 -213h-359l-47 -332h510l-31 -217h-874z" />
<glyph unicode="&#xa5;" d="M66 367l18 127h231l7 49l-9 43h-217l19 127h174l-139 721h270l80 -576l243 576h271l-342 -721h172l-19 -127h-213l-20 -43l-6 -49h227l-18 -127h-228l-51 -367h-270l51 367h-231z" />
<glyph unicode="&#xa7;" horiz-adv-x="921" d="M68 0l24 176h357q28 0 42 1.5t33 8.5t30 24t17 46l4 18q5 26 -2 44t-27 28t-40 15.5t-54 11.5q-21 4 -32 6l-176 31q-113 20 -152 71.5t-24 163.5l20 146q15 118 113 174q-31 75 -15 172l2 12q27 167 118.5 230t283.5 63l313 -8l-24 -177h-347q-46 0 -67 -14t-29 -67 l-2 -13q-5 -28 0.5 -46t24.5 -28.5t37 -15.5t52 -11q18 -3 27 -5l177 -29q112 -19 150.5 -70.5t23.5 -164.5l-23 -164q-14 -99 -112 -160q32 -65 14 -174l-2 -12q-13 -80 -35.5 -132.5t-51.5 -84.5t-79 -48t-101 -21t-135 -5zM285 715q-7 -52 6 -65t73 -27q15 -3 23 -5 l154 -34q22 -5 74 -20.5t59 -22.5q11 11 16 45l21 137q2 15 3 26.5t-2 21t-5 15.5t-11.5 11.5t-15 8.5t-22.5 7t-26 5.5t-34 6.5l-149 33q-108 20 -127 39q-14 -17 -19 -53z" />
<glyph unicode="&#xa8;" horiz-adv-x="1024" d="M414 1262l26 196h170l-26 -196h-170zM674 1262l26 196h170l-26 -196h-170z" />
<glyph unicode="&#xa9;" horiz-adv-x="1083" d="M55 291l121 854q21 149 111.5 219t234.5 70h312q145 0 216 -70t50 -219l-121 -854q-21 -151 -112 -221t-236 -70h-312q-143 0 -214 71t-50 220zM92 291q-18 -130 42 -194t190 -64h311q271 0 307 258l121 854q37 258 -234 258h-311q-268 0 -305 -258zM253.5 283 q-14.5 59 2.5 157l78 543q22 154 81 209t214 55l280 -8l-20 -156h-275q-23 0 -35.5 -2.5t-25 -17.5t-16.5 -45l-86 -608q-6 -42 9 -56t50 -14h274l-22 -158q-187 -6 -285 -6q-106 -1 -157.5 23.5t-66 83.5z" />
<glyph unicode="&#xaa;" horiz-adv-x="536" d="M66 485l20 148h418l-21 -148h-417zM125 879l27 186q13 91 54.5 123.5t123.5 32.5h106l6 43q4 31 -4 39t-30 8h-175l17 123q125 8 180 8q82 1 121.5 -17t47.5 -57t-1 -100l-76 -541q-105 -2 -211 -2h-30q-84 0 -125.5 34.5t-30.5 119.5zM285 903q-3 -24 3 -33.5t27 -9.5 h70l35 248h-70q-39 0 -45 -55z" />
<glyph unicode="&#xab;" horiz-adv-x="679" d="M37 578l4 26l250 361h170l-205 -361l-4 -26l102 -361h-170zM322 578l4 26l221 361h182l-190 -361l-4 -26l88 -361h-183z" />
<glyph unicode="&#xad;" horiz-adv-x="595" d="M45 510l29 211h526l-29 -211h-526z" />
<glyph unicode="&#xae;" horiz-adv-x="708" d="M129 817l59 416q16 116 73.5 158.5t166.5 42.5h147q54 0 89.5 -8.5t61.5 -30.5t34 -62t0 -100l-60 -416q-16 -117 -74 -160t-167 -43h-148q-109 0 -153.5 43t-28.5 160zM154 817q-14 -102 24.5 -141t136.5 -39h148q101 0 150 38t63 142l59 416q14 105 -25.5 141.5 t-138.5 36.5h-147q-97 0 -147 -37t-64 -141zM254 743l78 553h160q85 0 109.5 -24.5t14.5 -102.5l-10 -75q-7 -54 -25 -74t-59 -23q40 -6 52.5 -27.5t5.5 -74.5l-21 -152h-113l23 164q7 45 -20 45h-56l-31 -209h-108zM406 1040h55q28 0 33 33l14 98q5 33 -29 33h-51z" />
<glyph unicode="&#xaf;" horiz-adv-x="1024" d="M401 1278l21 147h459l-21 -147h-459z" />
<glyph unicode="&#xb0;" horiz-adv-x="538" d="M100.5 810.5q-4.5 47.5 5.5 119.5l41 299q8 61 19 96t35 64.5t65.5 41t108.5 11.5h76q87 0 126 -22.5t43 -70t-6 -120.5l-41 -299q-8 -61 -18.5 -95.5t-34.5 -64t-65 -41.5t-107 -12h-76q-88 0 -127.5 23t-44 70.5zM259 864q6 -14 36 -14h65q31 0 42 13t16 46l47 344 q5 32 -2 44t-37 12h-66q-30 0 -39 -11.5t-14 -44.5l-47 -344q-7 -31 -1 -45z" />
<glyph unicode="&#xb1;" horiz-adv-x="710" d="M14 297l25 176h641l-25 -176h-641zM86 803l25 176h231l31 227h176l-31 -227h234l-25 -176h-233l-33 -232h-176l32 232h-231z" />
<glyph unicode="&#xb4;" horiz-adv-x="1024" d="M475 1249l129 209h258l-217 -209h-170z" />
<glyph unicode="&#xb6;" horiz-adv-x="907" d="M123 842l53 383q6 38 21 73.5t40.5 66.5t65.5 50t90 19h590l-201 -1434h-153l176 1255h-137l-176 -1255h-154l88 631h-145q-62 0 -101.5 33.5t-51.5 80t-5 97.5z" />
<glyph unicode="&#xb7;" horiz-adv-x="364" d="M84 549l41 285h229l-41 -285h-229z" />
<glyph unicode="&#xb8;" horiz-adv-x="1024" d="M258 -250l131 250h143l-86 -250h-188z" />
<glyph unicode="&#xba;" horiz-adv-x="548" d="M68 485l20 148h428l-20 -148h-428zM127 903l49 359q9 65 28.5 101.5t66.5 57.5t128 21h35q82 0 122.5 -20t48 -60t-0.5 -100l-49 -359q-9 -64 -28 -100t-66 -57t-129 -21h-35q-118 0 -150.5 40.5t-19.5 137.5zM283 901q-4 -26 4 -35.5t28 -9.5h35q22 0 33 9.5t14 35.5 l52 363q3 26 -5 34.5t-30 8.5h-35q-21 0 -32 -8.5t-15 -34.5z" />
<glyph unicode="&#xbb;" horiz-adv-x="679" d="M-4 217l190 361l4 26l-90 361h185l121 -361l-5 -26l-221 -361h-184zM266 217l203 361l4 26l-102 361h170l147 -361l-4 -26l-248 -361h-170z" />
<glyph unicode="&#xbf;" horiz-adv-x="751" d="M35.5 216.5q0.5 44.5 9.5 102.5l18 119q13 85 53 136t134 118q28 20 66 46.5t51.5 36.5t32.5 26t25 27.5t12 28t9 40.5l15 102h207l-27 -182q-3 -19 -7.5 -35.5t-14.5 -32.5t-17 -26t-24 -25.5t-24.5 -21.5t-30.5 -24.5t-31 -24.5q-17 -14 -50.5 -40.5t-45 -36t-32 -29.5 t-27.5 -33t-15 -33t-11 -43l-16 -117q-7 -55 12 -70.5t68 -15.5h301l-31 -209q-141 -8 -299 -8q-56 0 -98 4t-78.5 14t-60.5 26.5t-41.5 41t-25 59.5t-7 79.5zM471 1141l41 293h227l-41 -293h-227z" />
<glyph unicode="&#xc0;" horiz-adv-x="874" d="M-74 0l445 1434h415l43 -1434h-268l-8 264h-277l-79 -264h-271zM336 508h225l-8 704h-12zM348 1710h258l70 -209h-170z" />
<glyph unicode="&#xc1;" horiz-adv-x="874" d="M-74 0l445 1434h415l43 -1434h-268l-8 264h-277l-79 -264h-271zM336 508h225l-8 704h-12zM485 1501l129 209h258l-217 -209h-170z" />
<glyph unicode="&#xc2;" horiz-adv-x="874" d="M-74 0l445 1434h415l43 -1434h-268l-8 264h-277l-79 -264h-271zM336 508h225l-8 704h-12zM336 1501l162 209h241l105 -209h-172l-68 101l-96 -101h-172z" />
<glyph unicode="&#xc3;" horiz-adv-x="874" d="M-74 0l445 1434h415l43 -1434h-268l-8 264h-277l-79 -264h-271zM336 508h225l-8 704h-12zM383 1511l29 197h116l170 -63l13 61h116l-30 -197h-117l-164 105l-18 -103h-115z" />
<glyph unicode="&#xc4;" horiz-adv-x="874" d="M-74 0l445 1434h415l43 -1434h-268l-8 264h-277l-79 -264h-271zM336 508h225l-8 704h-12zM373 1513l26 197h170l-26 -197h-170zM633 1513l26 197h170l-26 -197h-170z" />
<glyph unicode="&#xc5;" horiz-adv-x="874" d="M-74 0l445 1434h415l43 -1434h-268l-8 264h-277l-79 -264h-271zM336 508h225l-8 704h-12zM440 1620l4 31q11 81 42 110t120 29h45q90 0 112 -28.5t11 -110.5l-4 -31q-11 -81 -41.5 -110t-120.5 -29h-45q-89 0 -111.5 29t-11.5 110zM522 1614q-6 -37 4 -48.5t52 -11.5h38 q42 0 55 11t19 49l6 43q5 38 -4.5 48.5t-52.5 10.5h-39q-43 0 -55 -10.5t-17 -48.5z" />
<glyph unicode="&#xc6;" horiz-adv-x="1329" d="M-45 0l653 1434h824l-31 -230h-371l-51 -356h336l-33 -232h-336l-53 -385h371l-33 -231h-641l39 276h-287l-121 -276h-266zM436 508h226l98 696h-25z" />
<glyph unicode="&#xc7;" horiz-adv-x="821" d="M27.5 207q0.5 47 9.5 112l113 795q10 69 23 117.5t35.5 86t51 60t72.5 37t96.5 20t126.5 5.5l367 -6l-31 -220l-367 3q-47 0 -71 -17.5t-31 -73.5l-115 -819q-8 -56 10.5 -73t65.5 -17h367l-29 -217q-147 -4 -266 -6l-84 -244h-189l129 244q-65 2 -110.5 8.5t-80 22 t-54 38.5t-29.5 60t-9.5 84z" />
<glyph unicode="&#xc8;" horiz-adv-x="741" d="M2 0l201 1434h641l-31 -230h-373l-51 -356h338l-33 -230h-338l-53 -389h373l-33 -229h-641zM334 1710h258l70 -209h-170z" />
<glyph unicode="&#xc9;" horiz-adv-x="741" d="M2 0l201 1434h641l-31 -230h-373l-51 -356h338l-33 -230h-338l-53 -389h373l-33 -229h-641zM416 1501l129 209h258l-217 -209h-170z" />
<glyph unicode="&#xca;" horiz-adv-x="741" d="M2 0l201 1434h641l-31 -230h-373l-51 -356h338l-33 -230h-338l-53 -389h373l-33 -229h-641zM279 1501l161 209h242l104 -209h-172l-67 101l-96 -101h-172z" />
<glyph unicode="&#xcb;" horiz-adv-x="741" d="M2 0l201 1434h641l-31 -230h-373l-51 -356h338l-33 -230h-338l-53 -389h373l-33 -229h-641zM326 1513l26 197h170l-26 -197h-170zM586 1513l26 197h170l-26 -197h-170z" />
<glyph unicode="&#xcc;" horiz-adv-x="395" d="M2 0l201 1434h268l-201 -1434h-268zM125 1710h258l70 -209h-170z" />
<glyph unicode="&#xcd;" horiz-adv-x="395" d="M2 0l201 1434h268l-201 -1434h-268zM242 1501l129 209h258l-217 -209h-170z" />
<glyph unicode="&#xce;" horiz-adv-x="395" d="M2 0l201 1434h268l-201 -1434h-268zM94 1501l162 209h242l104 -209h-172l-68 101l-96 -101h-172z" />
<glyph unicode="&#xcf;" horiz-adv-x="395" d="M2 0l201 1434h268l-201 -1434h-268zM135 1513l27 197h170l-27 -197h-170zM395 1513l27 197h170l-27 -197h-170z" />
<glyph unicode="&#xd0;" horiz-adv-x="903" d="M33 635l26 188h93l86 611h403q73 0 123.5 -5.5t89 -20t60.5 -37.5t33 -59.5t11 -84t-10 -113.5l-112 -795q-14 -100 -37.5 -159.5t-70.5 -96.5t-114 -50t-176 -13h-403l90 635h-92zM336 223h135q43 0 65 16.5t29 67.5l117 826q7 49 -11 63t-63 14h-133l-55 -387h100 l-26 -188h-101z" />
<glyph unicode="&#xd1;" horiz-adv-x="897" d="M2 0l201 1434h270l137 -791h2l111 791h252l-201 -1434h-280l-121 752h-2l-107 -752h-262zM391 1511l29 197h117l170 -63l12 61h117l-31 -197h-117l-164 105l-18 -103h-115z" />
<glyph unicode="&#xd2;" d="M30 218q1 43 9 101l113 795q14 103 38 164.5t72 99.5t116 51t179 13h51q63 0 109 -4t84.5 -14t62.5 -27t40.5 -41t23 -59.5t5.5 -79.5t-9 -103l-113 -795q-14 -103 -38 -164t-72 -99t-116 -51t-179 -13h-52q-63 0 -109.5 4.5t-84 14.5t-62 27.5t-41 41.5t-22.5 59.5 t-5 78.5zM307 305q-8 -56 12 -73t70 -17h45q48 0 73.5 17t33.5 73l116 823q7 56 -13.5 73.5t-68.5 17.5h-45q-49 0 -74.5 -17t-33.5 -74zM362 1710h259l69 -209h-170z" />
<glyph unicode="&#xd3;" d="M30 218q1 43 9 101l113 795q14 103 38 164.5t72 99.5t116 51t179 13h51q63 0 109 -4t84.5 -14t62.5 -27t40.5 -41t23 -59.5t5.5 -79.5t-9 -103l-113 -795q-14 -103 -38 -164t-72 -99t-116 -51t-179 -13h-52q-63 0 -109.5 4.5t-84 14.5t-62 27.5t-41 41.5t-22.5 59.5 t-5 78.5zM307 305q-8 -56 12 -73t70 -17h45q48 0 73.5 17t33.5 73l116 823q7 56 -13.5 73.5t-68.5 17.5h-45q-49 0 -74.5 -17t-33.5 -74zM483 1501l129 209h258l-217 -209h-170z" />
<glyph unicode="&#xd4;" d="M30 218q1 43 9 101l113 795q14 103 38 164.5t72 99.5t116 51t179 13h51q63 0 109 -4t84.5 -14t62.5 -27t40.5 -41t23 -59.5t5.5 -79.5t-9 -103l-113 -795q-14 -103 -38 -164t-72 -99t-116 -51t-179 -13h-52q-63 0 -109.5 4.5t-84 14.5t-62 27.5t-41 41.5t-22.5 59.5 t-5 78.5zM307 305q-8 -56 12 -73t70 -17h45q48 0 73.5 17t33.5 73l116 823q7 56 -13.5 73.5t-68.5 17.5h-45q-49 0 -74.5 -17t-33.5 -74zM340 1501l162 209h241l105 -209h-172l-68 101l-96 -101h-172z" />
<glyph unicode="&#xd5;" d="M30 218q1 43 9 101l113 795q14 103 38 164.5t72 99.5t116 51t179 13h51q63 0 109 -4t84.5 -14t62.5 -27t40.5 -41t23 -59.5t5.5 -79.5t-9 -103l-113 -795q-14 -103 -38 -164t-72 -99t-116 -51t-179 -13h-52q-63 0 -109.5 4.5t-84 14.5t-62 27.5t-41 41.5t-22.5 59.5 t-5 78.5zM307 305q-8 -56 12 -73t70 -17h45q48 0 73.5 17t33.5 73l116 823q7 56 -13.5 73.5t-68.5 17.5h-45q-49 0 -74.5 -17t-33.5 -74zM387 1511l29 197h116l170 -63l13 61h116l-30 -197h-117l-164 105l-18 -103h-115z" />
<glyph unicode="&#xd6;" d="M30 218q1 43 9 101l113 795q14 103 38 164.5t72 99.5t116 51t179 13h51q63 0 109 -4t84.5 -14t62.5 -27t40.5 -41t23 -59.5t5.5 -79.5t-9 -103l-113 -795q-14 -103 -38 -164t-72 -99t-116 -51t-179 -13h-52q-63 0 -109.5 4.5t-84 14.5t-62 27.5t-41 41.5t-22.5 59.5 t-5 78.5zM307 305q-8 -56 12 -73t70 -17h45q48 0 73.5 17t33.5 73l116 823q7 56 -13.5 73.5t-68.5 17.5h-45q-49 0 -74.5 -17t-33.5 -74zM381 1513l27 197h170l-27 -197h-170zM641 1513l27 197h170l-27 -197h-170z" />
<glyph unicode="&#xd7;" horiz-adv-x="696" d="M63 559l201 174l-145 172l141 125l146 -172l202 176l109 -123l-203 -178l145 -172l-139 -125l-151 172l-201 -176z" />
<glyph unicode="&#xd8;" d="M-14 -70l77 140q-27 37 -32 98.5t8 150.5l111 795q9 69 22.5 117.5t36 86.5t51.5 61t73 37.5t97 20t127 5.5h51q104 0 178 -15l39 80h144l-72 -141q49 -65 25 -252l-111 -795q-14 -102 -38.5 -163.5t-73 -99t-117 -51t-179.5 -13.5h-51q-121 0 -184 16l-41 -78h-141z M305 258q6 -27 25.5 -35t58.5 -8h45q48 0 73.5 17t33.5 73l84 594zM338 524l319 645q-4 30 -25.5 40t-58.5 10h-45q-49 0 -73.5 -17t-32.5 -74z" />
<glyph unicode="&#xd9;" d="M30 217q1 44 9 102l156 1115h272l-158 -1125q-9 -59 5 -76.5t59 -17.5h78q44 0 63.5 18t28.5 76l157 1125h267l-156 -1115q-14 -103 -38 -164t-72 -99t-116 -51t-179 -13h-52q-63 0 -109 4.5t-84 14t-62.5 26.5t-41 41.5t-22.5 59.5t-5 79zM391 1710h258l68 -209h-170z " />
<glyph unicode="&#xda;" d="M30 217q1 44 9 102l156 1115h272l-158 -1125q-9 -59 5 -76.5t59 -17.5h78q44 0 63.5 18t28.5 76l157 1125h267l-156 -1115q-14 -103 -38 -164t-72 -99t-116 -51t-179 -13h-52q-63 0 -109 4.5t-84 14t-62.5 26.5t-41 41.5t-22.5 59.5t-5 79zM487 1501l131 209h259 l-220 -209h-170z" />
<glyph unicode="&#xdb;" d="M30 217q1 44 9 102l156 1115h272l-158 -1125q-9 -59 5 -76.5t59 -17.5h78q44 0 63.5 18t28.5 76l157 1125h267l-156 -1115q-14 -103 -38 -164t-72 -99t-116 -51t-179 -13h-52q-63 0 -109 4.5t-84 14t-62.5 26.5t-41 41.5t-22.5 59.5t-5 79zM340 1501l164 209h241 l103 -209h-172l-68 101l-96 -101h-172z" />
<glyph unicode="&#xdc;" d="M30 217q1 44 9 102l156 1115h272l-158 -1125q-9 -59 5 -76.5t59 -17.5h78q44 0 63.5 18t28.5 76l157 1125h267l-156 -1115q-14 -103 -38 -164t-72 -99t-116 -51t-179 -13h-52q-63 0 -109 4.5t-84 14t-62.5 26.5t-41 41.5t-22.5 59.5t-5 79zM381 1513l29 197h170l-29 -197 h-170zM641 1513l29 197h170l-29 -197h-170z" />
<glyph unicode="&#xdd;" d="M150 1434h270l80 -576l243 576h271l-422 -891l-76 -543h-270l76 543zM498 1501l129 209h258l-217 -209h-170z" />
<glyph unicode="&#xde;" horiz-adv-x="833" d="M-2 0l201 1434h268l-31 -230h131q72 0 122 -5.5t88 -20t59.5 -37t32.5 -58.5t10.5 -81.5t-9.5 -110.5l-47 -338q-14 -98 -36 -156t-68.5 -94t-112 -48.5t-174.5 -12.5h-131l-35 -242h-268zM332 463h131q40 0 60.5 17t27.5 65l51 356q7 48 -10 65t-57 17h-132z" />
<glyph unicode="&#xdf;" horiz-adv-x="897" d="M39 0l139 995l-90 21l23 166h102l6 39q13 100 97.5 156.5t195.5 56.5h104q73 0 123 -5.5t89.5 -19.5t61 -36.5t33 -59.5t11.5 -84.5t-10 -114.5l-17 -117q-19 -130 -62 -181.5t-145 -61.5q108 -9 142 -60t14 -188l-27 -187q-8 -57 -17.5 -99.5t-24 -76.5t-29 -56.5 t-39.5 -39t-49 -25.5t-64.5 -14t-78.5 -6.5t-97 -1.5h-74l29 203h88q43 0 66 18t30 70l37 264q7 50 -13 69t-61 19h-86l29 209h72q43 0 66 18t30 70l29 203q7 51 -10.5 66.5t-61.5 15.5h-49q-44 0 -66.5 -15.5t-29.5 -66.5l-160 -1143h-256z" />
<glyph unicode="&#xe0;" horiz-adv-x="802" d="M25 254l41 293q21 146 89 203t203 57h185l12 90q0 19 2 32t-3.5 22t-8.5 13.5t-12.5 7t-16.5 3t-20 0.5h-299l30 207q176 6 305 8q137 1 203 -29.5t78.5 -95t-2.5 -164.5l-127 -901q-236 -8 -379 -8h-49q-136 0 -194 58t-37 204zM287 295q-6 -41 4.5 -59.5t44.5 -18.5h39 q80 0 86 2l55 402h-123q-61 0 -74 -82zM330 1458h258l67 -209h-170z" />
<glyph unicode="&#xe1;" horiz-adv-x="802" d="M25 254l41 293q21 146 89 203t203 57h185l12 90q0 19 2 32t-3.5 22t-8.5 13.5t-12.5 7t-16.5 3t-20 0.5h-299l30 207q176 6 305 8q137 1 203 -29.5t78.5 -95t-2.5 -164.5l-127 -901q-236 -8 -379 -8h-49q-136 0 -194 58t-37 204zM287 295q-6 -41 4.5 -59.5t44.5 -18.5h39 q80 0 86 2l55 402h-123q-61 0 -74 -82zM416 1249l131 209h258l-219 -209h-170z" />
<glyph unicode="&#xe2;" horiz-adv-x="802" d="M25 254l41 293q21 146 89 203t203 57h185l12 90q0 19 2 32t-3.5 22t-8.5 13.5t-12.5 7t-16.5 3t-20 0.5h-299l30 207q176 6 305 8q137 1 203 -29.5t78.5 -95t-2.5 -164.5l-127 -901q-236 -8 -379 -8h-49q-136 0 -194 58t-37 204zM270 1249l164 209h242l102 -209h-172 l-67 101l-97 -101h-172zM287 295q-6 -41 4.5 -59.5t44.5 -18.5h39q80 0 86 2l55 402h-123q-61 0 -74 -82z" />
<glyph unicode="&#xe3;" horiz-adv-x="802" d="M25 254l41 293q21 146 89 203t203 57h185l12 90q0 19 2 32t-3.5 22t-8.5 13.5t-12.5 7t-16.5 3t-20 0.5h-299l30 207q176 6 305 8q137 1 203 -29.5t78.5 -95t-2.5 -164.5l-127 -901q-236 -8 -379 -8h-49q-136 0 -194 58t-37 204zM287 295q-6 -41 4.5 -59.5t44.5 -18.5h39 q80 0 86 2l55 402h-123q-61 0 -74 -82zM317 1260l29 196h117l170 -63l12 61h117l-31 -197h-117l-163 105l-19 -102h-115z" />
<glyph unicode="&#xe4;" horiz-adv-x="802" d="M25 254l41 293q21 146 89 203t203 57h185l12 90q0 19 2 32t-3.5 22t-8.5 13.5t-12.5 7t-16.5 3t-20 0.5h-299l30 207q176 6 305 8q137 1 203 -29.5t78.5 -95t-2.5 -164.5l-127 -901q-236 -8 -379 -8h-49q-136 0 -194 58t-37 204zM287 295q-6 -41 4.5 -59.5t44.5 -18.5h39 q80 0 86 2l55 402h-123q-61 0 -74 -82zM305 1262l29 196h170l-29 -196h-170zM565 1262l29 196h170l-29 -196h-170z" />
<glyph unicode="&#xe5;" horiz-adv-x="802" d="M25 254l41 293q21 146 89 203t203 57h185l12 90q0 19 2 32t-3.5 22t-8.5 13.5t-12.5 7t-16.5 3t-20 0.5h-299l30 207q176 6 305 8q137 1 203 -29.5t78.5 -95t-2.5 -164.5l-127 -901q-236 -8 -379 -8h-49q-136 0 -194 58t-37 204zM287 295q-6 -41 4.5 -59.5t44.5 -18.5h39 q80 0 86 2l55 402h-123q-61 0 -74 -82zM367 1376l4 31q11 82 41.5 110.5t119.5 28.5h46q90 0 111.5 -28.5t10.5 -110.5l-4 -31q-11 -80 -42.5 -109.5t-121.5 -29.5h-45q-88 0 -109.5 29t-10.5 110zM449 1370q-5 -38 3.5 -48.5t49.5 -10.5h39q42 0 55 11t18 48l7 43 q5 38 -4 49t-52 11h-39q-43 0 -55.5 -11t-17.5 -49z" />
<glyph unicode="&#xe6;" horiz-adv-x="1257" d="M25 254l36 266q21 146 89.5 203t203.5 57h199l18 125q4 43 -9.5 57.5t-45.5 14.5h-317l28 205q228 8 318 8q70 0 115 -11.5t71 -41.5q63 53 207 53h43q137 0 204.5 -30.5t83 -94.5t-0.5 -164l-62 -442l-446 -6l-25 -179q-6 -45 9.5 -60t54.5 -15h315l-29 -199 q-206 -8 -315 -8q-125 -2 -182.5 13.5t-79.5 66.5q-99 -80 -203 -80h-49q-136 0 -194 58t-37 204zM287 295q-6 -41 6.5 -59.5t48.5 -18.5h33q11 0 22.5 3t23.5 8.5t20.5 10t21.5 12t16 9.5l47 330h-131q-67 0 -82 -94zM791 655h196l35 252q6 45 -9.5 61.5t-54.5 16.5h-49 q-36 0 -56 -14t-26 -51z" />
<glyph unicode="&#xe7;" horiz-adv-x="741" d="M31 125q-11 63 2 156l86 620q9 65 22 108t38 80t64.5 57.5t99 32t144.5 11.5l322 -8l-31 -207h-321q-38 0 -57 -15.5t-25 -60.5l-86 -616q-6 -45 9 -61.5t52 -16.5h322l-31 -205q-127 -4 -229 -6l-84 -244h-189l127 242q-112 4 -168 37t-67 96z" />
<glyph unicode="&#xe8;" horiz-adv-x="808" d="M34.5 117q-14.5 65 0.5 164l86 620q12 81 31 131t59 88t107 54t171 16h46q136 0 203.5 -30.5t83 -94.5t-0.5 -164l-65 -463l-445 -6l-22 -153q-6 -45 8.5 -60.5t52.5 -15.5h332l-29 -203q-190 -6 -331 -8q-137 -2 -205 29t-82.5 96zM297 1458h258l70 -209h-170zM340 645 h195l36 258q6 44 -8 60t-51 16h-51q-38 0 -58 -16.5t-26 -59.5z" />
<glyph unicode="&#xe9;" horiz-adv-x="808" d="M34.5 117q-14.5 65 0.5 164l86 620q12 81 31 131t59 88t107 54t171 16h46q136 0 203.5 -30.5t83 -94.5t-0.5 -164l-65 -463l-445 -6l-22 -153q-6 -45 8.5 -60.5t52.5 -15.5h332l-29 -203q-190 -6 -331 -8q-137 -2 -205 29t-82.5 96zM340 645h195l36 258q6 44 -8 60 t-51 16h-51q-38 0 -58 -16.5t-26 -59.5zM418 1249l129 209h258l-217 -209h-170z" />
<glyph unicode="&#xea;" horiz-adv-x="808" d="M34.5 117q-14.5 65 0.5 164l86 620q12 81 31 131t59 88t107 54t171 16h46q136 0 203.5 -30.5t83 -94.5t-0.5 -164l-65 -463l-445 -6l-22 -153q-6 -45 8.5 -60.5t52.5 -15.5h332l-29 -203q-190 -6 -331 -8q-137 -2 -205 29t-82.5 96zM268 1249l162 209h242l104 -209h-172 l-67 101l-97 -101h-172zM340 645h195l36 258q6 44 -8 60t-51 16h-51q-38 0 -58 -16.5t-26 -59.5z" />
<glyph unicode="&#xeb;" horiz-adv-x="808" d="M34.5 117q-14.5 65 0.5 164l86 620q12 81 31 131t59 88t107 54t171 16h46q136 0 203.5 -30.5t83 -94.5t-0.5 -164l-65 -463l-445 -6l-22 -153q-6 -45 8.5 -60.5t52.5 -15.5h332l-29 -203q-190 -6 -331 -8q-137 -2 -205 29t-82.5 96zM309 1262l27 196h170l-27 -196h-170z M340 645h195l36 258q6 44 -8 60t-51 16h-51q-38 0 -58 -16.5t-26 -59.5zM569 1262l27 196h170l-27 -196h-170z" />
<glyph unicode="&#xec;" horiz-adv-x="370" d="M-2 0l166 1182h254l-166 -1182h-254zM63 1458h259l69 -209h-170z" />
<glyph unicode="&#xed;" horiz-adv-x="370" d="M-2 0l166 1182h254l-166 -1182h-254zM211 1249l129 209h258l-217 -209h-170z" />
<glyph unicode="&#xee;" horiz-adv-x="370" d="M-2 0l166 1182h254l-166 -1182h-254zM49 1249l162 209h242l104 -209h-172l-68 101l-96 -101h-172z" />
<glyph unicode="&#xef;" horiz-adv-x="370" d="M-2 0l166 1182h254l-166 -1182h-254zM90 1262l27 196h170l-27 -196h-170zM350 1262l27 196h170l-27 -196h-170z" />
<glyph unicode="&#xf0;" horiz-adv-x="817" d="M32 114q-15 63 1 162l88 639q22 149 88.5 212t198.5 63q175 -6 202 -8l2 12q12 78 2 100l-139 -51l-29 100l146 54q-18 33 -82 108l178 58q74 -57 103 -88l131 47l28 -101l-104 -39q37 -75 22 -180l-129 -926q-9 -64 -22.5 -106.5t-39 -79t-65 -56.5t-98.5 -31t-143 -11 h-52q-137 0 -204.5 29.5t-82.5 92.5zM289 281q-6 -44 9 -60t52 -16h51q39 0 57.5 16t24.5 60l97 684h-127q-69 0 -78 -76z" />
<glyph unicode="&#xf1;" horiz-adv-x="821" d="M-4 0l166 1182q239 8 389 8h49q137 0 194.5 -57.5t36.5 -202.5l-131 -930h-256l125 889q12 76 -55 76h-127l-135 -965h-256zM315 1260l31 196h117l170 -63l12 61h117l-33 -197h-117l-163 105l-19 -102h-115z" />
<glyph unicode="&#xf2;" horiz-adv-x="817" d="M34.5 117.5q-14.5 64.5 0.5 163.5l86 620q12 81 31 131t59 88t107 54t171 16h52q137 0 204.5 -30.5t82.5 -94.5t-1 -164l-86 -620q-12 -80 -31 -130t-59 -88.5t-107 -54.5t-171 -16h-51q-137 0 -205 30.5t-82.5 95zM291 283q-7 -45 7.5 -61.5t51.5 -16.5h51 q39 0 58.5 16.5t25.5 61.5l88 618q7 45 -8 60.5t-53 15.5h-51q-38 0 -57 -15.5t-25 -60.5zM313 1458h258l70 -209h-170z" />
<glyph unicode="&#xf3;" horiz-adv-x="817" d="M34.5 117.5q-14.5 64.5 0.5 163.5l86 620q12 81 31 131t59 88t107 54t171 16h52q137 0 204.5 -30.5t82.5 -94.5t-1 -164l-86 -620q-12 -80 -31 -130t-59 -88.5t-107 -54.5t-171 -16h-51q-137 0 -205 30.5t-82.5 95zM291 283q-7 -45 7.5 -61.5t51.5 -16.5h51 q39 0 58.5 16.5t25.5 61.5l88 618q7 45 -8 60.5t-53 15.5h-51q-38 0 -57 -15.5t-25 -60.5zM424 1249l129 209h258l-217 -209h-170z" />
<glyph unicode="&#xf4;" horiz-adv-x="817" d="M34.5 117.5q-14.5 64.5 0.5 163.5l86 620q12 81 31 131t59 88t107 54t171 16h52q137 0 204.5 -30.5t82.5 -94.5t-1 -164l-86 -620q-12 -80 -31 -130t-59 -88.5t-107 -54.5t-171 -16h-51q-137 0 -205 30.5t-82.5 95zM272 1249l162 209h242l104 -209h-172l-67 101l-97 -101 h-172zM291 283q-7 -45 7.5 -61.5t51.5 -16.5h51q39 0 58.5 16.5t25.5 61.5l88 618q7 45 -8 60.5t-53 15.5h-51q-38 0 -57 -15.5t-25 -60.5z" />
<glyph unicode="&#xf5;" horiz-adv-x="817" d="M34.5 117.5q-14.5 64.5 0.5 163.5l86 620q12 81 31 131t59 88t107 54t171 16h52q137 0 204.5 -30.5t82.5 -94.5t-1 -164l-86 -620q-12 -80 -31 -130t-59 -88.5t-107 -54.5t-171 -16h-51q-137 0 -205 30.5t-82.5 95zM291 283q-7 -45 7.5 -61.5t51.5 -16.5h51 q39 0 58.5 16.5t25.5 61.5l88 618q7 45 -8 60.5t-53 15.5h-51q-38 0 -57 -15.5t-25 -60.5zM319 1260l29 196h117l170 -63l12 61h117l-31 -197h-117l-163 105l-19 -102h-115z" />
<glyph unicode="&#xf6;" horiz-adv-x="817" d="M34.5 117.5q-14.5 64.5 0.5 163.5l86 620q12 81 31 131t59 88t107 54t171 16h52q137 0 204.5 -30.5t82.5 -94.5t-1 -164l-86 -620q-12 -80 -31 -130t-59 -88.5t-107 -54.5t-171 -16h-51q-137 0 -205 30.5t-82.5 95zM291 283q-7 -45 7.5 -61.5t51.5 -16.5h51 q39 0 58.5 16.5t25.5 61.5l88 618q7 45 -8 60.5t-53 15.5h-51q-38 0 -57 -15.5t-25 -60.5zM313 1262l27 196h170l-27 -196h-170zM573 1262l27 196h170l-27 -196h-170z" />
<glyph unicode="&#xf7;" horiz-adv-x="698" d="M63 647l25 176h641l-24 -176h-642zM264 367l27 190h170l-27 -190h-170zM340 911l27 191h170l-27 -191h-170z" />
<glyph unicode="&#xf8;" horiz-adv-x="817" d="M-18 -59l75 122q-47 59 -24 218l88 620q12 81 31 131t59 88t107 54t171 16h52q72 0 137 -10l47 84h131l-78 -125q42 -33 52.5 -94t-3.5 -144l-88 -620q-12 -81 -30.5 -130.5t-58.5 -88t-106.5 -54.5t-170.5 -16h-51q-100 0 -166 16l-45 -67h-129zM287 258q0 -31 15 -42 t48 -11h51q39 0 58.5 16.5t25.5 61.5l72 495zM319 487l246 474q-13 16 -53 16h-51q-38 0 -56.5 -15.5t-25.5 -60.5z" />
<glyph unicode="&#xf9;" horiz-adv-x="817" d="M31 254l131 928h256l-125 -887q-6 -40 6 -59t47 -19h127l137 965h256l-168 -1182q-260 -8 -385 -8h-51q-137 0 -194.5 58t-36.5 204zM315 1458h258l68 -209h-170z" />
<glyph unicode="&#xfa;" horiz-adv-x="817" d="M31 254l131 928h256l-125 -887q-6 -40 6 -59t47 -19h127l137 965h256l-168 -1182q-260 -8 -385 -8h-51q-137 0 -194.5 58t-36.5 204zM416 1249l131 209h258l-219 -209h-170z" />
<glyph unicode="&#xfb;" horiz-adv-x="817" d="M31 254l131 928h256l-125 -887q-6 -40 6 -59t47 -19h127l137 965h256l-168 -1182q-260 -8 -385 -8h-51q-137 0 -194.5 58t-36.5 204zM270 1249l164 209h242l102 -209h-172l-67 101l-97 -101h-172z" />
<glyph unicode="&#xfc;" horiz-adv-x="817" d="M31 254l131 928h256l-125 -887q-6 -40 6 -59t47 -19h127l137 965h256l-168 -1182q-260 -8 -385 -8h-51q-137 0 -194.5 58t-36.5 204zM313 1262l29 196h170l-29 -196h-170zM573 1262l29 196h170l-29 -196h-170z" />
<glyph unicode="&#xfd;" horiz-adv-x="829" d="M100 1182h269l20 -873h6l283 873h246l-471 -1442h-242l90 274h-147zM434 1249l129 209h258l-217 -209h-170z" />
<glyph unicode="&#xfe;" horiz-adv-x="821" d="M-39 -252l238 1688h256l-37 -254h217q128 0 172 -63.5t22 -215.5l-84 -608q-22 -156 -86 -227.5t-190 -71.5h-51l-166 4l-35 -252h-256zM283 217h129q35 0 52.5 19t22.5 59l84 594q5 39 -8 57.5t-47 18.5h-129z" />
<glyph unicode="&#xff;" horiz-adv-x="829" d="M100 1182h269l20 -873h6l283 873h246l-471 -1442h-242l90 274h-147zM311 1262l29 196h170l-29 -196h-170zM571 1262l29 196h170l-29 -196h-170z" />
<glyph unicode="&#x152;" horiz-adv-x="1230" d="M31.5 204q-4.5 58 9.5 136l106 754q19 137 60.5 208t121.5 101.5t226 30.5h782l-32 -230h-371l-49 -356h338l-33 -230h-338l-55 -389h370l-30 -229h-783q-87 0 -145.5 10t-98.5 34t-57 63t-21.5 97zM307 311q-7 -56 13 -75t65 -19h141l140 1002h-142q-44 0 -69 -20 t-33 -77z" />
<glyph unicode="&#x153;" horiz-adv-x="1261" d="M34.5 117.5q-14.5 64.5 0.5 163.5l86 620q12 81 31 131t59 88t107 54t171 16h52q127 0 194 -27q77 27 205 27h45q103 0 165.5 -17t92.5 -52t35 -90t-6 -130l-66 -463l-444 -6l-21 -151l-2 -17q-4 -36 10.5 -48.5t51.5 -12.5h332l-29 -203q-191 -8 -332 -8q-132 0 -199 24 q-77 -24 -200 -24h-51q-137 0 -205 30.5t-82.5 95zM291 283q-7 -45 7.5 -61.5t51.5 -16.5h51q37 0 56.5 13.5t25.5 49.5l2 13v2l86 618l4 29q-1 28 -16 37.5t-47 9.5h-51q-38 0 -57 -15.5t-25 -60.5zM793 645h192l37 258q6 44 -8 60t-51 16h-52q-36 0 -56 -14t-26 -50 l-2 -14z" />
<glyph unicode="&#x178;" d="M150 1434h270l80 -576l243 576h271l-422 -891l-76 -543h-270l76 543zM379 1513l29 197h170l-29 -197h-170zM639 1513l29 197h170l-29 -197h-170z" />
<glyph unicode="&#x2c6;" horiz-adv-x="1024" d="M373 1249l162 209h241l105 -209h-172l-68 101l-96 -101h-172z" />
<glyph unicode="&#x2dc;" horiz-adv-x="1024" d="M414 1260l28 196h117l170 -63l12 61h117l-31 -197h-116l-164 105l-19 -102h-114z" />
<glyph unicode="&#x2000;" horiz-adv-x="895" />
<glyph unicode="&#x2001;" horiz-adv-x="1790" />
<glyph unicode="&#x2002;" horiz-adv-x="895" />
<glyph unicode="&#x2003;" horiz-adv-x="1790" />
<glyph unicode="&#x2004;" horiz-adv-x="596" />
<glyph unicode="&#x2005;" horiz-adv-x="447" />
<glyph unicode="&#x2006;" horiz-adv-x="298" />
<glyph unicode="&#x2007;" horiz-adv-x="298" />
<glyph unicode="&#x2008;" horiz-adv-x="223" />
<glyph unicode="&#x2009;" horiz-adv-x="358" />
<glyph unicode="&#x200a;" horiz-adv-x="99" />
<glyph unicode="&#x2010;" horiz-adv-x="595" d="M45 510l29 211h526l-29 -211h-526z" />
<glyph unicode="&#x2011;" horiz-adv-x="595" d="M45 510l29 211h526l-29 -211h-526z" />
<glyph unicode="&#x2012;" horiz-adv-x="595" d="M45 510l29 211h526l-29 -211h-526z" />
<glyph unicode="&#x2013;" horiz-adv-x="817" d="M39 524l27 183h763l-26 -183h-764z" />
<glyph unicode="&#x2014;" horiz-adv-x="1179" d="M39 524l27 183h1126l-27 -183h-1126z" />
<glyph unicode="&#x2018;" horiz-adv-x="354" d="M125 899l33 229q13 89 50 152.5t122 159.5l82 -51q-67 -103 -77 -125q-12 -27 -18 -80h80l-41 -285h-231z" />
<glyph unicode="&#x2019;" horiz-adv-x="354" d="M147 944q7 12 20.5 32t18 27.5t13.5 21.5t11.5 19.5t8 15.5t7 16t5 15t4.5 17t3 18t4 23h-80l41 285h231l-33 -230q-13 -89 -50 -151t-124 -160z" />
<glyph unicode="&#x201a;" horiz-adv-x="354" d="M-14 -205q66 104 76 128q10 25 18 77h-80l41 285h231l-32 -230q-13 -89 -50 -151t-124 -160z" />
<glyph unicode="&#x201c;" horiz-adv-x="649" d="M125 899l33 229q13 89 50 152.5t122 159.5l82 -51q-67 -103 -77 -125q-12 -27 -18 -80h80l-41 -285h-231zM418 899l33 229q13 89 50 152.5t122 159.5l82 -51q-67 -103 -77 -125q-12 -27 -18 -80h80l-41 -285h-231z" />
<glyph unicode="&#x201d;" horiz-adv-x="649" d="M147 944q7 12 20.5 32t18 27.5t13.5 21.5t11.5 19.5t8 15.5t7 16t5 15t4.5 17t3 18t4 23h-80l41 285h231l-33 -230q-13 -89 -50 -151t-124 -160zM440 944q7 12 20.5 32t18 27.5t13.5 21.5t11.5 19.5t8 15.5t7 16t5 15t4.5 17t3 18t4 23h-80l41 285h231l-33 -230 q-13 -89 -50 -151t-124 -160z" />
<glyph unicode="&#x201e;" horiz-adv-x="649" d="M-14 -205q66 104 76 128q10 25 18 77h-80l41 285h231l-32 -230q-13 -89 -50 -151t-124 -160zM279 -205q66 104 76 128q10 25 18 77h-80l41 285h231l-33 -230q-13 -89 -50 -151t-124 -160z" />
<glyph unicode="&#x2022;" horiz-adv-x="575" d="M106 530.5q-6 39.5 5 106.5l24 172q8 59 16.5 88t30.5 53t58 31.5t100 7.5h49q82 0 117 -16t41 -56t-6 -108l-25 -172q-8 -57 -16 -86t-29.5 -52.5t-57.5 -31.5t-98 -8h-49q-83 0 -118.5 16t-41.5 55.5z" />
<glyph unicode="&#x2026;" horiz-adv-x="1062" d="M0 0l41 285h231l-41 -285h-231zM354 0l41 285h232l-41 -285h-232zM709 0l41 285h231l-41 -285h-231z" />
<glyph unicode="&#x202f;" horiz-adv-x="358" />
<glyph unicode="&#x2039;" horiz-adv-x="411" d="M37 578l4 26l250 361h170l-205 -361l-4 -26l102 -361h-170z" />
<glyph unicode="&#x203a;" horiz-adv-x="411" d="M-6 217l205 361l4 26l-105 361h170l150 -361l-4 -26l-250 -361h-170z" />
<glyph unicode="&#x205f;" horiz-adv-x="447" />
<glyph unicode="&#x20ac;" horiz-adv-x="854" d="M33 555l20 141h84l8 70h-84l21 141h84l29 207q9 69 22.5 117.5t36 86.5t51.5 61t73 37.5t97 20t127 5.5l344 -8l-28 -209h-347q-47 0 -73 -20.5t-33 -76.5l-31 -221h385l-20 -141h-385l-8 -70h385l-21 -141h-385l-35 -250q-7 -56 12 -76t66 -20h340l-29 -209 q-223 -8 -342 -8q-74 -1 -125 4.5t-91 19.5t-61 38t-34.5 61t-11 87.5t9.5 116.5l33 236h-84z" />
<glyph unicode="&#x2122;" horiz-adv-x="1015" d="M139 1317l17 117h389l-17 -117h-127l-84 -600h-135l84 600h-127zM475 717l100 717h187l14 -433h2l135 433h189l-101 -717h-131l74 467h-6l-145 -467h-109l-14 467h-4l-60 -467h-131z" />
<glyph unicode="&#xe000;" horiz-adv-x="1177" d="M0 0v1178h1178v-1178h-1178z" />
</font>
</defs>
</svg>
