<?xml version="1.0" standalone="no"?>
<!DOCTYPE svg PUBLIC "-//W3C//DTD SVG 1.1//EN" "http://www.w3.org/Graphics/SVG/1.1/DTD/svg11.dtd" >
<svg>
<metadata>
Created by FontForge 20110222 at Sun Jul  8 15:14:31 2012
 By Stefan Warting
(c) Copyright SoftMaker Software GmbH and its licensors
</metadata>
<defs>
<font id="AntiquaBoldItalic" horiz-adv-x="500" >
  <font-face 
    font-family="Antiqua"
    font-weight="700"
    font-style="italic"
    font-stretch="normal"
    units-per-em="1000"
    panose-1="0 0 7 0 0 0 0 0 0 0"
    ascent="800"
    descent="-200"
    x-height="481"
    cap-height="667"
    bbox="-173 -255 1113 885"
    underline-thickness="62"
    underline-position="-56"
    slope="-11"
    unicode-range="U+0020-FB04"
  />
<missing-glyph 
d="M63 0v788h375v-788h-375zM125 63h250v663h-250v-663z" />
    <glyph glyph-name=".notdef" 
d="M63 0v788h375v-788h-375zM125 63h250v663h-250v-663z" />
    <glyph glyph-name="NULL" horiz-adv-x="0" 
 />
    <glyph glyph-name="nonmarkingreturn" horiz-adv-x="250" 
 />
    <glyph glyph-name="space" unicode=" " horiz-adv-x="250" 
 />
    <glyph glyph-name="exclam" unicode="!" horiz-adv-x="306" 
d="M163 209h-26q23 99 23 162q0 41 -10 145q-2 21 -2 42q0 54 25.5 86.5t68.5 32.5q69 0 69 -71q0 -42 -24 -92q-5 -11 -47 -84q-30 -52 -44.5 -94t-32.5 -127zM132 150q71 0 71 -72q0 -39 -24.5 -63.5t-63.5 -24.5q-72 0 -72 74q0 37 25.5 61.5t63.5 24.5z" />
    <glyph glyph-name="quotedbl" unicode="&#x22;" horiz-adv-x="488" 
d="M243 399h-63l-42 268h147zM463 399h-63l-42 268h147z" />
    <glyph glyph-name="numbersign" unicode="#" horiz-adv-x="452" 
d="M102 0l30 143h-73l16 79h73l52 242h-76l16 80h76l26 123h34l-26 -123h105l26 123h34l-26 -123h73l-17 -80h-72l-52 -242h75l-16 -79h-75l-30 -143h-34l30 143h-105l-30 -143h-34zM182 222h105l52 242h-106z" />
    <glyph glyph-name="dollar" unicode="$" horiz-adv-x="571" 
d="M383 774h32l-21 -98q77 -5 120 -33t43 -74q0 -30 -19.5 -49.5t-50.5 -19.5q-25 0 -41 14.5t-16 36.5q0 14 17 43q5 9 5 18q0 34 -63 40l-52 -242q12 -7 21 -13q86 -55 114 -87q40 -45 40 -108q0 -92 -71.5 -149.5t-192.5 -61.5l-22 -105h-31l22 105q-174 19 -174 117
q0 33 20 54t51 21q26 0 43.5 -16t17.5 -41q0 -21 -25 -53q-5 -6 -5 -17q0 -34 77 -39l55 255q-83 57 -114.5 99.5t-31.5 98.5q0 89 62 144t169 62zM310 427l47 225q-38 -3 -62 -16q-55 -31 -55 -96q0 -55 70 -113zM305 256l-51 -239q49 4 80 22q59 35 59 99q0 35 -19 60.5
t-69 57.5z" />
    <glyph glyph-name="percent" unicode="%" horiz-adv-x="673" 
d="M574 700h43l-472 -733h-42zM256 674q110 0 110 -101q0 -87 -51 -150q-45 -56 -123 -56q-108 0 -108 104q0 37 14.5 79.5t35.5 67.5q46 56 122 56zM254 653q-33 1 -58 -65q-34 -92 -34 -151q0 -50 32 -50q37 0 62 71q32 89 32 142q0 51 -34 53zM527 300q110 0 110 -99
q0 -90 -53 -154q-44 -54 -120 -54q-110 0 -110 106q0 40 16 82.5t41 69.5q45 49 116 49zM525 279q-35 2 -59 -64q-34 -93 -34 -152q0 -50 32 -50q37 0 63 71q32 87 32 142q0 51 -34 53z" />
    <glyph glyph-name="ampersand" unicode="&#x26;" horiz-adv-x="921" 
d="M882 411l-7 -29q-60 -7 -87.5 -22.5t-67.5 -65.5q-51 -64 -73 -86.5t-79 -73.5q80 -94 165 -94q28 0 48 11t20 26q0 10 -21 29q-26 24 -26 53q0 28 20 48t49 20t47 -18t18 -47q0 -70 -69.5 -121t-164.5 -51q-103 0 -198 64q-124 -64 -218 -64q-86 0 -139 47.5t-53 123.5
q0 108 94 178q52 39 142 71q-3 42 -3 53q0 106 72 166q58 48 159 48q143 0 143 -80q0 -48 -45 -89q-40 -36 -135 -69q-12 -4 -45 -16q33 -141 122 -266q89 75 89 150q0 38 -21.5 53t-85.5 22l6 29h344zM422 449q20 9 32 15q92 45 92 128q0 57 -49 57q-38 0 -61.5 -31.5
t-23.5 -81.5q0 -34 10 -87zM287 384q-43 -21 -62 -43q-44 -49 -44 -117q0 -71 48.5 -123.5t112.5 -52.5q36 0 92 26q-119 119 -147 310z" />
    <glyph glyph-name="quotesingle" unicode="'" horiz-adv-x="274" 
d="M248 399h-68l-42 268h152z" />
    <glyph glyph-name="parenleft" unicode="(" horiz-adv-x="354" 
d="M237 -100l-19 -17q-74 61 -105 114q-46 78 -46 191q0 210 124 369q65 84 185 159l15 -19q-78 -62 -127 -153q-43 -79 -70 -194.5t-27 -218.5q0 -142 70 -231z" />
    <glyph glyph-name="parenright" unicode=")" horiz-adv-x="355" 
d="M150 699l19 17q75 -60 106 -114q46 -78 46 -191q0 -210 -124 -369q-65 -84 -186 -159l-14 19q78 62 127 153q43 80 70 195t27 219q0 142 -71 230z" />
    <glyph glyph-name="asterisk" unicode="*" horiz-adv-x="465" 
d="M322 487h-11q16 -29 61 -70q22 -20 22 -45q0 -19 -14 -32.5t-34 -13.5q-22 0 -37 20q-8 11 -9.5 20.5t-1.5 52.5q0 26 -11 57q-23 -24 -48 -80q-17 -37 -48 -37q-19 0 -33.5 14.5t-14.5 32.5q0 19 15 34q12 12 58 27q29 9 53 29q-23 11 -34 14q-14 3 -56 7q-23 2 -38 16
t-15 33t14 33.5t31 14.5q22 0 40 -17l27 -37q16 -22 44 -41q3 18 3 28q0 14 -10 64q-2 10 -2 17q0 22 13 36t33 14t34 -13t14 -31q0 -16 -4.5 -25t-28.5 -41q-15 -20 -26 -55q33 6 86 36q14 10 35 10q19 0 32 -14t13 -34t-14 -33t-36 -13q-12 0 -53 14q-24 8 -49 8z" />
    <glyph glyph-name="plus" unicode="+" horiz-adv-x="574" 
d="M44 263h222l48 226h69l-48 -226h223l-14 -63h-223l-47 -222h-68l47 222h-222z" />
    <glyph glyph-name="comma" unicode="," horiz-adv-x="275" 
d="M-24 -129l-1 19q43 14 66 27q49 28 49 68q0 15 -24 24q-42 16 -42 59q0 34 25.5 58t62.5 24q36 0 57 -22t21 -60q0 -96 -93 -155q-46 -29 -121 -42z" />
    <glyph glyph-name="hyphen" unicode="-" horiz-adv-x="275" 
d="M286 277l-12 -60h-275l13 60h274z" />
    <glyph glyph-name="period" unicode="." horiz-adv-x="275" 
d="M117 150q71 0 71 -70q0 -40 -25 -65t-64 -25q-71 0 -71 72q0 37 25.5 62.5t63.5 25.5z" />
    <glyph glyph-name="slash" unicode="/" horiz-adv-x="356" 
d="M406 699l-364 -800h-55l365 800h54z" />
    <glyph glyph-name="zero" unicode="0" horiz-adv-x="571" 
d="M384 680q179 0 179 -197q0 -84 -24.5 -181t-64.5 -168q-82 -147 -235 -147q-181 0 -181 209q0 84 26.5 183t66.5 162q87 139 233 139zM377 652q-76 0 -132 -192q-23 -78 -43 -189.5t-20 -160.5q0 -95 58 -95q67 0 114 127q32 87 59 219.5t27 203.5q0 87 -63 87z" />
    <glyph glyph-name="one" unicode="1" horiz-adv-x="571" 
d="M478 674l-112 -527q-9 -42 -9 -56q0 -25 21 -42q16 -13 83 -22l-6 -27h-386l6 27q85 9 109.5 33t43.5 114l62 292q6 28 6 37q0 28 -60 28h-82l6 27q157 12 247 116h71z" />
    <glyph glyph-name="two" unicode="2" horiz-adv-x="571" 
d="M501 228l-50 -228h-449q9 83 56 147t145 127q79 51 122 104q65 81 65 167q0 51 -26 79.5t-73 28.5q-32 0 -56 -14.5t-24 -33.5q0 -9 19 -27t19 -45q0 -30 -22.5 -51.5t-53.5 -21.5q-29 0 -48.5 20.5t-19.5 51.5q0 60 55 103q59 46 164 46q102 0 158 -39.5t56 -112.5
q0 -102 -96 -181q-53 -44 -180 -97q-72 -30 -103.5 -53.5t-59.5 -66.5h268q51 0 74 23q12 13 40 74h20z" />
    <glyph glyph-name="three" unicode="3" horiz-adv-x="571" 
d="M183 342l6 30q24 -2 46 -2q58 0 97 29q32 24 52.5 68.5t20.5 90.5q0 94 -86 94q-28 0 -48.5 -11t-20.5 -26q0 -7 18.5 -23t18.5 -43q0 -29 -21 -49.5t-51 -20.5q-28 0 -46.5 19t-18.5 48q0 59 59 96.5t150 37.5q89 0 137.5 -35t48.5 -100q0 -94 -93 -144
q-43 -23 -142 -40q77 -10 116 -31q72 -39 72 -120q0 -94 -78.5 -158.5t-213.5 -64.5q-87 0 -136.5 31.5t-49.5 86.5q0 36 22 59t56 23q28 0 45.5 -17t17.5 -45q0 -18 -5.5 -27.5t-30.5 -32.5q-7 -7 -7 -16q0 -14 18.5 -24t44.5 -10q65 0 108 50q59 69 59 171q0 72 -59 97
q-23 10 -75 10q-16 0 -31 -1z" />
    <glyph glyph-name="four" unicode="4" horiz-adv-x="571" 
d="M525 671l-93 -438h98l-30 -60h-81l-37 -173l-142 -21l41 194h-257l3 12q118 179 382 486h116zM354 517l14 66q-7 -9 -41 -53q-89 -114 -132 -172l-36 -48q-11 -14 -21 -27q-22 -28 -38 -50h194q8 38 38 178q10 48 22 106z" />
    <glyph glyph-name="five" unicode="5" horiz-adv-x="571" 
d="M125 327l78 342q98 -22 209 -22q113 0 173 30l6 -6q-33 -77 -70 -107q-58 -48 -180 -48q-61 0 -134 12l-45 -170q73 48 154 48q87 0 139.5 -45t52.5 -119q0 -116 -90 -191q-77 -64 -202 -64q-85 0 -136 32.5t-51 87.5q0 34 21.5 56.5t54.5 22.5q29 0 47 -17t18 -44
q0 -26 -35 -60q-7 -7 -7 -16q0 -14 18 -24t46 -10q68 0 118 69.5t50 164.5q0 55 -26 88.5t-68 33.5q-63 0 -120 -63z" />
    <glyph glyph-name="six" unicode="6" horiz-adv-x="571" 
d="M236 359q71 59 148 59q69 0 109.5 -41.5t40.5 -112.5q0 -118 -80 -197.5t-198 -79.5q-190 0 -190 200q0 116 42 227.5t113 181.5q85 84 210 84q64 0 102.5 -26.5t38.5 -70.5q0 -35 -23 -58.5t-57 -23.5q-28 0 -45 15.5t-17 40.5q0 26 19.5 45.5t19.5 28.5q0 21 -39 21
q-75 0 -126 -87q-33 -57 -68 -206zM328 377q-53 0 -89 -65q-47 -85 -47 -183q0 -114 72 -114q46 0 74 50q56 100 56 221q0 41 -18 66t-48 25z" />
    <glyph glyph-name="seven" unicode="7" horiz-adv-x="571" 
d="M117 435l48 232q134 -10 228 -10q91 0 212 10q-22 -86 -56 -144.5t-100 -125.5q-69 -70 -99 -128.5t-49 -160.5q-13 -68 -28 -89q-23 -32 -68 -32q-73 0 -73 73q0 85 77 177q49 58 143 127q79 58 114 93.5t54 77.5q-71 -6 -134 -6q-54 0 -122 4q-34 2 -35 2
q-39 0 -60 -36q-5 -9 -31 -64h-21z" />
    <glyph glyph-name="eight" unicode="8" horiz-adv-x="571" 
d="M381 352q54 -13 79 -30q58 -39 58 -115q0 -92 -71 -155q-74 -65 -205 -65q-95 0 -146.5 40t-51.5 115q0 51 26 96.5t71 72.5q41 24 118 41q-54 18 -79 38q-42 35 -42 96q0 88 76 146q64 49 167 49q88 0 137 -38t49 -106q0 -81 -65 -133q-40 -32 -121 -52zM382 653
q-46 0 -76 -48q-45 -71 -45 -151q0 -92 61 -92q47 0 76 48q44 72 44 160q0 83 -60 83zM315 336q-58 0 -96 -79q-15 -31 -26.5 -78.5t-11.5 -76.5q0 -87 66 -87q65 0 102 88q31 73 31 146q0 87 -65 87z" />
    <glyph glyph-name="nine" unicode="9" horiz-adv-x="571" 
d="M386 322q-72 -63 -145 -63q-68 0 -109.5 42t-41.5 110q0 64 29 123.5t78 95.5q68 50 164 50q192 0 192 -201q0 -83 -25.5 -174t-67.5 -159q-99 -159 -265 -159q-69 0 -109.5 31t-40.5 83q0 37 22 59.5t57 22.5q28 0 45 -16t17 -42q0 -20 -11 -35q-5 -7 -27 -26
q-9 -8 -9 -17q0 -13 17 -22.5t39 -9.5q53 0 92 48t72 155q11 35 27 104zM365 652q-46 0 -79 -56q-56 -96 -56 -196q0 -98 67 -98q66 0 104 98q28 75 28 154q0 98 -64 98z" />
    <glyph glyph-name="colon" unicode=":" horiz-adv-x="275" 
d="M118 150q32 0 51.5 -19t19.5 -52q0 -39 -25 -64t-65 -25q-71 0 -71 72q0 37 26 62.5t64 25.5zM185 470q71 0 71 -70q0 -40 -25 -65t-64 -25q-71 0 -71 72q0 37 25.5 62.5t63.5 25.5z" />
    <glyph glyph-name="semicolon" unicode=";" horiz-adv-x="275" 
d="M-24 -129l-1 19q45 15 66 27q49 29 49 68q0 15 -24 24q-42 16 -42 59q0 35 25.5 58.5t62.5 23.5q36 0 57 -22t21 -60q0 -96 -93 -155q-46 -29 -121 -42zM182 470q71 0 71 -71q0 -39 -25 -64t-64 -25q-71 0 -71 72q0 37 25.5 62.5t63.5 25.5z" />
    <glyph glyph-name="less" unicode="&#x3c;" horiz-adv-x="539" 
d="M9 204v46l461 180l36 -53l-383 -151l383 -151l-48 -54z" />
    <glyph glyph-name="equal" unicode="=" horiz-adv-x="587" 
d="M64 335h516l-13 -64h-516zM35 197h516l-14 -65h-516z" />
    <glyph glyph-name="greater" unicode="&#x3e;" horiz-adv-x="539" 
d="M532 248v-46l-449 -183l-48 54l383 151l-383 151l36 53z" />
    <glyph glyph-name="question" unicode="?" horiz-adv-x="455" 
d="M158 185h-26q1 83 23.5 123t102.5 101q94 72 94 147q0 43 -22 70t-56 27q-21 0 -37.5 -10.5t-16.5 -23.5q0 -5 15 -30q8 -14 8 -29q0 -26 -20 -44.5t-49 -18.5q-28 0 -45 17t-17 45q0 53 50.5 85.5t131.5 32.5q87 0 135 -37t48 -104q0 -77 -55 -130q-23 -22 -41 -32
q-21 -12 -99.5 -46.5t-97 -55.5t-26.5 -87zM145 149q71 0 71 -71q0 -40 -23.5 -64t-63.5 -24q-73 0 -73 72q0 38 25 62.5t64 24.5z" />
    <glyph glyph-name="at" unicode="@" horiz-adv-x="681" 
d="M467 473l70 9l-49 -228q-7 -33 -7 -53q0 -39 37 -39q46 0 79 58.5t33 140.5q0 98 -61 156t-165 58q-129 0 -209 -85t-80 -222q0 -116 65.5 -184t178.5 -68q116 0 214 84l-5 -28q-102 -85 -228 -85q-130 0 -209.5 75.5t-79.5 198.5q0 147 99 243t250 96q122 0 196.5 -65
t74.5 -171q0 -91 -53.5 -161.5t-122.5 -70.5q-77 0 -77 87q-55 -84 -121 -84q-46 0 -72 32.5t-26 89.5q0 94 51 161.5t121 67.5q59 0 84 -54zM389 460q-43 0 -75 -57q-39 -69 -39 -155q0 -76 52 -76q45 0 73 59q14 29 27 82.5t13 82.5q0 28 -14 46t-37 18z" />
    <glyph glyph-name="A" unicode="A" horiz-adv-x="674" 
d="M520 667l54 -528q6 -62 24.5 -85.5t61.5 -26.5l-6 -27h-319l5 27q52 8 67.5 20t15.5 44q0 21 -6 82l-6 61h-215l-45 -84q-33 -62 -33 -80q0 -20 17 -31q11 -7 45 -12l-6 -27h-236l6 27q50 5 88 43.5t102 144.5q106 174 269 452h117zM381 564l-165 -295h192z" />
    <glyph glyph-name="B" unicode="B" horiz-adv-x="707" 
d="M134 667h369q181 0 181 -127q0 -89 -84 -141q-44 -28 -124 -45q77 -10 112 -31q64 -38 64 -114q0 -58 -33 -106.5t-88 -73.5q-64 -29 -166 -29h-371l6 27l22 3q45 6 59.5 24.5t28.5 86.5l79 374q5 22 7 29q7 35 7 53q0 34 -50 40l-25 3zM368 632l-56 -264q67 0 102 7
q50 10 83 58.5t33 112.5q0 46 -29 66.5t-94 20.5q-23 0 -39 -1zM305 336l-64 -300q120 0 164 26q39 23 63 71t24 102q0 56 -34.5 79t-118.5 23q-19 0 -34 -1z" />
    <glyph glyph-name="C" unicode="C" horiz-adv-x="684" 
d="M723 672l-51 -238h-31q-11 114 -47 164.5t-104 50.5q-98 0 -153 -90q-50 -82 -81 -188t-31 -194q0 -68 40.5 -113t101.5 -45q74 0 139 54q30 25 82 77l37 -34q-62 -71 -126.5 -100t-158.5 -29q-279 0 -279 246q0 109 47.5 211.5t124.5 159.5q103 76 248 76q87 0 182 -37
l41 29h19z" />
    <glyph glyph-name="D" unicode="D" horiz-adv-x="772" 
d="M134 667h357q262 0 262 -243q0 -111 -47.5 -209t-127.5 -152q-93 -63 -234 -63h-350l6 27l22 3q45 6 59 24.5t29 86.5l79 373q3 11 7 30q7 32 7 52q0 32 -50 40l-25 4zM241 36h37q76 0 119 15.5t75 54.5q54 65 85 164t31 205q0 110 -84 142q-43 16 -136 15z" />
    <glyph glyph-name="E" unicode="E" horiz-adv-x="668" 
d="M680 667l-41 -216h-33q-16 105 -40 140q-29 41 -93 41h-105l-55 -260h57q28 0 42.5 7t31.5 28q21 27 44 82h26l-60 -282h-26q-2 87 -12.5 109.5t-50.5 22.5h-59l-65 -303h97q99 0 158 61q35 36 98 149h34l-52 -246h-581l6 27l21 3q45 6 59.5 24.5t28.5 86.5l86 403
q7 30 7 52q0 34 -50 40l-25 3l6 28h546z" />
    <glyph glyph-name="F" unicode="F" horiz-adv-x="620" 
d="M672 667l-42 -216h-32q-15 102 -39 136q-31 45 -110 45h-81l-56 -260h59q42 0 65 23t51 94h28l-60 -283h-28q1 14 1 32q0 61 -12 81.5t-49 20.5h-61l-40 -187q-3 -13 -7 -30q-7 -34 -7 -52q0 -32 50 -40l26 -4l-6 -27h-327l6 27l20 4q47 9 61 26t28 84l79 373
q13 61 13 82q0 34 -49 40l-25 3l6 28h538z" />
    <glyph glyph-name="G" unicode="G" horiz-adv-x="777" 
d="M739 672l-51 -238h-30q-15 106 -41 152q-36 63 -114 63q-132 0 -206 -182q-27 -66 -46 -156.5t-19 -153.5q0 -139 129 -139q82 0 128 65q14 20 29.5 72t15.5 82q0 22 -22 33q-18 9 -68 16l6 27h329l-6 -27q-56 -9 -71 -23t-27 -69l-44 -206h-21q-5 7 -12 16
q-15 21 -30 21q-7 0 -73 -17q-82 -21 -162 -21q-130 0 -194 58q-69 63 -69 174q0 81 27 166.5t70 145.5q109 149 324 149q106 0 188 -36l42 28h18z" />
    <glyph glyph-name="H" unicode="H" horiz-adv-x="812" 
d="M312 368h251l34 159q11 51 11 68q0 33 -46 41l-23 4l6 27h320l-6 -27l-20 -3q-45 -7 -59 -25t-29 -86l-80 -374q-13 -61 -13 -82q0 -31 49 -39l25 -4l-6 -27h-320l6 27l18 3q44 7 57.5 25t28.5 88l40 190h-252l-38 -181q-3 -12 -7 -29q-7 -35 -7 -52q0 -34 48 -41l21 -3
l-6 -27h-320l6 27l20 3q46 7 60.5 25t28.5 86l79 373q13 61 13 82q0 32 -49 40l-25 4l6 27h319l-6 -27l-14 -3q-47 -10 -60.5 -27t-27.5 -84z" />
    <glyph glyph-name="I" unicode="I" horiz-adv-x="406" 
d="M327 27l-6 -27h-326l6 27l20 3q46 7 60.5 25t28.5 86l79 373q13 61 13 82q0 32 -49 40l-25 4l6 27h325l-5 -27l-21 -3q-45 -6 -59.5 -24.5t-28.5 -86.5l-79 -373q-2 -12 -7 -30q-7 -35 -7 -52q0 -32 50 -40z" />
    <glyph glyph-name="J" unicode="J" horiz-adv-x="391" 
d="M-108 -164l5 21q89 -2 139 59q22 27 36 69q13 37 33 133l84 396q2 8 7 30q7 29 7 52q0 32 -50 39l-37 5l6 27h329l-6 -27l-12 -3q-48 -12 -61 -28t-27 -83l-70 -328q-24 -111 -44.5 -164.5t-54.5 -91.5q-41 -46 -112 -77t-135 -31q-3 0 -37 2z" />
    <glyph glyph-name="K" unicode="K" horiz-adv-x="724" 
d="M708 27l-6 -27h-244l5 20q1 4 1 7q0 12 -9 32l-118 266l-45 -37l-32 -148q-10 -46 -10 -69q0 -31 45 -39l29 -5l-6 -27h-323l6 27l21 4q46 9 60 25.5t28 84.5l82 386q10 47 10 69q0 31 -45 39l-29 5l6 27h323l-6 -27l-20 -3q-45 -7 -59 -25t-29 -86l-41 -189
q116 97 197 172q56 52 71 69.5t15 33.5q0 24 -51 28l6 27h248l-6 -27q-66 -6 -164 -85l-161 -129l135 -298q24 -54 46.5 -73.5t69.5 -27.5z" />
    <glyph glyph-name="L" unicode="L" horiz-adv-x="606" 
d="M592 246l-52 -246h-545l6 27l20 3q46 7 60.5 25t28.5 86l79 373q13 61 13 82q0 32 -49 40l-25 4l6 27h326l-6 -27l-21 -4q-46 -9 -60 -26t-28 -84l-104 -490h68q90 0 145 55q41 41 104 155h34z" />
    <glyph glyph-name="M" unicode="M" horiz-adv-x="917" 
d="M381 667l66 -507l278 507h243l-6 -27q-59 -8 -74.5 -22.5t-27.5 -72.5l-90 -422q-7 -30 -7 -52q0 -32 50 -40l25 -4l-6 -27h-321l6 27l22 3q45 6 59.5 24.5t28.5 86.5l95 449l-176 -322q-37 -74 -83 -160q-14 -28 -57 -108h-90l-76 580l-71 -356q-20 -100 -20 -136
q0 -50 74 -61l-6 -27h-239l6 27q64 6 91.5 44.5t55.5 164.5l65 296q9 41 9 51q0 27 -18.5 39.5t-64.5 17.5l6 27h253z" />
    <glyph glyph-name="N" unicode="N" horiz-adv-x="749" 
d="M370 667l206 -505l48 233q29 141 29 181q0 32 -15.5 45t-61.5 19l5 27h235l-5 -27q-69 -10 -89 -39t-51 -165l-101 -436h-97l-233 574l-74 -375q-17 -86 -17 -114q0 -27 19 -40q13 -9 60 -18l-6 -27h-240l6 27q66 11 87 38t48 142l71 306q12 52 12 70q0 28 -20 40
q-13 8 -65 17l6 27h243z" />
    <glyph glyph-name="O" unicode="O" horiz-adv-x="782" 
d="M489 680q280 0 280 -238q0 -103 -39.5 -201.5t-104.5 -159.5q-101 -94 -283 -94q-281 0 -281 252q0 92 44.5 194t109.5 159q101 88 274 88zM487 649q-105 0 -179 -158q-33 -71 -58 -168t-25 -155q0 -150 124 -150q121 0 180 149q77 194 77 346q0 64 -31.5 100t-87.5 36z
" />
    <glyph glyph-name="P" unicode="P" horiz-adv-x="666" 
d="M291 273l-25 -120q-3 -12 -7 -30q-7 -35 -7 -52q0 -33 50 -40l30 -4l-6 -27h-331l6 27l20 4q46 9 60.5 26.5t28.5 83.5l79 373q13 61 13 82q0 34 -49 40l-25 3l6 28h367q86 0 127 -26q60 -38 60 -111q0 -71 -41 -131.5t-109 -89.5q-81 -35 -247 -36zM368 632l-70 -329
q50 2 72 8t49 23q108 70 108 204q0 50 -25.5 72t-84.5 22h-49z" />
    <glyph glyph-name="Q" unicode="Q" horiz-adv-x="784" 
d="M789 -41l14 -12q-92 -141 -209 -141q-52 0 -92 22t-111 89q-47 44 -72.5 57.5t-76.5 22.5q-82 14 -125 64q-55 63 -55 163q0 105 42 206.5t110 161.5q100 88 276 88q279 0 279 -232q0 -107 -41.5 -210t-107.5 -163q-54 -49 -158 -76q114 -92 199 -92q75 0 128 52z
M487 649q-105 0 -179 -158q-33 -71 -58 -168t-25 -155q0 -150 124 -150q120 0 180 149q34 84 55.5 181t21.5 164q0 65 -31.5 101t-87.5 36z" />
    <glyph glyph-name="R" unicode="R" horiz-adv-x="715" 
d="M304 334l-38 -181q-14 -67 -14 -82q0 -33 50 -40l30 -4l-6 -27h-331l6 27l20 3q46 7 60.5 25t28.5 86l79 373q13 61 13 82q0 34 -49 40l-25 3l6 28h368q194 0 194 -124q0 -91 -87 -147q-48 -31 -155 -51q91 -18 118.5 -44.5t27.5 -83.5q0 -17 -1 -49.5t-1 -49.5
q0 -64 32 -64q19 0 41 16l13 -20q-67 -59 -134 -59q-110 0 -110 113q0 28 4 66q5 47 5 72q0 57 -37 77q-28 15 -108 15zM311 367h36q86 0 126 33q64 53 64 143q0 89 -110 89h-59z" />
    <glyph glyph-name="S" unicode="S" horiz-adv-x="584" 
d="M585 671l-44 -209h-30q-13 187 -151 187q-52 0 -84 -30.5t-32 -79.5q0 -47 35 -79q27 -25 109 -68q91 -48 120 -83q32 -39 32 -96q0 -98 -79 -162.5t-199 -64.5q-83 0 -189 37l-41 -29h-20l54 252h32q8 -92 31 -138q44 -90 141 -90q58 0 98 37t40 91q0 45 -32 72
q-25 21 -104.5 61.5t-111.5 78.5q-37 45 -37 108q0 95 68 154.5t176 59.5q68 0 171 -31l29 22h18z" />
    <glyph glyph-name="T" unicode="T" horiz-adv-x="626" 
d="M712 667l-41 -216h-32q-12 93 -36 133q-28 48 -96 48h-35l-102 -479q-13 -61 -13 -82q0 -32 49 -40l26 -4l-6 -27h-327l6 27l21 3q45 6 59.5 24.5t28.5 86.5l104 491q-80 2 -120 -29t-113 -152h-32l49 216h610z" />
    <glyph glyph-name="U" unicode="U" horiz-adv-x="752" 
d="M819 667l-5 -27q-51 -7 -72.5 -31.5t-38.5 -95.5l-58 -245q-35 -147 -86 -200q-78 -81 -221 -81q-224 0 -224 170q0 30 7 63l63 294q13 61 13 82q0 32 -49 40l-24 4l6 27h323l-5 -27l-20 -3q-45 -7 -59.5 -25t-28.5 -86l-63 -297q-11 -52 -11 -81q0 -52 38.5 -84
t100.5 -32q100 0 152 89q20 34 32 78.5t41 193.5q10 46 19 93q11 55 11 94q0 28 -16 40t-60 20l6 27h229z" />
    <glyph glyph-name="V" unicode="V" horiz-adv-x="654" 
d="M313 -10h-110l-59 542q-7 65 -21 82.5t-66 25.5l6 27h316l-6 -27q-45 -6 -61 -22.5t-16 -56.5q0 -17 2 -38l40 -428l171 307q27 46 53 92q40 74 40 100q0 23 -16 33q-11 7 -44 13l6 27h229l-6 -27q-45 -5 -72 -32.5t-105 -149.5q-149 -231 -281 -468z" />
    <glyph glyph-name="W" unicode="W" horiz-adv-x="940" 
d="M277 -10h-103l-31 552q-3 62 -15.5 77t-66.5 21l6 27h315l-5 -27q-46 -3 -63 -20.5t-17 -62.5q0 -9 1 -32l17 -383q170 370 233 525h122l23 -524l121 259q73 156 73 194q0 36 -61 44l6 27h227l-5 -27q-45 -5 -73.5 -34.5t-78.5 -122.5q-40 -74 -92 -179l-55 -111
q-21 -39 -63 -123q-20 -42 -38 -80h-105l-26 503z" />
    <glyph glyph-name="X" unicode="X" horiz-adv-x="641" 
d="M615 27l-6 -27h-325l6 27q67 7 67 48q0 24 -17 74l-47 137l-95 -121q-51 -65 -51 -97q0 -33 61 -41l-6 -27h-253l6 27q56 8 100.5 43t140.5 150l86 103l-69 201q-24 71 -43 91.5t-65 24.5l5 27h305l-5 -27q-28 -5 -39 -11q-21 -11 -21 -34q0 -15 17 -62l42 -117
q49 57 94 120q40 56 40 76q0 23 -49 28l6 27h222l-5 -25q-45 -6 -77 -28q-35 -25 -100 -99l-118 -135l87 -251q19 -54 42 -76t64 -26z" />
    <glyph glyph-name="Y" unicode="Y" horiz-adv-x="597" 
d="M507 667h213l-6 -27q-39 -3 -67 -26.5t-103 -118.5l-169 -214l-34 -158q-7 -35 -7 -52q0 -34 50 -40l33 -4l-6 -27h-337l6 27l24 3q45 6 59 24t29 87l28 131l-75 274q-16 59 -31 75t-57 19l6 27h311l-6 -27q-44 -9 -57.5 -19t-13.5 -34q0 -21 5 -39l62 -229
q114 150 151 206.5t37 80.5q0 29 -51 34z" />
    <glyph glyph-name="Z" unicode="Z" horiz-adv-x="655" 
d="M623 246l-53 -246h-576l6 27l484 605h-104q-92 0 -137 -40q-38 -33 -98 -141h-32l49 216h519l-5 -22l-480 -609h149q76 0 121 35q28 21 47.5 49.5t75.5 125.5h34z" />
    <glyph glyph-name="bracketleft" unicode="[" horiz-adv-x="364" 
d="M182 699h236l-8 -35l-131 -4l-154 -722l130 -4l-7 -35h-236z" />
    <glyph glyph-name="backslash" unicode="\" horiz-adv-x="466" 
d="M176 699l171 -800h-54l-172 800h55z" />
    <glyph glyph-name="bracketright" unicode="]" horiz-adv-x="364" 
d="M217 -101h-236l7 35l132 4l153 722l-129 4l7 35h236z" />
    <glyph glyph-name="asciicircum" unicode="^" horiz-adv-x="443" 
d="M162 433l-62 19l141 246h50l150 -246l-63 -19l-111 182z" />
    <glyph glyph-name="underscore" unicode="_" horiz-adv-x="573" 
d="M-59 -56h573v-62h-573v62z" />
    <glyph glyph-name="grave" unicode="`" 
d="M385 541l-14 -14l-153 88q-36 21 -36 42q0 17 11.5 29.5t26.5 12.5q17 0 42 -27z" />
    <glyph glyph-name="a" unicode="a" horiz-adv-x="642" 
d="M574 474l-54 -254q-24 -113 -24 -136q0 -38 26 -38q44 0 90 107l20 -5q-27 -67 -58 -104q-47 -56 -115 -56q-90 0 -99 101q-69 -100 -169 -100q-71 0 -109.5 44t-38.5 125q0 75 29.5 145.5t81.5 118.5q64 59 157 59q45 0 70.5 -14.5t43.5 -49.5l11 51zM346 449
q-72 0 -116 -127q-32 -91 -36 -185q-2 -45 13 -72t43 -27q70 0 111 115q47 131 47 216q0 36 -17 58t-45 22z" />
    <glyph glyph-name="b" unicode="b" horiz-adv-x="571" 
d="M294 705l-66 -311q76 87 166 87q144 0 144 -159q0 -79 -31.5 -153.5t-83.5 -119.5q-70 -60 -185 -60q-189 0 -189 147q0 40 27 167l49 231q14 66 14 88q0 18 -17 25q-12 5 -69 7l5 22zM336 433q-30 3 -61 -27t-51 -81q-15 -39 -31 -112.5t-18 -116.5q-2 -35 15 -58
t45 -23q59 0 99 88q22 49 38 120t16 121q0 84 -52 89z" />
    <glyph glyph-name="c" unicode="c" horiz-adv-x="494" 
d="M444 149l19 -10q-47 -71 -93 -103q-67 -47 -153 -47q-82 0 -128 46.5t-46 129.5q0 74 28 143.5t74 109.5q72 63 194 63q147 0 147 -81q0 -33 -20.5 -55.5t-51.5 -22.5q-26 0 -43 15.5t-17 38.5t19 44q9 10 9 18q0 18 -31 18q-51 0 -90 -67q-65 -112 -65 -245
q0 -111 82 -111q83 0 166 116z" />
    <glyph glyph-name="d" unicode="d" horiz-adv-x="637" 
d="M618 705l-103 -485q-23 -108 -23 -136q0 -37 26 -37q45 0 90 106l20 -5q-29 -71 -57 -104q-47 -55 -112 -55q-53 0 -81 37q-16 21 -19 63q-66 -100 -170 -100q-71 0 -109.5 43t-38.5 122q0 77 31.5 150.5t84.5 120.5q64 56 151 56q84 0 116 -63l25 116q14 65 14 88
q0 19 -17 25q-9 5 -69 7l5 22zM344 448q-53 0 -83 -54q-27 -47 -46.5 -120.5t-22.5 -137.5q-2 -44 13 -71t43 -27q32 0 62 29.5t48 78.5t33 118t15 105q0 35 -17 57t-45 22z" />
    <glyph glyph-name="e" unicode="e" horiz-adv-x="512" 
d="M444 149l19 -10q-47 -70 -92 -102q-67 -48 -154 -48q-83 0 -128 46t-45 131q0 78 29.5 147t79.5 110q71 58 187 58q151 0 151 -97q0 -45 -31.5 -86t-86.5 -68q-66 -32 -174 -39q-4 -37 -4 -54q0 -104 80 -104q86 0 169 116zM202 213q7 1 29 7q82 21 124 81q37 53 37 106
q0 49 -43 49q-58 0 -97 -78q-30 -61 -50 -165z" />
    <glyph glyph-name="f" unicode="f" horiz-adv-x="404" 
d="M56 426l7 29h100q36 119 82 172q68 78 165 78q56 0 89.5 -24.5t33.5 -65.5q0 -31 -18.5 -51t-47.5 -20q-24 0 -41 14.5t-17 36.5q0 20 21 45q6 7 6 17q0 23 -27 23q-65 0 -98 -158l-14 -67h124l-6 -29h-124l-45 -239q-38 -201 -97 -291q-69 -104 -191 -104q-55 0 -89 24
t-34 63q0 30 19 50t48 20q24 0 39.5 -14.5t15.5 -37.5q0 -14 -16 -42q-4 -7 -4 -15q0 -23 29 -23q53 0 81 70q13 35 32 131l79 408h-102z" />
    <glyph glyph-name="g" unicode="g" horiz-adv-x="586" 
d="M571 475l-84 -401q-25 -118 -65 -173q-80 -109 -241 -109q-157 0 -157 101q0 32 19.5 52.5t48.5 20.5q26 0 43.5 -15.5t17.5 -38.5q0 -21 -25 -50q-6 -7 -6 -15q0 -13 18 -22t43 -9q79 0 117 69q19 34 33 101l20 94q-41 -50 -78 -70.5t-86 -20.5q-67 0 -107 46.5
t-40 123.5q0 75 30.5 146t82.5 118q64 58 155 58q85 0 115 -64l12 52zM345 448q-51 2 -84 -55q-27 -47 -46.5 -119t-22.5 -137q-2 -44 13 -71t43 -27q70 0 112 114q46 126 46 216q0 76 -61 79z" />
    <glyph glyph-name="h" unicode="h" horiz-adv-x="611" 
d="M151 0h-133l114 534q14 66 14 88q0 19 -17 25q-9 5 -69 7l5 22l236 29l-78 -368q43 73 80 104q48 40 109 40q49 0 78 -26.5t29 -70.5q0 -30 -11 -79l-19 -85q-23 -103 -23 -137q0 -37 25 -37q45 0 91 107l21 -5q-29 -69 -58 -104q-48 -56 -112 -56q-47 0 -76 29t-29 76
q0 63 51 243q11 39 11 64q0 36 -31 36q-60 0 -122 -131q-36 -76 -55 -163z" />
    <glyph glyph-name="i" unicode="i" horiz-adv-x="355" 
d="M288 479l-55 -259q-24 -113 -24 -136q0 -38 26 -38q45 0 91 107l20 -5q-28 -70 -57 -104q-48 -56 -115 -56q-46 0 -73 26.5t-27 70.5q0 26 12 83l30 142q13 62 13 81q0 20 -16 28q-12 6 -73 6l5 22zM249 682q29 0 47 -17.5t18 -45.5q0 -33 -23 -56t-56 -23
q-29 0 -47.5 18.5t-18.5 47.5q0 32 23 54t57 22z" />
    <glyph glyph-name="j" unicode="j" horiz-adv-x="327" 
d="M309 479l-74 -379q-60 -308 -281 -308q-60 0 -93.5 23.5t-33.5 65.5q0 31 19.5 51t48.5 20q25 0 41 -14.5t16 -37.5q0 -20 -22 -47q-5 -6 -5 -14q0 -22 31 -22q43 0 70 43t49 147l57 266q21 98 21 118t-16 28q-12 6 -74 6l5 22zM271 682q29 0 47 -17.5t18 -45.5
q0 -33 -23 -56t-56 -23q-29 0 -47.5 18.5t-18.5 47.5q0 31 23.5 53.5t56.5 22.5z" />
    <glyph glyph-name="k" unicode="k" horiz-adv-x="598" 
d="M149 0h-133l114 535q14 66 14 87q0 19 -17 25q-9 5 -69 7l5 22l236 29l-78 -367q44 69 84 102q60 50 134 50q43 0 69 -20.5t26 -55.5q0 -55 -53.5 -97.5t-149.5 -62.5q73 -4 103 -21t30 -52q0 -17 -5 -49.5t-5 -48.5q0 -37 25 -37q44 0 91 106l20 -5q-28 -72 -58 -106
q-45 -52 -121 -52q-102 0 -102 94q0 21 10 92q1 3 1 11q0 46 -66 46q-23 0 -57 -6zM203 253q18 2 50 6q164 19 164 115q0 20 -15 33.5t-38 13.5q-56 0 -101 -59q-26 -34 -60 -109z" />
    <glyph glyph-name="l" unicode="l" horiz-adv-x="320" 
d="M301 704l-103 -485q-24 -113 -24 -135q0 -38 26 -38q45 0 90 107l21 -5q-27 -67 -58 -104q-46 -55 -114 -55q-44 0 -70.5 27t-26.5 71q0 27 11 79l78 368q14 66 14 87q0 18 -17 26q-11 5 -68 7l4 22z" />
    <glyph glyph-name="m" unicode="m" horiz-adv-x="950" 
d="M277 334v-8q84 155 190 155q47 0 74.5 -29t27.5 -79q0 -10 -2 -40q48 82 89 115t96 33q47 0 76 -29t29 -76q0 -28 -8 -63l-21 -93q-24 -106 -24 -137q0 -37 26 -37q45 0 90 107l21 -5q-28 -71 -57 -104q-48 -55 -114 -55q-46 0 -75 29.5t-29 76.5q0 52 51 246
q10 38 10 60q0 36 -28 36q-43 0 -93.5 -84.5t-74.5 -197.5l-33 -155h-137l73 343q8 36 8 55q0 38 -31 38q-38 0 -82 -70q-60 -96 -84 -215l-30 -151h-136l59 279q21 99 21 126q0 33 -26 33q-42 0 -94 -106l-20 6q63 144 153 144q67 0 91 -53q14 -31 14 -95z" />
    <glyph glyph-name="n" unicode="n" horiz-adv-x="676" 
d="M215 0h-136l59 279q21 99 21 126q0 33 -26 33q-42 0 -94 -106l-20 6q34 77 70 110t87 33q105 0 105 -124q0 -17 -1 -31q42 77 79 110q50 45 116 45q107 0 107 -104q0 -25 -7 -58l-21 -99q-24 -113 -24 -136q0 -38 26 -38q44 0 90 107l21 -5q-27 -69 -57 -104
q-48 -56 -114 -56q-46 0 -75 28.5t-29 74.5q0 53 52 249q10 38 10 59q0 36 -33 36q-48 0 -99.5 -87t-78.5 -215z" />
    <glyph glyph-name="o" unicode="o" horiz-adv-x="590" 
d="M347 481q205 0 205 -169q0 -72 -28.5 -141.5t-76.5 -113.5q-73 -68 -209 -68q-102 0 -149 43t-47 136q0 71 34.5 145t86.5 115q67 53 184 53zM346 456q-66 0 -111 -119q-16 -43 -30.5 -117t-14.5 -115q0 -92 62 -92q52 0 90 68q22 40 42 132.5t20 156.5q0 86 -58 86z" />
    <glyph glyph-name="p" unicode="p" horiz-adv-x="640" 
d="M171 -197l-136 -9l103 485q21 99 21 126q0 33 -26 33q-42 0 -94 -106l-20 6q34 77 69.5 110t86.5 33q58 0 84 -41q16 -25 22 -79q41 65 81.5 92.5t95.5 27.5q145 0 145 -161q0 -141 -75 -236.5t-186 -95.5q-76 0 -122 49zM398 434q-45 0 -83 -69q-30 -54 -52 -130
t-25 -132q-2 -33 15.5 -57t43.5 -24q56 0 89 65q28 56 47.5 132.5t19.5 132.5q0 36 -15.5 59t-39.5 23z" />
    <glyph glyph-name="q" unicode="q" horiz-adv-x="584" 
d="M427 -197l-136 -9l60 279q-43 -47 -78 -65.5t-82 -18.5q-70 0 -109 44.5t-39 123.5q0 138 86 239q72 85 182 85q28 0 62 -10q49 -14 59 -16q6 -1 12 -1q32 0 122 54h11zM347 450q-56 3 -96 -85q-21 -47 -39 -120t-18 -113q0 -94 55 -94q75 0 118 133q37 116 37 198
q0 78 -57 81z" />
    <glyph glyph-name="r" unicode="r" horiz-adv-x="520" 
d="M215 0h-136l60 281q20 94 20 124q0 34 -26 34q-43 0 -94 -107l-20 6q35 79 70 111.5t87 32.5q103 0 103 -128q0 -21 -1 -33q39 81 73 118q38 42 95 42q40 0 65 -23t25 -59q0 -35 -21.5 -57.5t-54.5 -22.5q-25 0 -41.5 14.5t-16.5 36.5q0 17 21 44q6 6 6 13q0 15 -18 15
q-41 0 -91.5 -93t-76.5 -217z" />
    <glyph glyph-name="s" unicode="s" horiz-adv-x="503" 
d="M296 481q178 0 178 -95q0 -28 -19 -46.5t-48 -18.5q-23 0 -38 12t-15 31q0 5 4 23q6 15 6 24q0 19 -21.5 32t-51.5 13q-84 0 -84 -70q0 -37 33 -59q10 -7 89 -42q67 -27 94.5 -57t27.5 -74q0 -74 -68 -119.5t-178 -45.5q-81 0 -131.5 31t-50.5 81q0 30 18.5 49t47.5 19
q23 0 39.5 -13t16.5 -32q0 -11 -7.5 -30.5t-7.5 -29.5q0 -20 25 -35t58 -15q46 0 75 24t29 62q0 34 -29 56q-17 13 -79 41q-74 33 -99.5 61.5t-25.5 77.5q0 68 56 106.5t156 38.5z" />
    <glyph glyph-name="t" unicode="t" horiz-adv-x="375" 
d="M393 455l-6 -29h-108l-44 -206q-24 -112 -24 -136q0 -38 26 -38q44 0 91 107l20 -5q-29 -71 -57 -104q-49 -56 -120 -56q-43 0 -68 27t-25 73q0 30 12 87l3 15l50 236h-100l6 29h34q81 0 133 55q33 34 80 129h28l-39 -184h108z" />
    <glyph glyph-name="u" unicode="u" horiz-adv-x="675" 
d="M469 468l138 7l-54 -255q-24 -113 -24 -135q0 -38 26 -38q44 0 91 106l20 -5q-34 -85 -74.5 -122t-97.5 -37q-95 0 -95 103q0 20 3 47q-46 -82 -89.5 -116t-102.5 -34q-52 0 -80.5 27t-28.5 75q0 36 9 72l29 116q24 96 24 126q0 33 -28 33q-42 0 -95 -106l-19 6
q35 78 71 110.5t89 32.5q51 0 80.5 -29.5t29.5 -81.5q0 -47 -27 -151q-29 -111 -29 -138q0 -37 36 -37q48 0 95.5 81t66.5 171z" />
    <glyph glyph-name="v" unicode="v" horiz-adv-x="561" 
d="M42 331l-21 6q35 77 73.5 110.5t92.5 33.5q47 0 75.5 -30.5t28.5 -80.5q0 -39 -50 -245q-9 -37 -9 -53q0 -41 40 -41q61 0 112.5 70t51.5 152q0 42 -28 87.5t-28 70.5q0 30 22.5 50.5t55.5 20.5q36 0 58 -25.5t22 -68.5q0 -76 -39 -163.5t-103 -154.5q-78 -81 -181 -81
q-53 0 -83.5 28t-30.5 76q0 29 10 70l28 114q24 98 24 122q0 39 -25 39q-45 0 -96 -107z" />
    <glyph glyph-name="w" unicode="w" horiz-adv-x="853" 
d="M459 458l132 7l-57 -267q-17 -80 -17 -113q0 -24 13.5 -39.5t34.5 -15.5q60 0 112 70t52 152q0 42 -26 86q-29 49 -29 73q0 30 22 50.5t55 20.5q37 0 58.5 -25.5t21.5 -69.5q0 -76 -38.5 -163.5t-100.5 -153.5q-76 -81 -183 -81q-118 0 -118 113q0 15 3 37
q-47 -83 -90 -116.5t-103 -33.5q-47 0 -73.5 27t-26.5 75q0 36 9 72l29 116q24 96 24 126q0 33 -28 33q-42 0 -95 -106l-19 6q35 78 71 110.5t89 32.5q51 0 80.5 -29.5t29.5 -81.5q0 -45 -27 -151q-30 -117 -30 -140q0 -35 32 -35q46 0 92 79t66 173z" />
    <glyph glyph-name="x" unicode="x" horiz-adv-x="623" 
d="M589 137l16 -13q-59 -74 -110 -104.5t-116 -30.5q-72 0 -109 38q-23 23 -37 78q-44 -67 -77.5 -92t-80.5 -25q-38 0 -62 21.5t-24 56.5q0 31 19.5 52.5t48.5 21.5q22 0 36 -13.5t14 -33.5t-22 -45q-9 -10 -9 -18q0 -14 20 -14q53 0 100 106t47 227q0 80 -56 80
q-28 0 -50 -20.5t-51 -73.5l-19 6q33 66 63 94q49 46 120 46q58 0 86.5 -31t33.5 -101q44 74 81 103t87 29q40 0 63.5 -20t23.5 -52q0 -31 -20 -53t-49 -22q-22 0 -37.5 14.5t-15.5 35.5q0 19 23 42q7 7 7 14q0 14 -18 14q-52 0 -104.5 -102t-52.5 -204q0 -107 80 -107
q71 0 151 96z" />
    <glyph glyph-name="y" unicode="y" horiz-adv-x="620" 
d="M605 475l-82 -396q-29 -139 -90 -204q-78 -83 -217 -83q-75 0 -117.5 27.5t-42.5 75.5q0 32 20 52.5t51 20.5q26 0 42.5 -15t16.5 -38q0 -21 -23 -49q-6 -6 -6 -15q0 -14 18 -24t44 -10q72 0 111 65q28 46 55 181q4 19 14 68q-33 -59 -74 -94q-56 -48 -115 -48
q-50 0 -78.5 26.5t-28.5 73.5q0 27 6 54l30 136q21 95 21 126q0 34 -26 34q-43 0 -94 -107l-20 6q34 79 70.5 111.5t91.5 32.5q108 0 108 -118q0 -56 -44 -223q-10 -38 -10 -60q0 -36 30 -36q57 0 105 89q45 83 68 188l32 146z" />
    <glyph glyph-name="z" unicode="z" horiz-adv-x="504" 
d="M488 459l-334 -329q24 8 41 8q21 0 79.5 -14.5t83.5 -14.5q53 0 85 40q18 22 31 67l21 -2q-22 -108 -48 -154q-43 -77 -126 -77q-37 0 -131 31q-73 24 -100 24q-31 0 -89 -47l-13 19l336 337q-25 -7 -37 -7q-20 0 -101 19q-21 5 -36 5q-32 0 -53 -29q-5 -7 -28 -48l-16 4
q2 6 9 28q31 95 60.5 128.5t71.5 33.5q20 0 99 -17q60 -13 95 -13q53 0 90 30z" />
    <glyph glyph-name="braceleft" unicode="{" horiz-adv-x="364" 
d="M52 297l7 32q48 4 67.5 27.5t30.5 88.5q17 103 32.5 148t41.5 69q30 27 75 34q19 3 84 3h26l-7 -33q-74 0 -100 -40q-14 -23 -21 -45q-7 -25 -25 -119q-15 -78 -37.5 -107.5t-78.5 -41.5q66 -11 66 -69q0 -28 -25 -142l-3 -12q-16 -71 -16 -94q0 -37 25 -51
q17 -10 59 -13l-7 -33q-77 1 -107 4q-75 7 -75 81q0 33 47 240q2 16 2 25q0 46 -61 48z" />
    <glyph glyph-name="bar" unicode="|" horiz-adv-x="573" 
d="M261 667h64v-834h-64v834z" />
    <glyph glyph-name="braceright" unicode="}" horiz-adv-x="364" 
d="M353 329l-7 -32q-53 0 -76 -38q-10 -16 -18 -57q-4 -22 -35 -169q-23 -108 -108 -127q-26 -6 -126 -7l7 33q76 4 103 49q15 25 25 74q5 21 21 97q16 85 39.5 117.5t79.5 43.5q-67 14 -67 68q0 18 26 137q14 64 14 88q0 60 -85 60l7 33h26l40 -1q51 -1 73 -10
q43 -17 43 -73q0 -46 -31 -170q-13 -52 -13 -69q0 -43 62 -47z" />
    <glyph glyph-name="asciitilde" unicode="~" horiz-adv-x="502" 
d="M149 585l-21 56q65 54 122 54q29 0 91 -22t91 -22q55 0 108 53l14 -62q-60 -59 -128 -59q-28 0 -66 12q-32 11 -64.5 21.5t-52.5 10.5q-49 0 -94 -42z" />
    <glyph glyph-name="Adieresis" unicode="&#xc4;" horiz-adv-x="674" 
d="M520 667l54 -528q6 -62 24.5 -85.5t61.5 -26.5l-6 -27h-319l5 27q52 8 67.5 20t15.5 44q0 21 -6 82l-6 61h-215l-45 -84q-33 -62 -33 -80q0 -20 17 -31q11 -7 45 -12l-6 -27h-236l6 27q50 5 88 43.5t102 144.5q106 174 269 452h117zM381 564l-165 -295h192zM362 859
q29 0 48 -17.5t19 -44.5q0 -35 -23.5 -58.5t-58.5 -23.5q-29 0 -48 19t-19 49q0 31 24 53.5t58 22.5zM605 859q30 0 49 -17.5t19 -44.5q0 -35 -23.5 -58.5t-58.5 -23.5q-29 0 -48 19t-19 49q0 32 23.5 54t57.5 22z" />
    <glyph glyph-name="Aring" unicode="&#xc5;" horiz-adv-x="674" 
d="M520 667l54 -528q6 -62 24.5 -85.5t61.5 -26.5l-6 -27h-319l5 27q52 8 67.5 20t15.5 44q0 21 -6 82l-6 61h-215l-45 -84q-33 -62 -33 -80q0 -20 17 -31q11 -7 45 -12l-6 -27h-236l6 27q50 5 88 43.5t102 144.5q106 174 269 452h117zM381 564l-165 -295h192zM488 875
q111 0 111 -75q0 -44 -34.5 -72t-89.5 -28q-108 0 -108 83q0 42 33 67t88 25zM491 851q-26 0 -43 -21.5t-17 -52.5q0 -53 41 -53q25 0 42.5 22.5t17.5 55.5q0 49 -41 49z" />
    <glyph glyph-name="Ccedilla" unicode="&#xc7;" horiz-adv-x="684" 
d="M588 150l37 -34q-59 -71 -128.5 -101t-168.5 -28l-2 -6q-2 -10 -2 -11q0 -12 40 -26q52 -18 52 -52q0 -37 -42 -60t-111 -23q-22 0 -53 5l3 20q24 -2 27 -2q39 0 67.5 16.5t28.5 39.5q0 17 -34 41q-10 7 -10 13q0 4 4.5 11.5t12.5 33.5q-102 11 -148 40q-100 62 -100 206
q0 109 47.5 211.5t124.5 159.5q103 76 248 76q87 0 182 -37l41 29h19l-51 -238h-31q-11 114 -47 164.5t-104 50.5q-98 0 -153 -90q-50 -82 -81 -188t-31 -194q0 -68 40.5 -113t101.5 -45q74 0 139 54q30 25 82 77z" />
    <glyph glyph-name="Eacute" unicode="&#xc9;" horiz-adv-x="668" 
d="M680 667l-41 -216h-33q-16 105 -40 140q-29 41 -93 41h-105l-55 -260h57q28 0 42.5 7t31.5 28q21 27 44 82h26l-60 -282h-26q-2 87 -12.5 109.5t-50.5 22.5h-59l-65 -303h97q99 0 158 61q35 36 98 149h34l-52 -246h-581l6 27l21 3q45 6 59.5 24.5t28.5 86.5l86 403
q7 30 7 52q0 34 -50 40l-25 3l6 28h546zM419 714l-7 18l153 105q34 23 53 23q14 0 23.5 -12t9.5 -28q0 -28 -50 -45z" />
    <glyph glyph-name="Ntilde" unicode="&#xd1;" horiz-adv-x="749" 
d="M370 667l206 -505l48 233q29 141 29 181q0 32 -15.5 45t-61.5 19l5 27h235l-5 -27q-69 -10 -89 -39t-51 -165l-101 -436h-97l-233 574l-74 -375q-17 -86 -17 -114q0 -27 19 -40q13 -9 60 -18l-6 -27h-240l6 27q66 11 87 38t48 142l71 306q12 52 12 70q0 28 -20 40
q-13 8 -65 17l6 27h243zM687 841l20 -4q-42 -108 -101 -108q-29 0 -81 28q-62 33 -86 33q-39 0 -67 -58l-19 4q39 110 114 110q30 0 88 -31q47 -25 72 -25q33 0 60 51z" />
    <glyph glyph-name="Odieresis" unicode="&#xd6;" horiz-adv-x="782" 
d="M396 859q29 0 48 -17.5t19 -44.5q0 -35 -23.5 -58.5t-58.5 -23.5q-29 0 -48 19t-19 49q0 31 24 53.5t58 22.5zM664 859q29 0 48 -17.5t19 -45.5q0 -35 -23.5 -58t-58.5 -23q-29 0 -48 19t-19 49q0 31 24 53.5t58 22.5zM489 680q280 0 280 -238q0 -103 -39.5 -201.5
t-104.5 -159.5q-101 -94 -283 -94q-281 0 -281 252q0 92 44.5 194t109.5 159q101 88 274 88zM487 649q-105 0 -179 -158q-33 -70 -58 -167.5t-25 -155.5q0 -150 124 -150q120 0 180 149q77 192 77 346q0 64 -31.5 100t-87.5 36z" />
    <glyph glyph-name="Udieresis" unicode="&#xdc;" horiz-adv-x="752" 
d="M819 667l-5 -27q-51 -7 -72.5 -31.5t-38.5 -95.5l-58 -245q-35 -147 -86 -200q-78 -81 -221 -81q-224 0 -224 170q0 30 7 63l63 294q13 61 13 82q0 32 -49 40l-24 4l6 27h323l-5 -27l-20 -3q-45 -7 -59.5 -25t-28.5 -86l-63 -297q-11 -52 -11 -81q0 -52 38.5 -84
t100.5 -32q100 0 152 89q20 34 32 78.5t41 193.5q10 46 19 93q11 55 11 94q0 28 -16 40t-60 20l6 27h229zM410 859q29 0 48 -17.5t19 -44.5q0 -35 -23.5 -58.5t-58.5 -23.5q-29 0 -48 19t-19 49q0 31 24 53.5t58 22.5zM653 859q30 0 49 -17.5t19 -44.5q0 -35 -23.5 -58.5
t-58.5 -23.5q-29 0 -48 19t-19 49q0 32 23.5 54t57.5 22z" />
    <glyph glyph-name="aacute" unicode="&#xe1;" horiz-adv-x="642" 
d="M575 474l-54 -254q-24 -113 -24 -136q0 -38 26 -38q44 0 90 107l20 -5q-27 -67 -58 -104q-47 -56 -115 -56q-90 0 -99 101q-69 -100 -169 -100q-71 0 -109.5 44t-38.5 125q0 75 29.5 145.5t81.5 118.5q64 59 157 59q45 0 70.5 -14.5t43.5 -49.5l11 51zM347 449
q-72 0 -116 -127q-32 -91 -36 -185q-2 -45 13 -72t43 -27q70 0 111 115q47 131 47 216q0 36 -17 58t-45 22zM353 527l-10 16l139 125q34 31 54 31q12 0 22.5 -12.5t10.5 -27.5q0 -25 -44 -47z" />
    <glyph glyph-name="agrave" unicode="&#xe0;" horiz-adv-x="642" 
d="M575 474l-54 -254q-24 -113 -24 -136q0 -38 26 -38q44 0 90 107l20 -5q-27 -67 -58 -104q-47 -56 -115 -56q-90 0 -99 101q-69 -100 -169 -100q-71 0 -109.5 44t-38.5 125q0 75 29.5 145.5t81.5 118.5q64 59 157 59q45 0 70.5 -14.5t43.5 -49.5l11 51zM347 449
q-72 0 -116 -127q-32 -91 -36 -185q-2 -45 13 -72t43 -27q70 0 111 115q47 131 47 216q0 36 -17 58t-45 22zM440 541l-14 -14l-153 88q-36 21 -36 42q0 17 11.5 29.5t26.5 12.5q17 0 42 -27z" />
    <glyph glyph-name="acircumflex" unicode="&#xe2;" horiz-adv-x="642" 
d="M575 474l-54 -254q-24 -113 -24 -136q0 -38 26 -38q44 0 90 107l20 -5q-27 -67 -58 -104q-47 -56 -115 -56q-90 0 -99 101q-69 -100 -169 -100q-71 0 -109.5 44t-38.5 125q0 75 29.5 145.5t81.5 118.5q64 59 157 59q45 0 70.5 -14.5t43.5 -49.5l11 51zM347 449
q-72 0 -116 -127q-32 -91 -36 -185q-2 -45 13 -72t43 -27q70 0 111 115q47 131 47 216q0 36 -17 58t-45 22zM431 697l128 -157l-15 -15l-123 98l-188 -98l-9 18z" />
    <glyph glyph-name="adieresis" unicode="&#xe4;" horiz-adv-x="642" 
d="M574 474l-54 -254q-24 -113 -24 -136q0 -38 26 -38q44 0 90 107l20 -5q-27 -67 -58 -104q-47 -56 -115 -56q-90 0 -99 101q-69 -100 -169 -100q-71 0 -109.5 44t-38.5 125q0 75 29.5 145.5t81.5 118.5q64 59 157 59q45 0 70.5 -14.5t43.5 -49.5l11 51zM346 449
q-72 0 -116 -127q-32 -91 -36 -185q-2 -45 13 -72t43 -27q70 0 111 115q47 131 47 216q0 36 -17 58t-45 22zM309 682q29 0 47 -17t18 -44q0 -34 -22.5 -57t-57.5 -23q-29 0 -47 18.5t-18 48.5q0 31 23 52.5t57 21.5zM524 682q29 0 47.5 -17t18.5 -44q0 -34 -23 -57t-57 -23
q-29 0 -47.5 18.5t-18.5 48.5q0 31 23 52.5t57 21.5z" />
    <glyph glyph-name="atilde" unicode="&#xe3;" horiz-adv-x="642" 
d="M575 474l-54 -254q-24 -113 -24 -136q0 -38 26 -38q44 0 90 107l20 -5q-27 -67 -58 -104q-47 -56 -115 -56q-90 0 -99 101q-69 -100 -169 -100q-71 0 -109.5 44t-38.5 125q0 75 29.5 145.5t81.5 118.5q64 59 157 59q45 0 70.5 -14.5t43.5 -49.5l11 51zM347 449
q-72 0 -116 -127q-32 -91 -36 -185q-2 -45 13 -72t43 -27q70 0 111 115q47 131 47 216q0 36 -17 58t-45 22zM565 669l20 -4q-23 -67 -45.5 -94t-53.5 -27q-30 0 -84 35q-61 40 -87 40q-37 0 -66 -70l-20 3q20 59 44 89q29 35 70 35q33 0 89 -39q46 -32 72 -32q32 0 61 64z
" />
    <glyph glyph-name="aring" unicode="&#xe5;" horiz-adv-x="642" 
d="M574 474l-54 -254q-24 -113 -24 -136q0 -38 26 -38q44 0 90 107l20 -5q-27 -67 -58 -104q-47 -56 -115 -56q-90 0 -99 101q-69 -100 -169 -100q-71 0 -109.5 44t-38.5 125q0 75 29.5 145.5t81.5 118.5q64 59 157 59q45 0 70.5 -14.5t43.5 -49.5l11 51zM346 449
q-72 0 -116 -127q-32 -91 -36 -185q-2 -45 13 -72t43 -27q70 0 111 115q47 131 47 216q0 36 -17 58t-45 22zM429 702q111 0 111 -76q0 -45 -34.5 -73t-89.5 -28q-108 0 -108 83q0 42 33.5 68t87.5 26zM432 679q-27 0 -45 -22t-18 -55q0 -54 44 -54q27 0 45 23.5t18 58.5
q0 49 -44 49z" />
    <glyph glyph-name="ccedilla" unicode="&#xe7;" horiz-adv-x="494" 
d="M225 -11h-12l-4 -10q-1 -4 -1 -6q0 -13 40 -26q53 -17 53 -49q0 -35 -42 -56t-111 -21q-15 0 -53 3l3 19q12 -1 27 -1q41 0 69 16t28 39q0 10 -5 15t-30 22q-10 7 -10 12q0 3 3 9q2 3 7 15q2 2 9 19q-55 8 -85 28q-68 46 -68 148q0 74 28 143.5t74 109.5q72 63 194 63
q147 0 147 -81q0 -33 -20.5 -55.5t-51.5 -22.5q-26 0 -43 15.5t-17 38.5q0 22 19 44q9 10 9 18q0 18 -31 18q-52 0 -91 -67q-65 -111 -65 -245q0 -112 82 -112q84 0 167 117l19 -10q-91 -150 -238 -150z" />
    <glyph glyph-name="eacute" unicode="&#xe9;" horiz-adv-x="512" 
d="M444 149l19 -10q-47 -70 -92 -102q-67 -48 -154 -48q-83 0 -128 46t-45 131q0 78 29.5 147t79.5 110q71 58 187 58q151 0 151 -97q0 -45 -31.5 -86t-86.5 -68q-66 -32 -174 -39q-4 -37 -4 -54q0 -104 80 -104q86 0 169 116zM202 213q7 1 29 7q82 21 124 81q37 53 37 106
q0 49 -43 49q-58 0 -97 -78q-30 -61 -50 -165zM326 527l-10 16l139 125q34 31 54 31q12 0 22.5 -12.5t10.5 -27.5q0 -25 -44 -47z" />
    <glyph glyph-name="egrave" unicode="&#xe8;" horiz-adv-x="512" 
d="M444 149l19 -10q-47 -70 -92 -102q-67 -48 -154 -48q-83 0 -128 46t-45 131q0 78 29.5 147t79.5 110q71 58 187 58q151 0 151 -97q0 -45 -31.5 -86t-86.5 -68q-66 -32 -174 -39q-4 -37 -4 -54q0 -104 80 -104q86 0 169 116zM202 213q7 1 29 7q82 21 124 81q37 53 37 106
q0 49 -43 49q-58 0 -97 -78q-30 -61 -50 -165zM387 535l-14 -14l-153 88q-36 21 -36 42q0 17 11.5 29.5t26.5 12.5q17 0 42 -27z" />
    <glyph glyph-name="ecircumflex" unicode="&#xea;" horiz-adv-x="512" 
d="M444 149l19 -10q-47 -70 -92 -102q-67 -48 -154 -48q-83 0 -128 46t-45 131q0 78 29.5 147t79.5 110q71 58 187 58q151 0 151 -97q0 -45 -31.5 -86t-86.5 -68q-66 -32 -174 -39q-4 -37 -4 -54q0 -104 80 -104q86 0 169 116zM202 213q7 1 29 7q82 21 124 81q37 53 37 106
q0 49 -43 49q-58 0 -97 -78q-30 -61 -50 -165zM383 697l128 -157l-15 -15l-123 98l-188 -98l-9 18z" />
    <glyph glyph-name="edieresis" unicode="&#xeb;" horiz-adv-x="512" 
d="M444 149l19 -10q-47 -70 -92 -102q-67 -48 -154 -48q-83 0 -128 46t-45 131q0 78 29.5 147t79.5 110q71 58 187 58q151 0 151 -97q0 -45 -31.5 -86t-86.5 -68q-66 -32 -174 -39q-4 -37 -4 -54q0 -104 80 -104q86 0 169 116zM202 213q7 1 29 7q82 21 124 81q37 53 37 106
q0 49 -43 49q-58 0 -97 -78q-30 -61 -50 -165zM261 682q29 0 47 -17t18 -44q0 -34 -22.5 -57t-57.5 -23q-29 0 -47 18.5t-18 48.5q0 31 23 52.5t57 21.5zM476 682q29 0 47.5 -17t18.5 -44q0 -34 -23 -57t-57 -23q-29 0 -47.5 18.5t-18.5 48.5q0 31 23 52.5t57 21.5z" />
    <glyph glyph-name="iacute" unicode="&#xed;" horiz-adv-x="355" 
d="M295 479l-55 -259q-24 -113 -24 -136q0 -38 26 -38q44 0 90 107l21 -5q-28 -70 -57 -104q-48 -56 -115 -56q-46 0 -73 26.5t-27 71.5q0 25 12 82l30 142q13 62 13 81q0 20 -18 28q-11 5 -78 6l5 22zM215 527l-10 16l139 125q34 31 53 31q12 0 22.5 -12.5t10.5 -27.5
q0 -25 -44 -47z" />
    <glyph glyph-name="igrave" unicode="&#xec;" horiz-adv-x="355" 
d="M295 479l-55 -259q-24 -113 -24 -136q0 -38 26 -38q44 0 90 107l21 -5q-28 -70 -57 -104q-48 -56 -115 -56q-46 0 -73 26.5t-27 71.5q0 25 12 82l30 142q13 62 13 81q0 20 -18 28q-11 5 -78 6l5 22zM262 541l-14 -14l-153 88q-36 21 -36 42q0 17 11.5 29.5t26.5 12.5
q17 0 42 -27z" />
    <glyph glyph-name="icircumflex" unicode="&#xee;" horiz-adv-x="355" 
d="M295 479l-55 -259q-24 -113 -24 -136q0 -38 26 -38q44 0 90 107l21 -5q-28 -70 -57 -104q-48 -56 -115 -56q-46 0 -73 26.5t-27 71.5q0 25 12 82l30 142q13 62 13 81q0 20 -18 28q-11 5 -78 6l5 22zM261 697l114 -157l-14 -15l-110 98l-175 -98l-9 18z" />
    <glyph glyph-name="idieresis" unicode="&#xef;" horiz-adv-x="355" 
d="M288 479l-55 -259q-24 -113 -24 -136q0 -38 26 -38q45 0 91 107l20 -5q-28 -70 -57 -104q-48 -56 -115 -56q-46 0 -73 26.5t-27 70.5q0 26 12 83l30 142q13 62 13 81q0 20 -16 28q-12 6 -73 6l5 22zM151 680q28 0 46 -16.5t18 -42.5q0 -33 -22 -55t-55 -22
q-29 0 -46.5 18t-17.5 47t22.5 50t54.5 21zM329 680q28 0 46 -16.5t18 -42.5q0 -33 -22.5 -55t-54.5 -22q-29 0 -46.5 18t-17.5 47t22.5 50t54.5 21z" />
    <glyph glyph-name="ntilde" unicode="&#xf1;" horiz-adv-x="676" 
d="M215 0h-136l59 279q21 99 21 126q0 33 -26 33q-42 0 -94 -106l-20 6q34 77 70 110t87 33q105 0 105 -124q0 -17 -1 -31q42 77 79 110q50 45 116 45q107 0 107 -104q0 -25 -7 -58l-21 -99q-24 -113 -24 -136q0 -38 26 -38q44 0 90 107l21 -5q-27 -69 -57 -104
q-48 -56 -114 -56q-46 0 -75 28.5t-29 74.5q0 53 52 249q10 38 10 59q0 36 -33 36q-48 0 -99.5 -87t-78.5 -215zM582 669l20 -4q-23 -67 -45.5 -94t-53.5 -27q-30 0 -84 35q-61 40 -87 40q-37 0 -66 -70l-20 3q20 59 44 89q29 35 70 35q33 0 89 -39q46 -32 72 -32
q32 0 61 64z" />
    <glyph glyph-name="oacute" unicode="&#xf3;" horiz-adv-x="590" 
d="M347 481q205 0 205 -169q0 -72 -28.5 -141.5t-76.5 -113.5q-73 -68 -209 -68q-102 0 -149 43t-47 136q0 71 34.5 145t86.5 115q67 53 184 53zM346 456q-66 0 -111 -119q-16 -43 -30.5 -117t-14.5 -115q0 -92 62 -92q52 0 90 68q22 40 42 132.5t20 156.5q0 86 -58 86z
M349 527l-10 16l139 125q34 31 54 31q12 0 22.5 -12.5t10.5 -27.5q0 -25 -44 -47z" />
    <glyph glyph-name="ograve" unicode="&#xf2;" horiz-adv-x="590" 
d="M347 481q205 0 205 -169q0 -72 -28.5 -141.5t-76.5 -113.5q-73 -68 -209 -68q-102 0 -149 43t-47 136q0 71 34.5 145t86.5 115q67 53 184 53zM346 456q-66 0 -111 -119q-16 -43 -30.5 -117t-14.5 -115q0 -92 62 -92q52 0 90 68q22 40 42 132.5t20 156.5q0 86 -58 86z
M413 541l-14 -14l-153 88q-36 21 -36 42q0 17 11.5 29.5t26.5 12.5q17 0 42 -27z" />
    <glyph glyph-name="ocircumflex" unicode="&#xf4;" horiz-adv-x="590" 
d="M347 481q205 0 205 -169q0 -72 -28.5 -141.5t-76.5 -113.5q-73 -68 -209 -68q-102 0 -149 43t-47 136q0 71 34.5 145t86.5 115q67 53 184 53zM346 456q-66 0 -111 -119q-16 -43 -30.5 -117t-14.5 -115q0 -92 62 -92q52 0 90 68q22 40 42 132.5t20 156.5q0 86 -58 86z
M409 697l128 -157l-15 -15l-123 98l-188 -98l-9 18z" />
    <glyph glyph-name="odieresis" unicode="&#xf6;" horiz-adv-x="590" 
d="M347 481q205 0 205 -169q0 -72 -28.5 -141.5t-76.5 -113.5q-73 -68 -209 -68q-102 0 -149 43t-47 136q0 71 34.5 145t86.5 115q67 53 184 53zM346 456q-66 0 -111 -119q-16 -43 -30.5 -117t-14.5 -115q0 -92 62 -92q52 0 90 68q22 40 42 132.5t20 156.5q0 86 -58 86z
M278 682q29 0 47 -17t18 -44q0 -34 -22.5 -57t-57.5 -23q-29 0 -47 18.5t-18 48.5q0 31 23 52.5t57 21.5zM493 682q29 0 47.5 -17t18.5 -44q0 -34 -23 -57t-57 -23q-29 0 -47.5 18.5t-18.5 48.5q0 31 23 52.5t57 21.5z" />
    <glyph glyph-name="otilde" unicode="&#xf5;" horiz-adv-x="590" 
d="M347 481q205 0 205 -169q0 -72 -28.5 -141.5t-76.5 -113.5q-73 -68 -209 -68q-102 0 -149 43t-47 136q0 71 34.5 145t86.5 115q67 53 184 53zM346 456q-66 0 -111 -119q-16 -43 -30.5 -117t-14.5 -115q0 -92 62 -92q52 0 90 68q22 40 42 132.5t20 156.5q0 86 -58 86z
M559 669l20 -4q-23 -67 -45.5 -94t-53.5 -27q-30 0 -84 35q-61 40 -87 40q-37 0 -66 -70l-20 3q20 59 44 89q29 35 70 35q33 0 89 -39q46 -32 72 -32q32 0 61 64z" />
    <glyph glyph-name="uacute" unicode="&#xfa;" horiz-adv-x="675" 
d="M469 468l138 7l-54 -255q-24 -113 -24 -135q0 -38 26 -38q44 0 91 106l20 -5q-34 -85 -74.5 -122t-97.5 -37q-95 0 -95 103q0 20 3 47q-46 -82 -89.5 -116t-102.5 -34q-52 0 -80.5 27t-28.5 75q0 36 9 72l29 116q24 96 24 126q0 33 -28 33q-42 0 -95 -106l-19 6
q35 78 71 110.5t89 32.5q51 0 80.5 -29.5t29.5 -81.5q0 -47 -27 -151q-29 -111 -29 -138q0 -37 36 -37q48 0 95.5 81t66.5 171zM365 527l-10 16l139 125q34 31 54 31q12 0 22.5 -12.5t10.5 -27.5q0 -25 -44 -47z" />
    <glyph glyph-name="ugrave" unicode="&#xf9;" horiz-adv-x="675" 
d="M469 468l138 7l-54 -255q-24 -113 -24 -135q0 -38 26 -38q44 0 91 106l20 -5q-34 -85 -74.5 -122t-97.5 -37q-95 0 -95 103q0 20 3 47q-46 -82 -89.5 -116t-102.5 -34q-52 0 -80.5 27t-28.5 75q0 36 9 72l29 116q24 96 24 126q0 33 -28 33q-42 0 -95 -106l-19 6
q35 78 71 110.5t89 32.5q51 0 80.5 -29.5t29.5 -81.5q0 -47 -27 -151q-29 -111 -29 -138q0 -37 36 -37q48 0 95.5 81t66.5 171zM449 541l-14 -14l-153 88q-36 21 -36 42q0 17 11.5 29.5t26.5 12.5q17 0 42 -27z" />
    <glyph glyph-name="ucircumflex" unicode="&#xfb;" horiz-adv-x="675" 
d="M469 468l138 7l-54 -255q-24 -113 -24 -135q0 -38 26 -38q44 0 91 106l20 -5q-34 -85 -74.5 -122t-97.5 -37q-95 0 -95 103q0 20 3 47q-46 -82 -89.5 -116t-102.5 -34q-52 0 -80.5 27t-28.5 75q0 36 9 72l29 116q24 96 24 126q0 33 -28 33q-42 0 -95 -106l-19 6
q35 78 71 110.5t89 32.5q51 0 80.5 -29.5t29.5 -81.5q0 -47 -27 -151q-29 -111 -29 -138q0 -37 36 -37q48 0 95.5 81t66.5 171zM438 697l128 -157l-15 -15l-123 98l-188 -98l-9 18z" />
    <glyph glyph-name="udieresis" unicode="&#xfc;" horiz-adv-x="675" 
d="M469 468l138 7l-54 -255q-24 -113 -24 -135q0 -38 26 -38q44 0 91 106l20 -5q-34 -85 -74.5 -122t-97.5 -37q-95 0 -95 103q0 20 3 47q-46 -82 -89.5 -116t-102.5 -34q-52 0 -80.5 27t-28.5 75q0 36 9 72l29 116q24 96 24 126q0 33 -28 33q-42 0 -95 -106l-19 6
q35 78 71 110.5t89 32.5q51 0 80.5 -29.5t29.5 -81.5q0 -47 -27 -151q-29 -111 -29 -138q0 -37 36 -37q48 0 95.5 81t66.5 171zM312 682q29 0 47 -17t18 -44q0 -34 -22.5 -57t-57.5 -23q-29 0 -47 18.5t-18 48.5q0 31 23 52.5t57 21.5zM527 682q29 0 47.5 -17t18.5 -44
q0 -34 -23 -57t-57 -23q-29 0 -47.5 18.5t-18.5 48.5q0 31 23 52.5t57 21.5z" />
    <glyph glyph-name="dagger" unicode="&#x2020;" horiz-adv-x="572" 
d="M333 371q-28 -121 -32 -370q-1 -79 -19.5 -111.5t-62.5 -32.5q-27 0 -44.5 16.5t-17.5 42.5q0 38 28 109q23 52 45 104q51 120 76 242q-35 -1 -83 -25q-54 -27 -86 -27q-23 0 -39.5 18t-16.5 43q0 28 18 47.5t44 19.5q23 0 50 -11l46 -22q39 -18 73 -18q5 25 5 43
q0 19 -8 68q-7 43 -7 72q0 98 78 98q25 0 41.5 -15t16.5 -38q0 -39 -49 -118q-42 -68 -51 -110q40 0 88 24.5t74 24.5t42.5 -17t16.5 -44q0 -29 -18 -48.5t-44 -19.5q-25 0 -73 28q-44 26 -91 27z" />
    <glyph glyph-name="degree" unicode="&#xb0;" horiz-adv-x="323" 
d="M236 677q44 0 75.5 -31.5t31.5 -75.5q0 -45 -31.5 -76.5t-77.5 -31.5q-43 0 -74.5 32t-31.5 76t31.5 75.5t76.5 31.5zM236 623q-22 0 -38 -15.5t-16 -37.5t15.5 -38t37.5 -16q23 0 38.5 16t15.5 38t-15.5 37.5t-37.5 15.5z" />
    <glyph glyph-name="cent" unicode="&#xa2;" horiz-adv-x="571" 
d="M416 689h31l-22 -105q136 -4 136 -84q0 -32 -21 -53.5t-52 -21.5q-26 0 -43.5 16t-17.5 39q0 21 20 43q11 12 11 17q0 20 -39 20l-89 -422q4 -1 10 -1q88 0 171 117l19 -11q-82 -135 -209 -148l-23 -108h-32l23 106h-5q-86 0 -135 48t-49 132q0 97 45.5 175.5
t120.5 110.5q55 24 127 25zM300 146l87 407q-59 -27 -97.5 -113.5t-38.5 -189.5q0 -82 49 -104z" />
    <glyph glyph-name="sterling" unicode="&#xa3;" horiz-adv-x="571" 
d="M501 373l-7 -31h-134v-15q0 -57 -80 -173q62 -33 101 -33q60 0 107 43q43 40 59 103l17 1q-7 -123 -37 -181q-52 -99 -158 -99q-82 0 -162 81q-79 -83 -155 -83q-37 0 -59.5 24.5t-22.5 63.5q0 55 41 90.5t105 35.5q49 0 145 -36q22 41 22 72q0 27 -12 48.5t-48 57.5
h-143l6 31h113q-35 54 -35 105q0 82 63 140q67 62 186 62q68 0 105.5 -23t37.5 -64q0 -31 -21.5 -51.5t-54.5 -20.5q-23 0 -39 13.5t-16 32.5q0 15 8.5 33t8.5 29q0 23 -43 23q-47 0 -79 -30t-32 -74q0 -35 31 -91q25 -45 37 -84h145zM193 84l-11 12q-61 67 -110 67
q-26 0 -46 -20t-20 -45q0 -27 21 -45t52 -18q54 0 114 49z" />
    <glyph glyph-name="section" unicode="&#xa7;" horiz-adv-x="572" 
d="M177 432q-14 32 -14 66q0 80 58 129.5t152 49.5q78 0 124.5 -28t46.5 -75q0 -31 -20 -51.5t-50 -20.5q-24 0 -39 13t-15 33q0 11 8 29q4 14 4 23q0 22 -22.5 36.5t-57.5 14.5q-47 0 -75 -25t-28 -67q0 -39 43 -79q27 -25 92.5 -65.5t85.5 -58.5q47 -42 47 -98
q0 -79 -104 -153q28 -39 28 -79q0 -76 -67 -128t-165 -52q-89 0 -145 39.5t-56 101.5q0 34 19.5 54.5t51.5 20.5q27 0 45.5 -15.5t18.5 -39.5q0 -16 -20 -47q-9 -15 -9 -28q0 -26 26 -43t66 -17q55 0 91 27.5t36 70.5q0 30 -18 51.5t-66 49.5q-89 52 -123 81q-54 46 -54 116
q0 102 105 164zM187 413q-40 -34 -40 -73q0 -46 54 -89q26 -21 110 -68q55 -31 86 -62q40 35 40 70q0 27 -16 45.5t-63 46.5q-90 53 -119 75.5t-52 54.5z" />
    <glyph glyph-name="bullet" unicode="&#x2022;" horiz-adv-x="667" 
d="M336 478q56 0 96.5 -41t40.5 -98t-40.5 -97.5t-97.5 -40.5q-58 0 -98.5 40.5t-40.5 97.5q0 58 40.5 98.5t99.5 40.5z" />
    <glyph glyph-name="paragraph" unicode="&#xb6;" horiz-adv-x="442" 
d="M544 664l-15 -31l-135 -10l-130 -610q-22 -103 -55 -150q-45 -64 -130 -64q-49 0 -78.5 23t-29.5 61q0 29 17 47t45 18q23 0 37.5 -13t14.5 -32q0 -15 -18 -42q-4 -6 -4 -12q0 -23 35 -23q94 0 129 168l60 284q-119 5 -173 44t-54 121q0 105 82 173q58 48 160 48h242z
" />
    <glyph glyph-name="germandbls" unicode="&#xdf;" horiz-adv-x="663" 
d="M61 426l6 29h98q37 127 85 177q70 73 183 73q146 0 146 -89q0 -34 -29 -55q-9 -7 -39 -21q-58 -28 -58 -63q0 -24 27 -63q4 -5 53 -64q82 -98 82 -164q0 -83 -64.5 -140t-158.5 -57q-62 0 -98 24.5t-36 66.5q0 26 17.5 44t43.5 18q52 0 52 -49q0 -9 -4.5 -24.5
t-4.5 -22.5q0 -13 13.5 -21.5t33.5 -8.5q36 0 57 24.5t21 66.5q0 49 -58 139q-61 94 -61 148q0 67 79 138q47 42 47 83q0 65 -64 65q-87 0 -115 -143l-75 -377q-30 -149 -71 -230q-33 -65 -87.5 -101.5t-119.5 -36.5q-57 0 -90 23.5t-33 64.5q0 29 19 48.5t48 19.5
q23 0 38.5 -14t15.5 -35q0 -17 -8 -32q-10 -19 -10 -26q0 -22 29 -22q46 0 72 64q13 33 34 136l82 407h-98z" />
    <glyph glyph-name="registered" unicode="&#xae;" horiz-adv-x="769" 
d="M613 176l3 -22q-35 -9 -62 -9q-57 0 -84 38q-12 17 -31 89q-8 30 -20.5 41t-39.5 11h-26v-99q0 -26 4 -34q6 -12 29 -15l18 -2v-23h-199v23l18 2q23 3 29 15q4 8 4 34v217q0 28 -5.5 35.5t-27.5 11.5l-18 3v23h237q130 0 130 -83q0 -74 -99 -94q40 -10 56.5 -32.5
t35.5 -93.5q10 -38 31 -38q3 0 17 2zM353 351h27q92 0 92 73q0 43 -34 57q-17 7 -63 7q-8 0 -22 -1v-136zM413 682q141 0 242 -103t101 -246q0 -144 -102 -246t-245 -102t-245.5 102.5t-102.5 245.5q0 146 102 247.5t250 101.5zM413 640q-129 0 -218 -89t-89 -218
q0 -126 89 -216t214 -90t213.5 90t88.5 217q0 125 -88 215.5t-210 90.5z" />
    <glyph glyph-name="copyright" unicode="&#xa9;" horiz-adv-x="769" 
d="M576 519l2 -132l-31 -1q-14 55 -29 75q-26 36 -79 36q-114 0 -114 -169q0 -158 114 -158q57 0 118 61l26 -27q-64 -61 -150 -61q-99 0 -157.5 44.5t-58.5 145.5q0 191 211 191q47 0 103 -17q7 -2 10 -2q8 0 17 14h18zM413 682q141 0 242 -103t101 -246q0 -144 -102 -246
t-245 -102t-245.5 102.5t-102.5 245.5q0 146 102 247.5t250 101.5zM413 640q-129 0 -218 -89t-89 -218q0 -126 89 -216t214 -90t213.5 90t88.5 217q0 125 -88 215.5t-210 90.5z" />
    <glyph glyph-name="trademark" unicode="&#x2122;" horiz-adv-x="906" 
d="M460 667l-24 -127h-23q-8 59 -24.5 80.5t-52.5 21.5h-18l-56 -267q-8 -38 -8 -43q0 -17 28 -22l18 -3l-5 -20h-197l4 20l14 2q26 4 33.5 13t15.5 47l58 273h-5q-35 0 -64 -21q-22 -16 -63 -81h-23l29 127h363zM633 667l41 -280l157 280h147l-4 -20q-35 -5 -43.5 -12
t-15.5 -39l-47 -221q-8 -38 -8 -42q0 -18 28 -23l17 -3l-4 -20h-194l4 20l16 2q25 3 32.5 12.5t15.5 47.5l50 236q-13 -23 -39 -68q-34 -60 -54 -98q-16 -30 -48 -89q-9 -16 -34 -63h-57l-46 312l-36 -184q-11 -56 -11 -75q0 -27 44 -33l-4 -20h-146l4 20q39 4 54 24t31 91
l37 167q4 18 4 28q0 25 -49 30l4 20h154z" />
    <glyph glyph-name="acute" unicode="&#xb4;" 
d="M275 527l-10 16l139 125q34 31 54 31q12 0 22.5 -12.5t10.5 -27.5q0 -25 -44 -47z" />
    <glyph glyph-name="dieresis" unicode="&#xa8;" 
d="M233 682q29 0 47 -17t18 -44q0 -34 -22.5 -57t-57.5 -23q-29 0 -47 18.5t-18 48.5q0 31 23 52.5t57 21.5zM448 682q29 0 47.5 -17t18.5 -44q0 -34 -23 -57t-57 -23q-29 0 -47.5 18.5t-18.5 48.5q0 31 23 52.5t57 21.5z" />
    <glyph glyph-name="notequal" unicode="&#x2260;" horiz-adv-x="587" 
d="M43 334h304l100 126l52 -25l-79 -101h139v-64h-190l-58 -74h248v-65h-298l-97 -124l-53 25l78 99h-146v65h197l58 74h-255v64z" />
    <glyph glyph-name="AE" unicode="&#xc6;" horiz-adv-x="932" 
d="M944 667l-41 -216h-32q-15 104 -42 142.5t-92 38.5h-105l-55 -260h58q28 0 42.5 7t30.5 28q24 31 44 82h26l-60 -282h-26q-2 87 -12.5 109.5t-50.5 22.5h-59l-65 -303h98q99 0 157 61q38 40 99 149h34l-53 -246h-574l6 27l20 3q47 7 61 24.5t28 86.5l17 82h-208
q-87 -123 -87 -152q0 -31 66 -44l-6 -27h-248l6 27q51 9 77 30q23 19 81 96l194 259q65 89 94 125q51 65 51 80q0 10 -11 13t-62 9l6 28h593zM484 628h-13l-257 -370h192z" />
    <glyph glyph-name="Oslash" unicode="&#xd8;" horiz-adv-x="782" 
d="M213 4l-73 -111l-30 19l70 104q-118 58 -118 208q0 105 42 206t111 162q100 88 274 88q65 0 120 -14l72 108l31 -19l-68 -101q125 -51 125 -210q0 -104 -40 -204t-104 -159q-104 -95 -277 -95q-84 0 -135 18zM591 587l-336 -530q33 -39 93 -39q121 0 181 149
q34 84 55.5 180.5t21.5 164.5q0 44 -15 75zM235 92l334 527q-30 30 -81 30q-56 0 -98.5 -37.5t-81.5 -120.5q-35 -75 -59 -170t-24 -162q0 -37 10 -67z" />
    <glyph glyph-name="infinity" unicode="&#x221e;" horiz-adv-x="746" 
d="M394 281q53 71 87.5 95t84.5 24q65 0 105 -40.5t40 -105.5q0 -73 -50 -122.5t-123 -49.5q-92 0 -179 107q-57 -63 -88 -82.5t-74 -19.5q-65 0 -108.5 45t-43.5 113t43.5 112t110.5 44q70 0 121 -42q23 -19 74 -78zM340 213q-42 65 -55 84q-50 72 -99 72q-40 0 -66 -35
t-26 -88q0 -56 29.5 -90t78.5 -34q38 0 67 19.5t71 71.5zM411 255q41 -58 57 -78q49 -60 95 -60q44 0 72 36.5t28 92.5q0 55 -29 88t-76 33t-85 -39q-18 -18 -62 -73z" />
    <glyph glyph-name="plusminus" unicode="&#xb1;" horiz-adv-x="577" 
d="M66 385h226l47 224h63l-47 -224h226l-13 -60h-226l-48 -226h-63l48 226h-226zM-3 61h515l-13 -61h-515z" />
    <glyph glyph-name="lessequal" unicode="&#x2264;" horiz-adv-x="581" 
d="M480 492l38 -50l-382 -153l379 -152l-45 -52l-448 180v47zM18 62h514v-62h-514v62z" />
    <glyph glyph-name="greaterequal" unicode="&#x2265;" horiz-adv-x="581" 
d="M537 312v-47l-448 -180l-45 52l380 152l-383 153l38 50zM540 62v-62h-514v62h514z" />
    <glyph glyph-name="yen" unicode="&#xa5;" horiz-adv-x="571" 
d="M52 261l7 32h161l-18 80h-130l7 32h117l-32 141q-13 57 -26.5 74t-49.5 20l6 27h278l-5 -27q-39 -8 -52 -18t-13 -31q0 -17 5 -43l45 -230q167 238 167 290q0 28 -46 32l6 27h196l-5 -27q-37 -2 -66.5 -30t-91.5 -115l-64 -90h132l-6 -32h-148l-55 -80h181l-7 -32h-187
l-23 -109q-3 -11 -7 -29q-7 -31 -7 -52q0 -34 50 -40l34 -4l-6 -27h-323l6 27l24 3q45 6 59 24t29 86l26 121h-168z" />
    <glyph glyph-name="partialdiff" unicode="&#x2202;" horiz-adv-x="517" 
d="M20 566l-9 16q55 94 166 94q123 0 210.5 -106t87.5 -255q0 -138 -81 -231t-202 -93q-148 0 -148 161t120 250q76 56 190 70q-37 79 -85 118q-64 52 -129 52q-73 0 -120 -76zM360 453q-58 -10 -94 -29q-63 -34 -102 -113.5t-39 -173.5q0 -124 81 -124q73 0 127.5 89
t54.5 208q0 83 -28 143z" />
    <glyph glyph-name="summation" unicode="&#x2211;" horiz-adv-x="665" 
d="M277 322l-131 328l3 17h521l-24 -202h-27l-1 51q-1 68 -22.5 91.5t-82.5 23.5h-233l97 -247l-251 -283h301q53 0 84.5 18t57.5 64l31 55h25l-74 -238h-553l4 18z" />
    <glyph glyph-name="product" unicode="&#x220f;" horiz-adv-x="820" 
d="M649 629h-301l-103 -488q-11 -52 -11 -61q0 -39 53 -46l39 -5l-7 -29h-316l6 29l35 4q47 5 64 25t30 83l82 386q10 47 10 61q0 40 -53 46l-38 4l6 29h723l-6 -29l-35 -3q-46 -4 -62.5 -24t-30.5 -84l-82 -386q-10 -47 -10 -61q0 -39 53 -46l38 -5l-6 -29h-317l7 29l35 4
q46 5 63 25t30 83z" />
    <glyph glyph-name="integral" unicode="&#x222b;" horiz-adv-x="281" 
d="M-6 -101q36 0 40 -44q2 -26 24 -26q54 0 54 139q0 67 -12 236q-11 155 -11 229q0 140 51 204q40 51 106 51q68 0 68 -54q0 -46 -44 -46q-22 0 -31 14q-3 5 -7 29t-25 24q-51 0 -51 -128q0 -27 13 -168q12 -130 12 -243q0 -178 -48 -254q-42 -67 -110 -67q-72 0 -72 59
q0 20 12 32.5t31 12.5z" />
    <glyph glyph-name="ordfeminine" unicode="&#xaa;" horiz-adv-x="449" 
d="M387 333l-9 -40h-291l8 40h292zM420 672l-31 -149q-14 -67 -14 -77q0 -20 12 -20q25 0 51 62l16 -4q-38 -95 -103 -95q-51 0 -59 53q-38 -52 -96 -52q-88 0 -88 100q0 77 46 131.5t111 54.5q45 0 66 -31l5 23zM286 653q-28 2 -46 -30q-36 -64 -40 -146q-3 -55 30 -55
q38 0 62 65q27 74 27 122q0 42 -33 44z" />
    <glyph glyph-name="ordmasculine" unicode="&#xba;" horiz-adv-x="393" 
d="M367 333l-9 -40h-291l8 40h292zM292 676q121 0 121 -99q0 -92 -62 -148q-43 -39 -122 -39q-116 0 -116 105q0 41 20 83.5t51 66.5q40 31 108 31zM292 658q-37 0 -62 -67q-26 -70 -26 -132q0 -51 33 -51q30 0 50 38q13 24 24.5 76.5t11.5 88.5q0 47 -31 47z" />
    <glyph glyph-name="Omega" unicode="&#x3a9;" horiz-adv-x="762" 
d="M-5 0l30 196h19l5 -47q4 -33 15.5 -44t42.5 -11h130q-54 29 -80 58q-54 61 -54 155q0 79 35.5 156t97.5 129q100 85 242 85q115 0 179.5 -56t64.5 -155q0 -146 -104 -263q-62 -70 -161 -109h132q35 0 55 12t36 43l25 47h18l-53 -196h-306l19 90q99 18 156 124
q29 55 48.5 132t19.5 141q0 155 -137 155q-107 0 -167 -85q-44 -62 -70.5 -147.5t-26.5 -161.5q0 -135 107 -158l-19 -90h-299z" />
    <glyph glyph-name="ae" unicode="&#xe6;" horiz-adv-x="822" 
d="M552 488l-19 -57q72 51 142 51q58 0 92 -26.5t34 -71.5t-31.5 -86t-86.5 -68q-66 -32 -174 -39q-4 -36 -4 -54q0 -104 80 -104q86 0 169 116l19 -10q-45 -68 -92 -102q-67 -48 -154 -48q-136 0 -161 129q-99 -129 -233 -129q-50 0 -78.5 30.5t-28.5 85.5q0 87 53.5 164
t148.5 126q64 33 236 75q42 10 78 25zM377 233l47 200q-85 -25 -139 -67q-46 -36 -73 -92t-27 -116q0 -90 58 -90q95 0 134 165zM512 213q13 3 29 7q84 21 125 81q36 52 36 107q0 49 -42 49q-59 0 -98 -78q-28 -56 -50 -166z" />
    <glyph glyph-name="oslash" unicode="&#xf8;" horiz-adv-x="590" 
d="M483 559l26 -16l-48 -78q91 -36 91 -153q0 -72 -28.5 -141.5t-76.5 -113.5q-74 -68 -211 -68q-40 0 -75 7l-54 -84l-27 17l50 77q-88 38 -88 153q0 79 33 152.5t87 116.5q67 53 183 53q45 0 83 -7zM403 382l-203 -334q17 -35 52 -35q68 0 104 100q18 51 33 129t15 124
q0 3 -1 16zM190 93l203 334q-14 29 -47 29q-78 0 -124 -160q-32 -112 -32 -197v-6z" />
    <glyph glyph-name="questiondown" unicode="&#xbf;" horiz-adv-x="455" 
d="M302 274h26q-1 -84 -23.5 -124t-102.5 -100q-94 -71 -94 -146q0 -43 21.5 -70t56.5 -27q21 0 37.5 10.5t16.5 23.5q0 8 -11 25.5t-11 33.5q0 25 20 43.5t48 18.5t45 -17t17 -45q0 -52 -50.5 -84.5t-131.5 -32.5q-87 0 -135 36.5t-48 103.5q0 78 55 131q22 21 41.5 32
t100.5 46q78 34 96 54.5t26 87.5zM331 470q73 0 73 -72q0 -38 -25 -62.5t-64 -24.5q-71 0 -71 71q0 40 23.5 64t63.5 24z" />
    <glyph glyph-name="exclamdown" unicode="&#xa1;" horiz-adv-x="306" 
d="M148 250h26q-23 -99 -23 -163q0 -37 11 -143q2 -19 2 -42q0 -54 -25.5 -86.5t-68.5 -32.5q-70 0 -70 71q0 42 24 91q4 9 47 84q48 84 77 221zM195 470q73 0 73 -74q0 -37 -25.5 -61.5t-63.5 -24.5q-71 0 -71 72q0 39 24.5 63.5t62.5 24.5z" />
    <glyph glyph-name="logicalnot" unicode="&#xac;" horiz-adv-x="597" 
d="M9 255h513v-286h-66v223h-447v63z" />
    <glyph glyph-name="radical" unicode="&#x221a;" horiz-adv-x="412" 
d="M-11 338l-2 24l143 18l98 -268l208 585h167v-30h-138l-238 -667h-52l-121 340z" />
    <glyph glyph-name="florin" unicode="&#x192;" horiz-adv-x="571" 
d="M515 391l-7 -31h-140l-42 -218q-28 -146 -78 -215q-73 -101 -191 -101q-54 0 -87 24t-33 63q0 28 18.5 47t46.5 19q23 0 38.5 -14t15.5 -34q0 -13 -9 -30q-12 -22 -12 -28q0 -23 29 -23q53 0 81 72q12 31 32 136l58 302h-120l7 31h120q33 153 95 218q68 71 170 71
q110 0 110 -76q0 -32 -20 -53.5t-49 -21.5q-22 0 -38 13t-16 32q0 16 11 34q15 25 15 31q0 18 -26 18q-42 0 -66 -55q-19 -43 -36 -127l-17 -84h140z" />
    <glyph glyph-name="approxequal" unicode="&#x2248;" horiz-adv-x="502" 
d="M57 242l-21 57q64 53 122 53q31 0 91 -21l6 -2q58 -20 85 -20q55 0 108 52l14 -62q-61 -58 -128 -58q-32 0 -94.5 21.5t-88.5 21.5q-51 0 -94 -42zM62 96l-21 55q68 60 130 60q25 0 89 -21q58 -19 90 -19q55 0 106 51l14 -62q-60 -57 -130 -57q-29 0 -120 27
q-37 11 -62 11q-44 0 -96 -45z" />
    <glyph glyph-name="approxequal" unicode="&#x22f2;" horiz-adv-x="502" 
d="M57 242l-21 57q64 53 122 53q31 0 91 -21l6 -2q58 -20 85 -20q55 0 108 52l14 -62q-61 -58 -128 -58q-32 0 -94.5 21.5t-88.5 21.5q-51 0 -94 -42zM62 96l-21 55q68 60 130 60q25 0 89 -21q58 -19 90 -19q55 0 106 51l14 -62q-60 -57 -130 -57q-29 0 -120 27
q-37 11 -62 11q-44 0 -96 -45z" />
    <glyph glyph-name="guillemotleft" unicode="&#xab;" horiz-adv-x="406" 
d="M173 18h-35q-12 31 -16 40q-19 44 -59 131q-6 14 -25 51q11 11 34 37q3 3 61 69q46 52 105 115h35q-5 -8 -41 -63l-43 -66q-12 -19 -58 -92q14 -88 42 -222zM311 18h-35q-10 35 -11 40l-59 182q10 12 80 106q42 56 90 115h35q-12 -24 -32 -63l-35 -66l-46 -92
q1 -26 6 -104l5 -75z" />
    <glyph glyph-name="guillemotright" unicode="&#xbb;" horiz-adv-x="406" 
d="M242 461h35q5 -14 16 -40q20 -44 60 -131q6 -13 24 -50l-95 -107q-29 -33 -105 -115h-35q3 5 41 63l43 66q10 15 58 93q-14 91 -42 221zM104 461h36q5 -22 11 -40l58 -181l-29 -38q-8 -12 -49.5 -67.5t-91.5 -116.5h-35q13 26 32 63l35 66q11 21 46 93q-2 41 -6 103
l-5 75z" />
    <glyph glyph-name="ellipsis" unicode="&#x2026;" horiz-adv-x="786" 
d="M107 150q71 0 71 -70q0 -40 -25 -65t-64 -25q-71 0 -71 72q0 37 25.5 62.5t63.5 25.5zM370 150q32 0 51.5 -19t19.5 -51q0 -40 -25 -65t-65 -25q-71 0 -71 72q0 37 26 62.5t64 25.5zM632 150q32 0 51.5 -19t19.5 -51q0 -40 -25 -65t-65 -25q-71 0 -71 72q0 37 26 62.5
t64 25.5z" />
    <glyph glyph-name="nonbreakingspace" unicode="&#xa0;" horiz-adv-x="250" 
 />
    <glyph glyph-name="Agrave" unicode="&#xc0;" horiz-adv-x="674" 
d="M520 667l54 -528q6 -62 24.5 -85.5t61.5 -26.5l-6 -27h-319l5 27q52 8 67.5 20t15.5 44q0 21 -6 82l-6 61h-215l-45 -84q-33 -62 -33 -80q0 -20 17 -31q11 -7 45 -12l-6 -27h-236l6 27q50 5 88 43.5t102 144.5q106 174 269 452h117zM381 564l-165 -295h192zM500 730
l-12 -16l-166 66q-39 16 -39 42q0 16 10.5 27t25.5 11q16 0 41 -20z" />
    <glyph glyph-name="Atilde" unicode="&#xc3;" horiz-adv-x="674" 
d="M520 667l54 -528q6 -62 24.5 -85.5t61.5 -26.5l-6 -27h-319l5 27q52 8 67.5 20t15.5 44q0 21 -6 82l-6 61h-215l-45 -84q-33 -62 -33 -80q0 -20 17 -31q11 -7 45 -12l-6 -27h-236l6 27q50 5 88 43.5t102 144.5q106 174 269 452h117zM381 564l-165 -295h192zM653 841
l20 -4q-42 -108 -101 -108q-29 0 -81 28q-62 33 -86 33q-39 0 -67 -58l-19 4q39 110 114 110q30 0 88 -31q47 -25 72 -25q33 0 60 51z" />
    <glyph glyph-name="Otilde" unicode="&#xd5;" horiz-adv-x="782" 
d="M489 680q280 0 280 -238q0 -103 -39.5 -201.5t-104.5 -159.5q-101 -94 -283 -94q-281 0 -281 252q0 92 44.5 194t109.5 159q101 88 274 88zM487 649q-105 0 -179 -158q-33 -71 -58 -168t-25 -155q0 -150 124 -150q121 0 180 149q77 194 77 346q0 64 -31.5 100t-87.5 36z
M703 841l20 -4q-42 -108 -101 -108q-29 0 -81 28q-62 33 -86 33q-39 0 -67 -58l-19 4q39 110 114 110q30 0 88 -31q47 -25 72 -25q33 0 60 51z" />
    <glyph glyph-name="OE" unicode="&#x152;" horiz-adv-x="1009" 
d="M1021 667l-41 -216h-32q-15 103 -41 140q-29 41 -93 41h-105l-55 -260h58q28 0 42.5 7t30.5 28q24 31 44 82h26l-60 -282h-26q-2 87 -12.5 109.5t-50.5 22.5h-59l-65 -303h97q99 0 158 61q35 36 98 149h35l-53 -246h-463q-25 0 -76 -3.5t-76 -3.5q-243 0 -243 243
q0 109 45.5 209t120.5 156q98 73 244 73q30 0 94 -5q25 -2 34 -2h424zM443 74l106 495q7 33 7 41q0 32 -69 32q-134 0 -205 -175q-25 -62 -42.5 -146.5t-17.5 -143.5q0 -72 34 -112.5t95 -40.5q48 0 75 20q13 9 17 30z" />
    <glyph glyph-name="oe" unicode="&#x153;" horiz-adv-x="842" 
d="M773 149l20 -10q-46 -69 -93 -102q-67 -48 -155 -48q-82 0 -133 58q-86 -59 -188 -59q-88 0 -135.5 45t-47.5 128q0 75 30.5 146t81.5 115q69 60 177 60t154 -58q68 57 187 57q149 0 149 -97q0 -45 -31.5 -86t-86.5 -68q-66 -32 -174 -39q-3 -42 -3 -54q0 -104 80 -104
q86 0 168 116zM345 456q-65 0 -111 -119q-17 -43 -31 -117t-14 -115q0 -91 62 -91q53 0 90 68q23 41 43 133t20 155q0 86 -59 86zM531 213q5 1 29 7q83 21 125 81q36 52 36 106q0 49 -43 49q-58 0 -97 -78q-29 -58 -50 -165z" />
    <glyph glyph-name="endash" unicode="&#x2013;" horiz-adv-x="503" 
d="M479 274l-12 -54h-431l12 54h431z" />
    <glyph glyph-name="emdash" unicode="&#x2014;" horiz-adv-x="704" 
d="M716 274l-12 -54h-704l12 54h704z" />
    <glyph glyph-name="quotedblleft" unicode="&#x201c;" horiz-adv-x="510" 
d="M546 677v-19q-43 -14 -64 -27q-49 -29 -49 -67q0 -14 24 -23q42 -15 42 -57q0 -34 -24.5 -57t-59.5 -23t-56.5 22.5t-21.5 60.5q0 90 91 148q43 27 118 42zM321 677l1 -19q-43 -14 -64 -27q-49 -29 -49 -67q0 -15 23 -23q42 -15 42 -57q0 -34 -24 -57t-59 -23t-56.5 22.5
t-21.5 60.5q0 90 90 148q42 27 118 42z" />
    <glyph glyph-name="quotedblright" unicode="&#x201d;" horiz-adv-x="510" 
d="M101 404l-1 19q46 16 64 27q49 29 49 68q0 14 -23 22q-42 14 -42 58q0 33 24 56t59 23t56.5 -22.5t21.5 -60.5q0 -89 -91 -147q-46 -29 -117 -43zM325 404l-1 19q43 14 65 27q49 29 49 68q0 14 -24 22q-42 14 -42 58q0 33 24 56t59 23t56.5 -22.5t21.5 -60.5
q0 -90 -90 -147q-45 -29 -118 -43z" />
    <glyph glyph-name="quoteleft" unicode="&#x2018;" horiz-adv-x="286" 
d="M321 677l1 -19q-42 -14 -64 -27q-49 -29 -49 -67q0 -15 23 -23q42 -14 42 -57q0 -34 -24 -57t-59 -23t-56.5 22.5t-21.5 60.5q0 90 90 148q42 27 118 42z" />
    <glyph glyph-name="quoteright" unicode="&#x2019;" horiz-adv-x="290" 
d="M103 404l-1 19q42 14 64 27q49 29 49 68q0 14 -23 22q-42 14 -42 58q0 33 24 56t59 23t56.5 -22.5t21.5 -60.5q0 -89 -91 -147q-46 -29 -117 -43z" />
    <glyph glyph-name="divide" unicode="&#xf7;" horiz-adv-x="561" 
d="M344 496q28 0 45 -17t17 -44q0 -35 -29.5 -63.5t-66.5 -28.5q-26 0 -43.5 17.5t-17.5 43.5q0 35 29.5 63.5t65.5 28.5zM265 124q28 0 45 -17t17 -44q0 -35 -29.5 -63.5t-66.5 -28.5q-26 0 -43.5 17.5t-17.5 43.5q0 35 29 63.5t66 28.5zM38 265h514l-14 -63h-513z" />
    <glyph glyph-name="lozenge" unicode="&#x25ca;" horiz-adv-x="667" 
d="M334 693l259 -360l-259 -359l-260 359zM334 604l-197 -271l197 -270l197 270z" />
    <glyph glyph-name="ydieresis" unicode="&#xff;" horiz-adv-x="620" 
d="M605 475l-82 -396q-29 -139 -90 -204q-78 -83 -217 -83q-75 0 -117.5 27.5t-42.5 75.5q0 32 20 52.5t51 20.5q26 0 42.5 -15t16.5 -38q0 -21 -23 -49q-6 -6 -6 -15q0 -14 18 -24t44 -10q72 0 111 65q28 46 55 181q4 19 14 68q-33 -59 -74 -94q-56 -48 -115 -48
q-50 0 -78.5 26.5t-28.5 73.5q0 27 6 54l30 136q21 95 21 126q0 34 -26 34q-43 0 -94 -107l-20 6q34 79 70.5 111.5t91.5 32.5q108 0 108 -118q0 -56 -44 -223q-10 -38 -10 -60q0 -36 30 -36q57 0 105 89q45 83 68 188l32 146zM307 682q29 0 47 -17t18 -44q0 -34 -22.5 -57
t-57.5 -23q-29 0 -47 18.5t-18 48.5q0 31 23 52.5t57 21.5zM522 682q29 0 47.5 -17t18.5 -44q0 -34 -23 -57t-57 -23q-29 0 -47.5 18.5t-18.5 48.5q0 31 23 52.5t57 21.5z" />
    <glyph glyph-name="Ydieresis" unicode="&#x178;" horiz-adv-x="597" 
d="M507 667h213l-6 -27q-39 -3 -67 -26.5t-103 -118.5l-169 -214l-28 -128q-13 -59 -13 -82q0 -34 50 -40l33 -4l-6 -27h-337l6 27l24 3q45 6 59 24t29 87l28 131l-75 274q-16 59 -31 75t-57 19l6 27h311l-6 -27q-41 -8 -53 -16q-18 -12 -18 -37q0 -21 5 -39l62 -229
q115 152 151.5 207.5t36.5 80.5q0 29 -51 33zM322 859q30 0 48.5 -17.5t18.5 -45.5q0 -34 -23 -57.5t-58 -23.5q-29 0 -48 19t-19 49q0 32 23.5 54t57.5 22zM566 859q29 0 48 -17.5t19 -44.5q0 -35 -23.5 -58.5t-58.5 -23.5q-29 0 -47.5 19t-18.5 49q0 32 23.5 54t57.5 22z
" />
    <glyph glyph-name="fraction" unicode="&#x2044;" horiz-adv-x="163" 
d="M356 667l-457 -667h-44l457 667h44z" />
    <glyph glyph-name="currency" unicode="&#xa4;" horiz-adv-x="800" 
d="M328 384h239l-24 -38h-226q-2 -10 -6 -26h214l-24 -38h-198q-10 -57 -10 -103q0 -69 40.5 -114.5t101.5 -45.5q73 0 139 54q27 22 82 77l37 -34q-61 -70 -125.5 -99.5t-159.5 -29.5q-279 0 -279 243q0 19 3 52h-74l24 38h55q3 18 5 26h-70l24 38h57q27 90 91 166
q109 130 305 130q87 0 182 -37l41 29h19l-51 -238h-31q-11 114 -46.5 164.5t-104.5 50.5q-72 0 -126 -55q-24 -25 -55.5 -88t-48.5 -122z" />
    <glyph glyph-name="guilsinglleft" unicode="&#x2039;" horiz-adv-x="270" 
d="M173 18h-35l-16 40q-31 68 -48 106l-11 25q-6 14 -25 51q46 49 95 106q53 61 107 115h35q-67 -98 -144 -221q11 -78 42 -222z" />
    <glyph glyph-name="guilsinglright" unicode="&#x203a;" horiz-adv-x="270" 
d="M106 461h36q7 -18 15 -40q22 -51 69 -151l15 -30q-25 -28 -95 -107q-59 -68 -107 -115h-35q41 60 145 222q-20 117 -43 221z" />
    <glyph glyph-name="fi" unicode="&#xf001;" horiz-adv-x="656" 
d="M59 426l6 29h98q36 120 87 172q77 78 210 78q159 0 159 -93q0 -30 -19 -49t-49 -19q-27 0 -44.5 14.5t-17.5 37.5q0 17 17 43q6 9 6 16q0 25 -50 25q-118 0 -151 -158l-14 -67h105q85 0 194 24l-55 -259q-24 -113 -24 -133q0 -40 27 -40q45 0 94 115l14 -18
q-27 -66 -57 -101q-47 -54 -114 -54q-46 0 -72.5 26.5t-26.5 72.5q0 23 12 80l30 142q13 62 13 79q0 28 -31 35q-11 2 -54 2h-61l-45 -239q-38 -200 -97 -291q-68 -104 -191 -104q-55 0 -89 24t-34 63q0 30 19 50t48 20q24 0 39.5 -14.5t15.5 -37.5q0 -15 -16 -41
q-4 -10 -4 -16q0 -23 30 -23q50 0 78 65q14 33 34 136l79 408h-99z" />
    <glyph glyph-name="fl" unicode="&#xf002;" horiz-adv-x="660" 
d="M59 426l6 29h98q38 118 89 172q75 78 182 78q53 0 99 -18l108 17l-103 -484q-23 -108 -23 -133q0 -41 27 -41q46 0 93 116l14 -18q-28 -68 -57 -102q-47 -54 -112 -54q-44 0 -70.5 27.5t-26.5 72.5q0 31 10 78l74 349q16 75 16 100q0 65 -54 65q-40 0 -71 -42t-47 -116
l-14 -67h109l-6 -29h-109l-45 -239q-38 -200 -97 -291q-68 -104 -191 -104q-55 0 -89 24t-34 63q0 30 19 50t48 20q24 0 39.5 -14.5t15.5 -37.5q0 -15 -16 -41q-4 -10 -4 -16q0 -23 30 -23q50 0 78 65q14 33 34 136l79 408h-99z" />
    <glyph glyph-name="daggerdbl" unicode="&#x2021;" horiz-adv-x="597" 
d="M347 391l-48 -228q39 1 96 28q49 23 71 23q25 0 41 -17t16 -43q0 -28 -17 -47t-42 -19q-24 0 -82 28q-45 22 -88 24q-7 -41 -7 -54q0 -9 5 -49q7 -56 7 -82q0 -98 -78 -98q-58 0 -58 54q0 27 16 59q5 7 33 52q35 55 53 118q-26 0 -80 -25q-58 -27 -87 -27q-23 0 -39 17.5
t-16 42.5q0 28 17.5 47t42.5 19q21 0 85 -27q50 -21 82 -24l48 228q-32 -1 -87 -28q-51 -25 -77 -25q-25 0 -42 17t-17 42q0 27 18 47t42 20q28 0 86 -27q42 -20 82 -23q2 36 2 35q0 26 -12 113q-2 15 -2 26q0 40 22 64.5t58 24.5q25 0 41 -15t16 -38q0 -36 -48 -112
q-35 -55 -47 -98q36 1 87 25.5t79 24.5q25 0 41.5 -17t16.5 -43q0 -28 -18.5 -47t-44.5 -19q-21 0 -80 29q-44 21 -87 24z" />
    <glyph glyph-name="periodcentered" unicode="&#x2219;" horiz-adv-x="291" 
d="M164 339q36 0 57 -21t21 -57q0 -43 -27.5 -70.5t-70.5 -27.5q-78 0 -78 79q0 41 28.5 69t69.5 28z" />
    <glyph glyph-name="quotesinglbase" unicode="&#x201a;" horiz-adv-x="290" 
d="M-10 -126l-1 19q41 12 64 26q49 29 49 68q0 14 -23 22q-42 14 -42 58q0 33 24 56t59 23t56.5 -22.5t21.5 -60.5q0 -89 -90 -147q-45 -29 -118 -42z" />
    <glyph glyph-name="quotedblbase" unicode="&#x201e;" horiz-adv-x="510" 
d="M-12 -126l-1 19q45 15 64 26q49 29 49 68q0 14 -23 22q-42 14 -42 58q0 33 24 56t59 23t56.5 -22.5t21.5 -60.5q0 -88 -91 -147q-45 -29 -117 -42zM212 -126l-1 19q47 15 65 26q49 29 49 68q0 14 -24 22q-42 14 -42 58q0 33 24 56t59 23t56.5 -22.5t21.5 -60.5
q0 -89 -90 -147q-45 -29 -118 -42z" />
    <glyph glyph-name="perthousand" unicode="&#x2030;" horiz-adv-x="1009" 
d="M574 700h43l-472 -733h-42zM256 674q110 0 110 -101q0 -87 -51 -150q-45 -56 -123 -56q-108 0 -108 104q0 37 14.5 79.5t35.5 67.5q46 56 122 56zM254 653q-33 1 -58 -65q-34 -92 -34 -151q0 -50 32 -50q37 0 62 71q32 89 32 142q0 51 -34 53zM527 300q110 0 110 -99
q0 -90 -53 -154q-44 -54 -120 -54q-110 0 -110 106q0 40 16 82.5t41 69.5q45 49 116 49zM525 279q-35 2 -59 -64q-34 -93 -34 -152q0 -50 32 -50q37 0 63 71q32 87 32 142q0 51 -34 53zM862 300q110 0 110 -102q0 -87 -52 -151q-44 -54 -120 -54q-110 0 -110 105
q0 40 16.5 83.5t40.5 69.5q46 49 115 49zM860 279q-34 1 -58 -64q-34 -92 -34 -152q0 -50 32 -50q37 0 62 71q32 89 32 142q0 51 -34 53z" />
    <glyph glyph-name="Acircumflex" unicode="&#xc2;" horiz-adv-x="674" 
d="M520 667l54 -528q6 -62 24.5 -85.5t61.5 -26.5l-6 -27h-319l5 27q52 8 67.5 20t15.5 44q0 21 -6 82l-6 61h-215l-45 -84q-33 -62 -33 -80q0 -20 17 -31q11 -7 45 -12l-6 -27h-236l6 27q50 5 88 43.5t102 144.5q106 174 269 452h117zM381 564l-165 -295h192zM506 863
l128 -140l-14 -15l-128 79l-188 -79l-8 18z" />
    <glyph glyph-name="Ecircumflex" unicode="&#xca;" horiz-adv-x="668" 
d="M680 667l-41 -216h-33q-16 105 -40 140q-29 41 -93 41h-105l-55 -260h57q28 0 42.5 7t31.5 28q21 27 44 82h26l-60 -282h-26q-2 87 -12.5 109.5t-50.5 22.5h-59l-65 -303h97q99 0 158 61q35 36 98 149h34l-52 -246h-581l6 27l21 3q45 6 59.5 24.5t28.5 86.5l86 403
q7 30 7 52q0 34 -50 40l-25 3l6 28h546zM499 863l128 -140l-14 -15l-128 79l-188 -79l-8 18z" />
    <glyph glyph-name="Aacute" unicode="&#xc1;" horiz-adv-x="674" 
d="M520 667l54 -528q6 -62 24.5 -85.5t61.5 -26.5l-6 -27h-319l5 27q52 8 67.5 20t15.5 44q0 21 -6 82l-6 61h-215l-45 -84q-33 -62 -33 -80q0 -20 17 -31q11 -7 45 -12l-6 -27h-236l6 27q50 5 88 43.5t102 144.5q106 174 269 452h117zM381 564l-165 -295h192zM453 714
l-7 18l153 105q34 23 53 23q14 0 23.5 -12t9.5 -28q0 -28 -50 -45z" />
    <glyph glyph-name="Edieresis" unicode="&#xcb;" horiz-adv-x="668" 
d="M680 667l-41 -216h-33q-16 105 -40 140q-29 41 -93 41h-105l-55 -260h57q28 0 42.5 7t31.5 28q21 27 44 82h26l-60 -282h-26q-2 87 -12.5 109.5t-50.5 22.5h-59l-65 -303h97q99 0 158 61q35 36 98 149h34l-52 -246h-581l6 27l21 3q45 6 59.5 24.5t28.5 86.5l86 403
q7 30 7 52q0 34 -50 40l-25 3l6 28h546zM347 859q29 0 48 -17.5t19 -44.5q0 -35 -23.5 -58.5t-58.5 -23.5q-29 0 -48 19t-19 49q0 31 24 53.5t58 22.5zM590 859q30 0 49 -17.5t19 -44.5q0 -35 -23.5 -58.5t-58.5 -23.5q-29 0 -48 19t-19 49q0 32 23.5 54t57.5 22z" />
    <glyph glyph-name="Egrave" unicode="&#xc8;" horiz-adv-x="668" 
d="M680 667l-41 -216h-33q-16 105 -40 140q-29 41 -93 41h-105l-55 -260h57q28 0 42.5 7t31.5 28q21 27 44 82h26l-60 -282h-26q-2 87 -12.5 109.5t-50.5 22.5h-59l-65 -303h97q99 0 158 61q35 36 98 149h34l-52 -246h-581l6 27l21 3q45 6 59.5 24.5t28.5 86.5l86 403
q7 30 7 52q0 34 -50 40l-25 3l6 28h546zM507 730l-12 -16l-166 66q-39 16 -39 42q0 16 10.5 27t25.5 11q16 0 41 -20z" />
    <glyph glyph-name="Iacute" unicode="&#xcd;" horiz-adv-x="406" 
d="M327 27l-6 -27h-326l6 27l20 3q46 7 60.5 25t28.5 86l79 373q13 61 13 82q0 32 -49 40l-25 4l6 27h325l-5 -27l-21 -3q-45 -6 -59.5 -24.5t-28.5 -86.5l-79 -373q-2 -12 -7 -30q-7 -35 -7 -52q0 -32 50 -40zM302 714l-7 18l153 105q34 23 53 23q14 0 23.5 -12t9.5 -28
q0 -28 -50 -45z" />
    <glyph glyph-name="Icircumflex" unicode="&#xce;" horiz-adv-x="406" 
d="M327 27l-6 -27h-326l6 27l20 3q46 7 60.5 25t28.5 86l79 373q13 61 13 82q0 32 -49 40l-25 4l6 27h325l-5 -27l-21 -3q-45 -6 -59.5 -24.5t-28.5 -86.5l-79 -373q-2 -12 -7 -30q-7 -35 -7 -52q0 -32 50 -40zM349 863l128 -140l-14 -15l-128 79l-188 -79l-8 18z" />
    <glyph glyph-name="Idieresis" unicode="&#xcf;" horiz-adv-x="406" 
d="M327 27l-6 -27h-326l6 27l20 3q46 7 60.5 25t28.5 86l79 373q13 61 13 82q0 32 -49 40l-25 4l6 27h325l-5 -27l-21 -3q-45 -6 -59.5 -24.5t-28.5 -86.5l-79 -373q-2 -12 -7 -30q-7 -35 -7 -52q0 -32 50 -40zM234 857q29 0 47.5 -17t18.5 -44q0 -34 -22.5 -56.5
t-56.5 -22.5q-28 0 -46.5 18.5t-18.5 47.5q0 31 23 52.5t55 21.5zM426 857q29 0 47.5 -17t18.5 -44q0 -34 -22.5 -56.5t-56.5 -22.5q-28 0 -46.5 18.5t-18.5 47.5q0 31 23 52.5t55 21.5z" />
    <glyph glyph-name="Igrave" unicode="&#xcc;" horiz-adv-x="406" 
d="M347 27l-6 -27h-326l6 27l20 3q46 7 60.5 25t28.5 86l79 373q13 61 13 82q0 32 -49 40l-25 4l6 27h325l-5 -27l-21 -3q-45 -6 -59.5 -24.5t-28.5 -86.5l-79 -373q-2 -12 -7 -30q-7 -35 -7 -52q0 -32 50 -40zM370 730l-12 -16l-166 66q-39 16 -39 42q0 16 10.5 27t25.5 11
q16 0 41 -20z" />
    <glyph glyph-name="Oacute" unicode="&#xd3;" horiz-adv-x="782" 
d="M489 680q280 0 280 -238q0 -103 -39.5 -201.5t-104.5 -159.5q-101 -94 -283 -94q-281 0 -281 252q0 92 44.5 194t109.5 159q101 88 274 88zM487 649q-105 0 -179 -158q-33 -71 -58 -168t-25 -155q0 -150 124 -150q121 0 180 149q77 194 77 346q0 64 -31.5 100t-87.5 36z
M487 714l-7 18l153 105q34 23 53 23q14 0 23.5 -12t9.5 -28q0 -28 -50 -45z" />
    <glyph glyph-name="Ocircumflex" unicode="&#xd4;" horiz-adv-x="782" 
d="M489 680q280 0 280 -238q0 -103 -39.5 -201.5t-104.5 -159.5q-101 -94 -283 -94q-281 0 -281 252q0 92 44.5 194t109.5 159q101 88 274 88zM487 649q-105 0 -179 -158q-33 -71 -58 -168t-25 -155q0 -150 124 -150q121 0 180 149q77 194 77 346q0 64 -31.5 100t-87.5 36z
M555 863l128 -140l-14 -15l-128 79l-188 -79l-8 18z" />
    <glyph glyph-name="apple" unicode="&#xf000;" horiz-adv-x="667" 
d="M480 691q2 -69 -41 -119.5t-107 -53.5q-1 69 40 117t108 56zM623 457q-81 -61 -81 -140q0 -105 100 -148q-37 -92 -82 -144t-86 -52q-25 0 -65 19q-23 11 -51 11q-39 0 -87 -20q-27 -11 -46 -11q-65 0 -129 112t-64 225q0 95 52.5 156t133.5 61q28 0 91 -23q22 -7 35 -7
q16 0 59 16t75 16q92 0 145 -71z" />
    <glyph glyph-name="Ograve" unicode="&#xd2;" horiz-adv-x="782" 
d="M489 680q280 0 280 -238q0 -103 -39.5 -201.5t-104.5 -159.5q-101 -94 -283 -94q-281 0 -281 252q0 92 44.5 194t109.5 159q101 88 274 88zM487 649q-105 0 -179 -158q-33 -71 -58 -168t-25 -155q0 -150 124 -150q121 0 180 149q77 194 77 346q0 64 -31.5 100t-87.5 36z
M558 730l-12 -16l-166 66q-39 16 -39 42q0 16 10.5 27t25.5 11q16 0 41 -20z" />
    <glyph glyph-name="Uacute" unicode="&#xda;" horiz-adv-x="752" 
d="M819 667l-5 -27q-51 -7 -72.5 -31.5t-38.5 -95.5l-58 -245q-35 -147 -86 -200q-78 -81 -221 -81q-224 0 -224 170q0 30 7 63l63 294q13 61 13 82q0 32 -49 40l-24 4l6 27h323l-5 -27l-20 -3q-45 -7 -59.5 -25t-28.5 -86l-63 -297q-11 -52 -11 -81q0 -52 38.5 -84
t100.5 -32q100 0 152 89q20 34 32 78.5t41 193.5q10 46 19 93q11 55 11 94q0 28 -16 40t-60 20l6 27h229zM514 714l-7 18l153 105q34 23 53 23q14 0 23.5 -12t9.5 -28q0 -28 -50 -45z" />
    <glyph glyph-name="Ucircumflex" unicode="&#xdb;" horiz-adv-x="752" 
d="M819 667l-5 -27q-51 -7 -72.5 -31.5t-38.5 -95.5l-58 -245q-35 -147 -86 -200q-78 -81 -221 -81q-224 0 -224 170q0 30 7 63l63 294q13 61 13 82q0 32 -49 40l-24 4l6 27h323l-5 -27l-20 -3q-45 -7 -59.5 -25t-28.5 -86l-63 -297q-11 -52 -11 -81q0 -52 38.5 -84
t100.5 -32q100 0 152 89q20 34 32 78.5t41 193.5q10 46 19 93q11 55 11 94q0 28 -16 40t-60 20l6 27h229zM563 863l128 -140l-14 -15l-128 79l-188 -79l-8 18z" />
    <glyph glyph-name="Ugrave" unicode="&#xd9;" horiz-adv-x="752" 
d="M819 667l-5 -27q-51 -7 -72.5 -31.5t-38.5 -95.5l-58 -245q-35 -147 -86 -200q-78 -81 -221 -81q-224 0 -224 170q0 30 7 63l63 294q13 61 13 82q0 32 -49 40l-24 4l6 27h323l-5 -27l-20 -3q-45 -7 -59.5 -25t-28.5 -86l-63 -297q-11 -52 -11 -81q0 -52 38.5 -84
t100.5 -32q100 0 152 89q20 34 32 78.5t41 193.5q10 46 19 93q11 55 11 94q0 28 -16 40t-60 20l6 27h229zM562 730l-12 -16l-166 66q-39 16 -39 42q0 16 10.5 27t25.5 11q16 0 41 -20z" />
    <glyph glyph-name="dotlessi" unicode="&#x131;" horiz-adv-x="355" 
d="M288 479l-55 -259q-24 -113 -24 -136q0 -38 26 -38q45 0 91 107l20 -5q-28 -70 -57 -104q-48 -56 -115 -56q-46 0 -73 26.5t-27 70.5q0 26 12 83l30 142q13 62 13 81q0 20 -16 28q-12 6 -73 6l5 22z" />
    <glyph glyph-name="circumflex" unicode="&#x2c6;" 
d="M357 697l128 -157l-15 -15l-123 98l-188 -98l-9 18z" />
    <glyph glyph-name="tilde" unicode="&#x2dc;" 
d="M491 669l20 -4q-23 -67 -45.5 -94t-53.5 -27q-30 0 -84 35q-61 40 -87 40q-37 0 -66 -70l-20 3q20 59 44 89q29 35 70 35q33 0 89 -39q46 -32 72 -32q32 0 61 64z" />
    <glyph glyph-name="macron" unicode="&#x2c9;" 
d="M497 625l-9 -43h-318l9 43h318z" />
    <glyph glyph-name="breve" unicode="&#x2d8;" 
d="M481 690h22q-29 -65 -74 -103q-62 -52 -135 -52q-107 0 -107 100q0 25 6 55h20v-7q0 -45 23 -64.5t77 -19.5q102 0 168 91z" />
    <glyph glyph-name="dotaccent" unicode="&#x2d9;" 
d="M341 682q29 0 47 -17t18 -44q0 -34 -22.5 -57t-57.5 -23q-29 0 -47 18.5t-18 48.5q0 31 23 52.5t57 21.5z" />
    <glyph glyph-name="ring" unicode="&#x2da;" 
d="M339 702q111 0 111 -76q0 -45 -34.5 -73t-89.5 -28q-108 0 -108 83q0 42 33.5 68t87.5 26zM342 679q-27 0 -45 -22t-18 -55q0 -54 44 -54q27 0 45 23.5t18 58.5q0 49 -44 49z" />
    <glyph glyph-name="cedilla" unicode="&#xb8;" 
d="M208 0h16q-10 -24 -10 -27q0 -13 40 -26q53 -17 53 -49q0 -35 -42 -56t-111 -21q-15 0 -53 3l4 19q11 -1 26 -1q41 0 69 16t28 39q0 14 -35 37q-10 5 -10 12q0 3 2.5 8t8.5 16q2 7 14 30z" />
    <glyph glyph-name="hungarumlaut" unicode="&#x2dd;" 
d="M211 527l-13 12l106 124q31 36 47 36q12 0 22.5 -11.5t10.5 -24.5q0 -21 -32 -42zM370 527l-13 12l106 124q31 36 47 36q12 0 22.5 -11.5t10.5 -24.5q0 -21 -32 -42z" />
    <glyph glyph-name="ogonek" unicode="&#x2db;" 
d="M250 0h40q-34 -35 -39 -41q-21 -26 -21 -50q0 -22 20.5 -35t53.5 -13q7 0 31 2l-5 -19q-53 -10 -81 -10q-41 0 -67.5 18t-26.5 46t20.5 49.5t74.5 52.5z" />
    <glyph glyph-name="caron" unicode="&#x2c7;" 
d="M504 696l10 -16l-198 -155l-134 157l14 14l129 -98z" />
    <glyph glyph-name="Lslash" unicode="&#x141;" horiz-adv-x="606" 
d="M592 246l-52 -246h-545l6 27l21 3q46 7 59.5 25t28.5 86l28 132l-98 -59l9 47l99 58l41 195q3 11 7 30q7 32 7 52q0 32 -50 40l-25 4l6 27h326l-6 -27l-21 -4q-46 -9 -60 -26t-28 -84l-28 -134l148 87l-10 -46l-148 -88l-66 -309h68q90 0 145 55q41 41 104 155h34z" />
    <glyph glyph-name="lslash" unicode="&#x142;" horiz-adv-x="382" 
d="M330 704l-63 -295l100 60l-9 -43l-100 -59l-31 -148q-24 -115 -24 -135q0 -38 26 -38q45 0 90 107l21 -5q-27 -68 -58 -104q-47 -55 -114 -55q-43 0 -70 27t-27 71q0 26 11 79l30 144l-98 -59l9 42l98 59l39 182q14 65 14 87q0 18 -17 26q-11 5 -68 7l4 22z" />
    <glyph glyph-name="Scaron" unicode="&#x160;" horiz-adv-x="584" 
d="M585 671l-44 -209h-30q-13 187 -151 187q-52 0 -84 -30.5t-32 -79.5q0 -47 35 -79q28 -26 109 -68q88 -46 120 -83.5t32 -95.5q0 -98 -79 -162.5t-199 -64.5q-83 0 -189 37l-41 -29h-20l54 252h32q8 -92 31 -138q44 -90 141 -90q58 0 98 37t40 92q0 43 -33 71
q-26 23 -104 62t-111 78q-37 45 -37 108q0 95 68 154.5t176 59.5q66 0 171 -31l29 22h18zM576 872l8 -18l-196 -136l-134 138l13 16l130 -82z" />
    <glyph glyph-name="scaron" unicode="&#x161;" horiz-adv-x="503" 
d="M296 481q178 0 178 -95q0 -28 -19 -46.5t-48 -18.5q-23 0 -38 12t-15 31q0 5 4 23q6 15 6 24q0 19 -21.5 32t-51.5 13q-84 0 -84 -70q0 -37 33 -59q10 -7 89 -42q67 -27 94.5 -57t27.5 -74q0 -74 -68 -119.5t-178 -45.5q-81 0 -131.5 31t-50.5 81q0 30 18.5 49t47.5 19
q23 0 39.5 -13t16.5 -32q0 -11 -7.5 -30.5t-7.5 -29.5q0 -20 25 -35t58 -15q46 0 75 24t29 62q0 34 -29 56q-17 13 -79 41q-74 33 -99.5 61.5t-25.5 77.5q0 68 56 106.5t156 38.5zM496 696l10 -16l-198 -155l-134 157l14 14l129 -98z" />
    <glyph glyph-name="Zcaron" unicode="&#x17d;" horiz-adv-x="655" 
d="M623 246l-53 -246h-576l6 27l485 605h-105q-91 0 -137 -40q-38 -33 -98 -141h-32l49 216h519l-5 -22l-480 -609h149q76 0 121 35q28 21 47.5 49.5t75.5 125.5h34zM621 865l8 -18l-196 -135l-134 138l14 15l129 -82z" />
    <glyph glyph-name="zcaron" unicode="&#x17e;" horiz-adv-x="504" 
d="M488 459l-334 -329q24 8 41 8q21 0 79.5 -14.5t83.5 -14.5q53 0 85 40q18 22 31 67l21 -2q-22 -108 -48 -154q-43 -77 -126 -77q-37 0 -131 31q-73 24 -100 24q-31 0 -89 -47l-13 19l336 337q-25 -7 -37 -7q-20 0 -101 19q-21 5 -36 5q-32 0 -53 -29q-5 -7 -28 -48l-16 4
q2 6 9 28q31 95 60.5 128.5t71.5 33.5q20 0 99 -17q60 -13 95 -13q53 0 90 30zM513 696l10 -16l-198 -155l-134 157l14 14l129 -98z" />
    <glyph glyph-name="brokenbar" unicode="&#xa6;" 
d="M206 667h101v-355h-101v355zM206 153h101v-320h-101v320z" />
    <glyph glyph-name="Eth" unicode="&#xd0;" horiz-adv-x="772" 
d="M134 667h357q262 0 262 -243q0 -111 -47.5 -209t-127.5 -152q-93 -63 -234 -63h-350l6 27l22 3q45 6 59 24t29 87l42 195h-95l8 35h94l37 173q7 30 7 52q0 32 -50 40l-25 4zM241 36h37q75 0 118.5 15.5t75.5 54.5q54 65 85 164t31 205q0 110 -84 142q-43 16 -136 15
l-55 -261h134l-7 -35h-135z" />
    <glyph glyph-name="eth" unicode="&#xf0;" horiz-adv-x="590" 
d="M141 689l73 14l120 -85l128 32l13 -28l-111 -27l50 -39q136 -106 136 -253q0 -76 -30.5 -144.5t-82.5 -111.5q-73 -59 -191 -59q-205 0 -205 171q0 71 30 143.5t76 111.5q74 62 186 62h25l-95 93l-127 -32l-14 28l114 30zM367 456q-29 0 -44 -6q-70 -28 -109 -172
q-28 -103 -28 -177q0 -90 61 -90q59 0 95 80q25 55 42 126t17 122q0 65 -34 117z" />
    <glyph glyph-name="Yacute" unicode="&#xdd;" horiz-adv-x="597" 
d="M507 667h213l-6 -27q-39 -3 -67 -26.5t-103 -118.5l-169 -214l-34 -158q-7 -35 -7 -52q0 -34 50 -40l33 -4l-6 -27h-337l6 27l24 3q45 6 59 24t29 87l28 131l-75 274q-16 59 -31 75t-57 19l6 27h311l-6 -27q-44 -9 -57.5 -19t-13.5 -34q0 -21 5 -39l62 -229
q114 150 151 206.5t37 80.5q0 29 -51 34zM402 714l-7 18l153 105q34 23 53 23q14 0 23.5 -12t9.5 -28q0 -28 -50 -45z" />
    <glyph glyph-name="yacute" unicode="&#xfd;" horiz-adv-x="620" 
d="M605 475l-82 -396q-29 -139 -90 -204q-78 -83 -217 -83q-75 0 -117.5 27.5t-42.5 75.5q0 32 20 52.5t51 20.5q26 0 42.5 -15t16.5 -38q0 -21 -23 -49q-6 -6 -6 -15q0 -14 18 -24t44 -10q72 0 111 65q28 46 55 181q4 19 14 68q-33 -59 -74 -94q-56 -48 -115 -48
q-50 0 -78.5 26.5t-28.5 73.5q0 27 6 54l30 136q21 95 21 126q0 34 -26 34q-43 0 -94 -107l-20 6q34 79 70.5 111.5t91.5 32.5q108 0 108 -118q0 -56 -44 -223q-10 -38 -10 -60q0 -36 30 -36q57 0 105 89q45 83 68 188l32 146zM376 527l-10 16l139 125q34 31 54 31
q12 0 22.5 -12.5t10.5 -27.5q0 -25 -44 -47z" />
    <glyph glyph-name="Thorn" unicode="&#xde;" horiz-adv-x="666" 
d="M269 170l-3 -18q-14 -84 -14 -81q0 -33 50 -40l30 -4l-6 -27h-331l6 27l20 3q46 7 60.5 25t28.5 86l79 373q13 61 13 82q0 32 -49 40l-25 4l6 27h325l-5 -27l-21 -4q-39 -7 -54.5 -21t-25.5 -52h126q85 0 127 -26q60 -37 60 -111q0 -70 -41 -130t-109 -90
q-80 -35 -247 -36zM346 528l-70 -328q51 2 73 7.5t48 22.5q108 69 108 205q0 50 -25.5 71.5t-84.5 21.5h-49z" />
    <glyph glyph-name="thorn" unicode="&#xfe;" horiz-adv-x="640" 
d="M171 -197l-135 -9l157 741q15 71 15 86q0 18 -17 26q-10 5 -69 7l5 22l236 29l-81 -344q41 65 81.5 92.5t95.5 27.5q145 0 145 -161q0 -141 -75 -236.5t-186 -95.5q-76 0 -122 49zM399 434q-45 0 -83 -69q-30 -54 -52.5 -130t-25.5 -132q-2 -33 15.5 -57t43.5 -24
q56 0 89 65q28 56 48 132.5t20 132.5q0 36 -15.5 59t-39.5 23z" />
    <glyph glyph-name="minus" unicode="&#x2212;" horiz-adv-x="574" 
d="M44 265h514l-14 -63h-513z" />
    <glyph glyph-name="multiply" unicode="&#xd7;" horiz-adv-x="589" 
d="M134 492l176 -221l270 219l29 -39l-268 -219l176 -218l-48 -39l-175 219l-266 -218l-29 39l265 217l-176 221z" />
    <glyph glyph-name="onesuperior" unicode="&#xb9;" horiz-adv-x="369" 
d="M342 671l-66 -314q-6 -29 -6 -32q0 -17 13 -25t52 -12l-4 -21h-244l5 21q53 5 67.5 18.5t25.5 66.5l37 172q3 14 3 21q0 15 -35 15h-53l4 21q98 7 154 69h47z" />
    <glyph glyph-name="twosuperior" unicode="&#xb2;" horiz-adv-x="369" 
d="M358 407l-31 -140h-282q5 52 34 90t91 77q112 70 112 156q0 63 -59 63q-18 0 -32.5 -7.5t-14.5 -16.5q0 -5 12 -15.5t12 -28.5q0 -19 -14.5 -32.5t-34.5 -13.5t-32.5 13t-12.5 33q0 39 38.5 64.5t98.5 25.5q136 0 136 -93q0 -62 -59 -109q-33 -26 -112 -58
q-72 -29 -96 -65h161q29 0 39.5 9t28.5 48h17z" />
    <glyph glyph-name="threesuperior" unicode="&#xb3;" horiz-adv-x="380" 
d="M157 468l6 26q29 -2 34 -2q43 0 71.5 30t28.5 77q0 51 -51 51q-38 0 -38 -17q0 -3 10 -11q13 -11 13 -28q0 -19 -15 -32.5t-35 -13.5t-32.5 12t-12.5 31q0 37 38 60.5t99 23.5q121 0 121 -83q0 -85 -125 -108q96 -17 96 -89q0 -59 -54 -99q-50 -37 -134 -37
q-56 0 -88.5 19.5t-32.5 53.5q0 23 15.5 38t38.5 15q44 0 44 -40q0 -17 -24 -38q-4 -3 -4 -7q0 -16 36 -16q42 0 71 36.5t29 88.5q0 59 -79 59h-26z" />
    <glyph glyph-name="onehalf" unicode="&#xbd;" horiz-adv-x="901" 
d="M342 671l-66 -314q-6 -29 -6 -32q0 -17 13 -25t52 -12l-4 -21h-244l5 21q53 5 67.5 18.5t25.5 66.5l37 172q3 14 3 21q0 15 -35 15h-53l4 21q98 7 154 69h47zM725 667l-457 -667h-44l457 667h44zM834 140l-31 -140h-282q5 52 34 90t91 77q112 69 112 156q0 63 -59 63
q-18 0 -32.5 -7.5t-14.5 -16.5q0 -5 12 -15.5t12 -28.5q0 -19 -14.5 -32.5t-34.5 -13.5t-32.5 13t-12.5 33q0 39 38.5 64.5t98.5 25.5q136 0 136 -93q0 -62 -59 -109q-32 -26 -112 -58q-70 -29 -96 -65h161q29 0 39.5 9t28.5 48h17z" />
    <glyph glyph-name="onequarter" unicode="&#xbc;" horiz-adv-x="901" 
d="M342 671l-66 -314q-6 -29 -6 -32q0 -17 13 -25t52 -12l-4 -21h-244l5 21q53 5 67.5 18.5t25.5 66.5l37 172q3 14 3 21q0 15 -35 15h-53l4 21q98 7 154 69h47zM745 667l-457 -667h-44l457 667h44zM847 402l-55 -259h61l-20 -41h-50l-22 -102l-93 -13l25 115l-159 1l5 16
q76 106 232 283h76zM743 337l-13 -16q-38 -47 -141 -178h112z" />
    <glyph glyph-name="threequarters" unicode="&#xbe;" horiz-adv-x="901" 
d="M155 469l5 23q14 0 22 -1h9q44 0 72 30.5t28 77.5q0 54 -51 54q-39 0 -39 -18q0 -4 11.5 -13t11.5 -28q0 -18 -14 -31t-34 -13q-17 0 -29.5 12t-12.5 30q0 37 37 60t95 23q117 0 117 -83q0 -54 -54 -85q-26 -15 -75 -23q102 -15 102 -90q0 -60 -51 -97.5t-131 -37.5
q-55 0 -86.5 19.5t-31.5 52.5q0 22 14.5 37t36.5 15q42 0 42 -39q0 -16 -23 -38q-4 -3 -4 -7q0 -18 37 -18q41 0 70 37t29 90q0 62 -81 62q-11 0 -22 -1zM738 667l-457 -667h-44l457 667h44zM846 402l-55 -259h61l-20 -41h-50l-21 -102l-94 -13l25 115l-159 1l6 16
q74 105 232 283h75zM742 337l-13 -16q-38 -47 -141 -178h113z" />
    <glyph glyph-name="franc" unicode="&#x20a3;" horiz-adv-x="917" 
d="M631 667l-40 -205h-36q-15 95 -37 127q-31 45 -110 45h-71l-56 -263h38q42 0 65 23t52 94h26l-60 -281h-26q1 15 1 33q0 60 -12 80t-49 20h-41l-40 -187q-14 -65 -14 -79q0 -35 50 -43l24 -4l-6 -27h-308l6 27l18 4q47 10 60.5 26.5t27.5 83.5l79 373q14 66 14 79
q0 20 -10.5 29t-39.5 14l-22 4l6 27h511zM634 0h-124l45 209q20 93 20 124q0 35 -26 35q-36 0 -79 -108l-20 6q32 78 63.5 111t74.5 33q46 0 71.5 -34t23.5 -95l-1 -32q38 85 67 118q36 42 88 42q37 0 61 -23t24 -59q0 -34 -20.5 -56.5t-52.5 -22.5q-24 0 -40.5 14.5
t-16.5 36.5q0 17 21 43q5 6 5 14q0 15 -16 15q-30 0 -67 -69q-60 -113 -88 -242z" />
    <glyph glyph-name="Gbreve" unicode="&#x11e;" horiz-adv-x="777" 
d="M739 672l-51 -238h-30q-15 106 -41 152q-36 63 -114 63q-132 0 -206 -182q-27 -66 -46 -156.5t-19 -153.5q0 -139 129 -139q82 0 128 65q14 20 29.5 72t15.5 82q0 22 -22 33q-18 9 -68 16l6 27h329l-6 -27q-56 -9 -71 -23t-27 -69l-44 -206h-21q-5 7 -12 16
q-15 21 -30 21q-7 0 -73 -17q-82 -21 -162 -21q-130 0 -194 58q-69 63 -69 174q0 81 27 166.5t70 145.5q109 149 324 149q106 0 188 -36l42 28h18zM687 859h23q-31 -61 -73 -93q-60 -46 -136 -46q-111 0 -111 95q0 20 6 44h19q0 -26 8 -39q22 -36 95 -36q105 0 169 75z" />
    <glyph glyph-name="gbreve" unicode="&#x11f;" horiz-adv-x="586" 
d="M571 475l-84 -401q-25 -118 -65 -173q-80 -109 -241 -109q-157 0 -157 101q0 32 19.5 52.5t48.5 20.5q26 0 43.5 -15.5t17.5 -38.5q0 -21 -25 -50q-6 -7 -6 -15q0 -13 18 -22t43 -9q79 0 117 69q19 34 33 101l20 94q-41 -50 -78 -70.5t-86 -20.5q-67 0 -107 46.5
t-40 123.5q0 75 30.5 146t82.5 118q64 58 155 58q85 0 115 -64l12 52zM345 448q-51 2 -84 -55q-27 -47 -46.5 -119t-22.5 -137q-2 -44 13 -71t43 -27q70 0 112 114q46 126 46 216q0 76 -61 79zM545 690h22q-29 -65 -74 -103q-62 -52 -135 -52q-107 0 -107 100q0 25 6 55h20
v-7q0 -46 23 -65t77 -19q101 0 168 91z" />
    <glyph glyph-name="Scedilla" unicode="&#x15e;" horiz-adv-x="584" 
d="M230 -13l-2 -6q-3 -9 -3 -11q0 -13 40 -26q53 -17 53 -53q0 -37 -42 -59.5t-111 -22.5q-22 0 -53 5l3 20q24 -2 26 -2q40 0 68.5 16.5t28.5 39.5q0 17 -34 41q-10 7 -10 13q0 4 3 9.5t15 36.5q-58 6 -139 35l-41 -29h-20l54 252h32q8 -92 31 -138q44 -90 141 -90
q58 0 98 37t40 91q0 45 -32 72q-25 21 -104.5 61.5t-111.5 78.5q-37 45 -37 108q0 95 68 154.5t176 59.5q68 0 171 -31l29 22h18l-44 -209h-30q-13 187 -151 187q-52 0 -84 -30.5t-32 -79.5q0 -47 35 -79q27 -25 109 -68q91 -48 120 -83q32 -39 32 -96q0 -60 -35.5 -113.5
t-94.5 -82.5q-63 -31 -158 -31q-11 0 -22 1z" />
    <glyph glyph-name="scedilla" unicode="&#x15f;" horiz-adv-x="503" 
d="M191 -11l-4 -10q-1 -4 -1 -6q0 -13 40 -26q53 -17 53 -49q0 -35 -42 -56t-111 -21q-15 0 -53 3l4 19q11 -1 26 -1q41 0 69 16t28 39q0 14 -35 37q-10 5 -10 12q0 3 3 9l8 15q1 3 4 10l5 9q-62 8 -97 28q-55 32 -55 84q0 30 18.5 49t47.5 19q23 0 39.5 -13t16.5 -32
q0 -11 -7.5 -30.5t-7.5 -29.5q0 -20 25 -35t58 -15q46 0 75 24t29 62q0 34 -29 56q-18 14 -79 41q-73 33 -99 61.5t-26 75.5q0 70 55.5 108.5t156.5 38.5q178 0 178 -95q0 -28 -19 -46.5t-48 -18.5q-23 0 -38 12t-15 31q0 5 4 23q6 15 6 24q0 19 -21.5 32t-51.5 13
q-84 0 -84 -70q0 -37 33 -59q10 -7 89 -42q67 -27 94.5 -57t27.5 -74q0 -72 -66.5 -118.5t-169.5 -46.5h-24z" />
    <glyph glyph-name="Cacute" unicode="&#x106;" horiz-adv-x="684" 
d="M723 672l-51 -238h-31q-11 114 -47 164.5t-104 50.5q-98 0 -153 -90q-50 -82 -81 -188t-31 -194q0 -68 40.5 -113t101.5 -45q74 0 139 54q30 25 82 77l37 -34q-62 -71 -126.5 -100t-158.5 -29q-279 0 -279 246q0 109 47.5 211.5t124.5 159.5q103 76 248 76q87 0 182 -37
l41 29h19zM474 713l-11 14l123 104q26 22 31.5 25.5t16.5 3.5t21 -11.5t10 -24.5q0 -24 -38 -41z" />
    <glyph glyph-name="cacute" unicode="&#x107;" horiz-adv-x="494" 
d="M444 149l19 -10q-47 -71 -93 -103q-67 -47 -153 -47q-82 0 -128 46.5t-46 129.5q0 74 28 143.5t74 109.5q72 63 194 63q147 0 147 -81q0 -33 -20.5 -55.5t-51.5 -22.5q-26 0 -43 15.5t-17 38.5t19 44q9 10 9 18q0 18 -31 18q-51 0 -90 -67q-65 -112 -65 -245
q0 -111 82 -111q83 0 166 116zM329 527l-12 12l106 124q31 36 47 36q12 0 22.5 -11.5t10.5 -24.5q0 -20 -33 -42z" />
    <glyph glyph-name="Ccaron" unicode="&#x10c;" horiz-adv-x="684" 
d="M723 672l-51 -238h-31q-11 114 -47 164.5t-104 50.5q-98 0 -153 -90q-50 -82 -81 -188t-31 -194q0 -68 40.5 -113t101.5 -45q74 0 139 54q30 25 82 77l37 -34q-62 -71 -126.5 -100t-158.5 -29q-279 0 -279 246q0 109 47.5 211.5t124.5 159.5q103 76 248 76q87 0 182 -37
l41 29h19zM682 865l8 -18l-196 -135l-134 138l14 15l129 -82z" />
    <glyph glyph-name="ccaron" unicode="&#x10d;" horiz-adv-x="494" 
d="M444 149l19 -10q-47 -71 -93 -103q-67 -47 -153 -47q-82 0 -128 46.5t-46 129.5q0 74 28 143.5t74 109.5q72 63 194 63q147 0 147 -81q0 -33 -20.5 -55.5t-51.5 -22.5q-26 0 -43 15.5t-17 38.5t19 44q9 10 9 18q0 18 -31 18q-51 0 -90 -67q-65 -112 -65 -245
q0 -111 82 -111q83 0 166 116zM533 696l10 -16l-198 -155l-134 157l14 14l129 -98z" />
    <glyph glyph-name="sfthyphen" unicode="&#xad;" horiz-adv-x="275" 
d="M286 277l-12 -60h-275l13 60h274z" />
    <glyph glyph-name="overscore.001" unicode="&#xaf;" 
d="M134 850h484v-76h-484v76z" />
    <glyph glyph-name="mu1" unicode="&#xb5;" horiz-adv-x="602" 
d="M87 -166l-73 -17l-6 4q2 61 19 147l30 146q3 14 10 50l53 305l87 13l5 -3q-76 -259 -76 -383q0 -77 54 -77t110 85t85 208l37 157l82 13l6 -5q-87 -261 -87 -389q0 -69 45 -69q36 0 80 34l2 -20q-59 -43 -118 -43q-84 0 -84 112q0 12 3 43q-90 -156 -182 -156
q-76 0 -85 81q-10 -65 -10 -119q0 -55 13 -117z" />
    <glyph glyph-name="mu1" unicode="&#x3bc;" horiz-adv-x="602" 
d="M87 -166l-73 -17l-6 4q2 61 19 147l30 146q3 14 10 50l53 305l87 13l5 -3q-76 -259 -76 -383q0 -77 54 -77t110 85t85 208l37 157l82 13l6 -5q-87 -261 -87 -389q0 -69 45 -69q36 0 80 34l2 -20q-59 -43 -118 -43q-84 0 -84 112q0 12 3 43q-90 -156 -182 -156
q-76 0 -85 81q-10 -65 -10 -119q0 -55 13 -117z" />
    <glyph glyph-name="middot.001" unicode="&#xb7;" horiz-adv-x="291" 
d="M164 339q36 0 57 -21t21 -57q0 -43 -27.5 -70.5t-70.5 -27.5q-78 0 -78 79q0 41 28.5 69t69.5 28z" />
    <glyph glyph-name="Amacron" unicode="&#x100;" horiz-adv-x="674" 
d="M520 667l54 -528q6 -62 24.5 -85.5t61.5 -26.5l-6 -27h-319l5 27q52 8 67.5 20t15.5 44q0 21 -6 82l-6 61h-215l-45 -84q-33 -62 -33 -80q0 -20 17 -31q11 -7 45 -12l-6 -27h-236l6 27q50 5 88 43.5t102 144.5q106 174 269 452h117zM381 564l-165 -295h192zM647 795
l-9 -43h-326l9 43h326z" />
    <glyph glyph-name="amacron" unicode="&#x101;" horiz-adv-x="642" 
d="M574 474l-54 -254q-24 -113 -24 -136q0 -38 26 -38q44 0 90 107l20 -5q-27 -67 -58 -104q-47 -56 -115 -56q-90 0 -99 101q-69 -100 -169 -100q-71 0 -109.5 44t-38.5 125q0 75 29.5 145.5t81.5 118.5q64 59 157 59q45 0 70.5 -14.5t43.5 -49.5l11 51zM346 449
q-72 0 -116 -127q-32 -91 -36 -185q-2 -45 13 -72t43 -27q70 0 111 115q47 131 47 216q0 36 -17 58t-45 22zM591 625l-9 -43h-318l9 43h318z" />
    <glyph glyph-name="Abreve" unicode="&#x102;" horiz-adv-x="674" 
d="M520 667l54 -528q6 -62 24.5 -85.5t61.5 -26.5l-6 -27h-319l5 27q52 8 67.5 20t15.5 44q0 21 -6 82l-6 61h-215l-45 -84q-33 -62 -33 -80q0 -20 17 -31q11 -7 45 -12l-6 -27h-236l6 27q50 5 88 43.5t102 144.5q106 174 269 452h117zM381 564l-165 -295h192zM652 859h23
q-31 -61 -73 -93q-60 -46 -136 -46q-111 0 -111 95q0 20 6 44h19q0 -26 8 -39q22 -36 95 -36q105 0 169 75z" />
    <glyph glyph-name="abreve" unicode="&#x103;" horiz-adv-x="642" 
d="M574 474l-54 -254q-24 -113 -24 -136q0 -38 26 -38q44 0 90 107l20 -5q-27 -67 -58 -104q-47 -56 -115 -56q-90 0 -99 101q-69 -100 -169 -100q-71 0 -109.5 44t-38.5 125q0 75 29.5 145.5t81.5 118.5q64 59 157 59q45 0 70.5 -14.5t43.5 -49.5l11 51zM346 449
q-72 0 -116 -127q-32 -91 -36 -185q-2 -45 13 -72t43 -27q70 0 111 115q47 131 47 216q0 36 -17 58t-45 22zM575 690h22q-29 -65 -74 -103q-62 -52 -135 -52q-107 0 -107 100q0 25 6 55h20v-7q0 -45 23 -64.5t77 -19.5q102 0 168 91z" />
    <glyph glyph-name="Aogonek" unicode="&#x104;" horiz-adv-x="674" 
d="M551 0l-5 -5l-28 -32t-28 -61q0 -22 20.5 -35.5t54.5 -13.5q7 0 29 1l-5 -20q-40 -11 -78 -11q-43 0 -69.5 18.5t-26.5 49.5q0 29 21 53t75 56h-176l5 27q53 8 68 20t15 46q0 19 -6 80l-6 61h-215l-45 -84q-33 -62 -33 -80q0 -20 17 -31q11 -7 45 -12l-6 -27h-236l6 27
q47 4 85 40.5t93 127.5q111 182 281 472h117l54 -528q6 -62 24.5 -85.5t61.5 -26.5l-6 -27h-103zM381 564l-165 -295h192z" />
    <glyph glyph-name="aogonek" unicode="&#x105;" horiz-adv-x="642" 
d="M612 153l20 -5q-27 -67 -58 -104q-47 -56 -115 -56q-4 0 -20 2q-50 -50 -50 -82q0 -21 20.5 -34t53.5 -13q7 0 31 2l-4 -19q-53 -10 -82 -10q-41 0 -67.5 18t-26.5 46q0 43 79 92l16 10q-45 25 -49 89q-69 -100 -169 -100q-71 0 -109.5 44t-38.5 125q0 75 29.5 145.5
t81.5 118.5q64 59 157 59q45 0 70.5 -14.5t43.5 -49.5l11 51l138 6l-54 -254q-24 -113 -24 -136q0 -38 26 -38q44 0 90 107zM346 449q-72 0 -116 -127q-32 -91 -36 -185q-2 -45 13 -72t43 -27q70 0 111 115q47 131 47 216q0 36 -17 58t-45 22z" />
    <glyph glyph-name="Ccircumflex" unicode="&#x108;" horiz-adv-x="684" 
d="M723 672l-51 -238h-31q-11 114 -47 164.5t-104 50.5q-98 0 -153 -90q-50 -82 -81 -188t-31 -194q0 -68 40.5 -113t101.5 -45q74 0 139 54q30 25 82 77l37 -34q-62 -71 -126.5 -100t-158.5 -29q-279 0 -279 246q0 109 47.5 211.5t124.5 159.5q103 76 248 76q87 0 182 -37
l41 29h19zM543 863l129 -140l-15 -15l-128 79l-188 -79l-8 18z" />
    <glyph glyph-name="Cdotaccent" unicode="&#x10a;" horiz-adv-x="684" 
d="M723 672l-51 -238h-31q-11 114 -47 164.5t-104 50.5q-98 0 -153 -90q-50 -82 -81 -188t-31 -194q0 -68 40.5 -113t101.5 -45q74 0 139 54q30 25 82 77l37 -34q-62 -71 -126.5 -100t-158.5 -29q-279 0 -279 246q0 109 47.5 211.5t124.5 159.5q103 76 248 76q87 0 182 -37
l41 29h19zM510 859q29 0 48 -17.5t19 -44.5q0 -35 -23.5 -58.5t-58.5 -23.5q-29 0 -48 19t-19 49q0 31 24 53.5t58 22.5z" />
    <glyph glyph-name="cdotaccent" unicode="&#x10b;" horiz-adv-x="494" 
d="M444 149l19 -10q-47 -71 -93 -103q-67 -47 -153 -47q-82 0 -128 46.5t-46 129.5q0 74 28 143.5t74 109.5q72 63 194 63q147 0 147 -81q0 -33 -20.5 -55.5t-51.5 -22.5q-26 0 -43 15.5t-17 38.5t19 44q9 10 9 18q0 18 -31 18q-51 0 -90 -67q-65 -112 -65 -245
q0 -111 82 -111q83 0 166 116zM365 682q29 0 47 -17t18 -44q0 -34 -22.5 -57t-57.5 -23q-29 0 -47 18.5t-18 48.5q0 31 23 52.5t57 21.5z" />
    <glyph glyph-name="Dcaron" unicode="&#x10e;" horiz-adv-x="772" 
d="M134 667h357q262 0 262 -243q0 -111 -47.5 -209t-127.5 -152q-93 -63 -234 -63h-350l6 27l22 3q45 6 59 24.5t29 86.5l79 373q3 11 7 30q7 32 7 52q0 32 -50 40l-25 4zM241 36h37q76 0 119 15.5t75 54.5q54 65 85 164t31 205q0 110 -84 142q-43 16 -136 15zM657 865
l8 -18l-196 -135l-134 138l14 15l129 -82z" />
    <glyph glyph-name="dcaron" unicode="&#x10f;" horiz-adv-x="787" 
d="M618 705l-103 -485q-23 -108 -23 -136q0 -37 26 -37q45 0 90 106l20 -5q-29 -71 -57 -104q-47 -55 -112 -55q-53 0 -81 37q-16 21 -19 63q-66 -100 -170 -100q-71 0 -109.5 43t-38.5 122q0 77 31.5 150.5t84.5 120.5q64 56 151 56q84 0 116 -63l25 116q14 65 14 88
q0 19 -17 25q-9 5 -69 7l5 22zM344 448q-53 0 -83 -54q-27 -47 -46.5 -120.5t-22.5 -137.5q-2 -44 13 -71t43 -27q32 0 62 29.5t48 78.5t33 118t15 105q0 35 -17 57t-45 22zM636 514l-3 13q35 8 52 19q39 25 39 51q0 7 -20 11q-32 6 -32 41q0 23 18.5 39t44.5 16t42.5 -16
t16.5 -41q0 -50 -41.5 -85t-116.5 -48z" />
    <glyph glyph-name="Dcroat" unicode="&#x110;" horiz-adv-x="772" 
d="M134 667h357q262 0 262 -243q0 -111 -47.5 -209t-127.5 -152q-93 -63 -234 -63h-350l6 27l22 3q45 6 59 24t29 87l42 195h-95l8 35h94l37 173q7 30 7 52q0 32 -50 40l-25 4zM241 36h37q75 0 118.5 15.5t75.5 54.5q54 65 85 164t31 205q0 110 -84 142q-43 16 -136 15
l-55 -261h134l-7 -35h-135z" />
    <glyph glyph-name="dcroat" unicode="&#x111;" horiz-adv-x="637" 
d="M618 704l-27 -129h88l-7 -29h-87l-70 -326q-23 -107 -23 -136q0 -37 26 -37q45 0 90 106l20 -5q-29 -71 -57 -104q-47 -55 -112 -55q-53 0 -81 37q-16 21 -19 63q-66 -100 -170 -100q-71 0 -109.5 43t-38.5 122q0 77 31.5 150.5t84.5 120.5q64 56 151 56q84 0 116 -63
l27 128h-143l6 29h143q6 33 6 44q0 21 -16 28q-11 5 -70 7l5 22zM344 448q-53 0 -83 -54q-27 -47 -46.5 -120.5t-22.5 -137.5q-2 -44 13 -71t43 -27q32 0 62 29.5t48 78.5t33 118t15 105q0 35 -17 57t-45 22z" />
    <glyph glyph-name="Emacron" unicode="&#x112;" horiz-adv-x="668" 
d="M680 667l-41 -216h-33q-16 105 -40 140q-29 41 -93 41h-105l-55 -260h57q28 0 42.5 7t31.5 28q21 27 44 82h26l-60 -282h-26q-2 87 -12.5 109.5t-50.5 22.5h-59l-65 -303h97q99 0 158 61q35 36 98 149h34l-52 -246h-581l6 27l21 3q45 6 59.5 24.5t28.5 86.5l86 403
q7 30 7 52q0 34 -50 40l-25 3l6 28h546zM625 795l-9 -43h-326l9 43h326z" />
    <glyph glyph-name="emacron" unicode="&#x113;" horiz-adv-x="512" 
d="M444 149l19 -10q-47 -70 -92 -102q-67 -48 -154 -48q-83 0 -128 46t-45 131q0 78 29.5 147t79.5 110q71 58 187 58q151 0 151 -97q0 -45 -31.5 -86t-86.5 -68q-66 -32 -174 -39q-4 -37 -4 -54q0 -104 80 -104q86 0 169 116zM202 213q7 1 29 7q82 21 124 81q37 53 37 106
q0 49 -43 49q-58 0 -97 -78q-30 -61 -50 -165zM513 625l-9 -43h-318l9 43h318z" />
    <glyph glyph-name="Ebreve" unicode="&#x114;" horiz-adv-x="668" 
d="M680 667l-41 -216h-33q-16 105 -40 140q-29 41 -93 41h-105l-55 -260h57q28 0 42.5 7t31.5 28q21 27 44 82h26l-60 -282h-26q-2 87 -12.5 109.5t-50.5 22.5h-59l-65 -303h97q99 0 158 61q35 36 98 149h34l-52 -246h-581l6 27l21 3q45 6 59.5 24.5t28.5 86.5l86 403
q7 30 7 52q0 34 -50 40l-25 3l6 28h546zM633 859h23q-31 -61 -73 -93q-60 -46 -136 -46q-111 0 -111 95q0 20 6 44h19v-5q0 -70 103 -70q105 0 169 75z" />
    <glyph glyph-name="ebreve" unicode="&#x115;" horiz-adv-x="512" 
d="M444 149l19 -10q-47 -70 -92 -102q-67 -48 -154 -48q-83 0 -128 46t-45 131q0 78 29.5 147t79.5 110q71 58 187 58q151 0 151 -97q0 -45 -31.5 -86t-86.5 -68q-66 -32 -174 -39q-4 -37 -4 -54q0 -104 80 -104q86 0 169 116zM202 213q7 1 29 7q82 21 124 81q37 53 37 106
q0 49 -43 49q-58 0 -97 -78q-30 -61 -50 -165zM527 690h22q-29 -65 -74 -103q-62 -52 -135 -52q-107 0 -107 100q0 25 6 55h20v-7q0 -45 23 -64.5t77 -19.5q102 0 168 91z" />
    <glyph glyph-name="Edotaccent" unicode="&#x116;" horiz-adv-x="668" 
d="M680 667l-41 -216h-33q-16 105 -40 140q-29 41 -93 41h-105l-55 -260h57q28 0 42.5 7t31.5 28q21 27 44 82h26l-60 -282h-26q-2 87 -12.5 109.5t-50.5 22.5h-59l-65 -303h97q99 0 158 61q35 36 98 149h34l-52 -246h-581l6 27l21 3q45 6 59.5 24.5t28.5 86.5l86 403
q7 30 7 52q0 34 -50 40l-25 3l6 28h546zM476 859q29 0 48 -17.5t19 -44.5q0 -35 -23.5 -58.5t-58.5 -23.5q-29 0 -48 19t-19 49q0 31 24 53.5t58 22.5z" />
    <glyph glyph-name="edotaccent" unicode="&#x117;" horiz-adv-x="512" 
d="M444 149l19 -10q-47 -70 -92 -102q-67 -48 -154 -48q-83 0 -128 46t-45 131q0 78 29.5 147t79.5 110q71 58 187 58q151 0 151 -97q0 -45 -31.5 -86t-86.5 -68q-66 -32 -174 -39q-4 -37 -4 -54q0 -104 80 -104q86 0 169 116zM202 213q7 1 29 7q82 21 124 81q37 53 37 106
q0 49 -43 49q-58 0 -97 -78q-30 -61 -50 -165zM367 682q29 0 47 -17t18 -44q0 -34 -22.5 -57t-57.5 -23q-29 0 -47 18.5t-18 48.5q0 31 23 52.5t57 21.5z" />
    <glyph glyph-name="Eogonek" unicode="&#x118;" horiz-adv-x="668" 
d="M519 0l-5 -5q0 -1 -28 -32t-28 -61q0 -22 20.5 -35.5t54.5 -13.5q7 0 29 1l-5 -20q-40 -11 -78 -11q-43 0 -69.5 18.5t-26.5 49.5q0 29 21 52.5t76 56.5h-485l6 27l21 3q45 6 59.5 24.5t28.5 86.5l86 403q7 30 7 52q0 34 -50 40l-25 3l6 28h546l-41 -216h-33
q-16 105 -40 140q-29 41 -93 41h-105l-55 -260h57q28 0 42.5 7t31.5 28q21 27 44 82h26l-60 -282h-26q-2 87 -12.5 109.5t-50.5 22.5h-59l-65 -303h97q99 0 158 61q35 36 98 149h34l-52 -246h-57z" />
    <glyph glyph-name="eogonek" unicode="&#x119;" horiz-adv-x="512" 
d="M444 149l19 -10q-43 -64 -87 -99q-66 -52 -87 -77.5t-21 -54.5q0 -21 20.5 -34t53.5 -13q7 0 31 2l-5 -19q-54 -10 -81 -10q-41 0 -67.5 18.5t-26.5 47.5q0 44 56 90q-13 -1 -32 -1q-83 0 -128 46t-45 131q0 78 29.5 147t79.5 110q71 58 187 58q151 0 151 -97
q0 -45 -31.5 -86t-86.5 -68q-66 -32 -174 -39q-4 -37 -4 -54q0 -104 80 -104q86 0 169 116zM202 213q25 7 64 18q53 19 89.5 70t36.5 106q0 49 -43 49q-58 0 -97 -78q-30 -61 -50 -165z" />
    <glyph glyph-name="Ecaron" unicode="&#x11a;" horiz-adv-x="668" 
d="M680 667l-41 -216h-33q-16 105 -40 140q-29 41 -93 41h-105l-55 -260h57q28 0 42.5 7t31.5 28q21 27 44 82h26l-60 -282h-26q-2 87 -12.5 109.5t-50.5 22.5h-59l-65 -303h97q99 0 158 61q35 36 98 149h34l-52 -246h-581l6 27l21 3q45 6 59.5 24.5t28.5 86.5l86 403
q7 30 7 52q0 34 -50 40l-25 3l6 28h546zM635 865l8 -18l-196 -135l-134 138l14 15l129 -82z" />
    <glyph glyph-name="ecaron" unicode="&#x11b;" horiz-adv-x="512" 
d="M444 149l19 -10q-47 -70 -92 -102q-67 -48 -154 -48q-83 0 -128 46t-45 131q0 78 29.5 147t79.5 110q71 58 187 58q151 0 151 -97q0 -45 -31.5 -86t-86.5 -68q-66 -32 -174 -39q-4 -37 -4 -54q0 -104 80 -104q86 0 169 116zM202 213q7 1 29 7q82 21 124 81q37 53 37 106
q0 49 -43 49q-58 0 -97 -78q-30 -61 -50 -165zM537 696l10 -16l-198 -155l-134 157l14 14l129 -98z" />
    <glyph glyph-name="Gcircumflex" unicode="&#x11c;" horiz-adv-x="777" 
d="M739 672l-51 -238h-30q-15 106 -41 152q-36 63 -114 63q-132 0 -206 -182q-27 -66 -46 -156.5t-19 -153.5q0 -139 129 -139q82 0 128 65q14 20 29.5 72t15.5 82q0 22 -22 33q-18 9 -68 16l6 27h329l-6 -27q-56 -9 -71 -23t-27 -69l-44 -206h-21q-5 7 -12 16
q-15 21 -30 21q-7 0 -73 -17q-82 -21 -162 -21q-130 0 -194 58q-69 63 -69 174q0 81 27 166.5t70 145.5q109 149 324 149q106 0 188 -36l42 28h18zM553 863l128 -140l-14 -15l-128 79l-188 -79l-8 18z" />
    <glyph glyph-name="gcircumflex" unicode="&#x11d;" horiz-adv-x="586" 
d="M571 475l-84 -401q-25 -118 -65 -173q-80 -109 -241 -109q-157 0 -157 101q0 32 19.5 52.5t48.5 20.5q26 0 43.5 -15.5t17.5 -38.5q0 -21 -25 -50q-6 -7 -6 -15q0 -13 18 -22t43 -9q79 0 117 69q19 34 33 101l20 94q-41 -50 -78 -70.5t-86 -20.5q-67 0 -107 46.5
t-40 123.5q0 75 30.5 146t82.5 118q64 58 155 58q85 0 115 -64l12 52zM345 448q-51 2 -84 -55q-27 -47 -46.5 -119t-22.5 -137q-2 -44 13 -71t43 -27q70 0 112 114q46 126 46 216q0 76 -61 79zM414 697l128 -157l-15 -15l-123 98l-188 -98l-9 18z" />
    <glyph glyph-name="Gdotaccent" unicode="&#x120;" horiz-adv-x="777" 
d="M739 672l-51 -238h-30q-15 106 -41 152q-36 63 -114 63q-132 0 -206 -182q-27 -66 -46 -156.5t-19 -153.5q0 -139 129 -139q82 0 128 65q14 20 29.5 72t15.5 82q0 22 -22 33q-18 9 -68 16l6 27h329l-6 -27q-56 -9 -71 -23t-27 -69l-44 -206h-21q-5 7 -12 16
q-15 21 -30 21q-7 0 -73 -17q-82 -21 -162 -21q-130 0 -194 58q-69 63 -69 174q0 81 27 166.5t70 145.5q109 149 324 149q106 0 188 -36l42 28h18zM526 859q29 0 48 -17.5t19 -44.5q0 -35 -23.5 -58.5t-58.5 -23.5q-29 0 -48 19t-19 49q0 31 24 53.5t58 22.5z" />
    <glyph glyph-name="gdotaccent" unicode="&#x121;" horiz-adv-x="586" 
d="M571 475l-84 -401q-25 -118 -65 -173q-80 -109 -241 -109q-157 0 -157 101q0 32 19.5 52.5t48.5 20.5q26 0 43.5 -15.5t17.5 -38.5q0 -21 -25 -50q-6 -7 -6 -15q0 -13 18 -22t43 -9q79 0 117 69q19 34 33 101l20 94q-41 -50 -78 -70.5t-86 -20.5q-67 0 -107 46.5
t-40 123.5q0 75 30.5 146t82.5 118q64 58 155 58q85 0 115 -64l12 52zM345 448q-51 2 -84 -55q-27 -47 -46.5 -119t-22.5 -137q-2 -44 13 -71t43 -27q70 0 112 114q46 126 46 216q0 76 -61 79zM391 682q29 0 47 -17t18 -44q0 -34 -22.5 -57t-57.5 -23q-29 0 -47 18.5
t-18 48.5q0 31 23 52.5t57 21.5z" />
    <glyph glyph-name="Gcommaaccent" unicode="&#x122;" horiz-adv-x="777" 
d="M739 672l-51 -238h-30q-15 106 -41 152q-36 63 -114 63q-132 0 -206 -182q-27 -66 -46 -156.5t-19 -153.5q0 -139 129 -139q82 0 128 65q14 20 29.5 72t15.5 82q0 22 -22 33q-18 9 -68 16l6 27h329l-6 -27q-56 -9 -71 -23t-27 -69l-44 -206h-21q-5 7 -12 16
q-15 21 -30 21q-7 0 -73 -17q-82 -21 -162 -21q-130 0 -194 58q-69 63 -69 174q0 81 27 166.5t70 145.5q109 149 324 149q106 0 188 -36l42 28h18zM250 -240l-4 14q33 7 53 20q40 26 40 51q0 9 -31 24q-17 8 -17 30t18 38.5t43 16.5q59 0 59 -57q0 -65 -70 -106
q-35 -20 -91 -31z" />
    <glyph glyph-name="gcommaaccent" unicode="&#x123;" horiz-adv-x="586" 
d="M571 475l-84 -401q-25 -118 -65 -173q-80 -109 -241 -109q-157 0 -157 101q0 32 19.5 52.5t48.5 20.5q26 0 43.5 -15.5t17.5 -38.5q0 -21 -25 -50q-6 -7 -6 -15q0 -13 18 -22t43 -9q79 0 117 69q19 34 33 101l20 94q-41 -50 -78 -70.5t-86 -20.5q-67 0 -107 46.5
t-40 123.5q0 75 30.5 146t82.5 118q64 58 155 58q85 0 115 -64l12 52zM345 448q-51 2 -84 -55q-27 -47 -46.5 -119t-22.5 -137q-2 -44 13 -71t43 -27q70 0 112 114q46 126 46 216q0 76 -61 79zM467 727l4 -13q-37 -9 -53 -20q-39 -25 -39 -51q0 -8 20 -11q32 -5 32 -40
q0 -24 -18.5 -40t-44.5 -16t-42.5 16t-16.5 41q0 63 69 104q32 19 89 30z" />
    <glyph glyph-name="Hcircumflex" unicode="&#x124;" horiz-adv-x="812" 
d="M312 368h251l34 159q11 51 11 68q0 33 -46 41l-23 4l6 27h320l-6 -27l-20 -3q-45 -7 -59 -25t-29 -86l-80 -374q-13 -61 -13 -82q0 -31 49 -39l25 -4l-6 -27h-320l6 27l18 3q44 7 57.5 25t28.5 88l40 190h-252l-38 -181q-3 -12 -7 -29q-7 -35 -7 -52q0 -34 48 -41l21 -3
l-6 -27h-320l6 27l20 3q46 7 60.5 25t28.5 86l79 373q13 61 13 82q0 32 -49 40l-25 4l6 27h319l-6 -27l-14 -3q-47 -10 -60.5 -27t-27.5 -84zM550 863l129 -140l-14 -15l-129 79l-187 -79l-8 18z" />
    <glyph glyph-name="Hbar" unicode="&#x126;" horiz-adv-x="812" 
d="M595 516l2 11q11 61 11 68q0 33 -46 41l-23 4l6 27h320l-6 -27l-20 -4q-46 -9 -60.5 -26.5t-27.5 -83.5l-2 -10h89l-8 -35h-89l-70 -329q-13 -61 -13 -82q0 -31 49 -39l25 -4l-6 -27h-320l6 27l18 3q44 7 57.5 25t28.5 88l40 190h-252l-38 -181q-3 -12 -7 -29
q-7 -35 -7 -52q0 -34 48 -41l21 -3l-6 -27h-320l6 27l20 3q46 7 60.5 25t28.5 86l72 340h-89l7 35h89l4 20q9 42 9 60q0 32 -49 40l-25 4l6 27h319l-6 -27l-14 -3q-47 -10 -61 -27t-27 -84l-2 -10h252zM588 481h-252l-24 -113h251z" />
    <glyph glyph-name="hbar" unicode="&#x127;" horiz-adv-x="611" 
d="M134 546h-90l6 29h89q2 8 2 10q5 23 5 36q0 18 -17 26q-11 5 -69 7l5 22l236 28l-27 -129h147l-6 -29h-148l-44 -209q43 73 80 104q48 40 109 40q49 0 78 -26.5t29 -70.5q0 -30 -11 -79l-19 -85q-23 -103 -23 -137q0 -37 25 -37q45 0 91 107l21 -5q-29 -69 -58 -104
q-48 -56 -112 -56q-47 0 -76 29t-29 76q0 63 51 243q11 39 11 64q0 36 -31 36q-60 0 -122 -131q-36 -76 -55 -163l-31 -142h-133z" />
    <glyph glyph-name="Imacron" unicode="&#x12a;" horiz-adv-x="406" 
d="M327 27l-6 -27h-326l6 27l20 3q46 7 60.5 25t28.5 86l79 373q13 61 13 82q0 32 -49 40l-25 4l6 27h325l-5 -27l-21 -3q-45 -6 -59.5 -24.5t-28.5 -86.5l-79 -373q-2 -12 -7 -30q-7 -35 -7 -52q0 -32 50 -40zM491 795l-9 -43h-326l9 43h326z" />
    <glyph glyph-name="imacron" unicode="&#x12b;" horiz-adv-x="355" 
d="M288 479l-55 -259q-24 -113 -24 -136q0 -38 26 -38q45 0 91 107l20 -5q-28 -70 -57 -104q-48 -56 -115 -56q-46 0 -73 26.5t-27 70.5q0 26 12 83l30 142q13 62 13 81q0 20 -16 28q-12 6 -73 6l5 22zM378 625l-10 -43h-271l10 43h271z" />
    <glyph glyph-name="ibreve" unicode="&#x12d;" horiz-adv-x="355" 
d="M288 479l-55 -259q-24 -113 -24 -136q0 -38 26 -38q45 0 91 107l20 -5q-28 -70 -57 -104q-48 -56 -115 -56q-46 0 -73 26.5t-27 70.5q0 26 12 83l30 142q13 62 13 81q0 20 -16 28q-12 6 -73 6l5 22zM395 690h22q-34 -71 -71 -105q-54 -50 -123 -50q-102 0 -102 101
q0 24 6 54h20v-8q0 -84 87 -84q89 0 161 92z" />
    <glyph glyph-name="Iogonek" unicode="&#x12e;" horiz-adv-x="406" 
d="M321 0h-126q-2 -2 -4 -5q-31 -33 -37 -42q-20 -28 -20 -51q0 -22 20.5 -35.5t54.5 -13.5q8 0 30 1l-5 -20q-41 -11 -79 -11q-43 0 -69.5 18.5t-26.5 49.5q0 29 21 52.5t76 56.5h-161l6 27l20 3q46 7 60.5 25t28.5 86l79 373q13 61 13 82q0 32 -49 40l-25 4l6 27h325
l-5 -27l-21 -3q-45 -6 -59.5 -24.5t-28.5 -86.5l-79 -373q-2 -12 -7 -30q-7 -35 -7 -52q0 -32 50 -40l25 -4z" />
    <glyph glyph-name="iogonek" unicode="&#x12f;" horiz-adv-x="355" 
d="M326 153l20 -5q-58 -152 -167 -159q-49 -49 -49 -80q0 -21 20.5 -34.5t53.5 -12.5l31 1l-5 -18q-51 -10 -81 -10q-41 0 -67.5 18t-26.5 46q0 48 84 95q-65 19 -65 92q0 25 12 82l30 142q13 62 13 81q0 20 -16 28q-12 6 -73 6l5 22l243 32l-55 -259q-24 -113 -24 -136
q0 -38 26 -38q45 0 91 107zM249 682q29 0 47 -17.5t18 -45.5q0 -33 -23 -56t-56 -23q-29 0 -47.5 18.5t-18.5 47.5q0 32 23 54t57 22z" />
    <glyph glyph-name="Idotaccent" unicode="&#x130;" horiz-adv-x="406" 
d="M327 27l-6 -27h-326l6 27l20 3q46 7 60.5 25t28.5 86l79 373q13 61 13 82q0 32 -49 40l-25 4l6 27h325l-5 -27l-21 -3q-45 -6 -59.5 -24.5t-28.5 -86.5l-79 -373q-2 -12 -7 -30q-7 -35 -7 -52q0 -32 50 -40zM331 859q29 0 48 -17.5t19 -44.5q0 -35 -23.5 -58.5
t-58.5 -23.5q-29 0 -48 19t-19 49q0 31 24 53.5t58 22.5z" />
    <glyph glyph-name="IJ" unicode="&#x132;" horiz-adv-x="790" 
d="M327 27l-6 -27h-326l6 27l20 3q46 7 60.5 25t28.5 86l79 373q13 61 13 82q0 32 -49 40l-25 4l6 27h325l-5 -27l-21 -3q-45 -6 -59.5 -24.5t-28.5 -86.5l-79 -373q-2 -12 -7 -30q-7 -35 -7 -52q0 -32 50 -40zM291 -164l6 21q88 -2 138 59q22 26 36 69q12 37 33 133l85 396
q3 13 6 30q7 34 7 52q0 32 -50 39l-36 5l5 27h330l-6 -27l-12 -3q-48 -12 -61 -27.5t-27 -83.5l-70 -328q-24 -111 -44.5 -164.5t-54.5 -91.5q-40 -46 -112 -77t-136 -31q-3 0 -37 2z" />
    <glyph glyph-name="ij" unicode="&#x133;" horiz-adv-x="678" 
d="M288 479l-55 -259q-24 -113 -24 -136q0 -38 26 -38q45 0 91 107l20 -5q-28 -70 -57 -104q-48 -56 -115 -56q-46 0 -73 26.5t-27 70.5q0 26 12 83l30 142q13 62 13 81q0 20 -16 28q-12 6 -73 6l5 22zM249 682q29 0 47 -17.5t18 -45.5q0 -33 -23 -56t-56 -23
q-29 0 -47.5 18.5t-18.5 47.5q0 32 23 54t57 22zM660 479l-74 -379q-60 -308 -281 -308q-60 0 -93.5 23.5t-33.5 65.5q0 31 19.5 51t49.5 20q25 0 41 -14.5t16 -37.5q0 -19 -22 -47q-6 -6 -6 -14q0 -22 31 -22q43 0 70 43t49 147l57 266q21 98 21 118t-16 28q-12 6 -73 6
l4 22zM622 682q30 0 48 -17t18 -46q0 -33 -23 -56t-57 -23q-29 0 -47.5 18.5t-18.5 47.5q0 31 23.5 53.5t56.5 22.5z" />
    <glyph glyph-name="Kcommaaccent" unicode="&#x136;" horiz-adv-x="724" 
d="M708 27l-6 -27h-244l5 20q1 4 1 7q0 12 -9 32l-118 266l-45 -37l-32 -148q-10 -46 -10 -69q0 -31 45 -39l29 -5l-6 -27h-323l6 27l21 4q46 9 60 25.5t28 84.5l82 386q10 47 10 69q0 31 -45 39l-29 5l6 27h323l-6 -27l-20 -3q-45 -7 -59 -25t-29 -86l-41 -189
q116 97 197 172q56 52 71 69.5t15 33.5q0 24 -51 28l6 27h248l-6 -27q-66 -6 -164 -85l-161 -129l135 -298q24 -54 46.5 -73.5t69.5 -27.5zM241 -240l-4 14q33 7 53 20q40 26 40 51q0 9 -31 24q-17 8 -17 30t18 38.5t43 16.5q59 0 59 -57q0 -65 -70 -106q-35 -20 -91 -31z
" />
    <glyph glyph-name="kcommaaccent" unicode="&#x137;" horiz-adv-x="598" 
d="M149 0h-133l114 535q14 66 14 87q0 19 -17 25q-9 5 -69 7l5 22l236 29l-78 -367q44 69 84 102q60 50 134 50q43 0 69 -20.5t26 -55.5q0 -55 -53.5 -97.5t-149.5 -62.5q73 -4 103 -21t30 -52q0 -17 -5 -49.5t-5 -48.5q0 -37 25 -37q44 0 91 106l20 -5q-28 -72 -58 -106
q-45 -52 -121 -52q-102 0 -102 94q0 21 10 92q1 3 1 11q0 46 -66 46q-23 0 -57 -6zM203 253q18 2 50 6q164 19 164 115q0 20 -15 33.5t-38 13.5q-56 0 -101 -59q-26 -34 -60 -109zM133 -236l-4 13q34 7 52 19q39 25 39 51q0 8 -20 11q-32 4 -32 41q0 23 18.5 39t45.5 16
q26 0 42.5 -16t16.5 -41q0 -50 -42 -85t-116 -48z" />
    <glyph glyph-name="kgreenlandic" unicode="&#x138;" horiz-adv-x="661" 
d="M212 0h-133l59 279q21 99 21 124q0 35 -27 35q-41 0 -93 -106l-20 6q34 78 69.5 110.5t87.5 32.5q108 0 108 -143q51 81 101.5 116.5t115.5 35.5q43 0 69 -20.5t26 -55.5q0 -64 -74 -112q-49 -32 -128 -48q72 -5 102.5 -21.5t30.5 -51.5q0 -24 -6 -54t-6 -46
q0 -36 25 -36q45 0 92 107l20 -5q-32 -85 -72 -121t-103 -36q-106 0 -106 97q0 17 4 37q8 40 8 60t-20.5 33.5t-52.5 13.5q-24 0 -50 -5zM266 253q73 8 101 15q112 27 112 106q0 20 -14 33t-35 13q-43 0 -87 -45t-77 -122z" />
    <glyph glyph-name="Lacute" unicode="&#x139;" horiz-adv-x="606" 
d="M592 246l-52 -246h-545l6 27l20 3q46 7 60.5 25t28.5 86l79 373q13 61 13 82q0 32 -49 40l-25 4l6 27h326l-6 -27l-21 -4q-46 -9 -60 -26t-28 -84l-104 -490h68q90 0 145 55q41 41 104 155h34zM323 713l-10 14l122 104q34 29 49 29q11 0 21 -11.5t10 -24.5q0 -24 -38 -41
z" />
    <glyph glyph-name="lacute" unicode="&#x13a;" horiz-adv-x="320" 
d="M301 704l-103 -485q-24 -113 -24 -135q0 -38 26 -38q45 0 90 107l21 -5q-27 -67 -58 -104q-46 -55 -114 -55q-44 0 -70.5 27t-26.5 71q0 27 11 79l78 368q14 66 14 87q0 18 -17 26q-11 5 -68 7l4 22zM234 729l-10 14l122 104q34 29 49 29q11 0 21 -11.5t10 -24.5
q0 -24 -38 -41z" />
    <glyph glyph-name="Lcommaaccent" unicode="&#x13b;" horiz-adv-x="606" 
d="M592 246l-52 -246h-545l6 27l20 3q46 7 60.5 25t28.5 86l79 373q13 61 13 82q0 32 -49 40l-25 4l6 27h326l-6 -27l-21 -4q-46 -9 -60 -26t-28 -84l-104 -490h68q90 0 145 55q41 41 104 155h34zM158 -240l-4 14q33 7 53 20q40 26 40 51q0 9 -31 24q-17 8 -17 30t18 38.5
t43 16.5q59 0 59 -57q0 -65 -70 -106q-35 -20 -91 -31z" />
    <glyph glyph-name="lcommaaccent" unicode="&#x13c;" horiz-adv-x="320" 
d="M301 704l-103 -485q-24 -113 -24 -135q0 -38 26 -38q45 0 90 107l21 -5q-27 -67 -58 -104q-46 -55 -114 -55q-44 0 -70.5 27t-26.5 71q0 27 11 79l78 368q14 66 14 87q0 18 -17 26q-11 5 -68 7l4 22zM-3 -236l-4 13q34 7 52 19q39 25 39 51q0 8 -20 11q-32 4 -32 41
q0 23 18.5 39t45.5 16q26 0 42.5 -16t16.5 -41q0 -50 -42 -85t-116 -48z" />
    <glyph glyph-name="Lcaron" unicode="&#x13d;" horiz-adv-x="606" 
d="M592 246l-52 -246h-545l6 27l20 3q46 7 60.5 25t28.5 86l79 373q13 61 13 82q0 32 -49 40l-25 4l6 27h326l-6 -27l-21 -4q-46 -9 -60 -26t-28 -84l-104 -490h68q90 0 145 55q41 41 104 155h34zM475 487l-4 14q34 7 54 20q39 25 39 52q0 8 -31 23q-17 8 -17 30t18 38.5
t43 16.5q59 0 59 -57q0 -65 -70 -106q-35 -21 -91 -31z" />
    <glyph glyph-name="lcaron" unicode="&#x13e;" horiz-adv-x="470" 
d="M301 704l-103 -485q-24 -113 -24 -135q0 -38 26 -38q45 0 90 107l21 -5q-27 -67 -58 -104q-46 -55 -114 -55q-44 0 -70.5 27t-26.5 71q0 27 11 79l78 368q14 66 14 87q0 18 -17 26q-11 5 -68 7l4 22zM318 514l-3 13q35 8 52 19q39 25 39 51q0 7 -20 11q-32 6 -32 41
q0 23 18.5 39t44.5 16t42.5 -16t16.5 -41q0 -50 -41.5 -85t-116.5 -48z" />
    <glyph glyph-name="Ldot" unicode="&#x13f;" horiz-adv-x="606" 
d="M592 246l-52 -246h-545l6 27l20 3q46 7 60.5 25t28.5 86l79 373q13 61 13 82q0 32 -49 40l-25 4l6 27h326l-6 -27l-21 -4q-46 -9 -60 -26t-28 -84l-104 -490h68q90 0 145 55q41 41 104 155h34zM484 442q38 0 59.5 -21.5t21.5 -59.5q0 -45 -28.5 -73.5t-73.5 -28.5
q-81 0 -81 82q0 43 29.5 72t72.5 29z" />
    <glyph glyph-name="ldot" unicode="&#x140;" horiz-adv-x="444" 
d="M301 704l-103 -485q-24 -113 -24 -135q0 -38 26 -38q45 0 90 107l21 -5q-27 -67 -58 -104q-46 -55 -114 -55q-44 0 -70.5 27t-26.5 71q0 27 11 79l78 368q14 66 14 87q0 18 -17 26q-11 5 -68 7l4 22zM391 437q36 0 57 -21t21 -57q0 -43 -27.5 -70.5t-70.5 -27.5
q-79 0 -79 79q0 41 28.5 69t70.5 28z" />
    <glyph glyph-name="Ncommaaccent" unicode="&#x145;" horiz-adv-x="749" 
d="M370 667l206 -505l48 233q29 141 29 181q0 32 -15.5 45t-61.5 19l5 27h235l-5 -27q-69 -10 -89 -39t-51 -165l-101 -436h-97l-233 574l-74 -375q-17 -86 -17 -114q0 -27 19 -40q13 -9 60 -18l-6 -27h-240l6 27q66 11 87 38t48 142l71 306q12 52 12 70q0 28 -20 40
q-13 8 -65 17l6 27h243zM212 -240l-4 14q33 7 53 20q40 26 40 51q0 9 -31 24q-17 8 -17 30t18 38.5t43 16.5q59 0 59 -57q0 -65 -70 -106q-35 -20 -91 -31z" />
    <glyph glyph-name="ncommaaccent" unicode="&#x146;" horiz-adv-x="676" 
d="M215 0h-136l59 279q21 99 21 126q0 33 -26 33q-42 0 -94 -106l-20 6q34 77 70 110t87 33q105 0 105 -124q0 -17 -1 -31q42 77 79 110q50 45 116 45q107 0 107 -104q0 -25 -7 -58l-21 -99q-24 -113 -24 -136q0 -38 26 -38q44 0 90 107l21 -5q-27 -69 -57 -104
q-48 -56 -114 -56q-46 0 -75 28.5t-29 74.5q0 53 52 249q10 38 10 59q0 36 -33 36q-48 0 -99.5 -87t-78.5 -215zM205 -236l-4 13q34 7 52 19q39 25 39 51q0 8 -20 11q-32 4 -32 41q0 23 18.5 39t45.5 16q26 0 42.5 -16t16.5 -41q0 -50 -42 -85t-116 -48z" />
    <glyph glyph-name="Ncaron" unicode="&#x147;" horiz-adv-x="749" 
d="M370 667l206 -505l48 233q29 141 29 181q0 32 -15.5 45t-61.5 19l5 27h235l-5 -27q-69 -10 -89 -39t-51 -165l-101 -436h-97l-233 574l-74 -375q-17 -86 -17 -114q0 -27 19 -40q13 -9 60 -18l-6 -27h-240l6 27q66 11 87 38t48 142l71 306q12 52 12 70q0 28 -20 40
q-13 8 -65 17l6 27h243zM674 865l8 -18l-196 -135l-134 138l14 15l129 -82z" />
    <glyph glyph-name="ncaron" unicode="&#x148;" horiz-adv-x="676" 
d="M215 0h-136l59 279q21 99 21 126q0 33 -26 33q-42 0 -94 -106l-20 6q34 77 70 110t87 33q105 0 105 -124q0 -17 -1 -31q42 77 79 110q50 45 116 45q107 0 107 -104q0 -25 -7 -58l-21 -99q-24 -113 -24 -136q0 -38 26 -38q44 0 90 107l21 -5q-27 -69 -57 -104
q-48 -56 -114 -56q-46 0 -75 28.5t-29 74.5q0 53 52 249q10 38 10 59q0 36 -33 36q-48 0 -99.5 -87t-78.5 -215zM572 696l10 -16l-198 -155l-134 157l14 14l129 -98z" />
    <glyph glyph-name="napostrophe" unicode="&#x149;" horiz-adv-x="864" 
d="M50 404l-1 19q46 16 64 27q49 29 49 68q0 14 -23 22q-42 14 -42 58q0 33 24 56t59 23t56.5 -22.5t21.5 -60.5q0 -89 -91 -147q-46 -29 -117 -43zM403 0h-136l59 279q21 99 21 126q0 33 -26 33q-42 0 -94 -106l-20 6q34 77 70 110t87 33q105 0 105 -124q0 -17 -1 -31
q42 77 79 110q50 45 116 45q107 0 107 -104q0 -25 -7 -58l-21 -99q-24 -113 -24 -136q0 -38 26 -38q44 0 90 107l21 -5q-27 -69 -57 -104q-48 -56 -114 -56q-46 0 -75 28.5t-29 74.5q0 53 52 249q10 38 10 59q0 36 -33 36q-48 0 -99.5 -87t-78.5 -215z" />
    <glyph glyph-name="Eng" unicode="&#x14a;" horiz-adv-x="798" 
d="M320 0h-325l6 27l20 3q46 7 60 24.5t29 86.5l79 373q14 66 14 79q0 35 -50 43l-25 4l6 27h237l-22 -105q84 117 247 117q84 0 133 -39q28 -23 28 -73q0 -20 -6 -49l-88 -420q-29 -140 -86 -212q-74 -94 -200 -94q-145 0 -145 90q0 32 20.5 53t51.5 21q27 0 44.5 -16
t17.5 -40q0 -22 -23 -49q-5 -6 -5 -13q0 -17 31 -17q44 0 71 42.5t49 143.5l108 503q10 46 10 64q0 59 -78 59q-104 0 -160 -91q-32 -52 -59 -178l-45 -211q-13 -61 -13 -79q0 -35 49 -43l25 -4z" />
    <glyph glyph-name="eng" unicode="&#x14b;" horiz-adv-x="661" 
d="M215 0h-136l59 279q22 104 22 126q0 34 -27 34q-41 0 -94 -107l-20 6q34 78 70 111t87 33q105 0 105 -128q0 -16 -1 -28q46 85 90 120t104 35q107 0 107 -103q0 -25 -7 -59l-46 -221q-29 -140 -86 -212q-74 -94 -194 -94q-60 0 -93.5 23.5t-33.5 65.5q0 30 19.5 50.5
t48.5 20.5q25 0 41 -14.5t16 -37.5q0 -20 -22 -47q-5 -6 -5 -15q0 -21 32 -21q44 0 72 43.5t50 146.5l52 244q26 122 26 152q0 33 -31 33q-48 0 -98.5 -87t-78.5 -217z" />
    <glyph glyph-name="Omacron" unicode="&#x14c;" horiz-adv-x="782" 
d="M489 680q280 0 280 -238q0 -103 -39.5 -201.5t-104.5 -159.5q-101 -94 -283 -94q-281 0 -281 252q0 92 44.5 194t109.5 159q101 88 274 88zM487 649q-105 0 -179 -158q-33 -71 -58 -168t-25 -155q0 -150 124 -150q121 0 180 149q77 194 77 346q0 64 -31.5 100t-87.5 36z
M689 795l-10 -43h-325l9 43h326z" />
    <glyph glyph-name="omacron" unicode="&#x14d;" horiz-adv-x="590" 
d="M347 481q205 0 205 -169q0 -72 -28.5 -141.5t-76.5 -113.5q-73 -68 -209 -68q-102 0 -149 43t-47 136q0 71 34.5 145t86.5 115q67 53 184 53zM346 456q-66 0 -111 -119q-16 -43 -30.5 -117t-14.5 -115q0 -92 62 -92q52 0 90 68q22 40 42 132.5t20 156.5q0 86 -58 86z
M542 625l-9 -43h-318l10 43h317z" />
    <glyph glyph-name="Ohungarumlaut" unicode="&#x150;" horiz-adv-x="782" 
d="M489 680q280 0 280 -238q0 -103 -39.5 -201.5t-104.5 -159.5q-101 -94 -283 -94q-281 0 -281 252q0 92 44.5 194t109.5 159q101 88 274 88zM487 649q-105 0 -179 -158q-33 -71 -58 -168t-25 -155q0 -150 124 -150q121 0 180 149q77 194 77 346q0 64 -31.5 100t-87.5 36z
M418 713l-10 14l122 104q34 29 49 29q11 0 21 -11.5t10 -24.5q0 -23 -39 -41zM598 713l-10 14l122 104q34 29 49 29q11 0 21 -11.5t10 -24.5q0 -23 -39 -41z" />
    <glyph glyph-name="ohungarumlaut" unicode="&#x151;" horiz-adv-x="590" 
d="M347 481q205 0 205 -169q0 -72 -28.5 -141.5t-76.5 -113.5q-73 -68 -209 -68q-102 0 -149 43t-47 136q0 71 34.5 145t86.5 115q67 53 184 53zM346 456q-66 0 -111 -119q-16 -43 -30.5 -117t-14.5 -115q0 -92 62 -92q52 0 90 68q22 40 42 132.5t20 156.5q0 86 -58 86z
M279 527l-13 12l107 124q31 36 46 36q12 0 22.5 -11.5t10.5 -24.5q0 -21 -32 -42zM438 527l-13 12l106 124q31 36 47 36q12 0 22.5 -11.5t10.5 -24.5q0 -21 -32 -42z" />
    <glyph glyph-name="Rcommaaccent" unicode="&#x156;" horiz-adv-x="715" 
d="M304 334l-38 -181q-14 -67 -14 -82q0 -33 50 -40l30 -4l-6 -27h-331l6 27l20 3q46 7 60.5 25t28.5 86l79 373q13 61 13 82q0 34 -49 40l-25 3l6 28h368q194 0 194 -124q0 -91 -87 -147q-48 -31 -155 -51q91 -18 118.5 -44.5t27.5 -83.5q0 -17 -1 -49.5t-1 -49.5
q0 -64 32 -64q19 0 41 16l13 -20q-67 -59 -134 -59q-110 0 -110 113q0 28 4 66q5 47 5 72q0 57 -37 77q-28 15 -108 15zM311 367h36q86 0 126 33q64 53 64 143q0 89 -110 89h-59zM229 -240l-4 14q35 8 54 20q39 25 39 51q0 9 -31 24q-17 8 -17 30t18 38.5t43 16.5
q59 0 59 -57q0 -65 -70 -106q-35 -20 -91 -31z" />
    <glyph glyph-name="rcommaaccent" unicode="&#x157;" horiz-adv-x="520" 
d="M215 0h-136l60 281q20 94 20 124q0 34 -26 34q-43 0 -94 -107l-20 6q35 79 70 111.5t87 32.5q103 0 103 -128q0 -21 -1 -33q39 81 73 118q38 42 95 42q40 0 65 -23t25 -59q0 -35 -21.5 -57.5t-54.5 -22.5q-25 0 -41.5 14.5t-16.5 36.5q0 17 21 44q6 6 6 13q0 15 -18 15
q-41 0 -91.5 -93t-76.5 -217zM33 -236l-3 13q34 8 52 19q39 25 39 51q0 8 -20 11q-32 4 -32 41q0 23 18.5 39t44.5 16t42.5 -16t16.5 -41q0 -50 -41.5 -85t-116.5 -48z" />
    <glyph glyph-name="Rcaron" unicode="&#x158;" horiz-adv-x="715" 
d="M304 334l-38 -181q-14 -67 -14 -82q0 -33 50 -40l30 -4l-6 -27h-331l6 27l20 3q46 7 60.5 25t28.5 86l79 373q13 61 13 82q0 34 -49 40l-25 3l6 28h368q194 0 194 -124q0 -91 -87 -147q-48 -31 -155 -51q91 -18 118.5 -44.5t27.5 -83.5q0 -17 -1 -49.5t-1 -49.5
q0 -64 32 -64q19 0 41 16l13 -20q-67 -59 -134 -59q-110 0 -110 113q0 28 4 66q5 47 5 72q0 57 -37 77q-28 15 -108 15zM311 367h36q86 0 126 33q64 53 64 143q0 89 -110 89h-59zM621 865l8 -18l-196 -135l-134 138l14 15l129 -82z" />
    <glyph glyph-name="rcaron" unicode="&#x159;" horiz-adv-x="520" 
d="M215 0h-136l60 281q20 94 20 124q0 34 -26 34q-43 0 -94 -107l-20 6q35 79 70 111.5t87 32.5q103 0 103 -128q0 -21 -1 -33q39 81 73 118q38 42 95 42q40 0 65 -23t25 -59q0 -35 -21.5 -57.5t-54.5 -22.5q-25 0 -41.5 14.5t-16.5 36.5q0 17 21 44q6 6 6 13q0 15 -18 15
q-41 0 -91.5 -93t-76.5 -217zM507 696l10 -16l-198 -155l-134 157l14 14l129 -98z" />
    <glyph glyph-name="Sacute" unicode="&#x15a;" horiz-adv-x="584" 
d="M585 671l-44 -209h-30q-13 187 -151 187q-52 0 -84 -30.5t-32 -79.5q0 -47 35 -79q27 -25 109 -68q91 -48 120 -83q32 -39 32 -96q0 -98 -79 -162.5t-199 -64.5q-83 0 -189 37l-41 -29h-20l54 252h32q8 -92 31 -138q44 -90 141 -90q58 0 98 37t40 91q0 45 -32 72
q-25 21 -104.5 61.5t-111.5 78.5q-37 45 -37 108q0 95 68 154.5t176 59.5q68 0 171 -31l29 22h18zM358 714l-7 18l153 105q34 23 52 23q13 0 23 -12t10 -28q0 -28 -50 -45z" />
    <glyph glyph-name="sacute" unicode="&#x15b;" horiz-adv-x="503" 
d="M296 481q178 0 178 -95q0 -28 -19 -46.5t-48 -18.5q-23 0 -38 12t-15 31q0 5 4 23q6 15 6 24q0 19 -21.5 32t-51.5 13q-84 0 -84 -70q0 -37 33 -59q10 -7 89 -42q67 -27 94.5 -57t27.5 -74q0 -74 -68 -119.5t-178 -45.5q-81 0 -131.5 31t-50.5 81q0 30 18.5 49t47.5 19
q23 0 39.5 -13t16.5 -32q0 -11 -7.5 -30.5t-7.5 -29.5q0 -20 25 -35t58 -15q46 0 75 24t29 62q0 34 -29 56q-17 13 -79 41q-74 33 -99.5 61.5t-25.5 77.5q0 68 56 106.5t156 38.5zM291 527l-10 16l139 125q34 31 53 31q12 0 22.5 -12.5t10.5 -27.5q0 -25 -44 -47z" />
    <glyph glyph-name="Scircumflex" unicode="&#x15c;" horiz-adv-x="584" 
d="M585 671l-44 -209h-30q-13 187 -151 187q-52 0 -84 -30.5t-32 -79.5q0 -47 35 -79q27 -25 109 -68q91 -48 120 -83q32 -39 32 -96q0 -98 -79 -162.5t-199 -64.5q-83 0 -189 37l-41 -29h-20l54 252h32q8 -92 31 -138q44 -90 141 -90q58 0 98 37t40 91q0 45 -32 72
q-25 21 -104.5 61.5t-111.5 78.5q-37 45 -37 108q0 95 68 154.5t176 59.5q68 0 171 -31l29 22h18zM436 863l129 -140l-14 -15l-129 79l-187 -79l-8 18z" />
    <glyph glyph-name="scircumflex" unicode="&#x15d;" horiz-adv-x="503" 
d="M296 481q178 0 178 -95q0 -28 -19 -46.5t-48 -18.5q-23 0 -38 12t-15 31q0 5 4 23q6 15 6 24q0 19 -21.5 32t-51.5 13q-84 0 -84 -70q0 -37 33 -59q10 -7 89 -42q67 -27 94.5 -57t27.5 -74q0 -74 -68 -119.5t-178 -45.5q-81 0 -131.5 31t-50.5 81q0 30 18.5 49t47.5 19
q23 0 39.5 -13t16.5 -32q0 -11 -7.5 -30.5t-7.5 -29.5q0 -20 25 -35t58 -15q46 0 75 24t29 62q0 34 -29 56q-17 13 -79 41q-74 33 -99.5 61.5t-25.5 77.5q0 68 56 106.5t156 38.5zM356 697l128 -157l-15 -15l-123 98l-188 -98l-9 18z" />
    <glyph glyph-name="Tcaron" unicode="&#x164;" horiz-adv-x="626" 
d="M712 667l-41 -216h-32q-12 93 -36 133q-28 48 -96 48h-35l-102 -479q-13 -61 -13 -82q0 -32 49 -40l26 -4l-6 -27h-327l6 27l21 3q45 6 59.5 24.5t28.5 86.5l104 491q-80 2 -120 -29t-113 -152h-32l49 216h610zM600 865l8 -18l-196 -135l-134 138l14 15l129 -82z" />
    <glyph glyph-name="tcaron" unicode="&#x165;" horiz-adv-x="375" 
d="M393 455l-6 -29h-108l-44 -206q-24 -112 -24 -136q0 -38 26 -38q44 0 91 107l20 -5q-29 -71 -57 -104q-49 -56 -120 -56q-43 0 -68 27t-25 73q0 30 12 87l3 15l50 236h-100l6 29h34q81 0 133 55q33 34 80 129h28l-39 -184h108zM445 817l8 -17l-193 -136l-130 138l13 15
l126 -82z" />
    <glyph glyph-name="Tbar" unicode="&#x166;" horiz-adv-x="626" 
d="M426 415h154l-8 -35h-154l-48 -227q-13 -61 -13 -82q0 -32 49 -40l26 -4l-6 -27h-327l6 27l21 3q45 6 59 24.5t29 86.5l51 239h-143l7 35h143l46 217q-80 2 -120 -29t-113 -152h-32l49 216h610l-41 -216h-32q-12 93 -36 133q-28 48 -96 48h-35z" />
    <glyph glyph-name="tbar" unicode="&#x167;" horiz-adv-x="375" 
d="M266 358h93l-6 -29h-94l-23 -109q-24 -114 -24 -136q0 -38 26 -38q44 0 91 107l20 -5q-29 -71 -57 -104q-49 -56 -120 -56q-43 0 -68 27t-25 73q0 30 15 102l29 139h-83l6 29h83l15 68h-100l6 29h34q81 0 133 55q33 34 80 129h28l-39 -184h108l-6 -29h-108z" />
    <glyph glyph-name="utilde" unicode="&#x169;" horiz-adv-x="675" 
d="M469 468l138 7l-54 -255q-24 -113 -24 -135q0 -38 26 -38q44 0 91 106l20 -5q-34 -85 -74.5 -122t-97.5 -37q-95 0 -95 103q0 20 3 47q-46 -82 -89.5 -116t-102.5 -34q-52 0 -80.5 27t-28.5 75q0 36 9 72l29 116q24 96 24 126q0 33 -28 33q-42 0 -95 -106l-19 6
q35 78 71 110.5t89 32.5q51 0 80.5 -29.5t29.5 -81.5q0 -47 -27 -151q-29 -111 -29 -138q0 -37 36 -37q48 0 95.5 81t66.5 171zM592 669l19 -4q-23 -67 -45.5 -94t-53.5 -27t-84 35q-61 40 -86 40q-36 0 -67 -70l-19 3q20 61 44 89q29 35 70 35q32 0 89 -39q46 -32 72 -32
q32 0 61 64z" />
    <glyph glyph-name="Umacron" unicode="&#x16a;" horiz-adv-x="752" 
d="M819 667l-5 -27q-51 -7 -72.5 -31.5t-38.5 -95.5l-58 -245q-35 -147 -86 -200q-78 -81 -221 -81q-224 0 -224 170q0 30 7 63l63 294q13 61 13 82q0 32 -49 40l-24 4l6 27h323l-5 -27l-20 -3q-45 -7 -59.5 -25t-28.5 -86l-63 -297q-11 -52 -11 -81q0 -52 38.5 -84
t100.5 -32q100 0 152 89q20 34 32 78.5t41 193.5q10 46 19 93q11 55 11 94q0 28 -16 40t-60 20l6 27h229zM693 795l-9 -43h-326l10 43h325z" />
    <glyph glyph-name="umacron" unicode="&#x16b;" horiz-adv-x="675" 
d="M469 468l138 7l-54 -255q-24 -113 -24 -135q0 -38 26 -38q44 0 91 106l20 -5q-34 -85 -74.5 -122t-97.5 -37q-95 0 -95 103q0 20 3 47q-46 -82 -89.5 -116t-102.5 -34q-52 0 -80.5 27t-28.5 75q0 36 9 72l29 116q24 96 24 126q0 33 -28 33q-42 0 -95 -106l-19 6
q35 78 71 110.5t89 32.5q51 0 80.5 -29.5t29.5 -81.5q0 -47 -27 -151q-29 -111 -29 -138q0 -37 36 -37q48 0 95.5 81t66.5 171zM581 625l-9 -43h-318l10 43h317z" />
    <glyph glyph-name="ubreve" unicode="&#x16d;" horiz-adv-x="675" 
d="M469 468l138 7l-54 -255q-24 -113 -24 -135q0 -38 26 -38q44 0 91 106l20 -5q-34 -85 -74.5 -122t-97.5 -37q-95 0 -95 103q0 20 3 47q-46 -82 -89.5 -116t-102.5 -34q-52 0 -80.5 27t-28.5 75q0 36 9 72l29 116q24 96 24 126q0 33 -28 33q-42 0 -95 -106l-19 6
q35 78 71 110.5t89 32.5q51 0 80.5 -29.5t29.5 -81.5q0 -47 -27 -151q-29 -111 -29 -138q0 -37 36 -37q48 0 95.5 81t66.5 171zM579 690h22q-30 -67 -74 -103q-63 -52 -136 -52q-107 0 -107 100q0 20 7 55h20q-1 -2 -1 -7q-6 -84 101 -84q101 0 168 91z" />
    <glyph glyph-name="Uring" unicode="&#x16e;" horiz-adv-x="752" 
d="M819 667l-5 -27q-51 -7 -72.5 -31.5t-38.5 -95.5l-58 -245q-35 -147 -86 -200q-78 -81 -221 -81q-224 0 -224 170q0 30 7 63l63 294q13 61 13 82q0 32 -49 40l-24 4l6 27h323l-5 -27l-20 -3q-45 -7 -59.5 -25t-28.5 -86l-63 -297q-11 -52 -11 -81q0 -52 38.5 -84
t100.5 -32q100 0 152 89q20 34 32 78.5t41 193.5q10 46 19 93q11 55 11 94q0 28 -16 40t-60 20l6 27h229zM539 875q111 0 111 -75q0 -44 -34.5 -72t-89.5 -28q-109 0 -109 83q0 42 33 67t89 25zM541 851q-26 0 -43 -21.5t-17 -52.5q0 -53 42 -53q25 0 42.5 22.5t17.5 55.5
q0 49 -42 49z" />
    <glyph glyph-name="uring" unicode="&#x16f;" horiz-adv-x="675" 
d="M469 468l138 7l-54 -255q-24 -113 -24 -135q0 -38 26 -38q44 0 91 106l20 -5q-34 -85 -74.5 -122t-97.5 -37q-95 0 -95 103q0 20 3 47q-46 -82 -89.5 -116t-102.5 -34q-52 0 -80.5 27t-28.5 75q0 36 9 72l29 116q24 96 24 126q0 33 -28 33q-42 0 -95 -106l-19 6
q35 78 71 110.5t89 32.5q51 0 80.5 -29.5t29.5 -81.5q0 -47 -27 -151q-29 -111 -29 -138q0 -37 36 -37q48 0 95.5 81t66.5 171zM423 702q111 0 111 -76q0 -45 -34.5 -73t-90.5 -28q-108 0 -108 83q0 42 34 68t88 26zM426 679q-28 0 -46 -22t-18 -55q0 -54 44 -54
q27 0 45.5 23.5t18.5 58.5q0 49 -44 49z" />
    <glyph glyph-name="Uhungarumlaut" unicode="&#x170;" horiz-adv-x="752" 
d="M819 667l-5 -27q-51 -7 -72.5 -31.5t-38.5 -95.5l-58 -245q-35 -147 -86 -200q-78 -81 -221 -81q-224 0 -224 170q0 30 7 63l63 294q13 61 13 82q0 32 -49 40l-24 4l6 27h323l-5 -27l-20 -3q-45 -7 -59.5 -25t-28.5 -86l-63 -297q-11 -52 -11 -81q0 -52 38.5 -84
t100.5 -32q100 0 152 89q20 34 32 78.5t41 193.5q10 46 19 93q11 55 11 94q0 28 -16 40t-60 20l6 27h229zM429 713l-10 14l122 104q34 29 49 29q11 0 21 -11.5t10 -24.5q0 -24 -38 -41zM609 713l-10 14l122 104q34 29 49 29q11 0 21 -11.5t10 -24.5q0 -24 -38 -41z" />
    <glyph glyph-name="uhungarumlaut" unicode="&#x171;" horiz-adv-x="675" 
d="M469 468l138 7l-54 -255q-24 -113 -24 -135q0 -38 26 -38q44 0 91 106l20 -5q-34 -85 -74.5 -122t-97.5 -37q-95 0 -95 103q0 20 3 47q-46 -82 -89.5 -116t-102.5 -34q-52 0 -80.5 27t-28.5 75q0 36 9 72l29 116q24 96 24 126q0 33 -28 33q-42 0 -95 -106l-19 6
q35 78 71 110.5t89 32.5q51 0 80.5 -29.5t29.5 -81.5q0 -47 -27 -151q-29 -111 -29 -138q0 -37 36 -37q48 0 95.5 81t66.5 171zM311 527l-12 12l106 124q31 36 47 36q12 0 22.5 -11.5t10.5 -24.5q0 -20 -33 -42zM470 527l-13 12l107 124q31 36 47 36q12 0 22.5 -11.5
t10.5 -24.5q0 -20 -33 -42z" />
    <glyph glyph-name="Uogonek" unicode="&#x172;" horiz-adv-x="752" 
d="M539 49l-4 -3q-11 -10 -40 -35q-71 -61 -71 -109q0 -22 20.5 -35.5t54.5 -13.5q7 0 29 1l-5 -20q-40 -11 -78 -11q-43 0 -69.5 18.5t-26.5 49.5q0 54 56 101q-30 -5 -68 -5q-223 0 -223 170q0 30 7 63l63 294q13 61 13 82q0 32 -49 40l-24 4l6 27h323l-5 -27l-20 -3
q-45 -7 -59.5 -25t-28.5 -86l-63 -297q-11 -52 -11 -81q0 -52 38.5 -84t100.5 -32q100 0 152 89q20 34 32 78.5t41 193.5q10 46 19 93q11 55 11 94q0 28 -16 40t-60 20l6 27h229l-5 -27q-51 -7 -72.5 -31.5t-38.5 -95.5l-58 -245q-22 -93 -44 -140q-24 -50 -62 -79z" />
    <glyph glyph-name="uogonek" unicode="&#x173;" horiz-adv-x="675" 
d="M494 -11h-14q-50 -49 -50 -81q0 -21 20.5 -34t54.5 -13q7 0 31 2l-5 -19q-53 -10 -82 -10q-41 0 -67.5 18t-26.5 46q0 50 93 100q-49 24 -49 94q0 20 3 47q-46 -82 -89.5 -116t-102.5 -34q-52 0 -80.5 27t-28.5 75q0 36 9 72l29 116q24 96 24 126q0 33 -28 33
q-42 0 -95 -106l-19 6q35 78 71 110.5t89 32.5q51 0 80.5 -29.5t29.5 -81.5q0 -47 -27 -151q-29 -111 -29 -138q0 -37 36 -37q48 0 95.5 81t66.5 171l36 172l138 7l-54 -255q-24 -113 -24 -135q0 -38 26 -38q44 0 91 106l20 -5q-34 -85 -74.5 -122t-97.5 -37z" />
    <glyph glyph-name="Wcircumflex" unicode="&#x174;" horiz-adv-x="940" 
d="M277 -10h-103l-31 552q-3 62 -15.5 77t-66.5 21l6 27h315l-5 -27q-46 -3 -63 -20.5t-17 -62.5q0 -9 1 -32l17 -383q170 370 233 525h122l23 -524l121 259q73 156 73 194q0 36 -61 44l6 27h227l-5 -27q-45 -5 -73.5 -34.5t-78.5 -122.5q-40 -74 -92 -179l-55 -111
q-21 -39 -63 -123q-20 -42 -38 -80h-105l-26 503zM651 863l129 -140l-14 -15l-129 79l-188 -79l-8 18z" />
    <glyph glyph-name="Ycircumflex" unicode="&#x176;" horiz-adv-x="597" 
d="M507 667h213l-6 -27q-39 -3 -67 -26.5t-103 -118.5l-169 -214l-34 -158q-7 -35 -7 -52q0 -34 50 -40l33 -4l-6 -27h-337l6 27l24 3q45 6 59 24t29 87l28 131l-75 274q-16 59 -31 75t-57 19l6 27h311l-6 -27q-44 -9 -57.5 -19t-13.5 -34q0 -21 5 -39l62 -229
q114 150 151 206.5t37 80.5q0 29 -51 34zM463 863l128 -140l-14 -15l-128 79l-188 -79l-8 18z" />
    <glyph glyph-name="ycircumflex" unicode="&#x177;" horiz-adv-x="620" 
d="M605 475l-82 -396q-29 -139 -90 -204q-78 -83 -217 -83q-75 0 -117.5 27.5t-42.5 75.5q0 32 20 52.5t51 20.5q26 0 42.5 -15t16.5 -38q0 -21 -23 -49q-6 -6 -6 -15q0 -14 18 -24t44 -10q72 0 111 65q28 46 55 181q4 19 14 68q-33 -59 -74 -94q-56 -48 -115 -48
q-50 0 -78.5 26.5t-28.5 73.5q0 27 6 54l30 136q21 95 21 126q0 34 -26 34q-43 0 -94 -107l-20 6q34 79 70.5 111.5t91.5 32.5q108 0 108 -118q0 -56 -44 -223q-10 -38 -10 -60q0 -36 30 -36q57 0 105 89q45 83 68 188l32 146zM445 697l127 -157l-15 -15l-123 98l-187 -98
l-9 18z" />
    <glyph glyph-name="Zacute" unicode="&#x179;" horiz-adv-x="655" 
d="M623 246l-53 -246h-576l6 27l484 605h-104q-92 0 -137 -40q-38 -33 -98 -141h-32l49 216h519l-5 -22l-480 -609h149q76 0 121 35q28 21 47.5 49.5t75.5 125.5h34zM434 713l-10 14l122 104q34 29 49 29q11 0 21 -11.5t10 -24.5q0 -24 -38 -41z" />
    <glyph glyph-name="zacute" unicode="&#x17a;" horiz-adv-x="504" 
d="M488 459l-334 -329q24 8 41 8q21 0 79.5 -14.5t83.5 -14.5q53 0 85 40q18 22 31 67l21 -2q-22 -108 -48 -154q-43 -77 -126 -77q-37 0 -131 31q-73 24 -100 24q-31 0 -89 -47l-13 19l336 337q-25 -7 -37 -7q-20 0 -101 19q-21 5 -36 5q-32 0 -53 -29q-5 -7 -28 -48l-16 4
q2 6 9 28q31 95 60.5 128.5t71.5 33.5q20 0 99 -17q60 -13 95 -13q53 0 90 30zM332 527l-13 12l106 124q31 36 47 36q12 0 22.5 -11.5t10.5 -24.5q0 -21 -32 -42z" />
    <glyph glyph-name="Zdotaccent" unicode="&#x17b;" horiz-adv-x="655" 
d="M623 246l-53 -246h-576l6 27l484 605h-104q-92 0 -137 -40q-38 -33 -98 -141h-32l49 216h519l-5 -22l-480 -609h149q76 0 121 35q28 21 47.5 49.5t75.5 125.5h34zM452 859q29 0 48 -17.5t19 -44.5q0 -35 -23.5 -58.5t-58.5 -23.5q-29 0 -48 19t-19 49q0 31 24 53.5
t58 22.5z" />
    <glyph glyph-name="zdotaccent" unicode="&#x17c;" horiz-adv-x="504" 
d="M488 459l-334 -329q24 8 41 8q21 0 79.5 -14.5t83.5 -14.5q53 0 85 40q18 22 31 67l21 -2q-22 -108 -48 -154q-43 -77 -126 -77q-37 0 -131 31q-73 24 -100 24q-31 0 -89 -47l-13 19l336 337q-25 -7 -37 -7q-20 0 -101 19q-21 5 -36 5q-32 0 -53 -29q-5 -7 -28 -48l-16 4
q2 6 9 28q31 95 60.5 128.5t71.5 33.5q20 0 99 -17q60 -13 95 -13q53 0 90 30zM350 682q29 0 47 -17t18 -44q0 -34 -22.5 -57t-57.5 -23q-29 0 -47 18.5t-18 48.5q0 31 23 52.5t57 21.5z" />
    <glyph glyph-name="Acaron" unicode="&#x1cd;" horiz-adv-x="674" 
d="M520 667l54 -528q6 -62 24.5 -85.5t61.5 -26.5l-6 -27h-319l5 27q52 8 67.5 20t15.5 44q0 21 -6 82l-6 61h-215l-45 -84q-33 -62 -33 -80q0 -20 17 -31q11 -7 45 -12l-6 -27h-236l6 27q50 5 88 43.5t102 144.5q106 174 269 452h117zM381 564l-165 -295h192zM654 865
l8 -18l-196 -135l-134 138l13 15l130 -82z" />
    <glyph glyph-name="acaron" unicode="&#x1ce;" horiz-adv-x="642" 
d="M574 474l-54 -254q-24 -113 -24 -136q0 -38 26 -38q44 0 90 107l20 -5q-27 -67 -58 -104q-47 -56 -115 -56q-90 0 -99 101q-69 -100 -169 -100q-71 0 -109.5 44t-38.5 125q0 75 29.5 145.5t81.5 118.5q64 59 157 59q45 0 70.5 -14.5t43.5 -49.5l11 51zM346 449
q-72 0 -116 -127q-32 -91 -36 -185q-2 -45 13 -72t43 -27q70 0 111 115q47 131 47 216q0 36 -17 58t-45 22zM585 696l10 -16l-198 -155l-134 157l13 14l130 -98z" />
    <glyph glyph-name="Ucaron" unicode="&#x1d3;" horiz-adv-x="752" 
d="M819 667l-5 -27q-51 -7 -72.5 -31.5t-38.5 -95.5l-58 -245q-35 -147 -86 -200q-78 -81 -221 -81q-224 0 -224 170q0 30 7 63l63 294q13 61 13 82q0 32 -49 40l-24 4l6 27h323l-5 -27l-20 -3q-45 -7 -59.5 -25t-28.5 -86l-63 -297q-11 -52 -11 -81q0 -52 38.5 -84
t100.5 -32q100 0 152 89q20 34 32 78.5t41 193.5q10 46 19 93q11 55 11 94q0 28 -16 40t-60 20l6 27h229zM710 865l8 -18l-196 -135l-134 138l13 15l130 -82z" />
    <glyph glyph-name="ucaron" unicode="&#x1d4;" horiz-adv-x="675" 
d="M469 468l138 7l-54 -255q-24 -113 -24 -135q0 -38 26 -38q44 0 91 106l20 -5q-34 -85 -74.5 -122t-97.5 -37q-95 0 -95 103q0 20 3 47q-46 -82 -89.5 -116t-102.5 -34q-52 0 -80.5 27t-28.5 75q0 36 9 72l29 116q24 96 24 126q0 33 -28 33q-42 0 -95 -106l-19 6
q35 78 71 110.5t89 32.5q51 0 80.5 -29.5t29.5 -81.5q0 -47 -27 -151q-29 -111 -29 -138q0 -37 36 -37q48 0 95.5 81t66.5 171zM585 696l10 -16l-198 -155l-134 157l14 14l129 -98z" />
    <glyph glyph-name="Gcaron" unicode="&#x1e6;" horiz-adv-x="777" 
d="M739 672l-51 -238h-30q-15 106 -41 152q-36 63 -114 63q-132 0 -206 -182q-27 -66 -46 -156.5t-19 -153.5q0 -139 129 -139q82 0 128 65q14 20 29.5 72t15.5 82q0 22 -22 33q-18 9 -68 16l6 27h329l-6 -27q-56 -9 -71 -23t-27 -69l-44 -206h-21q-5 7 -12 16
q-15 21 -30 21q-7 0 -73 -17q-82 -21 -162 -21q-130 0 -194 58q-69 63 -69 174q0 81 27 166.5t70 145.5q109 149 324 149q106 0 188 -36l42 28h18zM702 865l8 -18l-196 -135l-134 138l14 15l129 -82z" />
    <glyph glyph-name="gcaron" unicode="&#x1e7;" horiz-adv-x="586" 
d="M571 475l-84 -401q-25 -118 -65 -173q-80 -109 -241 -109q-157 0 -157 101q0 32 19.5 52.5t48.5 20.5q26 0 43.5 -15.5t17.5 -38.5q0 -21 -25 -50q-6 -7 -6 -15q0 -13 18 -22t43 -9q79 0 117 69q19 34 33 101l20 94q-41 -50 -78 -70.5t-86 -20.5q-67 0 -107 46.5
t-40 123.5q0 75 30.5 146t82.5 118q64 58 155 58q85 0 115 -64l12 52zM345 448q-51 2 -84 -55q-27 -47 -46.5 -119t-22.5 -137q-2 -44 13 -71t43 -27q70 0 112 114q46 126 46 216q0 76 -61 79zM561 696l10 -16l-198 -155l-134 157l14 14l129 -98z" />
    <glyph glyph-name="Gacute" unicode="&#x1f4;" horiz-adv-x="777" 
d="M739 672l-51 -238h-30q-15 106 -41 152q-36 63 -114 63q-132 0 -206 -182q-27 -66 -46 -156.5t-19 -153.5q0 -139 129 -139q82 0 128 65q14 20 29.5 72t15.5 82q0 22 -22 33q-18 9 -68 16l6 27h329l-6 -27q-56 -9 -71 -23t-27 -69l-44 -206h-21q-5 7 -12 16
q-15 21 -30 21q-7 0 -73 -17q-82 -21 -162 -21q-130 0 -194 58q-69 63 -69 174q0 81 27 166.5t70 145.5q109 149 324 149q106 0 188 -36l42 28h18zM470 714l-6 18l153 105q34 23 52 23q14 0 23.5 -12t9.5 -28q0 -28 -50 -45z" />
    <glyph glyph-name="Scommaaccent" unicode="&#x218;" horiz-adv-x="584" 
d="M585 671l-44 -209h-30q-13 187 -151 187q-52 0 -84 -30.5t-32 -79.5q0 -47 35 -79q27 -25 109 -68q91 -48 120 -83q32 -39 32 -96q0 -98 -79 -162.5t-199 -64.5q-83 0 -189 37l-41 -29h-20l54 252h32q8 -92 31 -138q44 -90 141 -90q58 0 98 37t40 91q0 45 -32 72
q-25 21 -104.5 61.5t-111.5 78.5q-37 45 -37 108q0 95 68 154.5t176 59.5q68 0 171 -31l29 22h18zM140 -240l-4 14q34 7 54 20q40 26 40 51q0 9 -31 24q-17 8 -17 30t18 38.5t43 16.5q26 0 42 -15.5t16 -41.5q0 -107 -161 -137z" />
    <glyph glyph-name="scommaaccent" unicode="&#x219;" horiz-adv-x="503" 
d="M296 481q178 0 178 -95q0 -28 -19 -46.5t-48 -18.5q-23 0 -38 12t-15 31q0 5 4 23q6 15 6 24q0 19 -21.5 32t-51.5 13q-84 0 -84 -70q0 -37 33 -59q10 -7 89 -42q67 -27 94.5 -57t27.5 -74q0 -74 -68 -119.5t-178 -45.5q-81 0 -131.5 31t-50.5 81q0 30 18.5 49t47.5 19
q23 0 39.5 -13t16.5 -32q0 -11 -7.5 -30.5t-7.5 -29.5q0 -20 25 -35t58 -15q46 0 75 24t29 62q0 34 -29 56q-17 13 -79 41q-74 33 -99.5 61.5t-25.5 77.5q0 68 56 106.5t156 38.5zM96 -236l-4 13q34 7 52 19q39 25 39 51q0 8 -20 11q-32 4 -32 41q0 23 18.5 39t45.5 16
q26 0 42.5 -16t16.5 -41q0 -50 -42 -85t-116 -48z" />
    <glyph glyph-name="Tcommaaccent" unicode="&#x162;" horiz-adv-x="626" 
d="M712 667l-41 -216h-32q-12 93 -36 133q-28 48 -96 48h-35l-102 -479q-13 -61 -13 -82q0 -32 49 -40l26 -4l-6 -27h-327l6 27l21 3q45 6 59.5 24.5t28.5 86.5l104 491q-80 2 -120 -29t-113 -152h-32l49 216h610zM154 -240l-3 14q32 7 53 20q40 25 40 51q0 9 -31 24
q-17 8 -17 30t18 38.5t43 16.5q59 0 59 -57q0 -65 -70 -106q-35 -20 -92 -31z" />
    <glyph glyph-name="tcommaaccent" unicode="&#x163;" horiz-adv-x="375" 
d="M394 455l-7 -29h-108l-44 -206q-23 -108 -23 -136q0 -38 26 -38q43 0 90 107l21 -5q-27 -68 -58 -104q-48 -56 -119 -56q-43 0 -68 27t-25 73q0 36 14 102l50 236h-100l7 29h33q82 0 134 55q33 35 79 129h29l-39 -184h108zM25 -236l-4 13q34 7 52 19q39 25 39 51
q0 8 -20 11q-32 4 -32 41q0 23 18.5 39t45.5 16q26 0 42.5 -16t16.5 -41q0 -50 -42 -85t-116 -48z" />
    <glyph glyph-name="Adotaccent" unicode="&#x226;" horiz-adv-x="674" 
d="M520 667l54 -528q6 -62 24.5 -85.5t61.5 -26.5l-6 -27h-319l5 27q52 8 67.5 20t15.5 44q0 21 -6 82l-6 61h-215l-45 -84q-33 -62 -33 -80q0 -20 17 -31q11 -7 45 -12l-6 -27h-236l6 27q50 5 88 43.5t102 144.5q106 174 269 452h117zM381 564l-165 -295h192zM495 859
q29 0 48 -17.5t19 -44.5q0 -35 -23.5 -58.5t-58.5 -23.5q-29 0 -48 19t-19 49q0 31 24 53.5t58 22.5z" />
    <glyph glyph-name="adotaccent" unicode="&#x227;" horiz-adv-x="642" 
d="M574 474l-54 -254q-24 -113 -24 -136q0 -38 26 -38q44 0 90 107l20 -5q-27 -67 -58 -104q-47 -56 -115 -56q-90 0 -99 101q-69 -100 -169 -100q-71 0 -109.5 44t-38.5 125q0 75 29.5 145.5t81.5 118.5q64 59 157 59q45 0 70.5 -14.5t43.5 -49.5l11 51zM346 449
q-72 0 -116 -127q-32 -91 -36 -185q-2 -45 13 -72t43 -27q70 0 111 115q47 131 47 216q0 36 -17 58t-45 22zM418 682q29 0 47 -17t18 -44q0 -34 -22.5 -57t-57.5 -23q-29 0 -47 18.5t-18 48.5q0 31 23 52.5t57 21.5z" />
    <glyph glyph-name="commabelow" unicode="&#x326;" 
d="M91 -236l-4 13q34 7 52 19q39 25 39 51q0 8 -20 11q-32 4 -32 41q0 23 18.5 39t45.5 16q26 0 42.5 -16t16.5 -41q0 -50 -42 -85t-116 -48z" />
    <glyph glyph-name="Dcommaaccent" unicode="&#x1e10;" horiz-adv-x="772" 
d="M134 667h357q262 0 262 -243q0 -111 -47.5 -209t-127.5 -152q-93 -63 -234 -63h-350l6 27l22 3q45 6 59 24.5t29 86.5l79 373q3 11 7 30q7 32 7 52q0 32 -50 40l-25 4zM241 36h37q76 0 119 15.5t75 54.5q54 65 85 164t31 205q0 110 -84 142q-43 16 -136 15zM202 -240
l-3 14q32 7 53 20q40 25 40 51q0 9 -31 24q-17 8 -17 30t18 38.5t43 16.5q59 0 59 -57q0 -65 -70 -106q-35 -20 -92 -31z" />
    <glyph glyph-name="dcommaaccent" unicode="&#x1e11;" horiz-adv-x="637" 
d="M618 705l-103 -485q-23 -108 -23 -136q0 -37 26 -37q45 0 90 106l20 -5q-29 -71 -57 -104q-47 -55 -112 -55q-53 0 -81 37q-16 21 -19 63q-66 -100 -170 -100q-71 0 -109.5 43t-38.5 122q0 77 31.5 150.5t84.5 120.5q64 56 151 56q84 0 116 -63l25 116q14 65 14 88
q0 19 -17 25q-9 5 -69 7l5 22zM344 448q-53 0 -83 -54q-27 -47 -46.5 -120.5t-22.5 -137.5q-2 -44 13 -71t43 -27q32 0 62 29.5t48 78.5t33 118t15 105q0 35 -17 57t-45 22zM126 -236l-4 13q34 7 52 19q39 25 39 51q0 8 -20 11q-32 4 -32 41q0 23 18.5 39t45.5 16
q26 0 42.5 -16t16.5 -41q0 -50 -41.5 -85t-116.5 -48z" />
    <glyph glyph-name="Fdotaccent" unicode="&#x1e1e;" horiz-adv-x="620" 
d="M672 667l-42 -216h-32q-15 102 -39 136q-31 45 -110 45h-81l-56 -260h59q42 0 65 23t51 94h28l-60 -283h-28q1 14 1 32q0 61 -12 81.5t-49 20.5h-61l-40 -187q-3 -13 -7 -30q-7 -34 -7 -52q0 -32 50 -40l26 -4l-6 -27h-327l6 27l20 4q47 9 61 26t28 84l79 373
q13 61 13 82q0 34 -49 40l-25 3l6 28h538zM458 859q30 0 48.5 -17t18.5 -45q0 -35 -23 -58.5t-58 -23.5q-29 0 -48 19t-19 49q0 32 23.5 54t57.5 22z" />
    <glyph glyph-name="Wdieresis" unicode="&#x1e84;" horiz-adv-x="940" 
d="M277 -10h-103l-31 552q-3 62 -15.5 77t-66.5 21l6 27h315l-5 -27q-46 -3 -63 -20.5t-17 -62.5q0 -9 1 -32l17 -383q170 370 233 525h122l23 -524l121 259q73 156 73 194q0 36 -61 44l6 27h227l-5 -27q-45 -5 -73.5 -34.5t-78.5 -122.5q-40 -74 -92 -179l-55 -111
q-21 -39 -63 -123q-20 -42 -38 -80h-105l-26 503zM503 859q29 0 48 -17.5t19 -44.5q0 -35 -23.5 -58.5t-58.5 -23.5q-29 0 -48 19t-19 49q0 31 24 53.5t58 22.5zM746 859q30 0 49 -17.5t19 -44.5q0 -35 -23.5 -58.5t-58.5 -23.5q-29 0 -48 19t-19 49q0 32 23.5 54t57.5 22z
" />
    <glyph glyph-name="enquad" unicode="&#x2000;" 
 />
    <glyph glyph-name="enspace" unicode="&#x2002;" 
 />
    <glyph glyph-name="threeperemspace" unicode="&#x2004;" horiz-adv-x="333" 
 />
    <glyph glyph-name="fourperemspace" unicode="&#x2005;" horiz-adv-x="250" 
 />
    <glyph glyph-name="figurespace" unicode="&#x2007;" horiz-adv-x="571" 
 />
    <glyph glyph-name="hyphenminus" unicode="&#x2010;" horiz-adv-x="275" 
d="M286 277l-12 -60h-275l13 60h274z" />
    <glyph glyph-name="underscoredbl" unicode="&#x2017;" 
d="M-66 -30h484v-76h-484v76zM-66 -153h484v-76h-484v76z" />
    <glyph glyph-name="trianglebullet" unicode="&#x2023;" 
d="M71 119v433l405 -217z" />
    <glyph glyph-name="onedotlead" unicode="&#x2024;" horiz-adv-x="567" 
d="M259 144q64 0 64 -64q0 -35 -22.5 -57.5t-57.5 -22.5q-64 0 -64 65q0 33 23 56t57 23z" />
    <glyph glyph-name="twodotlead" unicode="&#x2025;" horiz-adv-x="1135" 
d="M259 144q64 0 64 -64q0 -35 -22.5 -57.5t-57.5 -22.5q-64 0 -64 65q0 33 23 56t57 23zM827 144q64 0 64 -64q0 -34 -22.5 -57t-57.5 -23q-65 0 -65 65q0 33 23.5 56t57.5 23z" />
    <glyph glyph-name="minute" unicode="&#x2032;" horiz-adv-x="274" 
d="M248 399h-68l-42 268h152z" />
    <glyph glyph-name="second" unicode="&#x2033;" horiz-adv-x="488" 
d="M243 399h-63l-42 268h147zM463 399h-63l-42 268h147z" />
    <glyph glyph-name="exclamdbl" unicode="&#x203c;" horiz-adv-x="612" 
d="M163 209h-26q23 99 23 162q0 41 -10 145q-2 21 -2 42q0 54 25.5 86.5t68.5 32.5q69 0 69 -71q0 -42 -24 -92q-5 -11 -47 -84q-30 -52 -44.5 -94t-32.5 -127zM132 150q71 0 71 -72q0 -39 -24.5 -63.5t-63.5 -24.5q-72 0 -72 74q0 37 25.5 61.5t63.5 24.5zM469 209h-25
q22 103 22 162q0 41 -10 145q-2 21 -2 42q0 54 25.5 86.5t68.5 32.5q69 0 69 -71q0 -41 -25 -95q-5 -12 -46 -81q-45 -77 -71 -194zM438 150q72 0 72 -72q0 -39 -24.5 -63.5t-63.5 -24.5q-73 0 -73 74q0 37 25.5 61.5t63.5 24.5z" />
    <glyph glyph-name="overscore2" unicode="&#x203e;" 
d="M134 850h484v-76h-484v76z" />
    <glyph glyph-name="zerosuperior" unicode="&#x2070;" horiz-adv-x="369" 
d="M281 675q114 0 114 -122q0 -108 -54 -205q-50 -89 -146 -89q-115 0 -115 128q0 50 16 108.5t40 95.5q54 84 145 84zM276 653q-45 0 -77 -111q-37 -127 -37 -205q0 -56 35 -56q39 0 66 73q19 50 34.5 128t15.5 120q0 51 -37 51z" />
    <glyph glyph-name="foursuperior" unicode="&#x2074;" horiz-adv-x="369" 
d="M371 669l-55 -259h61l-20 -41h-50l-21 -102l-94 -13l25 115l-159 1l6 16q73 103 231 283h76zM267 604l-13 -16q-48 -59 -141 -178h112z" />
    <glyph glyph-name="fivesuperior" unicode="&#x2075;" horiz-adv-x="369" 
d="M120 462l47 207q57 -14 125 -14q79 0 114 18l6 -5q-25 -57 -57.5 -76.5t-100.5 -19.5q-30 0 -80 7l-24 -92q42 26 91 26q55 0 88.5 -27.5t33.5 -72.5q0 -68 -51 -111t-131 -43q-54 0 -86.5 20t-32.5 53q0 22 14 36t36 14q42 0 42 -39q0 -16 -22 -36q-3 -3 -3 -8
q0 -18 38 -18q40 0 69.5 40t29.5 94q0 32 -15.5 52t-41.5 20q-38 0 -74 -39z" />
    <glyph glyph-name="sixsuperior" unicode="&#x2076;" horiz-adv-x="369" 
d="M195 489q42 31 87 31q44 0 70 -25.5t26 -69.5q0 -71 -50 -118.5t-123 -47.5q-121 0 -121 123q0 69 25.5 134.5t69.5 107.5q53 51 131 51q41 0 65.5 -16.5t24.5 -43.5q0 -22 -14.5 -37t-37.5 -15q-41 0 -41 36q0 17 12 28t12 15q0 11 -23 11q-66 0 -100 -115
q-3 -11 -13 -49zM247 490q-31 0 -55.5 -43t-24.5 -99q0 -67 43 -67q30 0 53 46.5t23 107.5q0 55 -39 55z" />
    <glyph glyph-name="sevensuperior" unicode="&#x2077;" horiz-adv-x="369" 
d="M114 524l29 143q82 -6 144 -6q60 0 134 6q-22 -90 -97 -164q-41 -41 -59 -75.5t-29 -94.5q-8 -41 -21.5 -57.5t-41.5 -16.5q-47 0 -47 45q0 86 136 183q81 58 99 96q-52 -3 -79 -3q-45 0 -75 2q-15 1 -22 1q-18 0 -26 -8.5t-27 -50.5h-18z" />
    <glyph glyph-name="eightsuperior" unicode="&#x2078;" horiz-adv-x="369" 
d="M292 478q77 -18 77 -87q0 -59 -48 -95.5t-124 -36.5q-126 0 -126 95q0 67 61 102q25 14 62 23q-67 23 -67 78q0 52 42.5 85t109.5 33q55 0 86.5 -23.5t31.5 -64.5q0 -82 -105 -109zM278 653q-26 0 -48 -35.5t-22 -78.5q0 -53 36 -53q28 0 49 35.5t21 83.5t-36 48z
M239 466q-34 0 -56 -45t-22 -90q0 -50 39 -50q38 0 60 50q18 42 18 84q0 51 -39 51z" />
    <glyph glyph-name="ninesuperior" unicode="&#x2079;" horiz-adv-x="369" 
d="M280 453q-43 -33 -85 -33q-44 0 -70.5 25.5t-26.5 68.5q0 69 48 115t121 46q122 0 122 -124q0 -107 -56 -196q-61 -96 -165 -96q-44 0 -70 19t-26 51q0 23 14.5 37t36.5 14q41 0 41 -37q0 -19 -24 -38q-4 -4 -4 -7q0 -17 32 -17q38 0 63.5 39t48.5 133zM268 653
q-27 0 -45 -31q-33 -56 -33 -115q0 -56 40 -56q39 0 60 56q16 43 16 89q0 57 -38 57z" />
    <glyph glyph-name="plussuperior" unicode="&#x207a;" horiz-adv-x="337" 
d="M68 507h116v113h77v-113h116v-69h-116v-114h-77v114h-116v69z" />
    <glyph glyph-name="minussuperior" unicode="&#x207b;" horiz-adv-x="333" 
d="M66 507h309v-69h-309v69z" />
    <glyph glyph-name="parenleftsuperior" unicode="&#x207d;" horiz-adv-x="236" 
d="M199 210l-16 -13q-54 42 -75.5 83t-21.5 103q0 123 75 217q40 50 117 96l12 -14q-50 -39 -79 -91q-57 -104 -57 -240q0 -88 45 -141z" />
    <glyph glyph-name="parenrightsuperior" unicode="&#x207e;" horiz-adv-x="236" 
d="M133 683l16 13q55 -42 76.5 -83t21.5 -103q0 -122 -76 -217q-41 -51 -116 -96l-12 14q49 38 79 92q57 103 57 239q0 88 -46 141z" />
    <glyph glyph-name="nsuperior" unicode="&#x207f;" horiz-adv-x="434" 
d="M183 267h-90l36 168q12 56 12 73q0 18 -15 18q-23 0 -55 -63l-17 5q40 89 100 89q68 0 68 -84q49 84 116 84q69 0 69 -64q0 -22 -3 -35l-13 -58q-14 -62 -14 -80q0 -21 14 -21q25 0 53 64l18 -4q-18 -46 -36 -65q-31 -34 -73 -34q-29 0 -48 18t-19 46q0 36 31 148
q6 22 6 34q0 19 -18 19q-29 0 -59 -51t-46 -126z" />
    <glyph glyph-name="zeroinferior" unicode="&#x2080;" horiz-adv-x="369" 
d="M224 408q114 0 114 -122q0 -108 -54 -205q-50 -89 -146 -89q-115 0 -115 128q0 50 16 108.5t40 95.5q54 84 145 84zM219 386q-45 0 -77 -111q-37 -127 -37 -205q0 -56 35 -56q39 0 66 73q19 50 34.5 128t15.5 120q0 51 -37 51z" />
    <glyph glyph-name="oneinferior" unicode="&#x2081;" horiz-adv-x="369" 
d="M285 405l-66 -315q-6 -29 -6 -32q0 -17 13.5 -25t51.5 -12l-4 -21h-244l5 21q53 5 67.5 18.5t25.5 66.5l37 173q3 14 3 21q0 15 -35 15h-53l4 21q98 6 154 69h47z" />
    <glyph glyph-name="twoinferior" unicode="&#x2082;" horiz-adv-x="369" 
d="M302 140l-31 -140h-282q5 52 34 90t91 77q112 70 112 156q0 63 -59 63q-18 0 -32.5 -7.5t-14.5 -16.5q0 -5 12 -15.5t12 -28.5q0 -19 -14.5 -32.5t-34.5 -13.5t-32.5 13t-12.5 33q0 39 38.5 64.5t98.5 25.5q136 0 136 -93q0 -62 -59 -109q-33 -26 -112 -58
q-72 -29 -96 -65h161q29 0 39.5 9t28.5 48h17z" />
    <glyph glyph-name="threeinferior" unicode="&#x2083;" horiz-adv-x="380" 
d="M101 201l6 26q28 -2 34 -2q43 0 71.5 30t28.5 77q0 51 -51 51q-38 0 -38 -17q0 -3 10 -11q13 -11 13 -28q0 -19 -15 -32.5t-35 -13.5t-32.5 12t-12.5 31q0 37 38 60.5t99 23.5q121 0 121 -83q0 -85 -125 -108q96 -18 96 -89q0 -59 -54 -99q-50 -37 -134 -37
q-56 0 -88.5 19.5t-32.5 53.5q0 23 15.5 38t38.5 15q43 0 43 -40q0 -17 -23 -38q-4 -3 -4 -7q0 -16 36 -16q42 0 71 36.5t29 88.5q0 59 -79 59h-26z" />
    <glyph glyph-name="fourinferior" unicode="&#x2084;" horiz-adv-x="369" 
d="M314 402l-55 -259h61l-20 -41h-50l-21 -102l-94 -13l25 115l-159 1l6 16q71 102 231 283h76zM210 337l-13 -16q-38 -47 -141 -178h112q17 80 42 194z" />
    <glyph glyph-name="fiveinferior" unicode="&#x2085;" horiz-adv-x="369" 
d="M63 195l47 207q57 -14 125 -14q79 0 114 18l6 -5q-25 -57 -57.5 -76.5t-100.5 -19.5q-30 0 -80 7l-24 -92q42 26 91 26q55 0 88.5 -27.5t33.5 -72.5q0 -68 -51 -111t-131 -43q-54 0 -86.5 20t-32.5 53q0 22 14 36t36 14q42 0 42 -39q0 -16 -22 -36q-3 -3 -3 -8
q0 -18 38 -18q40 0 69.5 40t29.5 94q0 32 -15.5 52t-41.5 20q-38 0 -74 -39z" />
    <glyph glyph-name="sixinferior" unicode="&#x2086;" horiz-adv-x="369" 
d="M139 222q42 31 87 31q44 0 70 -25.5t26 -69.5q0 -71 -50 -118.5t-123 -47.5q-121 0 -121 123q0 69 25.5 134.5t69.5 107.5q53 51 131 51q41 0 65.5 -16.5t24.5 -43.5q0 -22 -14.5 -37t-37.5 -15q-41 0 -41 36q0 17 12 28t12 15q0 11 -23 11q-66 0 -100 -115
q-3 -11 -13 -49zM191 223q-31 0 -55.5 -43t-24.5 -99q0 -67 43 -67q30 0 53 46.5t23 107.5q0 55 -39 55z" />
    <glyph glyph-name="seveninferior" unicode="&#x2087;" horiz-adv-x="369" 
d="M58 257l29 143q79 -7 144 -7q62 0 134 7q-22 -92 -97 -165q-42 -41 -59.5 -75.5t-28.5 -93.5q-13 -74 -63 -74q-47 0 -47 45q0 87 136 183q81 57 99 96q-47 -4 -79 -4q-43 0 -75 3q-11 1 -22 1q-18 0 -26 -8.5t-27 -50.5h-18z" />
    <glyph glyph-name="eightinferior" unicode="&#x2088;" horiz-adv-x="369" 
d="M235 211q77 -18 77 -87q0 -59 -48 -95.5t-124 -36.5q-126 0 -126 95q0 67 61 102q26 15 62 22q-67 24 -67 78q0 53 42.5 86t109.5 33q55 0 86.5 -23.5t31.5 -64.5q0 -82 -105 -109zM221 386q-26 0 -48 -35.5t-22 -78.5q0 -53 36 -53q28 0 49 35.5t21 83.5t-36 48z
M182 199q-34 0 -56 -45t-22 -90q0 -50 39 -50q38 0 60 50q18 42 18 84q0 51 -39 51z" />
    <glyph glyph-name="nineinferior" unicode="&#x2089;" horiz-adv-x="369" 
d="M223 186q-43 -33 -85 -33q-44 0 -70.5 25.5t-26.5 68.5q0 69 48 115t121 46q122 0 122 -124q0 -108 -56 -196q-61 -96 -165 -96q-44 0 -70 19t-26 51q0 23 14.5 37t36.5 14q41 0 41 -37q0 -19 -24 -38q-4 -4 -4 -7q0 -17 32 -17q38 0 63.5 39t48.5 133zM211 386
q-27 0 -45 -31q-33 -56 -33 -115q0 -56 40 -56q39 0 60 56q16 43 16 89q0 57 -38 57z" />
    <glyph glyph-name="lira" unicode="&#x20a4;" horiz-adv-x="571" 
d="M501 373l-7 -31h-134v-15q0 -57 -80 -173q62 -33 101 -33q60 0 107 43q43 40 59 103l17 1q-7 -123 -37 -181q-52 -99 -158 -99q-82 0 -162 81q-79 -83 -155 -83q-37 0 -59.5 24.5t-22.5 63.5q0 55 41 90.5t105 35.5q49 0 145 -36q22 41 22 72q0 27 -12 48.5t-48 57.5
h-143l6 31h113q-35 54 -35 105q0 82 63 140q67 62 186 62q68 0 105.5 -23t37.5 -64q0 -31 -21.5 -51.5t-54.5 -20.5q-23 0 -39 13.5t-16 32.5q0 15 8.5 33t8.5 29q0 23 -43 23q-47 0 -79 -30t-32 -74q0 -35 31 -91q25 -45 37 -84h145zM193 84l-11 12q-61 67 -110 67
q-26 0 -46 -20t-20 -45q0 -27 21 -45t52 -18q54 0 114 49z" />
    <glyph glyph-name="peseta" unicode="&#x20a7;" horiz-adv-x="772" 
d="M266 285l-28 -132q-14 -66 -14 -79q0 -36 50 -43l27 -4l-6 -27h-311l6 27l18 3q46 8 59.5 25t28.5 86l79 373q14 66 14 78q0 21 -10.5 30t-39.5 14l-22 4l6 27h303q176 0 176 -140q0 -72 -43.5 -129.5t-113.5 -85.5q-60 -24 -179 -27zM340 634l-68 -321q57 4 93 31
q42 32 66.5 83.5t24.5 107.5q0 53 -22 76t-74 23h-20zM533 252h-81l6 28h15q63 0 107 35.5t90 123.5h27l-34 -159h92l-6 -28h-92l-10 -46q-20 -92 -20 -122q0 -38 26 -38q36 0 73 97l20 -5q-27 -70 -57 -100q-43 -42 -94 -42q-39 0 -64 26t-25 67q0 34 14 101z" />
    <glyph glyph-name="Euro" unicode="&#x20ac;" horiz-adv-x="800" 
d="M328 384h239l-24 -38h-226q-2 -10 -6 -26h214l-24 -38h-198q-10 -57 -10 -103q0 -69 40.5 -114.5t101.5 -45.5q73 0 139 54q27 22 82 77l37 -34q-61 -70 -125.5 -99.5t-159.5 -29.5q-279 0 -279 243q0 19 3 52h-74l24 38h55q3 18 5 26h-70l24 38h57q27 90 91 166
q109 130 305 130q87 0 182 -37l41 29h19l-51 -238h-31q-11 114 -46.5 164.5t-104.5 50.5q-72 0 -126 -55q-24 -25 -55.5 -88t-48.5 -122z" />
    <glyph glyph-name="aslashs" unicode="&#x2101;" horiz-adv-x="967" 
d="M359 667l37 -315q4 -33 13 -46q12 -16 41 -18l-4 -21h-203l4 21q35 5 43 12t8 30q0 31 -5 41l-3 34h-129l-27 -48q-19 -34 -19 -44q0 -20 38 -25l-4 -21h-151l5 21q30 2 53.5 24.5t62.5 84.5q63 101 165 270h75zM270 595l-94 -164h111zM814 667l-457 -667h-44l457 667h44
zM950 402l-27 -129h-23q-9 111 -93 111q-31 0 -49.5 -17t-18.5 -44q0 -26 16.5 -42t72 -44t76 -51t20.5 -58q0 -59 -49 -97.5t-125 -38.5q-54 0 -116 22l-25 -17h-16l33 154h25q5 -54 20 -83q26 -52 85 -52q34 0 57.5 21t23.5 51q0 24 -15.5 38t-67.5 39.5t-73 51t-21 62.5
q0 57 42.5 93t110.5 36q38 0 104 -19l18 13h15z" />
    <glyph glyph-name="liter" unicode="&#x2113;" 
d="M141 141v18q-29 -37 -39 -37q-7 0 -13.5 11t-6.5 23t5 20t32 39q17 20 30 38q71 416 218 416q40 0 64 -28t24 -74q0 -62 -44 -142q-23 -42 -39 -62t-87 -94q-2 -3 -11 -12q-21 -136 -21 -173q0 -25 13 -25q8 0 13.5 6.5t21.5 36.5q12 22 25 22q21 0 21 -25
q0 -44 -36.5 -83t-76.5 -39q-63 0 -84 71q-9 31 -9 93zM284 336l7 7q37 37 68.5 106.5t31.5 108.5q0 33 -21 33q-46 0 -86 -255z" />
    <glyph glyph-name="Ohm" unicode="&#x2126;" horiz-adv-x="762" 
d="M-5 0l30 196h19l5 -47q4 -33 15.5 -44t42.5 -11h130q-54 29 -80 58q-54 61 -54 155q0 79 35.5 156t97.5 129q100 85 242 85q115 0 179.5 -56t64.5 -155q0 -146 -104 -263q-62 -70 -161 -109h132q35 0 55 12t36 43l25 47h18l-53 -196h-306l19 90q99 18 156 124
q29 55 48.5 132t19.5 141q0 155 -137 155q-107 0 -167 -85q-44 -62 -70.5 -147.5t-26.5 -161.5q0 -135 107 -158l-19 -90h-299z" />
    <glyph glyph-name="onethird" unicode="&#x2153;" horiz-adv-x="901" 
d="M342 671l-66 -314q-6 -29 -6 -32q0 -17 13 -25t52 -12l-4 -21h-244l5 21q53 5 67.5 18.5t25.5 66.5l37 172q3 14 3 21q0 15 -35 15h-53l4 21q98 7 154 69h47zM725 667l-457 -667h-44l457 667h44zM631 202l5 23q13 0 22 -1h9q44 0 72 30.5t28 77.5q0 54 -51 54
q-39 0 -39 -18q0 -4 11.5 -13t11.5 -28q0 -18 -14 -31t-34 -13q-17 0 -29.5 12t-12.5 30q0 37 37 60t95 23q117 0 117 -83q0 -54 -54 -85q-25 -14 -75 -24q102 -15 102 -89q0 -60 -51 -97.5t-131 -37.5q-55 0 -86.5 19.5t-31.5 52.5q0 22 14.5 37t36.5 15q42 0 42 -39
q0 -16 -23 -38q-4 -3 -4 -7q0 -18 37 -18q41 0 70 37t29 90q0 62 -81 62q-11 0 -22 -1z" />
    <glyph glyph-name="twothirds" unicode="&#x2154;" horiz-adv-x="901" 
d="M358 407l-31 -140h-282q5 52 34 90t91 77q112 70 112 156q0 63 -59 63q-18 0 -32.5 -7.5t-14.5 -16.5q0 -5 12 -15.5t12 -28.5q0 -19 -14.5 -32.5t-34.5 -13.5t-32.5 13t-12.5 33q0 39 38.5 64.5t98.5 25.5q136 0 136 -93q0 -62 -59 -109q-33 -26 -112 -58
q-72 -29 -96 -65h161q29 0 39.5 9t28.5 48h17zM725 667l-457 -667h-44l457 667h44zM630 202l5 23q14 0 22 -1h10q44 0 72 30.5t28 77.5q0 54 -52 54q-39 0 -39 -18q0 -4 11.5 -13t11.5 -28q0 -18 -14 -31t-34 -13q-17 0 -29.5 12t-12.5 30q0 37 37 60t95 23q118 0 118 -83
q0 -54 -54 -85q-25 -14 -75 -24q101 -15 101 -89q0 -60 -51 -97.5t-131 -37.5q-55 0 -86.5 19.5t-31.5 52.5q0 22 14.5 37t36.5 15q42 0 42 -39q0 -16 -23 -38q-4 -3 -4 -7q0 -18 37 -18q42 0 70.5 37t28.5 90q0 62 -81 62q-11 0 -22 -1z" />
    <glyph glyph-name="onefifth" unicode="&#x2155;" horiz-adv-x="901" 
d="M342 671l-66 -314q-6 -29 -6 -32q0 -17 13 -25t52 -12l-4 -21h-244l5 21q53 5 67.5 18.5t25.5 66.5l37 172q3 14 3 21q0 15 -35 15h-53l4 21q98 7 154 69h47zM725 667l-457 -667h-44l457 667h44zM596 195l47 207q57 -14 124 -14q81 0 114 18l6 -5q-25 -57 -57 -76.5
t-100 -19.5q-30 0 -80 7l-25 -92q44 26 91 26q55 0 88.5 -27.5t33.5 -72.5q0 -68 -51 -111t-131 -43q-54 0 -86.5 20t-32.5 53q0 22 14.5 36t35.5 14q43 0 43 -39q0 -16 -22 -36q-4 -4 -4 -8q0 -18 38 -18q40 0 69.5 40t29.5 94q0 32 -15.5 52t-41.5 20q-38 0 -73 -39z" />
    <glyph glyph-name="twofifths" unicode="&#x2156;" horiz-adv-x="901" 
d="M358 407l-31 -140h-282q5 52 34 90t91 77q112 70 112 156q0 63 -59 63q-18 0 -32.5 -7.5t-14.5 -16.5q0 -5 12 -15.5t12 -28.5q0 -19 -14.5 -32.5t-34.5 -13.5t-32.5 13t-12.5 33q0 39 38.5 64.5t98.5 25.5q136 0 136 -93q0 -62 -59 -109q-33 -26 -112 -58
q-72 -29 -96 -65h161q29 0 39.5 9t28.5 48h17zM725 667l-457 -667h-44l457 667h44zM595 195l47 207q57 -14 125 -14q79 0 114 18l6 -5q-25 -57 -57.5 -76.5t-100.5 -19.5q-30 0 -80 7l-24 -92q42 26 91 26q55 0 88.5 -27.5t33.5 -72.5q0 -68 -51 -111t-131 -43
q-54 0 -86.5 20t-32.5 53q0 22 14 36t36 14q42 0 42 -39q0 -16 -22 -36q-4 -4 -4 -8q0 -18 38 -18q40 0 70 40t30 94q0 32 -15.5 52t-41.5 20q-38 0 -74 -39z" />
    <glyph glyph-name="threefifths" unicode="&#x2157;" horiz-adv-x="901" 
d="M155 469l5 23q14 0 22 -1h9q44 0 72 30.5t28 77.5q0 54 -51 54q-39 0 -39 -18q0 -4 11.5 -13t11.5 -28q0 -18 -14 -31t-34 -13q-17 0 -29.5 12t-12.5 30q0 37 37 60t95 23q117 0 117 -83q0 -54 -54 -85q-26 -15 -75 -23q102 -15 102 -90q0 -60 -51 -97.5t-131 -37.5
q-55 0 -86.5 19.5t-31.5 52.5q0 22 14.5 37t36.5 15q42 0 42 -39q0 -16 -23 -38q-4 -3 -4 -7q0 -18 37 -18q41 0 70 37t29 90q0 62 -81 62q-11 0 -22 -1zM725 667l-457 -667h-44l457 667h44zM595 195l47 207q57 -14 125 -14q79 0 114 18l6 -5q-25 -57 -57.5 -76.5
t-100.5 -19.5q-30 0 -80 7l-24 -92q42 26 91 26q55 0 88.5 -27.5t33.5 -72.5q0 -68 -51 -111t-131 -43q-54 0 -86.5 20t-32.5 53q0 22 14 36t36 14q42 0 42 -39q0 -16 -22 -36q-4 -4 -4 -8q0 -18 38 -18q40 0 70 40t30 94q0 32 -15.5 52t-41.5 20q-38 0 -74 -39z" />
    <glyph glyph-name="fourfifths" unicode="&#x2158;" horiz-adv-x="901" 
d="M371 669l-55 -259h61l-20 -41h-50l-21 -102l-94 -13l25 115l-159 1l6 16q73 103 231 283h76zM267 604l-13 -16q-48 -59 -141 -178h112zM725 667l-457 -667h-44l457 667h44zM595 195l48 207q57 -14 124 -14q79 0 114 18l6 -5q-25 -57 -57.5 -76.5t-100.5 -19.5
q-29 0 -79 7l-25 -92q44 26 91 26q55 0 88.5 -27.5t33.5 -72.5q0 -68 -51 -111t-131 -43q-54 0 -86.5 20t-32.5 53q0 22 14.5 36t35.5 14q43 0 43 -39q0 -16 -22 -36q-4 -4 -4 -8q0 -18 38 -18q40 0 69.5 40t29.5 94q0 32 -15.5 52t-41.5 20q-38 0 -73 -39z" />
    <glyph glyph-name="onesixth" unicode="&#x2159;" horiz-adv-x="901" 
d="M342 671l-66 -314q-6 -29 -6 -32q0 -17 13 -25t52 -12l-4 -21h-244l5 21q53 5 67.5 18.5t25.5 66.5l37 172q3 14 3 21q0 15 -35 15h-53l4 21q98 7 154 69h47zM725 667l-457 -667h-44l457 667h44zM671 222q42 31 87 31q44 0 70 -25.5t26 -69.5q0 -71 -50 -118.5
t-123 -47.5q-121 0 -121 123q0 69 25.5 134.5t69.5 107.5q53 51 131 51q41 0 65.5 -16.5t24.5 -43.5q0 -22 -14.5 -37t-37.5 -15q-41 0 -41 36q0 17 12 28t12 15q0 11 -23 11q-67 0 -101 -115q-4 -15 -12 -49zM723 223q-31 0 -55.5 -43t-24.5 -99q0 -67 43 -67q30 0 53 46.5
t23 107.5q0 55 -39 55z" />
    <glyph glyph-name="fivesixths" unicode="&#x215a;" horiz-adv-x="901" 
d="M120 462l47 207q57 -14 125 -14q79 0 114 18l6 -5q-25 -57 -57.5 -76.5t-100.5 -19.5q-30 0 -80 7l-24 -92q42 26 91 26q55 0 88.5 -27.5t33.5 -72.5q0 -68 -51 -111t-131 -43q-54 0 -86.5 20t-32.5 53q0 22 14 36t36 14q42 0 42 -39q0 -16 -22 -36q-3 -3 -3 -8
q0 -18 38 -18q40 0 69.5 40t29.5 94q0 32 -15.5 52t-41.5 20q-38 0 -74 -39zM725 667l-457 -667h-44l457 667h44zM671 222q42 31 87 31q44 0 70 -25.5t26 -69.5q0 -71 -50 -118.5t-123 -47.5q-121 0 -121 123q0 69 25.5 134.5t69.5 107.5q53 51 131 51q41 0 65.5 -16.5
t24.5 -43.5q0 -22 -14.5 -37t-37.5 -15q-41 0 -41 36q0 17 12 28t12 15q0 11 -23 11q-67 0 -101 -115q-4 -15 -12 -49zM723 223q-31 0 -55.5 -43t-24.5 -99q0 -67 43 -67q30 0 53 46.5t23 107.5q0 55 -39 55z" />
    <glyph glyph-name="oneeighth" unicode="&#x215b;" horiz-adv-x="901" 
d="M342 671l-66 -314q-6 -29 -6 -32q0 -17 13 -25t52 -12l-4 -21h-244l5 21q53 5 67.5 18.5t25.5 66.5l37 172q3 14 3 21q0 15 -35 15h-53l4 21q98 7 154 69h47zM725 667l-457 -667h-44l457 667h44zM768 211q76 -18 76 -87q0 -59 -48 -95.5t-124 -36.5q-126 0 -126 95
q0 67 61 102q25 14 63 22q-67 24 -67 78q0 53 42.5 86t109.5 33q55 0 86.5 -23.5t31.5 -64.5q0 -82 -105 -109zM754 386q-26 0 -48 -35.5t-22 -78.5q0 -53 36 -53q28 0 49 35.5t21 83.5t-36 48zM714 199q-34 0 -56 -45t-22 -90q0 -50 39 -50q38 0 60 50q18 42 18 84
q0 51 -39 51z" />
    <glyph glyph-name="threeeighths" unicode="&#x215c;" horiz-adv-x="901" 
d="M155 469l5 23q14 0 22 -1h9q44 0 72 30.5t28 77.5q0 54 -51 54q-39 0 -39 -18q0 -4 11.5 -13t11.5 -28q0 -18 -14 -31t-34 -13q-17 0 -29.5 12t-12.5 30q0 37 37 60t95 23q117 0 117 -83q0 -54 -54 -85q-26 -15 -75 -23q102 -15 102 -90q0 -60 -51 -97.5t-131 -37.5
q-55 0 -86.5 19.5t-31.5 52.5q0 22 14.5 37t36.5 15q42 0 42 -39q0 -16 -23 -38q-4 -3 -4 -7q0 -18 37 -18q41 0 70 37t29 90q0 62 -81 62q-11 0 -22 -1zM725 667l-457 -667h-44l457 667h44zM767 211q77 -18 77 -87q0 -59 -48 -95.5t-124 -36.5q-126 0 -126 95q0 68 60 102
q25 14 63 22q-67 23 -67 78q0 53 42.5 86t109.5 33q55 0 86.5 -23.5t31.5 -64.5q0 -82 -105 -109zM753 386q-26 0 -48 -35.5t-22 -78.5q0 -53 36 -53q28 0 49 35.5t21 83.5t-36 48zM714 199q-34 0 -56 -45t-22 -90q0 -50 39 -50q38 0 60 50q18 42 18 84q0 51 -39 51z" />
    <glyph glyph-name="fiveeighths" unicode="&#x215d;" horiz-adv-x="901" 
d="M120 462l47 207q57 -14 125 -14q79 0 114 18l6 -5q-25 -57 -57.5 -76.5t-100.5 -19.5q-30 0 -80 7l-24 -92q42 26 91 26q55 0 88.5 -27.5t33.5 -72.5q0 -68 -51 -111t-131 -43q-54 0 -86.5 20t-32.5 53q0 22 14 36t36 14q42 0 42 -39q0 -16 -22 -36q-3 -3 -3 -8
q0 -18 38 -18q40 0 69.5 40t29.5 94q0 32 -15.5 52t-41.5 20q-38 0 -74 -39zM725 667l-457 -667h-44l457 667h44zM767 211q77 -18 77 -87q0 -59 -48 -95.5t-124 -36.5q-126 0 -126 95q0 67 61 102q25 14 63 22q-67 23 -67 78q0 53 42.5 86t109.5 33q55 0 86.5 -23.5
t31.5 -64.5q0 -82 -106 -109zM754 386q-26 0 -48 -35.5t-22 -78.5q0 -53 36 -53q28 0 49 35.5t21 83.5t-36 48zM714 199q-34 0 -56 -45t-22 -90q0 -50 39 -50q38 0 60 50q18 42 18 84q0 51 -39 51z" />
    <glyph glyph-name="seveneighths" unicode="&#x215e;" horiz-adv-x="901" 
d="M114 524l29 143q82 -6 144 -6q60 0 134 6q-22 -90 -97 -164q-41 -41 -59 -75.5t-29 -94.5q-8 -41 -21.5 -57.5t-41.5 -16.5q-47 0 -47 45q0 86 136 183q81 58 99 96q-52 -3 -79 -3q-45 0 -75 2q-15 1 -22 1q-18 0 -26 -8.5t-27 -50.5h-18zM708 667l-457 -667h-44l457 667
h44zM767 211q77 -19 77 -87q0 -59 -48 -95.5t-124 -36.5q-126 0 -126 95q0 67 61 102q26 15 62 22q-66 24 -66 78q0 53 42.5 86t109.5 33q118 0 118 -88q0 -82 -106 -109zM754 386q-26 0 -48 -35.5t-22 -78.5q0 -53 36 -53q28 0 49 35.5t21 83.5t-36 48zM714 199
q-34 0 -56 -45t-22 -90q0 -50 39 -50q38 0 60 50q18 42 18 84q0 51 -39 51z" />
    <glyph glyph-name="arrowleft" unicode="&#x2190;" horiz-adv-x="667" 
d="M653 310h-500q52 -77 52 -104q0 -14 -15 -14q-9 0 -23 17q-47 56 -131 103q-23 13 -23 24q0 10 23 23q83 46 136 109q10 12 18 12q15 0 15 -14q0 -25 -52 -105h500v-51z" />
    <glyph glyph-name="arrowup" unicode="&#x2191;" horiz-adv-x="667" 
d="M308 13v501q-76 -53 -104 -53q-14 0 -14 15q0 7 31 35q46 42 89 120q13 23 24 23q10 0 23 -23q47 -86 103 -132q17 -14 17 -23q0 -15 -14 -15q-27 0 -104 53v-501h-51z" />
    <glyph glyph-name="arrowright" unicode="&#x2192;" horiz-adv-x="667" 
d="M13 361h500q-52 76 -52 105q0 14 15 14q6 0 35 -32q43 -47 119 -89q23 -13 23 -24q0 -10 -23 -23q-84 -47 -131 -103q-14 -17 -23 -17q-15 0 -15 14q0 24 52 104h-500v51z" />
    <glyph glyph-name="arrowdown" unicode="&#x2193;" horiz-adv-x="667" 
d="M359 653v-500q78 52 104 52q14 0 14 -15q0 -7 -31 -35q-47 -43 -89 -119q-13 -23 -24 -23q-10 0 -23 23q-46 83 -103 131q-17 14 -17 23q0 15 14 15q25 0 104 -52v500h51z" />
    <glyph glyph-name="arrowboth" unicode="&#x2194;" horiz-adv-x="667" 
d="M513 310h-360q52 -77 52 -104q0 -14 -15 -14q-9 0 -23 17q-47 56 -131 103q-23 13 -23 24q0 10 23 23q83 46 136 109q10 12 18 12q15 0 15 -14q0 -25 -52 -105h360q-52 76 -52 105q0 14 15 14q6 0 35 -32q43 -47 119 -89q23 -13 23 -24q0 -10 -23 -23q-84 -47 -131 -103
q-14 -17 -23 -17q-15 0 -15 14q0 24 52 104z" />
    <glyph glyph-name="arrowupdn" unicode="&#x2195;" horiz-adv-x="667" 
d="M308 154v360q-76 -53 -104 -53q-14 0 -14 15q0 7 31 35q46 42 89 120q13 23 24 23q10 0 23 -23q47 -86 103 -132q17 -14 17 -23q0 -15 -14 -15q-27 0 -104 53v-360q78 52 104 52q14 0 14 -15q0 -7 -31 -35q-46 -42 -89 -120q-13 -23 -24 -23q-10 0 -23 23
q-47 86 -103 132q-17 14 -17 23q0 15 14 15q25 0 104 -52z" />
    <glyph glyph-name="arrowupdnbse" unicode="&#x21a8;" horiz-adv-x="667" 
d="M200 -68h266v-43h-266v43zM308 154v360q-76 -53 -104 -53q-14 0 -14 15q0 7 31 35q46 42 89 120q13 23 24 23q10 0 23 -23q47 -86 103 -132q17 -14 17 -23q0 -15 -14 -15q-27 0 -104 53v-360q78 52 104 52q14 0 14 -15q0 -7 -31 -35q-46 -42 -89 -120q-13 -23 -24 -23
q-10 0 -23 23q-47 86 -103 132q-17 14 -17 23q0 15 14 15q25 0 104 -52z" />
    <glyph glyph-name="emptyset" unicode="&#x2205;" horiz-adv-x="618" 
d="M496 655l-53 -105q109 -75 109 -203q0 -100 -71 -171.5t-172 -71.5q-43 0 -84 15l-53 -106l-49 25l53 106q-109 74 -109 203q0 100 71.5 171t171.5 71q43 0 85 -15l53 106zM417 499l-166 -330q33 -9 58 -9q77 0 132 54.5t55 132.5q0 95 -79 152zM202 194l167 330
q-28 9 -59 9q-77 0 -132 -54.5t-55 -131.5q0 -94 79 -153z" />
    <glyph glyph-name="Delta" unicode="&#x394;" horiz-adv-x="670" 
d="M-23 0l462 683l159 -683h-621zM82 96h390l-99 439z" />
    <glyph glyph-name="Delta" unicode="&#x2206;" horiz-adv-x="670" 
d="M-23 0l462 683l159 -683h-621zM82 96h390l-99 439z" />
    <glyph glyph-name="intersection" unicode="&#x2229;" horiz-adv-x="631" 
d="M103 0h-35v426q0 113 41 166q66 86 206 86q132 0 200 -66q32 -31 45 -68t13 -99v-445h-162v447q0 91 -19 123q-38 65 -121 65q-75 0 -122 -52q-32 -35 -41 -80q-5 -26 -5 -91v-412z" />
    <glyph glyph-name="union" unicode="&#x222a;" horiz-adv-x="631" 
d="M107 667h162v-447q0 -91 19 -124q37 -65 121 -65q75 0 122 52q32 35 41 81q5 25 5 91v412h35v-426q0 -113 -41 -166q-66 -86 -206 -86q-132 0 -200 66q-32 31 -45 68t-13 99v445z" />
    <glyph glyph-name="contintegral" unicode="&#x222e;" 
d="M176 -111v149q-65 16 -109.5 77t-44.5 135t44 134.5t110 76.5v73q0 92 55.5 146t150.5 54q80 0 128.5 -33t48.5 -88q0 -34 -23 -57.5t-56 -23.5q-30 0 -53 21t-23 49q0 21 22 49q6 6 6 16q0 13 -11 22t-27 9q-29 0 -44 -29q-13 -25 -13 -90v-117q68 -17 111.5 -76.5
t43.5 -135.5q0 -75 -45 -136.5t-110 -75.5v-53l1 -18q1 -21 -6 -72q-10 -71 -62 -110.5t-137 -39.5q-82 0 -130 34t-48 91q0 32 23 55t55 23q31 0 54 -21.5t23 -49.5q0 -21 -23 -50q-5 -6 -5 -15q0 -13 11 -22t27 -9q56 0 56 108zM337 390v-278q37 12 61.5 52t24.5 87
q0 70 -47 113q-24 22 -39 26zM176 112v278q-36 -13 -60.5 -53t-24.5 -86t24.5 -86t60.5 -53z" />
    <glyph glyph-name="equivalence" unicode="&#x2261;" horiz-adv-x="571" 
d="M94 534h433v-84h-433v84zM94 221h433v-84h-433v84zM94 377h433v-84h-433v84z" />
    <glyph glyph-name="house" unicode="&#x2302;" horiz-adv-x="751" 
d="M84 0v401l291 328l292 -328v-401h-583zM135 51h481v328l-241 270l-240 -270v-328z" />
    <glyph glyph-name="turnednot" unicode="&#x2319;" 
d="M217 267v-197h277v-70h-441v267h164z" />
    <glyph glyph-name="integraltp" unicode="&#x2320;" 
d="M335 -241h-161v726q0 81 5 110.5t24 58.5q52 80 177 80q79 0 127.5 -33.5t48.5 -87.5q0 -34 -23 -57.5t-56 -23.5q-30 0 -53 21t-23 49q0 22 23 50q5 8 5 15q0 13 -11 22t-27 9q-33 0 -46 -36q-10 -27 -10 -114v-789z" />
    <glyph glyph-name="integralbt" unicode="&#x2321;" 
d="M175 734h161v-726q0 -81 -5 -110.5t-24 -58.5q-52 -80 -177 -80q-79 0 -127.5 33.5t-48.5 88.5q0 34 23 57t56 23q31 0 53.5 -21t22.5 -50q0 -21 -23 -50q-5 -6 -5 -15q0 -13 11 -22t27 -9q33 0 46 36q10 27 10 115v789z" />
    <glyph glyph-name="SF100000" unicode="&#x2500;" horiz-adv-x="1000" 
d="M0 217v66h1000v-66h-1000z" />
    <glyph glyph-name="SF110000" unicode="&#x2502;" horiz-adv-x="1000" 
d="M467 -250v1000h66v-1000h-66z" />
    <glyph glyph-name="SF010000" unicode="&#x250c;" horiz-adv-x="1000" 
d="M1000 283v-66h-467v-467h-66v533h533z" />
    <glyph glyph-name="SF030000" unicode="&#x2510;" horiz-adv-x="1000" 
d="M467 217h-467v66h533v-533h-66v467z" />
    <glyph glyph-name="SF020000" unicode="&#x2514;" horiz-adv-x="1000" 
d="M533 283h467v-66h-533v533h66v-467z" />
    <glyph glyph-name="SF040000" unicode="&#x2518;" horiz-adv-x="1000" 
d="M0 217v66h467v467h66v-533h-533z" />
    <glyph glyph-name="SF080000" unicode="&#x251c;" horiz-adv-x="1000" 
d="M533 283h467v-66h-467v-467h-66v1000h66v-467z" />
    <glyph glyph-name="SF090000" unicode="&#x2524;" horiz-adv-x="1000" 
d="M467 217h-467v66h467v467h66v-1000h-66v467z" />
    <glyph glyph-name="SF060000" unicode="&#x252c;" horiz-adv-x="1000" 
d="M533 217v-467h-66v467h-467v66h1000v-66h-467z" />
    <glyph glyph-name="SF070000" unicode="&#x2534;" horiz-adv-x="1000" 
d="M467 283v467h66v-467h467v-66h-1000v66h467z" />
    <glyph glyph-name="SF050000" unicode="&#x253c;" horiz-adv-x="1000" 
d="M467 217h-467v66h467v467h66v-467h467v-66h-467v-467h-66v467z" />
    <glyph glyph-name="SF430000" unicode="&#x2550;" horiz-adv-x="1000" 
d="M0 151v66h1000v-66h-1000zM0 283v66h1000v-66h-1000z" />
    <glyph glyph-name="SF240000" unicode="&#x2551;" horiz-adv-x="1000" 
d="M401 -250v1000h66v-1000h-66zM533 -250v1000h66v-1000h-66z" />
    <glyph glyph-name="SF510000" unicode="&#x2552;" horiz-adv-x="1000" 
d="M467 -250v599h533v-66h-467v-66h467v-66h-467v-401h-66z" />
    <glyph glyph-name="SF520000" unicode="&#x2553;" horiz-adv-x="1000" 
d="M533 217h-66v-467h-66v533h599v-66h-401v-467h-66v467z" />
    <glyph glyph-name="SF390000" unicode="&#x2554;" horiz-adv-x="1000" 
d="M467 283v-533h-66v599h599v-66h-533zM599 151v-401h-66v467h467v-66h-401z" />
    <glyph glyph-name="SF220000" unicode="&#x2555;" horiz-adv-x="1000" 
d="M467 151h-467v66h467v66h-467v66h533v-599h-66v401z" />
    <glyph glyph-name="SF210000" unicode="&#x2556;" horiz-adv-x="1000" 
d="M467 217v-467h-66v467h-401v66h599v-533h-66v467h-66z" />
    <glyph glyph-name="SF250000" unicode="&#x2557;" horiz-adv-x="1000" 
d="M533 283h-533v66h599v-599h-66v533zM401 151h-401v66h467v-467h-66v401z" />
    <glyph glyph-name="SF500000" unicode="&#x2558;" horiz-adv-x="1000" 
d="M467 750h66v-401h467v-66h-467v-66h467v-66h-533v599z" />
    <glyph glyph-name="SF490000" unicode="&#x2559;" horiz-adv-x="1000" 
d="M533 283v467h66v-467h401v-66h-599v533h66v-467h66z" />
    <glyph glyph-name="SF380000" unicode="&#x255a;" horiz-adv-x="1000" 
d="M467 217h533v-66h-599v599h66v-533zM599 349h401v-66h-467v467h66v-401z" />
    <glyph glyph-name="SF280000" unicode="&#x255b;" horiz-adv-x="1000" 
d="M467 349v401h66v-599h-533v66h467v66h-467v66h467z" />
    <glyph glyph-name="SF270000" unicode="&#x255c;" horiz-adv-x="1000" 
d="M467 283h66v467h66v-533h-599v66h401v467h66v-467z" />
    <glyph glyph-name="SF260000" unicode="&#x255d;" horiz-adv-x="1000" 
d="M533 217v533h66v-599h-599v66h533zM401 349v401h66v-467h-467v66h401z" />
    <glyph glyph-name="SF360000" unicode="&#x255e;" horiz-adv-x="1000" 
d="M467 750h66v-401h467v-66h-467v-66h467v-66h-467v-401h-66v1000z" />
    <glyph glyph-name="SF370000" unicode="&#x255f;" horiz-adv-x="1000" 
d="M599 217v-467h-66v1000h66v-467h401v-66h-401zM467 -250h-66v1000h66v-1000z" />
    <glyph glyph-name="SF420000" unicode="&#x2560;" horiz-adv-x="1000" 
d="M401 -250v1000h66v-1000h-66zM599 349h401v-66h-467v467h66v-401zM599 151v-401h-66v467h467v-66h-401z" />
    <glyph glyph-name="SF190000" unicode="&#x2561;" horiz-adv-x="1000" 
d="M467 349v401h66v-1000h-66v401h-467v66h467v66h-467v66h467z" />
    <glyph glyph-name="SF200000" unicode="&#x2562;" horiz-adv-x="1000" 
d="M401 217h-401v66h401v467h66v-1000h-66v467zM533 -250v1000h66v-1000h-66z" />
    <glyph glyph-name="SF230000" unicode="&#x2563;" horiz-adv-x="1000" 
d="M599 -250h-66v1000h66v-1000zM401 349v401h66v-467h-467v66h401zM401 151h-401v66h467v-467h-66v401z" />
    <glyph glyph-name="SF470000" unicode="&#x2564;" horiz-adv-x="1000" 
d="M0 349h1000v-66h-1000v66zM467 151h-467v66h1000v-66h-467v-401h-66v401z" />
    <glyph glyph-name="SF480000" unicode="&#x2565;" horiz-adv-x="1000" 
d="M401 217h-401v66h1000v-66h-401v-467h-66v467h-66v-467h-66v467z" />
    <glyph glyph-name="SF410000" unicode="&#x2566;" horiz-adv-x="1000" 
d="M0 349h1000v-66h-1000v66zM599 151v-401h-66v467h467v-66h-401zM401 151h-401v66h467v-467h-66v401z" />
    <glyph glyph-name="SF450000" unicode="&#x2567;" horiz-adv-x="1000" 
d="M0 151v66h1000v-66h-1000zM467 349v401h66v-401h467v-66h-1000v66h467z" />
    <glyph glyph-name="SF460000" unicode="&#x2568;" horiz-adv-x="1000" 
d="M0 217v66h401v467h66v-467h66v467h66v-467h401v-66h-1000z" />
    <glyph glyph-name="SF400000" unicode="&#x2569;" horiz-adv-x="1000" 
d="M0 151v66h1000v-66h-1000zM599 349h401v-66h-467v467h66v-401zM401 349v401h66v-467h-467v66h401z" />
    <glyph glyph-name="SF540000" unicode="&#x256a;" horiz-adv-x="1000" 
d="M467 217v66h-467v66h467v401h66v-401h467v-66h-467v-66h467v-66h-467v-401h-66v401h-467v66h467z" />
    <glyph glyph-name="SF530000" unicode="&#x256b;" horiz-adv-x="1000" 
d="M401 217h-401v66h401v467h66v-467h66v467h66v-467h401v-66h-401v-467h-66v467h-66v-467h-66v467z" />
    <glyph glyph-name="SF440000" unicode="&#x256c;" horiz-adv-x="1000" 
d="M599 349h401v-66h-467v467h66v-401zM401 349v401h66v-467h-467v66h401zM599 151v-401h-66v467h467v-66h-401zM401 151h-401v66h467v-467h-66v401z" />
    <glyph glyph-name="upblock" unicode="&#x2580;" horiz-adv-x="1000" 
d="M0 250v500h1000v-500h-1000z" />
    <glyph glyph-name="dnblock" unicode="&#x2584;" horiz-adv-x="1000" 
d="M0 -250v500h1000v-500h-1000z" />
    <glyph glyph-name="block" unicode="&#x2588;" horiz-adv-x="1000" 
d="M0 -250v1000h1000v-1000h-1000z" />
    <glyph glyph-name="lfblock" unicode="&#x258c;" horiz-adv-x="1000" 
d="M0 -250v1000h500v-1000h-500z" />
    <glyph glyph-name="rtblock" unicode="&#x2590;" horiz-adv-x="1000" 
d="M500 -250v1000h500v-1000h-500z" />
    <glyph glyph-name="ltshade" unicode="&#x2591;" horiz-adv-x="1000" 
d="M0 750h100v-100h-100v100zM200 750h100v-100h-100v100zM800 750h100v-100h-100v100zM400 750h100v-100h-100v100zM600 750h100v-100h-100v100zM0 550h100v-100h-100v100zM0 350h100v-100h-100v100zM0 150h100v-100h-100v100zM0 -50h100v-100h-100v100zM200 550h100v-100
h-100v100zM200 350h100v-100h-100v100zM200 150h100v-100h-100v100zM200 -50h100v-100h-100v100zM400 550h100v-100h-100v100zM400 350h100v-100h-100v100zM400 150h100v-100h-100v100zM400 -50h100v-100h-100v100zM600 550h100v-100h-100v100zM600 350h100v-100h-100v100z
M600 150h100v-100h-100v100zM600 -50h100v-100h-100v100zM800 550h100v-100h-100v100zM800 350h100v-100h-100v100zM800 150h100v-100h-100v100zM800 -50h100v-100h-100v100z" />
    <glyph glyph-name="shade" unicode="&#x2592;" horiz-adv-x="1000" 
d="M900 -150h100v-100h-100v100h-100v-100h-100v100h-100v-100h-100v100h-100v-100h-100v100h-100v-100h-100v100h-100v100h100v-100h100v100h100v-100h100v100h100v-100h100v100h100v-100h100v100h100v100h-100v-100h-100v100h-100v-100h-100v100h-100v-100h-100v100h-100
v-100h-100v100h-100v100h100v-100h100v100h100v-100h100v100h100v-100h100v100h100v-100h100v100h100v100h-100v-100h-100v100h-100v-100h-100v100h-100v-100h-100v100h-100v-100h-100v100h-100v100h100v-100h100v100h100v-100h100v100h100v-100h100v100h100v-100h100v100
h100v100h-100v-100h-100v100h-100v-100h-100v100h-100v-100h-100v100h-100v-100h-100v100h-100v100h100v-100h100v100h100v-100h100v100h100v-100h100v100h100v-100h100v100h100v100h-100v-100h-100v100h-100v-100h-100v100h-100v-100h-100v100h-100v-100h-100v100h-100v100
h100v-100h100v100h100v-100h100v100h100v-100h100v100h100v-100h100v100h100v-100h100v-100h-100v-100h100v-100h-100v-100h100v-100h-100v-100h100v-100h-100v-100z" />
    <glyph glyph-name="dkshade" unicode="&#x2593;" horiz-adv-x="1000" 
d="M1000 -250h-1000v100h100v100h-100v100h100v100h-100v100h100v100h-100v100h100v100h-100v100h100v100h100v-100h100v100h100v-100h100v100h100v-100h100v100h100v-100h100v100h100v-1000zM900 550h-100v-100h100v100zM700 550h-100v-100h100v100zM500 550h-100v-100h100
v100zM300 550h-100v-100h100v100zM900 350h-100v-100h100v100zM700 350h-100v-100h100v100zM500 350h-100v-100h100v100zM300 350h-100v-100h100v100zM900 150h-100v-100h100v100zM700 150h-100v-100h100v100zM500 150h-100v-100h100v100zM300 150h-100v-100h100v100z
M900 -50h-100v-100h100v100zM700 -50h-100v-100h100v100zM500 -50h-100v-100h100v100zM300 -50h-100v-100h100v100z" />
    <glyph glyph-name="filledbox" unicode="&#x25a0;" horiz-adv-x="667" 
d="M667 0h-667v667h667v-667z" />
    <glyph glyph-name="outlinedbox" unicode="&#x25a1;" horiz-adv-x="667" 
d="M667 0h-667v667h667v-667zM620 47v573h-573v-573h573z" />
    <glyph glyph-name="triagup" unicode="&#x25b2;" 
d="M466 147h-433l217 405z" />
    <glyph glyph-name="triagrt" unicode="&#x25b6;" 
d="M71 119v433l405 -217z" />
    <glyph glyph-name="triagdn" unicode="&#x25bc;" 
d="M33 520h433l-216 -405z" />
    <glyph glyph-name="triaglt" unicode="&#x25c0;" 
d="M428 119l-405 216l405 217v-433z" />
    <glyph glyph-name="diamondrhombsolid" unicode="&#x25c6;" horiz-adv-x="667" 
d="M80 333q54 60 130 167t124 193q49 -87 124 -194t129 -166q-54 -58 -129 -165t-124 -194q-50 88 -125.5 194.5t-128.5 164.5z" />
    <glyph glyph-name="diamondrhomb" unicode="&#x25c7;" horiz-adv-x="667" 
d="M334 693l259 -360l-259 -359l-260 359zM334 604l-197 -271l197 -270l197 270z" />
    <glyph glyph-name="circle" unicode="&#x25cb;" horiz-adv-x="667" 
d="M333 589q109 0 185 -75.5t76 -183.5q0 -103 -77.5 -178t-183.5 -75q-107 0 -183.5 75.5t-76.5 180.5t76.5 180.5t183.5 75.5zM333 543q-88 0 -150.5 -61.5t-62.5 -148.5t62.5 -148.5t150.5 -61.5t151 61t63 146q0 89 -62 151t-152 62z" />
    <glyph glyph-name="invbullet" unicode="&#x25d8;" horiz-adv-x="667" 
d="M0 0v667h667v-667h-667zM335 473q-59 0 -99 -40.5t-40 -99.5q0 -58 40.5 -99t97.5 -41q56 0 96.5 41t40.5 99t-40 99t-96 41z" />
    <glyph glyph-name="invcircle" unicode="&#x25d9;" horiz-adv-x="667" 
d="M333 543q90 0 152 -61.5t62 -151.5q0 -85 -63 -146t-151 -61t-150.5 61.5t-62.5 148.5t62.5 148.5t150.5 61.5zM667 0h-667v667h667v-667zM333 590q-107 0 -183.5 -75.5t-76.5 -180.5q0 -106 76.5 -181.5t183.5 -75.5q106 0 183.5 75t77.5 178q0 109 -76 184.5t-185 75.5
z" />
    <glyph glyph-name="smileface" unicode="&#x263a;" horiz-adv-x="667" 
d="M241 466q17 0 30 -13t13 -31t-13 -31t-31 -13t-31 13t-13 31t13 31t32 13zM429 466q17 0 30 -13t13 -31t-13 -31t-31 -13t-31 13t-13 31t13 31t32 13zM128 372q37 -159 206 -159q170 0 206 159q-8 -110 -50 -161q-57 -70 -156 -70q-109 0 -165 82q-33 47 -41 149z
M337 650q128 0 220.5 -93.5t92.5 -223.5t-92.5 -223t-223.5 -93t-224 92.5t-93 223.5q0 133 93 225t227 92zM337 609q-117 0 -198 -80t-81 -196q0 -113 81 -194t195 -81q113 0 194 81t81 194t-80.5 194.5t-191.5 81.5z" />
    <glyph glyph-name="invsmileface" unicode="&#x263b;" horiz-adv-x="667" 
d="M337 650q128 0 220.5 -93t92.5 -223q0 -131 -92.5 -224t-223.5 -93t-224 92.5t-93 223.5q0 133 93 225t227 92zM241 466q-19 0 -32 -13t-13 -31t13 -31t31 -13t31 13t13 31t-13 31t-30 13zM428 466q-18 0 -31 -13t-13 -31t13 -31t30 -13q18 0 31 13t13 31t-13 31t-30 13z
M128 372q8 -107 51 -161q56 -70 155 -70q109 0 165 82q34 50 41 149q-36 -159 -206 -159q-169 0 -206 159z" />
    <glyph glyph-name="sun" unicode="&#x263c;" horiz-adv-x="667" 
d="M159 472l-75 75l35 35l75 -75q51 40 114 48v105h50v-105q67 -8 113 -48l75 75l35 -35l-74 -75q38 -46 47 -113h105v-51h-105q-9 -64 -47 -113l74 -75l-35 -35l-75 74q-50 -40 -113 -47v-105h-50v105q-58 6 -114 47l-75 -74l-35 35l74 74q-40 49 -46 114h-105v51h105
q7 63 47 113zM336 493q-68 0 -115.5 -46t-47.5 -112q0 -67 46.5 -114t113.5 -47q65 0 112 47t47 113q0 64 -46.5 111.5t-109.5 47.5z" />
    <glyph glyph-name="female" unicode="&#x2640;" horiz-adv-x="667" 
d="M357 0h-48v166h-162v43h162v106q-68 11 -112 61.5t-44 119.5q0 76 53 129.5t127 53.5t127 -53.5t53 -129.5q0 -69 -44 -119.5t-112 -61.5v-106h162v-43h-162v-166zM333 632q-55 0 -94 -39.5t-39 -94.5q0 -58 38.5 -98t94.5 -40q55 0 94 40t39 96t-39 96t-94 40z" />
    <glyph glyph-name="male" unicode="&#x2642;" horiz-adv-x="667" 
d="M385 382l151 151q-53 12 -106 40q-21 11 -21 23t13 12q6 0 20 -3q41 -9 83 -9q54 0 106 14l10 1q10 0 10 -11q0 -12 -8 -49t-8 -60q0 -39 10 -85q3 -14 3 -19q0 -14 -13 -14q-14 0 -34.5 39.5t-31.5 86.5l-151 -151q35 -52 35 -109q0 -76 -53 -129.5t-127 -53.5
t-127 53.5t-53 129.5q0 75 53 128.5t127 53.5q60 0 112 -39zM273 374q-55 0 -94 -39.5t-39 -94.5q0 -57 39 -97t94 -40t94 40t39 96t-39 95.5t-94 39.5z" />
    <glyph glyph-name="spade" unicode="&#x2660;" horiz-adv-x="667" 
d="M561 0h-455v18q82 14 122.5 39.5t71.5 81.5q26 46 27 116q-44 -102 -140 -102q-51 0 -87 37t-36 89q0 46 26.5 85.5t99.5 100.5q122 102 144 221q21 -119 143 -221q72 -60 99 -100t27 -86q0 -52 -36 -89t-87 -37q-96 0 -140 102q1 -78 35 -131q31 -49 70 -70.5t116 -35.5
v-18z" />
    <glyph glyph-name="club" unicode="&#x2663;" horiz-adv-x="667" 
d="M561 0h-455v18q221 31 221 256q-72 -127 -177 -127q-62 0 -104.5 44t-42.5 108q0 62 38.5 104.5t93.5 42.5q29 0 71 -21q4 -2 15 -8q-36 55 -36 100q0 59 44 101t105 42t104.5 -42t43.5 -101q0 -47 -36 -100l15 8q39 21 71 21q55 0 93.5 -43t38.5 -104q0 -64 -42.5 -108
t-104.5 -44q-105 0 -177 127q0 -225 221 -256v-18z" />
    <glyph glyph-name="heart" unicode="&#x2665;" horiz-adv-x="667" 
d="M333 -11q-16 66 -52.5 128t-133.5 193q-54 73 -72.5 112t-18.5 82q0 57 37.5 96t92.5 39q105 0 147 -130q37 131 146 131q56 0 94 -39.5t38 -97.5q0 -61 -48 -139q-19 -31 -89 -120q-117 -148 -141 -255z" />
    <glyph glyph-name="diamond" unicode="&#x2666;" horiz-adv-x="667" 
d="M80 333q54 60 130 167t124 193q49 -87 124 -194t129 -166q-54 -58 -129 -165t-124 -194q-50 88 -125.5 194.5t-128.5 164.5z" />
    <glyph glyph-name="musicalnote" unicode="&#x266a;" horiz-adv-x="667" 
d="M306 667h46v-61q7 -8 15 -18l52 -63q91 -110 91 -224q0 -94 -57 -163h-28q33 79 33 145q0 68 -31 119.5t-75 57.5v-297q0 -68 -29 -108q-46 -64 -121 -64q-32 0 -51.5 16.5t-19.5 44.5q0 46 36.5 80.5t85.5 34.5q28 0 53 -11v511z" />
    <glyph glyph-name="musicalnotedbl" unicode="&#x266b;" horiz-adv-x="667" 
d="M195 587l421 107v-495q0 -68 -29 -108q-46 -64 -121 -64q-32 0 -51.5 16.5t-19.5 44.5q0 46 36.5 80.5t85.5 34.5q25 0 53 -11v270l-329 -90v-229q0 -68 -29 -108q-46 -64 -121 -64q-32 0 -51.5 16.5t-19.5 44.5q0 46 36.5 80.5t85.5 34.5q28 0 53 -11v451zM241 448
l329 90v70l-329 -90v-70z" />
    <glyph glyph-name="nmacron" unicode="&#xe00c;" horiz-adv-x="676" 
d="M215 0h-136l59 279q21 99 21 126q0 33 -26 33q-42 0 -94 -106l-20 6q34 77 70 110t87 33q105 0 105 -124q0 -17 -1 -31q42 77 79 110q50 45 116 45q107 0 107 -104q0 -25 -7 -58l-21 -99q-24 -113 -24 -136q0 -38 26 -38q44 0 90 107l21 -5q-27 -69 -57 -104
q-48 -56 -114 -56q-46 0 -75 28.5t-29 74.5q0 53 52 249q10 38 10 59q0 36 -33 36q-48 0 -99.5 -87t-78.5 -215zM565 625l-9 -43h-318l9 43h318z" />
    <glyph glyph-name="ahungarumlaut" unicode="&#xeb01;" horiz-adv-x="642" 
d="M574 474l-54 -254q-24 -113 -24 -136q0 -38 26 -38q44 0 90 107l20 -5q-27 -67 -58 -104q-47 -56 -115 -56q-90 0 -99 101q-69 -100 -169 -100q-71 0 -109.5 44t-38.5 125q0 75 29.5 145.5t81.5 118.5q64 59 157 59q45 0 70.5 -14.5t43.5 -49.5l11 51zM346 449
q-72 0 -116 -127q-32 -91 -36 -185q-2 -45 13 -72t43 -27q70 0 111 115q47 131 47 216q0 36 -17 58t-45 22zM314 527l-12 12l106 124q31 36 47 36q12 0 22.5 -11.5t10.5 -24.5q0 -20 -33 -42zM473 527l-12 12l106 124q31 36 47 36q12 0 22.5 -11.5t10.5 -24.5q0 -20 -33 -42
z" />
    <glyph glyph-name="Dbreve" unicode="&#xeb06;" horiz-adv-x="772" 
d="M134 667h357q262 0 262 -243q0 -111 -47.5 -209t-127.5 -152q-93 -63 -234 -63h-350l6 27l22 3q45 6 59 24.5t29 86.5l79 373q3 11 7 30q7 32 7 52q0 32 -50 40l-25 4zM241 36h37q76 0 119 15.5t75 54.5q54 65 85 164t31 205q0 110 -84 142q-43 16 -136 15zM641 859h24
q-32 -62 -73 -93q-61 -46 -137 -46q-111 0 -111 95q0 20 6 44h19v-5q0 -70 103 -70q58 0 96.5 17t72.5 58z" />
    <glyph glyph-name="gcommamirror" unicode="&#xeb0c;" horiz-adv-x="586" 
d="M571 475l-84 -401q-25 -118 -65 -173q-80 -109 -241 -109q-157 0 -157 101q0 32 19.5 52.5t48.5 20.5q26 0 43.5 -15.5t17.5 -38.5q0 -21 -25 -50q-6 -7 -6 -15q0 -13 18 -22t43 -9q79 0 117 69q19 34 33 101l20 94q-41 -50 -78 -70.5t-86 -20.5q-67 0 -107 46.5
t-40 123.5q0 75 30.5 146t82.5 118q64 58 155 58q85 0 115 -64l12 52zM345 448q-51 2 -84 -55q-27 -47 -46.5 -119t-22.5 -137q-2 -44 13 -71t43 -27q70 0 112 114q46 126 46 216q0 76 -61 79zM467 727l4 -13q-36 -9 -52 -20q-39 -26 -39 -51q0 -8 20 -11q32 -5 32 -40
q0 -24 -18.5 -40t-45.5 -16q-26 0 -42.5 16t-16.5 41q0 106 158 134z" />
    <glyph glyph-name="ocommaaccent" unicode="&#xeb15;" horiz-adv-x="590" 
d="M347 481q205 0 205 -169q0 -72 -28.5 -141.5t-76.5 -113.5q-73 -68 -209 -68q-102 0 -149 43t-47 136q0 71 34.5 145t86.5 115q67 53 184 53zM346 456q-66 0 -111 -119q-16 -43 -30.5 -117t-14.5 -115q0 -92 62 -92q52 0 90 68q22 40 42 132.5t20 156.5q0 86 -58 86z
M114 -236l-4 13q34 7 52 19q39 25 39 51q0 8 -20 11q-32 4 -32 41q0 23 18.5 39t45.5 16q26 0 42.5 -16t16.5 -41q0 -50 -41.5 -85t-116.5 -48z" />
    <glyph glyph-name="Sbreve" unicode="&#xeb1e;" horiz-adv-x="584" 
d="M585 671l-44 -209h-30q-13 187 -151 187q-52 0 -84 -30.5t-32 -79.5q0 -47 35 -79q27 -25 109 -68q91 -48 120 -83q32 -39 32 -96q0 -98 -79 -162.5t-199 -64.5q-83 0 -189 37l-41 -29h-20l54 252h32q8 -92 31 -138q44 -90 141 -90q58 0 98 37t40 91q0 45 -32 72
q-25 21 -104.5 61.5t-111.5 78.5q-37 45 -37 108q0 95 68 154.5t176 59.5q68 0 171 -31l29 22h18zM570 859h24q-31 -61 -73 -93q-60 -46 -136 -46q-111 0 -111 95q0 19 5 44h19q1 -3 1 -5l1 -14q2 -26 29.5 -41t72.5 -15q105 0 168 75z" />
    <glyph glyph-name="Tcaron_1" unicode="&#xeb22;" horiz-adv-x="845" 
d="M712 667l-41 -216h-32q-12 93 -36 133q-28 48 -96 48h-35l-102 -479q-13 -61 -13 -82q0 -32 49 -40l26 -4l-6 -27h-327l6 27l21 3q45 6 59.5 24.5t28.5 86.5l104 491q-80 2 -120 -29t-113 -152h-32l49 216h610zM737 487l-4 14q34 7 54 20q39 25 39 52q0 8 -31 23
q-17 8 -17 30t18 38.5t43 16.5q59 0 59 -57q0 -65 -70 -106q-35 -21 -91 -31z" />
    <glyph glyph-name="tcaron_1" unicode="&#xeb23;" horiz-adv-x="375" 
d="M393 455l-6 -29h-108l-44 -206q-24 -112 -24 -136q0 -38 26 -38q44 0 91 107l20 -5q-29 -71 -57 -104q-49 -56 -120 -56q-43 0 -68 27t-25 73q0 30 12 87l3 15l50 236h-100l6 29h34q81 0 133 55q33 34 80 129h28l-39 -184h108zM445 817l8 -17l-193 -136l-130 138l13 15
l126 -82z" />
    <glyph glyph-name="ucommaaccent" unicode="&#xeb26;" horiz-adv-x="675" 
d="M469 468l138 7l-54 -255q-24 -113 -24 -135q0 -38 26 -38q44 0 91 106l20 -5q-34 -85 -74.5 -122t-97.5 -37q-95 0 -95 103q0 20 3 47q-46 -82 -89.5 -116t-102.5 -34q-52 0 -80.5 27t-28.5 75q0 36 9 72l29 116q24 96 24 126q0 33 -28 33q-42 0 -95 -106l-19 6
q35 78 71 110.5t89 32.5q51 0 80.5 -29.5t29.5 -81.5q0 -47 -27 -151q-29 -111 -29 -138q0 -37 36 -37q48 0 95.5 81t66.5 171zM180 -236l-4 13q34 8 52 19q39 25 39 51q0 8 -20 11q-32 4 -32 41q0 23 18.5 39t45.5 16q26 0 42.5 -16t16.5 -41q0 -50 -42 -85t-116 -48z" />
    <glyph glyph-name="yhungarumlaut" unicode="&#xeb2b;" horiz-adv-x="620" 
d="M605 475l-82 -396q-29 -139 -90 -204q-78 -83 -217 -83q-75 0 -117.5 27.5t-42.5 75.5q0 32 20 52.5t51 20.5q26 0 42.5 -15t16.5 -38q0 -21 -23 -49q-6 -6 -6 -15q0 -14 18 -24t44 -10q72 0 111 65q28 46 55 181q4 19 14 68q-33 -59 -74 -94q-56 -48 -115 -48
q-50 0 -78.5 26.5t-28.5 73.5q0 27 6 54l30 136q21 95 21 126q0 34 -26 34q-43 0 -94 -107l-20 6q34 79 70.5 111.5t91.5 32.5q108 0 108 -118q0 -56 -44 -223q-10 -38 -10 -60q0 -36 30 -36q57 0 105 89q45 83 68 188l32 146zM315 527l-13 12l106 124q31 36 47 36
q12 0 22.5 -11.5t10.5 -24.5q0 -21 -32 -42zM474 527l-13 12l106 124q31 36 47 36q12 0 22.5 -11.5t10.5 -24.5q0 -20 -33 -42z" />
    <glyph glyph-name="dcaron_1" unicode="&#xeb30;" horiz-adv-x="637" 
d="M618 705l-103 -485q-23 -108 -23 -136q0 -37 26 -37q45 0 90 106l20 -5q-29 -71 -57 -104q-47 -55 -112 -55q-53 0 -81 37q-16 21 -19 63q-66 -100 -170 -100q-71 0 -109.5 43t-38.5 122q0 77 31.5 150.5t84.5 120.5q64 56 151 56q84 0 116 -63l25 116q14 65 14 88
q0 19 -17 25q-9 5 -69 7l5 22zM344 448q-53 0 -83 -54q-27 -47 -46.5 -120.5t-22.5 -137.5q-2 -44 13 -71t43 -27q32 0 62 29.5t48 78.5t33 118t15 105q0 35 -17 57t-45 22zM733 885l8 -18l-193 -135l-131 138l14 15l126 -82z" />
    <glyph glyph-name="Lcaron_1" unicode="&#xeb31;" horiz-adv-x="606" 
d="M592 246l-52 -246h-545l6 27l20 3q46 7 60.5 25t28.5 86l79 373q13 61 13 82q0 32 -49 40l-25 4l6 27h326l-6 -27l-21 -4q-46 -9 -60 -26t-28 -84l-104 -490h68q90 0 145 55q41 41 104 155h34zM475 487l-4 14q34 7 54 20q39 25 39 52q0 8 -31 23q-17 8 -17 30t18 38.5
t43 16.5q59 0 59 -57q0 -65 -70 -106q-35 -21 -91 -31z" />
    <glyph glyph-name="Commaaccent" unicode="&#xeb86;" 
d="M244 511l-4 13q35 9 53 20q40 24 40 52q0 9 -31 24q-17 8 -17 30t18 38.5t43 16.5q59 0 59 -58q0 -64 -70 -106q-31 -19 -91 -30z" />
    <glyph glyph-name="commaaccent" unicode="&#xeb87;" 
d="M246 490l-4 13q34 7 52 19q39 25 39 51q0 9 -20 12q-32 5 -32 40q0 23 18.5 39t45.5 16q26 0 42.5 -16t16.5 -41q0 -64 -69 -104q-34 -20 -89 -29z" />
    <glyph glyph-name="commamirror" unicode="&#xeb9d;" 
d="M381 727l4 -13q-37 -9 -53 -20q-39 -25 -39 -51q0 -8 20 -11q32 -5 32 -40q0 -24 -18.5 -40t-44.5 -16t-42.5 16t-16.5 41q0 63 69 104q32 19 89 30z" />
    <glyph glyph-name="Slashstroke" unicode="&#xeb9e;" 
d="M-3 264l410 240l-10 -47l-410 -239z" />
    <glyph glyph-name="slashstroke" unicode="&#xeb9f;" 
d="M452 525l-9 -42l-351 -206l9 40z" />
    <glyph glyph-name="Dieresisnarrow" unicode="&#xebce;" 
d="M281 857q29 0 47.5 -17t18.5 -44q0 -34 -22.5 -56.5t-56.5 -22.5q-28 0 -46.5 18.5t-18.5 47.5q0 31 23 52.5t55 21.5zM473 857q29 0 47.5 -17t18.5 -44q0 -34 -22.5 -56.5t-56.5 -22.5q-28 0 -46.5 18.5t-18.5 47.5q0 31 23 52.5t55 21.5z" />
    <glyph glyph-name="dieresisnarrow" unicode="&#xebcf;" 
d="M251 680q28 0 46 -16.5t18 -42.5q0 -33 -22 -55t-55 -22q-29 0 -46.5 18t-17.5 47t22.5 50t54.5 21zM429 680q28 0 46 -16.5t18 -42.5q0 -33 -22.5 -55t-54.5 -22q-29 0 -46.5 18t-17.5 47t22.5 50t54.5 21z" />
    <glyph glyph-name="Pts" unicode="&#xec00;" horiz-adv-x="1115" 
d="M263 285l-28 -132q-14 -66 -14 -79q0 -36 50 -43l27 -4l-6 -27h-311l6 27l18 3q46 8 59.5 25t28.5 86l79 373q14 66 14 78q0 21 -10.5 30t-39.5 14l-22 4l6 27h303q176 0 176 -140q0 -72 -43.5 -129.5t-113.5 -85.5q-60 -24 -179 -27zM337 634l-68 -321q57 4 93 31
q42 32 66.5 83.5t24.5 107.5q0 53 -22 76t-74 23h-20zM530 252h-81l6 28h15q63 0 107 35.5t90 123.5h27l-34 -159h92l-6 -28h-92l-10 -46q-20 -92 -20 -122q0 -38 26 -38q36 0 73 97l20 -5q-32 -87 -75 -120q-36 -28 -75 -28q-42 0 -66 26.5t-24 73.5q0 33 14 100zM944 302
q119 0 119 -63q0 -19 -14 -31.5t-35 -12.5q-17 0 -28.5 8.5t-11.5 20.5q0 5 3 15t3 15q0 25 -40 25q-46 0 -46 -38q0 -24 26 -39q5 -3 47 -20q82 -33 82 -86q0 -48 -45 -77.5t-117 -29.5q-55 0 -88.5 20.5t-33.5 52.5q0 20 14 33t35 13q17 0 29 -9t12 -22q0 -8 -4.5 -21
t-4.5 -16q0 -11 14 -19.5t33 -8.5q57 0 57 48q0 23 -22 37q-6 4 -42 20q-49 22 -66 40.5t-17 50.5q0 44 37.5 69t103.5 25z" />
    <glyph glyph-name="peseta2" unicode="&#xec01;" horiz-adv-x="607" 
d="M160 458h-76l7 31h76l5 25q2 8 7 30q7 33 7 48q0 21 -10.5 30t-39.5 14l-22 4l6 27h303q83 0 123 -29q53 -38 53 -110q0 -13 -3 -39h70l-7 -31h-71q-65 -185 -328 -185l-25 -120q-14 -67 -14 -79q0 -36 50 -43l27 -4l-6 -27h-311l6 27l18 3q46 8 59.5 25t28.5 86z
M300 458l-34 -157q33 2 54 11.5t61 39.5q37 28 60 106h-141zM306 489h142q5 26 5 48q0 52 -22.5 74.5t-73.5 22.5h-20z" />
    <glyph glyph-name="onenarrow" unicode="&#xec02;" horiz-adv-x="445" 
d="M415 674l-112 -527q-9 -42 -9 -56q0 -25 21 -42q16 -13 83 -22l-6 -27h-386l6 27q85 9 109.5 33t43.5 114l62 292q6 28 6 37q0 28 -60 28h-82l6 27q157 12 247 116h71z" />
    <glyph glyph-name="oneone" unicode="&#xec03;" horiz-adv-x="901" 
d="M342 671l-66 -314q-6 -29 -6 -32q0 -17 13 -25t52 -12l-4 -21h-244l5 21q53 5 67.5 18.5t25.5 66.5l37 172q3 14 3 21q0 15 -35 15h-53l4 21q98 7 154 69h47zM725 667l-457 -667h-44l457 667h44zM818 405l-67 -315q-5 -24 -5 -32q0 -17 13 -25t52 -12l-5 -21h-244l5 21
q53 5 68 18.5t26 66.5l36 173q3 14 3 21q0 15 -35 15h-53l5 21q99 6 153 69h48z" />
    <glyph glyph-name="space10mm" unicode="&#xec05;" horiz-adv-x="67" 
 />
    <glyph glyph-name="space5mm" unicode="&#xec06;" horiz-adv-x="33" 
 />
    <glyph glyph-name="space2mm" unicode="&#xec07;" horiz-adv-x="13" 
 />
    <glyph glyph-name="space1mm" unicode="&#xec08;" horiz-adv-x="7" 
 />
    <glyph glyph-name="spacehalfmm" unicode="&#xec09;" horiz-adv-x="3" 
 />
    <glyph glyph-name="eightperemspace" unicode="&#xec04;" horiz-adv-x="125" 
 />
    <glyph glyph-name="ft" unicode="&#xec0a;" horiz-adv-x="680" 
d="M56 426l6 29h101q37 122 81 172q68 78 160 78q50 0 81.5 -25t31.5 -65q0 -30 -18 -49.5t-45 -19.5q-24 0 -40.5 14.5t-16.5 35.5t22 44q10 10 10 18q0 7 -8.5 14.5t-16.5 7.5q-60 0 -94 -159l-14 -66h95q89 0 137 52q35 38 76 132h25l-39 -184h108l-6 -29h-108l-44 -206
q-23 -108 -23 -136q0 -38 26 -38q43 0 90 107l20 -5q-39 -98 -89 -132q-40 -27 -85 -27q-39 0 -67 30t-28 72q0 33 14 99l50 236h-157l-46 -238q-40 -207 -96 -292q-69 -104 -191 -104q-55 0 -89 24t-34 63q0 30 19 50t48 20q24 0 39.5 -14.5t15.5 -37.5q0 -16 -16 -41
q-4 -10 -4 -16q0 -23 29 -23q51 0 79 66q15 35 34 135l79 408h-102z" />
    <glyph glyph-name="fff" unicode="&#xec0b;" horiz-adv-x="984" 
d="M56 426l6 29h101q34 119 85 172q74 78 203 78q66 0 137 -40q63 40 152 40q71 0 134 -37q57 37 115 37q57 0 90.5 -24.5t33.5 -65.5q0 -31 -18.5 -51t-47.5 -20q-25 0 -41.5 14.5t-16.5 36.5q0 21 20 45q7 8 7 15q0 9 -9 17t-19 8q-62 0 -97 -158l-15 -67h126l-7 -29h-124
l-45 -238q-41 -216 -106 -298q-51 -64 -131 -84q-52 -13 -100 -13q-60 0 -119 38q-67 -39 -149 -39q-78 0 -137 36q-54 -36 -127 -36q-55 0 -88.5 24t-33.5 63q0 30 19 50t48 20q24 0 39.5 -14.5t15.5 -37.5q0 -16 -16 -41q-4 -10 -4 -16q0 -23 29 -23q52 0 79 66
q15 36 34 135l79 408h-102zM738 426h-157l-46 -238q-50 -260 -131 -331q56 -41 103 -41q80 0 118 79q17 35 35 129zM296 455h157q37 130 99 185q-50 40 -100 40q-109 0 -142 -158zM586 455h158q35 126 95 187q-50 38 -97 38q-109 0 -142 -158zM291 426l-46 -238
q-49 -252 -127 -333q53 -38 99 -38q80 0 118 79q17 35 35 128l78 402h-157z" />
    <glyph glyph-name="fft" unicode="&#xec0c;" horiz-adv-x="971" 
d="M56 426l6 29h101q35 120 85 172q75 78 202 78q67 0 134 -37q51 37 110 37q50 0 81.5 -25t31.5 -65q0 -29 -18 -49t-45 -20q-24 0 -40.5 14.5t-16.5 35.5t22 44q10 10 10 18q0 7 -8.5 14.5t-16.5 7.5q-60 0 -94 -159l-14 -66h95q90 0 138 52q33 36 75 132h25l-39 -184h108
l-6 -29h-108l-44 -206q-23 -108 -23 -136q0 -38 26 -38q43 0 90 107l21 -5q-40 -98 -89 -132q-39 -27 -86 -27q-38 0 -66.5 30t-28.5 71q0 34 14 100l50 236h-157l-46 -238q-42 -218 -105 -298q-50 -64 -132 -84q-53 -13 -99 -13q-58 0 -115 35q-54 -36 -127 -36
q-55 0 -88.5 24t-33.5 63q0 30 19 50t48 20q24 0 39.5 -14.5t15.5 -37.5q0 -16 -16 -41q-4 -10 -4 -16q0 -23 29 -23q51 0 79 66q15 35 34 135l79 408h-102zM296 455h157q38 131 96 187q-48 38 -97 38q-108 0 -142 -159zM291 426l-46 -238q-49 -252 -127 -333q54 -39 99 -39
q80 0 118 79q17 35 35 129l78 402h-157z" />
    <glyph glyph-name="currency_2" unicode="&#xec13;" horiz-adv-x="532" 
d="M31 429l46 47l102 -103q48 28 91 28q42 0 90 -27l101 100l44 -45l-100 -100q27 -45 27 -92q0 -48 -27 -89l102 -106l-46 -44l-101 104q-41 -27 -88 -27q-46 0 -94 29l-102 -105l-45 46l104 103q-28 47 -28 92t28 88zM270 343q-43 0 -74 -30.5t-31 -72.5q0 -45 31 -76.5
t75 -31.5q43 0 73.5 31t30.5 75t-30.5 74.5t-74.5 30.5z" />
    <glyph glyph-name="Dotaccent" unicode="&#xefed;" 
d="M378 859q29 0 48 -17.5t19 -44.5q0 -35 -23.5 -58.5t-58.5 -23.5q-29 0 -48 19t-19 49q0 31 24 53.5t58 22.5z" />
    <glyph glyph-name="Breve" unicode="&#xefee;" 
d="M519 859h23q-31 -61 -73 -93q-60 -46 -136 -46q-111 0 -111 95q0 20 6 44h19q0 -26 8 -39q22 -36 95 -36q105 0 169 75z" />
    <glyph glyph-name="Ogonek" unicode="&#xeff1;" 
d="M372 0h39l-6 -7l-20 -22q-35 -38 -35 -68q0 -23 20.5 -36.5t54.5 -13.5q7 0 29 1l-5 -20q-40 -11 -78 -11q-43 0 -69.5 18.5t-26.5 49.5q0 29 21 53t76 56z" />
    <glyph glyph-name="Cedilla" unicode="&#xeff2;" 
d="M200 0h18q-8 -21 -8 -30q0 -13 40 -26q52 -17 52 -52q0 -37 -42 -60t-111 -23q-22 0 -53 5l4 20q22 -2 26 -2q39 0 67.5 16.5t28.5 39.5q0 17 -34 41q-10 7 -10 14q0 4 3 8.5t19 48.5z" />
    <glyph glyph-name="Ring" unicode="&#xeff3;" 
d="M376 875q111 0 111 -75q0 -44 -34.5 -72t-89.5 -28q-108 0 -108 83q0 42 33 67t88 25zM379 851q-26 0 -43 -21.5t-17 -52.5q0 -53 41 -53q25 0 42.5 22.5t17.5 55.5q0 49 -41 49z" />
    <glyph glyph-name="Tilde" unicode="&#xeff5;" 
d="M528 841l20 -4q-42 -108 -101 -108q-29 0 -81 28q-62 33 -86 33q-39 0 -67 -58l-19 4q39 110 114 110q30 0 88 -31q47 -25 72 -25q33 0 60 51z" />
    <glyph glyph-name="Circumflex" unicode="&#xeff7;" 
d="M398 863l128 -140l-14 -15l-128 79l-188 -79l-8 18z" />
    </font>
</defs>
</svg>
