<?xml version="1.0" standalone="no"?>
<!DOCTYPE svg PUBLIC "-//W3C//DTD SVG 1.1//EN" "http://www.w3.org/Graphics/SVG/1.1/DTD/svg11.dtd" >
<svg xmlns="http://www.w3.org/2000/svg">
<metadata>
This is a custom SVG webfont generated by Font Squirrel.
Copyright   : Copyright c 2007 by George Triantafyllakos All rights reserved
Designer    : George Triantafyllakos
Foundry     : George Triantafyllakos
Foundry URL : httpwwwbackpackergr
</metadata>
<defs>
<font id="webfontXV5SCfU7" horiz-adv-x="1124" >
<font-face units-per-em="2048" ascent="1638" descent="-410" />
<missing-glyph horiz-adv-x="512" />
<glyph unicode=" "  horiz-adv-x="512" />
<glyph unicode="&#x09;" horiz-adv-x="512" />
<glyph unicode="&#xa0;" horiz-adv-x="512" />
<glyph unicode="!" horiz-adv-x="641" d="M225 102q0 43 30 73t73 30t72.5 -30t29.5 -73t-29.5 -72.5t-72.5 -29.5t-73 29.5t-30 72.5zM262 410v819h123v-819h-123z" />
<glyph unicode="&#x22;" horiz-adv-x="612" d="M102 717v614h123v-614h-123zM369 717v614h123v-614h-123z" />
<glyph unicode="#" horiz-adv-x="1368" d="M266 225v113h199l27 246h-226v112h238l26 226h123l-26 -226h225l27 226h122l-26 -226h213v-112h-225l-27 -246h252v-113h-264l-25 -225h-123l25 225h-226l-24 -225h-123l25 225h-187zM588 338h225l27 246h-226z" />
<glyph unicode="$" horiz-adv-x="978" d="M55 297l115 41q29 -84 97.5 -139.5t154.5 -71.5v481q-135 47 -210 111.5t-75 183.5q0 123 81 207t204 100v121h123v-119q219 -29 286 -223l-118 -24q-43 100 -168 122v-389l105 -35q38 -13 94.5 -43t86 -61t52 -81t22.5 -111q0 -160 -103.5 -251t-256.5 -108v-131h-123 v129q-123 14 -222.5 90t-144.5 201zM260 903q0 -106 162 -166v350q-74 -16 -118 -63t-44 -121zM545 127q102 14 171.5 73.5t69.5 153.5q0 82 -62 129t-179 86v-442z" />
<glyph unicode="%" horiz-adv-x="1146" d="M117 0l784 1229h123l-778 -1229h-129zM164 1024q0 84 60.5 144.5t144.5 60.5t144 -60.5t60 -144.5t-60 -144.5t-144 -60.5t-144.5 60.5t-60.5 144.5zM276 1024q0 -39 27 -65.5t66 -26.5q37 0 64.5 26.5t27.5 65.5q0 37 -27.5 64.5t-64.5 27.5q-39 0 -66 -27.5t-27 -64.5z M553 205q0 84 60.5 144.5t144.5 60.5t144.5 -60.5t60.5 -144.5t-60.5 -144.5t-144.5 -60.5t-144.5 60.5t-60.5 144.5zM666 205q0 -39 26.5 -65.5t65.5 -26.5q37 0 64.5 26.5t27.5 65.5q0 37 -27.5 64.5t-64.5 27.5q-39 0 -65.5 -27.5t-26.5 -64.5z" />
<glyph unicode="&#x26;" horiz-adv-x="1394" d="M100 410q0 168 120 288.5t290 120.5q55 0 94 39t39 94h123q0 -106 -75 -181t-181 -75q-119 0 -203 -84t-84 -202.5t84 -202.5t203 -84t203 84t84 203h-246v122h371q86 0 155.5 35t96.5 68l26 35l78 -90q-4 -6 -14.5 -18.5t-44 -41t-71.5 -51.5t-100.5 -41t-127.5 -18 q0 -168 -120 -289t-290 -121t-290 121t-120 289z" />
<glyph unicode="'" horiz-adv-x="612" d="M307 717v614h123v-614h-123z" />
<glyph unicode="(" horiz-adv-x="827" d="M143 625q0 180 46.5 335.5t111 247.5t130 160t110.5 94l47 27l53 -111l-40 -23q-26 -15 -90.5 -79t-113.5 -141.5t-90 -215t-41 -294.5q0 -121 20.5 -228.5t53.5 -183.5t74 -139.5t81 -103.5t72.5 -68.5t53.5 -40.5l20 -11l-53 -110q-18 8 -48 27.5t-107 93t-135 165 t-106.5 252.5t-48.5 347z" />
<glyph unicode=")" horiz-adv-x="827" d="M143 -150l40 24q26 15 90.5 79.5t113.5 144.5t90 221.5t41 305.5q0 158 -39 294t-93 217t-109.5 139t-94.5 81l-39 22l54 111q18 -8 47.5 -27.5t106.5 -92.5t135.5 -162t106.5 -245.5t48 -336.5q0 -135 -24.5 -257t-63.5 -209t-87 -161t-95 -120t-86 -78.5t-64 -45.5 l-24 -14z" />
<glyph unicode="*" horiz-adv-x="1026" d="M145 838l185 106q12 -55 51 -88l-184 -106zM145 1108l52 88l184 -106q-39 -33 -51 -89zM430 614v213q23 -8 51.5 -8t50.5 8v-213h-102zM430 1116v215h102v-215q-27 10 -51 10t-51 -10zM582 856q41 37 49 88l186 -106l-51 -88zM582 1090l184 106l51 -88l-186 -107 q-8 52 -49 89z" />
<glyph unicode="+" horiz-adv-x="1058" d="M205 348v113h246v256h122v-256h246v-113h-246v-246h-122v246h-246z" />
<glyph unicode="," horiz-adv-x="612" d="M307 -307v614h123v-614h-123z" />
<glyph unicode="-" horiz-adv-x="1058" d="M205 348v113h614v-113h-614z" />
<glyph unicode="." horiz-adv-x="612" d="M307 102q0 43 30 73t73 30t72.5 -30t29.5 -73t-29.5 -72.5t-72.5 -29.5t-73 29.5t-30 72.5z" />
<glyph unicode="/" horiz-adv-x="1146" d="M102 0l779 1229h143l-778 -1229h-144z" />
<glyph unicode="0" horiz-adv-x="1400" d="M61 614q0 254 180.5 434.5t434.5 180.5t434 -180.5t180 -434.5t-180 -434t-434 -180t-434.5 180t-180.5 434zM184 614q0 -174 109 -309l670 709q-129 92 -287 92q-205 0 -348.5 -143.5t-143.5 -348.5zM379 221q131 -98 297 -98q205 0 348 143.5t143 347.5q0 180 -114 316 z" />
<glyph unicode="1" horiz-adv-x="626" d="M164 1116v113h246v-1110h114v-119h-348v119h111v997h-123z" />
<glyph unicode="2" horiz-adv-x="933" d="M82 0q6 8 127 157.5t197.5 254t154.5 250t78 233.5q0 113 -59.5 172t-145.5 59q-152 0 -207 -170l-98 66q41 109 124 166t187 57q133 0 227.5 -90t94.5 -260q0 -72 -40 -170t-102 -197l-119 -179q-56 -81 -110.5 -150.5t-58.5 -75.5h508v-123h-758z" />
<glyph unicode="3" horiz-adv-x="929" d="M68 141l86 86q86 -104 231 -104q141 0 219 84t78 196q0 111 -75 192t-212 81h-82v110h82q86 0 135.5 58.5t49.5 132.5q0 70 -46.5 118t-132.5 48q-104 0 -190 -101l-66 80q117 129 267 129q127 0 202.5 -74.5t75.5 -181.5q0 -147 -121 -239q117 -49 174.5 -143.5 t57.5 -204.5q0 -162 -114 -284t-294 -122q-200 0 -325 139z" />
<glyph unicode="4" horiz-adv-x="948" d="M20 205l738 1044v-921h123v-123h-123v-205h-123v205h-615zM248 328h387v569z" />
<glyph unicode="5" horiz-adv-x="948" d="M84 223l111 56q37 -70 104.5 -113t151.5 -43q119 0 202.5 84t83.5 202.5t-84 202.5t-202 84q-121 0 -183 -49l-104 78l102 504h471v-115h-366l-72 -317q57 23 152 22q168 0 288.5 -120.5t120.5 -288.5t-121 -289t-288 -121q-119 0 -217.5 61.5t-149.5 161.5z" />
<glyph unicode="6" horiz-adv-x="968" d="M102 358q0 82 35 156l324 737l114 -51l-219 -500q53 16 105 17q150 0 254 -104.5t104 -254t-104.5 -254t-254 -104.5t-254 104t-104.5 254zM227 358.5q0 -96.5 69 -165t165 -68.5t164.5 68.5t68.5 165t-68.5 165t-164.5 68.5t-165 -68.5t-69 -165z" />
<glyph unicode="7" horiz-adv-x="892" d="M123 1102v127h676l-531 -1229h-135l469 1102h-479z" />
<glyph unicode="8" horiz-adv-x="929" d="M0 358q0 199 168 304q-135 98 -135 264q0 133 95 227t228 94t227.5 -94t94.5 -227q0 -164 -131 -262q78 -47 124 -128t46 -178q0 -150 -104.5 -254t-254 -104t-254 104t-104.5 254zM121 358.5q0 -98.5 69.5 -168t168 -69.5t167 69.5t68.5 168t-68.5 167t-167 68.5 t-168 -68.5t-69.5 -167zM156 926q0 -82 59 -141.5t141 -59.5t140.5 58.5t58.5 142.5q0 82 -58.5 140t-140.5 58q-84 0 -142 -58t-58 -140z" />
<glyph unicode="9" horiz-adv-x="921" d="M61 872.5q0 149.5 104.5 254t254 104.5t254 -104.5t104.5 -254.5q0 -82 -35 -155l-323 -737l-115 51l219 499q-53 -16 -104 -16q-150 0 -254.5 104.5t-104.5 254zM186 872.5q0 -96.5 69 -165t165 -68.5t164.5 68.5t68.5 165t-68.5 165t-164.5 68.5t-165 -68.5t-69 -165z " />
<glyph unicode=":" horiz-adv-x="612" d="M307 102q0 43 30 73t73 30t72.5 -30t29.5 -73t-29.5 -72.5t-72.5 -29.5t-73 29.5t-30 72.5zM307 614q0 43 30 73t73 30t72.5 -30t29.5 -73t-29.5 -72.5t-72.5 -29.5t-73 29.5t-30 72.5z" />
<glyph unicode=";" horiz-adv-x="612" d="M307 614q0 43 30 73t73 30t72.5 -30t29.5 -73t-29.5 -72.5t-72.5 -29.5t-73 29.5t-30 72.5zM348 -307v614h123v-614h-123z" />
<glyph unicode="&#x3c;" horiz-adv-x="1044" d="M225 389v27l615 403v-143l-416 -266l416 -265v-145z" />
<glyph unicode="=" horiz-adv-x="1058" d="M205 205v112h614v-112h-614zM205 512v123h614v-123h-614z" />
<glyph unicode="&#x3e;" horiz-adv-x="1044" d="M225 0v145l416 265l-416 266v143l615 -403v-27z" />
<glyph unicode="?" horiz-adv-x="778" d="M92 1044q0 158 97.5 247t228.5 89q127 0 218 -88t91 -248q0 -166 -88 -301t-262 -292l-76 75q76 78 112 118t91 112.5t79.5 142.5t24.5 145q0 100 -61.5 158t-143.5 58q-78 0 -136 -57.5t-60 -158.5h-115zM225 102q0 43 30 73t73 30t72.5 -30t29.5 -73t-29.5 -72.5 t-72.5 -29.5t-73 29.5t-30 72.5z" />
<glyph unicode="@" horiz-adv-x="1943" d="M121 422q0 319 235.5 565t573.5 246q174 0 316.5 -53.5t228.5 -134t145 -184t81.5 -195t22.5 -172.5q0 -494 -272 -494h-268v115q-119 -115 -285 -115q-170 0 -290 121t-120 289t120 288.5t290 120.5q166 0 287 -117v117h123v-696h143q152 0 152 371q0 61 -16.5 132.5 t-63.5 159.5t-118 158t-196 118t-280 48q-289 0 -481.5 -206t-192.5 -480q0 -121 40 -238.5t118 -219t210 -164t300 -62.5v-123q-201 0 -359.5 72.5t-253 191.5t-142.5 257.5t-48 283.5zM612 409.5q0 -118.5 84 -202.5t203 -84t203 84t84 202.5t-84 202.5t-203 84t-203 -84 t-84 -202.5z" />
<glyph unicode="A" horiz-adv-x="1388" d="M0 0l369 1106h-123q-123 0 -123 -82q0 -45 41 -66l-78 -100q-86 53 -86 166q0 102 67.5 153.5t178.5 51.5h389l350 -1106h164q86 0 155.5 35t96.5 67l26 35l78 -90q-4 -6 -14 -18.5t-44 -41t-72 -51t-99.5 -41t-126.5 -18.5h-268l-95 293h-544l-99 -293h-143zM281 410 h469l-228 718z" />
<glyph unicode="B" horiz-adv-x="1394" d="M0 1024q0 102 67.5 153.5t178.5 51.5h266q184 0 297 -74t113 -233q0 -72 -46.5 -133.5t-107.5 -83.5q117 -8 207 -110.5t90 -225.5q0 -145 -96 -246h180q86 0 155.5 35t96.5 67l26 35l78 -90q-4 -6 -14 -18.5t-44 -41t-72 -51t-99.5 -41t-126.5 -18.5h-903v819 q-111 0 -178.5 50.5t-67.5 154.5zM123 1024q0 -82 123 -82v164q-123 0 -123 -82zM369 123h286q123 0 205 65.5t82 180t-82 180t-205 65.5h-286v-491zM369 737h225q205 0 205 184.5t-287 184.5h-143v-369z" />
<glyph unicode="C" horiz-adv-x="1404" d="M0 614q0 254 180 434.5t434 180.5q258 0 439 -185l-84 -86q-143 147 -355 148q-205 0 -348 -143.5t-143 -348t143.5 -348t347.5 -143.5h553q86 0 156 35t96 67l27 35l78 -90q-4 -6 -14.5 -18.5t-44 -41t-71.5 -51t-99.5 -41t-127.5 -18.5h-553q-254 0 -434 180t-180 434z " />
<glyph unicode="D" horiz-adv-x="1464" d="M0 -143h61q184 0 185 143v819q-111 0 -178.5 50.5t-67.5 154.5q0 102 67.5 153.5t178.5 51.5h379q250 -4 427 -183.5t177 -431.5q0 -150 -65.5 -278.5t-180.5 -212.5h246q86 0 155.5 35t96.5 67l26 35l78 -90q-4 -6 -14 -18.5t-44 -41t-72 -51t-99.5 -41t-126.5 -18.5 h-860q0 -147 -80 -206.5t-228 -59.5h-61v123zM123 1024q0 -82 123 -82v164q-123 0 -123 -82zM369 123h256q201 4 341 146.5t140 344.5q0 205 -143.5 348.5t-348.5 143.5h-245v-983z" />
<glyph unicode="E" horiz-adv-x="1368" d="M0 1024q0 102 67.5 153.5t178.5 51.5h819v-113h-696v-399h594v-113h-594v-481h757q86 0 156 35t96 67l27 35l78 -90q-4 -6 -14.5 -18.5t-44 -41t-71.5 -51t-99.5 -41t-127.5 -18.5h-880v819q-111 0 -178.5 50.5t-67.5 154.5zM123 1024q0 -82 123 -82v164q-123 0 -123 -82 z" />
<glyph unicode="F" horiz-adv-x="1165" d="M0 -143h61q184 0 185 143v819q-111 0 -178.5 50.5t-67.5 154.5q0 102 67.5 153.5t178.5 51.5h819v-113h-696v-399h594v-113h-594v-604q0 -147 -80 -206.5t-228 -59.5h-61v123zM123 1024q0 -82 123 -82v164q-123 0 -123 -82z" />
<glyph unicode="G" horiz-adv-x="1515" d="M0 614q0 254 180 434.5t434 180.5q258 0 439 -185l-84 -86q-143 147 -355 148q-205 0 -348 -143.5t-143 -348t143.5 -348t347.5 -143.5q170 0 302.5 103.5t173.5 265.5h-394v122h533q0 -150 -65.5 -278.5t-180.5 -212.5h287q86 0 155.5 35t96.5 67l26 35l78 -90 q-4 -6 -14 -18.5t-44 -41t-72 -51t-99.5 -41t-126.5 -18.5h-656q-254 0 -434 180t-180 434z" />
<glyph unicode="H" horiz-adv-x="1388" d="M0 -143h61q184 0 185 143v819q-111 0 -178.5 50.5t-67.5 154.5q0 102 67.5 153.5t178.5 51.5h123v-512h534v512h123v-1106h123q86 0 155.5 35t96.5 67l26 35l78 -90q-4 -6 -14 -18.5t-44 -41t-72 -51t-99.5 -41t-126.5 -18.5h-246v604h-534v-604q0 -147 -80 -206.5 t-228 -59.5h-61v123zM123 1024q0 -82 123 -82v164q-123 0 -123 -82z" />
<glyph unicode="I" horiz-adv-x="892" d="M0 1024q0 102 67.5 153.5t178.5 51.5h123v-819q0 -119 84 -203t202 -84q86 0 156 35t96 67l27 35l78 -90q-4 -6 -14.5 -18.5t-44 -41t-71.5 -51t-99.5 -41t-127.5 -18.5q-168 0 -288.5 121t-120.5 289v409q-111 0 -178.5 50.5t-67.5 154.5zM123 1024q0 -82 123 -82v164 q-123 0 -123 -82z" />
<glyph unicode="J" horiz-adv-x="1148" d="M0 348h123q0 -92 75.5 -158.5t159.5 -66.5t160 66.5t76 158.5v471q-111 0 -178.5 50.5t-67.5 154.5q0 102 67.5 153.5t178.5 51.5h123v-881q0 -131 -82 -225h266q86 0 155.5 35t96.5 67l27 35l77 -90q-4 -6 -14 -18.5t-44 -41t-71.5 -51t-99 -41t-127.5 -18.5h-545 q-141 0 -248.5 101.5t-107.5 246.5zM471 1024q0 -82 123 -82v164q-123 0 -123 -82z" />
<glyph unicode="K" horiz-adv-x="1320" d="M0 -143h61q184 0 185 143v819q-111 0 -178.5 50.5t-67.5 154.5q0 102 67.5 153.5t178.5 51.5h123v-533h106l336 512h143l-383 -573l418 -512h96q86 0 156 35t96 67l27 35l78 -90q-4 -6 -14.5 -18.5t-44 -41t-71.5 -51t-99.5 -41t-127.5 -18.5h-143l-471 573h-102v-573 q0 -147 -80 -206.5t-228 -59.5h-61v123zM123 1024q0 -82 123 -82v164q-123 0 -123 -82z" />
<glyph unicode="L" horiz-adv-x="950" d="M0 1024q0 102 67.5 153.5t178.5 51.5h123v-1106h340q86 0 154.5 35t94.5 67l27 35l78 -90q-4 -6 -14.5 -18.5t-44 -41t-71.5 -51t-99.5 -41t-126.5 -18.5h-461v819q-111 0 -178.5 50.5t-67.5 154.5zM123 1024q0 -82 123 -82v164q-123 0 -123 -82z" />
<glyph unicode="M" horiz-adv-x="1597" d="M0 -143h61q184 0 185 143v819q-111 0 -178.5 50.5t-67.5 154.5q0 102 67.5 153.5t178.5 51.5h215l291 -1090l262 1090h217v-1106h123q86 0 155.5 35t96.5 67l26 35l78 -90q-4 -6 -14 -18.5t-44 -41t-72 -51t-99.5 -41t-126.5 -18.5h-246v1083l-272 -1083h-164l-303 1083 v-1083q0 -147 -80 -206.5t-228 -59.5h-61v123zM123 1024q0 -82 123 -82v164q-123 0 -123 -82z" />
<glyph unicode="N" horiz-adv-x="1388" d="M0 -143h61q184 0 185 143v819q-111 0 -178.5 50.5t-67.5 154.5q0 102 67.5 153.5t178.5 51.5h184l473 -1055v1055h123v-1106h123q86 0 155.5 35t96.5 67l26 35l78 -90q-4 -6 -14 -18.5t-44 -41t-72 -51t-99.5 -41t-126.5 -18.5h-307l-473 1083v-1083q0 -147 -80 -206.5 t-228 -59.5h-61v123zM123 1024q0 -82 123 -82v164q-123 0 -123 -82z" />
<glyph unicode="O" horiz-adv-x="1380" d="M0 614q0 254 180 434.5t434 180.5t434.5 -180.5t180.5 -434.5q0 -150 -65.5 -278.5t-180.5 -212.5h164q86 0 155.5 35t96.5 67l26 35l78 -90q-4 -6 -14 -18.5t-44 -41t-72 -51t-99.5 -41t-126.5 -18.5h-533q-254 0 -434 180t-180 434zM123 614.5q0 -204.5 143.5 -348 t348 -143.5t348 143.5t143.5 348t-143.5 348t-348 143.5t-348 -143.5t-143.5 -348z" />
<glyph unicode="P" horiz-adv-x="1241" d="M0 1024q0 102 67.5 153.5t178.5 51.5h409q168 0 289 -121t121 -289t-121 -288.5t-289 -120.5h-286v-287h637q86 0 155.5 35t95.5 67l27 35l78 -90q-4 -6 -14.5 -18.5t-44 -41t-71.5 -51t-99.5 -41t-126.5 -18.5h-760v819q-111 0 -178.5 50.5t-67.5 154.5zM123 1024 q0 -82 123 -82v164q-123 0 -123 -82zM369 532h286q119 0 203 84t84 203t-84 203t-203 84h-286v-574z" />
<glyph unicode="Q" horiz-adv-x="1404" d="M0 614q0 254 180 434.5t434 180.5t434.5 -180.5t180.5 -434.5q0 -150 -65.5 -278.5t-180.5 -212.5h184q86 0 156 35t96 67l27 35l78 -90q-4 -6 -14.5 -18.5t-44 -41t-71.5 -51t-99.5 -41t-127.5 -18.5h-487l2 -70q2 -86 36 -155.5t68 -96.5l33 -26l-90 -78 q-6 4 -18.5 14.5t-41 44t-51 71.5t-41 99.5t-18.5 126.5v72q-238 20 -398.5 195t-160.5 417zM123 614q0 -188 125 -327.5t311 -161.5v285h117l4 -283q182 23 304 162t122 325q0 205 -143.5 348.5t-348 143.5t-348 -143.5t-143.5 -348.5z" />
<glyph unicode="R" horiz-adv-x="1331" d="M0 1024q0 102 67.5 153.5t178.5 51.5h409q172 0 291 -110.5t119 -278.5q0 -139 -85 -242.5t-220 -134.5l223 -340h102q86 0 156 35t96 67l27 35l78 -90q-4 -6 -14.5 -18.5t-44 -41t-71.5 -51t-99.5 -41t-127.5 -18.5h-163l-295 451h-258v-451h-123v819 q-111 0 -178.5 50.5t-67.5 154.5zM123 1024q0 -82 123 -82v164q-123 0 -123 -82zM369 573h286q121 0 204 75t83 191.5t-83 191.5t-204 75h-286v-533z" />
<glyph unicode="S" horiz-adv-x="1245" d="M14 297l115 41q33 -98 120 -156.5t191 -58.5h11q121 4 207.5 64.5t86.5 166.5q0 80 -66.5 132.5t-162.5 81t-191.5 61.5t-162 101.5t-66.5 172.5q0 139 100.5 226.5t245.5 87.5q113 0 210.5 -52.5t138.5 -175.5l-119 -24q-55 129 -230 129q-96 0 -159.5 -51.5 t-63.5 -139.5q0 -72 66.5 -117t161 -71.5t189.5 -60t161.5 -105.5t66.5 -182q0 -152 -96 -244h238q86 0 155.5 35t95.5 67l27 35l78 -90q-4 -6 -14.5 -18.5t-44 -41t-71.5 -51t-99.5 -41t-126.5 -18.5h-566l-10 4q-135 0 -251 78t-165 215z" />
<glyph unicode="T" horiz-adv-x="1196" d="M0 1024q0 102 67.5 153.5t178.5 51.5h819v-113h-430v-993h309q86 0 155.5 35t96.5 67l27 35l77 -90q-4 -6 -14 -18.5t-44 -41t-71.5 -51t-99 -41t-127.5 -18.5h-309q0 -147 -80 -206.5t-227 -59.5h-62v123h62q184 0 184 143v1116h-266q-53 0 -88 -23.5t-35 -64.5 q0 -43 35 -64.5t88 -21.5v-123q-111 0 -178.5 50.5t-67.5 154.5z" />
<glyph unicode="U" horiz-adv-x="1263" d="M0 614v615h123v-615q0 -217 97 -354t292 -137t292 137t97 354v615h123v-615q0 -340 -205 -491h205q86 0 155.5 35t96.5 67l27 35l77 -90q-4 -6 -14 -18.5t-44 -41t-72 -51t-99 -41t-127 -18.5h-512q-246 0 -379 173t-133 441z" />
<glyph unicode="V" horiz-adv-x="1247" d="M0 1229h143l379 -1129l359 1129h143l-350 -1106h330q86 0 155.5 35t95.5 67l27 35l78 -90q-4 -6 -14.5 -18.5t-44 -41t-71.5 -51t-99.5 -41t-126.5 -18.5h-594z" />
<glyph unicode="W" horiz-adv-x="1650" d="M2 1229h143l379 -1129l129 404l-241 725h143l168 -502l160 502h143l-229 -723l137 -395l358 1118h144l-351 -1106h330q86 0 155.5 35t96.5 67l27 35l78 -90q-4 -6 -14.5 -18.5t-44.5 -41t-71.5 -51t-99 -41t-127.5 -18.5h-594l-94 283l-90 -283h-225z" />
<glyph unicode="X" horiz-adv-x="1320" d="M0 0l422 666l-422 563h158l336 -449l284 449h144l-351 -553l418 -553h96q86 0 156 35t96 67l27 35l78 -90q-4 -6 -14.5 -18.5t-44 -41t-71.5 -51t-99.5 -41t-127.5 -18.5h-163l-422 561l-357 -561h-143z" />
<glyph unicode="Y" horiz-adv-x="1142" d="M0 1229h139l330 -688l313 688h140l-390 -819v-287h371q86 0 155.5 35t96.5 67l27 35l78 -90q-4 -6 -14.5 -18.5t-44.5 -41t-71.5 -51t-99 -41t-127.5 -18.5h-371q0 -147 -79.5 -206.5t-227.5 -59.5h-61v123h61q184 0 185 143v410z" />
<glyph unicode="Z" horiz-adv-x="1320" d="M0 0l713 1116h-611v113h820l-701 -1106h864q86 0 156 35t96 67l27 35l78 -90q-4 -6 -14.5 -18.5t-44 -41t-71.5 -51t-99.5 -41t-127.5 -18.5h-1085z" />
<glyph unicode="[" horiz-adv-x="778" d="M205 -123v1557h340v-113h-217v-1331h217v-113h-340z" />
<glyph unicode="\" horiz-adv-x="1146" d="M102 1229h144l778 -1229h-143z" />
<glyph unicode="]" horiz-adv-x="778" d="M205 -10h217v1331h-217v113h340v-1557h-340v113z" />
<glyph unicode="^" horiz-adv-x="1257" d="M266 819l355 492h28l375 -492h-143l-246 324l-225 -324h-144z" />
<glyph unicode="_" horiz-adv-x="1388" d="M205 0v123h1024v-123h-1024z" />
<glyph unicode="a" horiz-adv-x="1228" d="M0 410q0 168 121 288.5t289 120.5q166 0 286 -117v117h123v-696h166q86 0 154.5 35t95.5 67l27 35l77 -90q-4 -6 -14 -18.5t-43 -41t-70.5 -51t-99 -41t-127.5 -18.5h-289v117q-12 -27 -111.5 -72t-174.5 -45q-168 0 -289 121t-121 289zM123 409.5q0 -118.5 84 -202.5 t202.5 -84t202.5 84t84 202.5t-84 202.5t-202.5 84t-202.5 -84t-84 -202.5z" />
<glyph unicode="b" d="M0 410v921h123v-631q119 119 287 119t288.5 -120.5t120.5 -288.5t-112 -287h174q86 0 155.5 35t96.5 67l26 35l78 -90q-4 -6 -14.5 -18.5t-44 -41t-71.5 -51t-99.5 -41t-126.5 -18.5h-471q-178 0 -294 115t-116 295zM123 410q0 -117 82 -201t205 -86q121 0 203.5 84 t82.5 203q0 117 -84 201.5t-202 84.5q-115 0 -199 -80.5t-88 -195.5v-10z" />
<glyph unicode="c" horiz-adv-x="884" d="M0 410q0 168 121 288.5t289 120.5q115 0 215 -61l-70 -103q-72 41 -145 41q-119 0 -203 -84t-84 -202.5t84 -202.5t203 -84h225q86 0 155.5 35t96.5 67l26 35l78 -90q-4 -6 -14 -18.5t-44 -41t-72 -51t-99.5 -41t-126.5 -18.5h-225q-168 0 -289 121t-121 289z" />
<glyph unicode="d" horiz-adv-x="1173" d="M0 410q0 168 121 288.5t289 120.5q166 0 286 -117v629h123v-1208h125q86 0 154.5 35t95.5 67l27 35l77 -90q-4 -6 -14 -18.5t-43 -41t-70.5 -51t-99 -41t-127.5 -18.5h-248v117q-12 -27 -111.5 -72t-174.5 -45q-168 0 -289 121t-121 289zM123 409.5q0 -118.5 84 -202.5 t202.5 -84t202.5 84t84 202.5t-84 202.5t-202.5 84t-202.5 -84t-84 -202.5z" />
<glyph unicode="e" horiz-adv-x="1122" d="M2 410q0 168 120 288.5t290 120.5q168 0 287.5 -122t119.5 -328h-694q16 -104 97 -175t188 -71h471q86 0 155.5 35t96.5 67l26 35l78 -90q-4 -6 -14.5 -18.5t-44 -41t-71.5 -51t-99.5 -41t-126.5 -18.5h-471q-168 0 -288 120t-120 290zM133 479h551q-8 94 -90 153.5 t-186 59.5q-94 0 -171 -53.5t-104 -159.5z" />
<glyph unicode="f" horiz-adv-x="712" d="M-102 707v112h102v266q0 90 72.5 168t183.5 78t183.5 -77.5t72.5 -168.5h-123q0 45 -36 84t-97 39t-97 -39t-36 -84v-266h389v-112h-389v-584h348q86 0 155.5 35t96.5 67l27 35l77 -90q-4 -6 -14 -18.5t-44 -41t-72 -51t-99 -41t-127 -18.5h-471v707h-102z" />
<glyph unicode="g" d="M0 -287q0 109 52 201t143 147q-90 55 -142.5 147.5t-52.5 201.5q0 168 121 288.5t289 120.5t288.5 -120.5t120.5 -288.5t-119 -287h181q86 0 155.5 35t96.5 67l26 35l78 -90q-4 -6 -14.5 -18.5t-44 -41t-71.5 -51t-99.5 -41t-126.5 -18.5h-179q117 -121 117 -287 q0 -168 -120.5 -288.5t-288.5 -120.5t-289 120.5t-121 288.5zM123 -287q0 -119 84 -202.5t202.5 -83.5t202.5 83.5t84 202.5q0 117 -83 202t-203 85q-119 0 -203 -84t-84 -203zM123 409.5q0 -118.5 85 -202.5t206 -84q117 2 199.5 85t82.5 201.5t-84 202.5t-202.5 84 t-202.5 -84t-84 -202.5z" />
<glyph unicode="h" d="M0 0v1331h123v-692q39 82 128 131t179 49q168 0 278.5 -118.5t110.5 -290.5v-287h123q41 0 95.5 35t88.5 67l33 35l78 -90q-16 -18 -44 -47t-105.5 -76t-145.5 -47h-246v410q0 119 -84 202.5t-202.5 83.5t-202.5 -84t-84 -202v-410h-123z" />
<glyph unicode="i" horiz-adv-x="647" d="M-51 1126q0 43 29.5 73t72.5 30t73 -30t30 -73t-30 -72.5t-73 -29.5t-72.5 29.5t-29.5 72.5zM0 410v409h123v-409q0 -119 84 -203t203 -84q86 0 155.5 35t96.5 67l26 35l78 -90q-4 -6 -14.5 -18.5t-44 -41t-71.5 -51t-99.5 -41t-126.5 -18.5q-168 0 -289 121t-121 289z " />
<glyph unicode="j" horiz-adv-x="546" d="M-387 -266h123q0 -225 133 -225.5t133 225.5v973h-102v112h225v-696h184q86 0 156 35t96 67l27 35l78 -90q-4 -6 -14.5 -18.5t-44.5 -41t-71.5 -51t-99 -41t-127.5 -18.5h-184v-266q0 -166 -57.5 -257t-198.5 -91t-198.5 91t-57.5 257zM-49 1126q0 43 29.5 73t72.5 30 t73 -30t30 -73t-30 -72.5t-73 -29.5t-72.5 29.5t-29.5 72.5z" />
<glyph unicode="k" horiz-adv-x="966" d="M0 0v1331h123v-839h106l275 327h143l-321 -389l295 -307h96q86 0 155.5 35t96.5 67l26 35l78 -90q-4 -6 -14 -18.5t-44 -41t-72 -51t-99.5 -41t-126.5 -18.5h-164l-348 369h-82v-369h-123z" />
<glyph unicode="l" horiz-adv-x="657" d="M0 410v921h123v-921q0 -119 84 -203t203 -84q86 0 155.5 35t96.5 67l26 35l78 -90q-4 -6 -14.5 -18.5t-44 -41t-71.5 -51t-99.5 -41t-126.5 -18.5q-168 0 -289 121t-121 289z" />
<glyph unicode="m" horiz-adv-x="1822" d="M2 0v819h123v-180q39 82 128 131t179 49q205 0 328 -194q55 90 147 142t201 52q180 0 295 -118.5t115 -290.5v-287h122q41 0 95.5 35t87.5 67l35 35l77 -90l-43.5 -47t-105.5 -76t-146 -47h-245v410q0 119 -84 202.5t-203 83.5q-117 0 -202 -80.5t-85 -195.5v-420h-123 v420q0 115 -85 195.5t-201 80.5q-119 0 -203 -84t-84 -202v-410h-123z" />
<glyph unicode="n" d="M0 0v819h123v-180q39 82 128 131t179 49q168 0 278.5 -118.5t110.5 -290.5v-287h123q41 0 95.5 35t88.5 67l33 35l78 -90q-16 -18 -44 -47t-105.5 -76t-145.5 -47h-246v410q0 119 -84 202.5t-202.5 83.5t-202.5 -84t-84 -202v-410h-123z" />
<glyph unicode="o" horiz-adv-x="1046" d="M0 410q0 168 121 288.5t289 120.5t288.5 -120.5t120.5 -288.5t-119 -287h99q86 0 155.5 35t96.5 67l26 35l78 -90q-4 -6 -14.5 -18.5t-44 -41t-71.5 -51t-99.5 -41t-126.5 -18.5h-389q-168 0 -289 121t-121 289zM123 409.5q0 -118.5 84 -202.5t202.5 -84t202.5 84 t84 202.5t-84 202.5t-202.5 84t-202.5 -84t-84 -202.5z" />
<glyph unicode="p" d="M0 -614v1433h123v-119q119 119 287 119t288.5 -120.5t120.5 -288.5t-112 -287h174q86 0 155.5 35t96.5 67l26 35l78 -90q-4 -6 -14.5 -18.5t-44 -41t-71.5 -51t-99.5 -41t-126.5 -18.5h-471q-174 0 -287 109v-723h-123zM123 410q0 -119 84 -203t203 -84q121 0 203.5 85 t82.5 202q0 119 -84 202.5t-202 83.5q-115 0 -199 -80.5t-88 -195.5v-10z" />
<glyph unicode="q" d="M0 410q0 168 121 288.5t289 120.5q166 0 286 -117v117h123v-696h62q86 0 155.5 35t96.5 67l26 35l78 -90q-4 -6 -14.5 -18.5t-44 -41t-71.5 -51t-99.5 -41t-126.5 -18.5h-62v-614h-123v731q-121 -117 -286 -117q-168 0 -289 121t-121 289zM123 409.5q0 -118.5 84 -202.5 t202.5 -84t202.5 84t84 203v10q-4 115 -88 195.5t-198 80.5q-119 0 -203 -84t-84 -202.5z" />
<glyph unicode="r" horiz-adv-x="1062" d="M33 260l22.5 31.5t23.5 37t14 46.5t7 76v368h430v-409q0 -119 84 -203t203 -84q86 0 155.5 35t96.5 67l27 35l78 -90q-4 -6 -14.5 -18.5t-44.5 -41t-71.5 -51t-99 -41t-127.5 -18.5q-170 0 -289.5 121t-119.5 289v297h-185v-254q0 -162 -112 -283z" />
<glyph unicode="s" d="M29 254l475 565q141 -53 228 -163.5t87 -245.5q0 -168 -119 -287h181q86 0 155.5 35t96.5 67l26 35l78 -90q-4 -6 -14.5 -18.5t-44 -41t-71.5 -51t-99.5 -41t-126.5 -18.5h-471q-115 0 -226.5 60.5t-154.5 193.5zM174 244q25 -49 95.5 -85t144.5 -36q119 4 200.5 88 t81.5 199q0 82 -44 150.5t-113 105.5z" />
<glyph unicode="t" horiz-adv-x="647" d="M-102 707v112h102v287l123 20v-307h287l-21 -112h-266v-297q0 -119 84 -203t203 -84q86 0 155.5 35t96.5 67l26 35l78 -90q-4 -6 -14.5 -18.5t-44 -41t-71.5 -51t-99.5 -41t-126.5 -18.5q-168 0 -289 121t-121 289v297h-102z" />
<glyph unicode="u" horiz-adv-x="1097" d="M0 410v409h123v-409q0 -119 84 -203t202.5 -84t202.5 84t84 203v409h123v-409q0 -168 -119 -287h156q86 0 155.5 35t96.5 67l27 35l77 -90q-4 -6 -14 -18.5t-44 -41t-72 -51t-99 -41t-127 -18.5h-446q-168 0 -289 121t-121 289z" />
<glyph unicode="v" horiz-adv-x="1024" d="M0 819h123l254 -612l299 612h131l-332 -696h299q86 0 155.5 35t96.5 67l27 35l77 -90q-4 -6 -14 -18.5t-44 -41t-71.5 -51t-99 -41t-127.5 -18.5h-457l-108 281l-103 -119l-79 86l133 158z" />
<glyph unicode="w" horiz-adv-x="1349" d="M0 819h123l254 -612l92 190l-162 422h123l113 -272l133 272h131l-203 -424l80 -188l299 612h131l-332 -696h324q86 0 155.5 35t96.5 67l26 35l78 -90q-4 -6 -14 -18.5t-44 -41t-72 -51t-99.5 -41t-126.5 -18.5h-481l-95 240l-114 -240h-99l-108 281l-103 -119l-79 86 l133 158z" />
<glyph unicode="x" horiz-adv-x="860" d="M-186 819h163l246 -307l246 307h164l-328 -409l230 -287h77q86 0 156 35t96 67l27 35l78 -90q-4 -6 -14.5 -18.5t-44 -41t-71.5 -51t-99.5 -41t-127.5 -18.5h-143l-246 307l-133 -164l-84 82l141 172z" />
<glyph unicode="y" d="M0 -287q0 109 52 201t143 147q-90 55 -142.5 147.5t-52.5 201.5v409h123v-409q0 -119 84 -203t202.5 -84t202.5 84t84 203v409h123v-409q0 -168 -119 -287h181q86 0 155.5 35t96.5 67l26 35l78 -90q-4 -6 -14.5 -18.5t-44 -41t-71.5 -51t-99.5 -41t-126.5 -18.5h-179 q117 -121 117 -287q0 -168 -120.5 -288.5t-288.5 -120.5t-289 120.5t-121 288.5zM123 -287q0 -119 84 -202.5t202.5 -83.5t202.5 83.5t84 202.5q0 115 -80.5 199t-195.5 88h-10q-119 0 -203 -84t-84 -203z" />
<glyph unicode="z" horiz-adv-x="731" d="M-96 702v117h671l-393 -547l203 -149h113q86 0 155.5 35t96.5 67l26 35l78 -90q-4 -6 -14.5 -18.5t-44 -41t-71.5 -51t-99.5 -41t-126.5 -18.5h-168l-318 238l336 464h-444z" />
<glyph unicode="{" horiz-adv-x="737" d="M211 506v119q6 0 17.5 2t39 10t49 18.5t39 31t17.5 46.5q0 51 -58 129q-100 137 -100 271q0 137 80 213.5t166 76.5v-123q-43 0 -83 -45t-40 -122q0 -92 76 -197q82 -117 82 -203q0 -37 -22.5 -79t-47.5 -64l-23 -25q92 -63 93 -168q0 -86 -82 -202q-76 -104 -76 -197 q0 -74 44 -118t89 -44v-123q-86 0 -171 78t-85 207q0 133 100 270q57 82 58 129q0 41 -41 68t-82 35z" />
<glyph unicode="|" horiz-adv-x="645" d="M266 -102v1536h123v-1536h-123z" />
<glyph unicode="}" horiz-adv-x="737" d="M211 397q0 104 92 168q-92 84 -92 168q0 86 82 203q76 104 76 197q0 78 -40 122.5t-83 44.5v123q86 0 166 -76.5t80 -213.5q0 -133 -101 -271q-57 -78 -57 -129q0 -41 40 -67.5t81 -34.5l41 -6v-119q-6 0 -17.5 -2t-39 -10.5t-49 -18.5t-39 -30.5t-17.5 -47.5 q0 -47 57 -129q100 -137 101 -270q0 -129 -85 -207t-171 -78v123q45 0 89 44t44 118q0 92 -76 197q-82 116 -82 202z" />
<glyph unicode="~" horiz-adv-x="1433" d="M225 328q0 10 2 28.5t16.5 64.5t39 81t80 63.5t129.5 28.5q55 0 112.5 -21.5t88 -41t89.5 -62.5q133 -100 222 -100q63 0 99 35.5t40 70.5l4 37h123q0 -10 -2 -28.5t-16.5 -64.5t-39 -81t-80 -63.5t-128.5 -28.5q-84 0 -150 32.5t-152 100.5q-129 92 -210 92 q-63 0 -99.5 -36t-40.5 -70l-4 -37h-123z" />
<glyph unicode="&#xa3;" horiz-adv-x="1329" d="M123 0l102 123h164v584h-102v112h102v287q0 92 65.5 158.5t190.5 66.5t190.5 -66.5t65.5 -158.5h-123q0 41 -34.5 71.5t-98 30.5t-98.5 -30.5t-35 -71.5v-287h225v-112h-225l-6 -584h315q86 0 156 35t96 67l27 35l78 -90q-4 -6 -14.5 -18.5t-44.5 -41t-71.5 -51t-99 -41 t-127.5 -18.5h-698z" />
<glyph unicode="&#xa4;" horiz-adv-x="1705" d="M371 47l192 193q-51 76 -51 170t51 170l-192 192l86 86l192 -192q80 51 170 51t170 -51l193 192l86 -86l-193 -192q51 -80 51 -170.5t-51 -169.5l193 -193l-86 -86l-193 193q-76 -51 -170 -51.5t-170 51.5l-192 -193zM635 410q0 -76 53 -130.5t131 -54.5q76 0 130.5 53.5 t54.5 131.5q0 74 -54.5 129t-130.5 55t-130 -53t-54 -131z" />
<glyph unicode="&#xa5;" d="M0 1229h139l330 -688l313 688h140l-293 -615h190v-122h-248l-39 -82h287v-113h-287v-297h-122v297h-308v113h308l-41 82h-267v122h205z" />
<glyph unicode="&#xa6;" horiz-adv-x="645" d="M266 -102v614h123v-614h-123zM266 819v615h123v-615h-123z" />
<glyph unicode="&#xa7;" horiz-adv-x="987" d="M61 920h123q0 -96 61.5 -175t148.5 -135l174 -107q87 -52 148.5 -118t61.5 -141q0 -115 -86 -179.5t-202.5 -64.5t-200.5 63.5t-84 180.5h123q0 -125 172 -125q63 0 106 31.5t43 93.5q0 45 -46 86t-108.5 72.5t-154.5 94t-160 136.5q-119 146 -119 287zM188 1085 q0 115 84 179.5t201 64.5t201 -63.5t84 -180.5h-123q0 125 -172 125q-66 0 -111 -31.5t-45 -93.5q0 -33 61.5 -76.5t148.5 -99t174 -123t148.5 -167t61.5 -209.5h-123v12q0 96 -60.5 176t-147.5 136l-174 108q-87 51 -147.5 112t-60.5 131z" />
<glyph unicode="&#xa8;" horiz-adv-x="819" d="M41 1147q0 43 29.5 72.5t72.5 29.5t73 -29.5t30 -72.5t-30 -73t-73 -30t-72.5 30t-29.5 73zM553 1147q0 43 29.5 72.5t72.5 29.5t73 -29.5t30 -72.5t-30 -73t-73 -30t-72.5 30t-29.5 73z" />
<glyph unicode="&#xa9;" horiz-adv-x="1026" d="M0 819q0 168 121 289t289 121t288.5 -121t120.5 -289t-120.5 -288.5t-288.5 -120.5t-289 120.5t-121 288.5zM123 819q0 -119 84 -203t202.5 -84t202.5 84t84 203t-84 203t-202.5 84t-202.5 -84t-84 -203zM209 819q0 82 59.5 141.5t141.5 59.5t141 -59l-72 -72 q-25 29 -69 29q-41 0 -70 -29t-29 -70t29 -69.5t70 -28.5q39 0 69 27l72 -72q-61 -57 -141 -58q-82 0 -141.5 59.5t-59.5 141.5z" />
<glyph unicode="&#xaa;" horiz-adv-x="1228" d="M0 410q0 168 121 288.5t289 120.5q166 0 286 -117v117h123v-696h166q86 0 154.5 35t95.5 67l27 35l77 -90q-4 -6 -14 -18.5t-43 -41t-70.5 -51t-99 -41t-127.5 -18.5h-289v117q-12 -27 -111.5 -72t-174.5 -45q-168 0 -289 121t-121 289zM123 409.5q0 -118.5 84 -202.5 t202.5 -84t202.5 84t84 202.5t-84 202.5t-202.5 84t-202.5 -84t-84 -202.5z" />
<glyph unicode="&#xab;" horiz-adv-x="1468" d="M225 389v27l615 403v-143l-416 -266l416 -265v-145zM676 389v27l614 403v-143l-416 -266l416 -265v-145z" />
<glyph unicode="&#xac;" horiz-adv-x="1114" d="M205 430v113h717v-318h-123v205h-594z" />
<glyph unicode="&#xad;" horiz-adv-x="1058" d="M205 348v113h614v-113h-614z" />
<glyph unicode="&#xae;" horiz-adv-x="1026" d="M0 819q0 168 121 289t289 121t288.5 -121t120.5 -289t-120.5 -288.5t-288.5 -120.5t-289 120.5t-121 288.5zM123 819q0 -119 84 -203t202.5 -84t202.5 84t84 203t-84 203t-202.5 84t-202.5 -84t-84 -203zM262 625v409h103q84 0 136 -44t52 -103q0 -72 -74 -119l115 -143 h-127l-61 106l-41 -4v-102h-103zM365 807q41 0 64.5 19.5t23.5 47.5q0 27 -23.5 47.5t-64.5 20.5v-135z" />
<glyph unicode="&#xb0;" horiz-adv-x="512" d="M0 1126q0 84 60.5 144.5t144.5 60.5t144.5 -60.5t60.5 -144.5t-60.5 -144t-144.5 -60t-144.5 60t-60.5 144zM113 1126q0 -39 26.5 -65.5t65.5 -26.5q37 0 64.5 26.5t27.5 65.5q0 37 -27.5 65t-64.5 28q-39 0 -65.5 -28t-26.5 -65z" />
<glyph unicode="&#xb1;" horiz-adv-x="1058" d="M205 82v113h614v-113h-614zM205 502v112h246v205h122v-205h246v-112h-246v-195h-122v195h-246z" />
<glyph unicode="&#xb2;" horiz-adv-x="933" d="M41 1167q0 43 29.5 73t72.5 30t73 -30t30 -73t-30 -72.5t-73 -29.5t-72.5 29.5t-29.5 72.5zM348 1167q0 43 30 73t73 30t72.5 -30t29.5 -73t-29.5 -72.5t-72.5 -29.5t-73 29.5t-30 72.5z" />
<glyph unicode="&#xb3;" horiz-adv-x="929" d="M41 1167q0 43 29.5 73t72.5 30t73 -30t30 -73t-30 -72.5t-73 -29.5t-72.5 29.5t-29.5 72.5zM348 1167q0 43 30 73t73 30t72.5 -30t29.5 -73t-29.5 -72.5t-72.5 -29.5t-73 29.5t-30 72.5zM655 1167q0 43 30 73t73 30t72.5 -30t29.5 -73t-29.5 -72.5t-72.5 -29.5t-73 29.5 t-30 72.5z" />
<glyph unicode="&#xb5;" d="M0 -614v1433h123v-409q0 -119 84 -203t202.5 -84t202.5 84t84 203v409h123v-409q0 -168 -119 -287h181q86 0 155.5 35t96.5 67l26 35l78 -90q-4 -6 -14.5 -18.5t-44 -41t-71.5 -51t-99.5 -41t-126.5 -18.5h-471q-168 0 -287 119v-733h-123z" />
<glyph unicode="&#xb6;" horiz-adv-x="933" d="M0 1024q0 102 67.5 153.5t178.5 51.5h123v-1229h-123v819q-111 0 -178.5 50.5t-67.5 154.5zM492 0v1229h122v-1229h-122z" />
<glyph unicode="&#xb7;" horiz-adv-x="612" d="M307 410q0 43 30 72.5t73 29.5t72.5 -29.5t29.5 -72.5t-29.5 -73t-72.5 -30t-73 30t-30 73z" />
<glyph unicode="&#xb9;" horiz-adv-x="716" d="M0 1229q0 43 29.5 72.5t72.5 29.5t73 -29.5t30 -72.5t-30 -73t-73 -30t-72.5 30t-29.5 73z" />
<glyph unicode="&#xba;" horiz-adv-x="1046" d="M0 410q0 168 121 288.5t289 120.5t288.5 -120.5t120.5 -288.5t-119 -287h99q86 0 155.5 35t96.5 67l26 35l78 -90q-4 -6 -14.5 -18.5t-44 -41t-71.5 -51t-99.5 -41t-126.5 -18.5h-389q-168 0 -289 121t-121 289zM123 409.5q0 -118.5 84 -202.5t202.5 -84t202.5 84 t84 202.5t-84 202.5t-202.5 84t-202.5 -84t-84 -202.5z" />
<glyph unicode="&#xbb;" horiz-adv-x="1468" d="M225 0v145l416 265l-416 266v143l615 -403v-27zM676 0v145l416 265l-416 266v143l614 -403v-27z" />
<glyph unicode="&#xbd;" horiz-adv-x="1228" d="M205 410q0 168 120.5 288.5t288.5 120.5t289 -120.5t121 -288.5t-121 -289t-289 -121t-288.5 121t-120.5 289zM328 410h573q0 119 -84 202.5t-202.5 83.5t-202.5 -83.5t-84 -202.5z" />
<glyph unicode="&#xc2;" horiz-adv-x="1388" d="M61 1351l355 492h28l375 -492h-143l-246 324l-225 -324h-144zM0 0l369 1106h-123q-123 0 -123 -82q0 -45 41 -66l-78 -100q-86 53 -86 166q0 102 67.5 153.5t178.5 51.5h389l350 -1106h164q86 0 155.5 35t96.5 67l26 35l78 -90q-4 -6 -14 -18.5t-44 -41t-72 -51 t-99.5 -41t-126.5 -18.5h-268l-95 293h-544l-99 -293h-143zM281 410h469l-228 718z" />
<glyph unicode="&#xc3;" horiz-adv-x="1388" d="M-82 1434q0 10 2 28.5t16.5 64.5t39 81t80 63.5t129.5 28.5q55 0 112.5 -21.5t88 -41t89.5 -62.5q133 -100 222 -100q63 0 99 35.5t40 70.5l4 37h123q0 -10 -2 -28.5t-16.5 -64.5t-39 -81t-80 -63.5t-128.5 -28.5q-84 0 -150 32.5t-152 100.5q-129 92 -210 92 q-63 0 -99.5 -36t-40.5 -70l-4 -37h-123zM0 0l369 1106h-123q-123 0 -123 -82q0 -45 41 -66l-78 -100q-86 53 -86 166q0 102 67.5 153.5t178.5 51.5h389l350 -1106h164q86 0 155.5 35t96.5 67l26 35l78 -90q-4 -6 -14 -18.5t-44 -41t-72 -51t-99.5 -41t-126.5 -18.5h-268 l-95 293h-544l-99 -293h-143zM281 410h469l-228 718z" />
<glyph unicode="&#xc4;" horiz-adv-x="1388" d="M82 1454q0 43 29.5 72.5t72.5 29.5t73 -29.5t30 -72.5t-30 -73t-73 -30t-72.5 30t-29.5 73zM594 1454q0 43 29.5 72.5t72.5 29.5t73 -29.5t30 -72.5t-30 -73t-73 -30t-72.5 30t-29.5 73zM0 0l369 1106h-123q-123 0 -123 -82q0 -45 41 -66l-78 -100q-86 53 -86 166 q0 102 67.5 153.5t178.5 51.5h389l350 -1106h164q86 0 155.5 35t96.5 67l26 35l78 -90q-4 -6 -14 -18.5t-44 -41t-72 -51t-99.5 -41t-126.5 -18.5h-268l-95 293h-544l-99 -293h-143zM281 410h469l-228 718z" />
<glyph unicode="&#xc5;" horiz-adv-x="1388" d="M236 1419q0 84 60.5 144.5t144.5 60.5t144.5 -60.5t60.5 -144.5t-60.5 -144t-144.5 -60t-144.5 60t-60.5 144zM349 1419q0 -39 26.5 -65.5t65.5 -26.5q37 0 64.5 26.5t27.5 65.5q0 37 -27.5 65t-64.5 28q-39 0 -65.5 -28t-26.5 -65zM0 0l369 1106h-123q-123 0 -123 -82 q0 -45 41 -66l-78 -100q-86 53 -86 166q0 102 67.5 153.5t178.5 51.5h389l350 -1106h164q86 0 155.5 35t96.5 67l26 35l78 -90q-4 -6 -14 -18.5t-44 -41t-72 -51t-99.5 -41t-126.5 -18.5h-268l-95 293h-544l-99 -293h-143zM281 410h469l-228 718z" />
<glyph unicode="&#xca;" horiz-adv-x="1368" d="M276 1351l355 492h28l375 -492h-143l-246 324l-225 -324h-144zM0 1024q0 102 67.5 153.5t178.5 51.5h819v-113h-696v-399h594v-113h-594v-481h757q86 0 156 35t96 67l27 35l78 -90q-4 -6 -14.5 -18.5t-44 -41t-71.5 -51t-99.5 -41t-127.5 -18.5h-880v819 q-111 0 -178.5 50.5t-67.5 154.5zM123 1024q0 -82 123 -82v164q-123 0 -123 -82z" />
<glyph unicode="&#xcb;" horiz-adv-x="1368" d="M297 1454q0 43 29.5 72.5t72.5 29.5t73 -29.5t30 -72.5t-30 -73t-73 -30t-72.5 30t-29.5 73zM809 1454q0 43 29.5 72.5t72.5 29.5t73 -29.5t30 -72.5t-30 -73t-73 -30t-72.5 30t-29.5 73zM0 1024q0 102 67.5 153.5t178.5 51.5h819v-113h-696v-399h594v-113h-594v-481h757 q86 0 156 35t96 67l27 35l78 -90q-4 -6 -14.5 -18.5t-44 -41t-71.5 -51t-99.5 -41t-127.5 -18.5h-880v819q-111 0 -178.5 50.5t-67.5 154.5zM123 1024q0 -82 123 -82v164q-123 0 -123 -82z" />
<glyph unicode="&#xce;" horiz-adv-x="892" d="M-72 1351l355 492h28l375 -492h-143l-246 324l-225 -324h-144zM0 1024q0 102 67.5 153.5t178.5 51.5h123v-819q0 -119 84 -203t202 -84q86 0 156 35t96 67l27 35l78 -90q-4 -6 -14.5 -18.5t-44 -41t-71.5 -51t-99.5 -41t-127.5 -18.5q-168 0 -288.5 121t-120.5 289v409 q-111 0 -178.5 50.5t-67.5 154.5zM123 1024q0 -82 123 -82v164q-123 0 -123 -82z" />
<glyph unicode="&#xcf;" horiz-adv-x="892" d="M-51 1454q0 43 29.5 72.5t72.5 29.5t73 -29.5t30 -72.5t-30 -73t-73 -30t-72.5 30t-29.5 73zM461 1454q0 43 29.5 72.5t72.5 29.5t73 -29.5t30 -72.5t-30 -73t-73 -30t-72.5 30t-29.5 73zM0 1024q0 102 67.5 153.5t178.5 51.5h123v-819q0 -119 84 -203t202 -84 q86 0 156 35t96 67l27 35l78 -90q-4 -6 -14.5 -18.5t-44 -41t-71.5 -51t-99.5 -41t-127.5 -18.5q-168 0 -288.5 121t-120.5 289v409q-111 0 -178.5 50.5t-67.5 154.5zM123 1024q0 -82 123 -82v164q-123 0 -123 -82z" />
<glyph unicode="&#xd1;" horiz-adv-x="1388" d="M114 1434q0 10 2 28.5t16.5 64.5t39 81t80 63.5t129.5 28.5q55 0 112.5 -21.5t88 -41t89.5 -62.5q133 -100 222 -100q63 0 99 35.5t40 70.5l4 37h123q0 -10 -2 -28.5t-16.5 -64.5t-39 -81t-80 -63.5t-128.5 -28.5q-84 0 -150 32.5t-152 100.5q-129 92 -210 92 q-63 0 -99.5 -36t-40.5 -70l-4 -37h-123zM0 -143h61q184 0 185 143v819q-111 0 -178.5 50.5t-67.5 154.5q0 102 67.5 153.5t178.5 51.5h184l473 -1055v1055h123v-1106h123q86 0 155.5 35t96.5 67l26 35l78 -90q-4 -6 -14 -18.5t-44 -41t-72 -51t-99.5 -41t-126.5 -18.5h-307 l-473 1083v-1083q0 -147 -80 -206.5t-228 -59.5h-61v123zM123 1024q0 -82 123 -82v164q-123 0 -123 -82z" />
<glyph unicode="&#xd4;" horiz-adv-x="1380" d="M235 1351l355 492h28l375 -492h-143l-246 324l-225 -324h-144zM0 614q0 254 180 434.5t434 180.5t434.5 -180.5t180.5 -434.5q0 -150 -65.5 -278.5t-180.5 -212.5h164q86 0 155.5 35t96.5 67l26 35l78 -90q-4 -6 -14 -18.5t-44 -41t-72 -51t-99.5 -41t-126.5 -18.5h-533 q-254 0 -434 180t-180 434zM123 614.5q0 -204.5 143.5 -348t348 -143.5t348 143.5t143.5 348t-143.5 348t-348 143.5t-348 -143.5t-143.5 -348z" />
<glyph unicode="&#xd5;" horiz-adv-x="1380" d="M92 1434q0 10 2 28.5t16.5 64.5t39 81t80 63.5t129.5 28.5q55 0 112.5 -21.5t88 -41t89.5 -62.5q133 -100 222 -100q63 0 99 35.5t40 70.5l4 37h123q0 -10 -2 -28.5t-16.5 -64.5t-39 -81t-80 -63.5t-128.5 -28.5q-84 0 -150 32.5t-152 100.5q-129 92 -210 92 q-63 0 -99.5 -36t-40.5 -70l-4 -37h-123zM0 614q0 254 180 434.5t434 180.5t434.5 -180.5t180.5 -434.5q0 -150 -65.5 -278.5t-180.5 -212.5h164q86 0 155.5 35t96.5 67l26 35l78 -90q-4 -6 -14 -18.5t-44 -41t-72 -51t-99.5 -41t-126.5 -18.5h-533q-254 0 -434 180 t-180 434zM123 614.5q0 -204.5 143.5 -348t348 -143.5t348 143.5t143.5 348t-143.5 348t-348 143.5t-348 -143.5t-143.5 -348z" />
<glyph unicode="&#xd6;" horiz-adv-x="1380" d="M256 1454q0 43 29.5 72.5t72.5 29.5t73 -29.5t30 -72.5t-30 -73t-73 -30t-72.5 30t-29.5 73zM768 1454q0 43 29.5 72.5t72.5 29.5t73 -29.5t30 -72.5t-30 -73t-73 -30t-72.5 30t-29.5 73zM0 614q0 254 180 434.5t434 180.5t434.5 -180.5t180.5 -434.5 q0 -150 -65.5 -278.5t-180.5 -212.5h164q86 0 155.5 35t96.5 67l26 35l78 -90q-4 -6 -14 -18.5t-44 -41t-72 -51t-99.5 -41t-126.5 -18.5h-533q-254 0 -434 180t-180 434zM123 614.5q0 -204.5 143.5 -348t348 -143.5t348 143.5t143.5 348t-143.5 348t-348 143.5t-348 -143.5 t-143.5 -348z" />
<glyph unicode="&#xdb;" horiz-adv-x="1263" d="M133 1351l355 492h28l375 -492h-143l-246 324l-225 -324h-144zM0 614v615h123v-615q0 -217 97 -354t292 -137t292 137t97 354v615h123v-615q0 -340 -205 -491h205q86 0 155.5 35t96.5 67l27 35l77 -90q-4 -6 -14 -18.5t-44 -41t-72 -51t-99 -41t-127 -18.5h-512 q-246 0 -379 173t-133 441z" />
<glyph unicode="&#xdc;" horiz-adv-x="1263" d="M154 1454q0 43 29.5 72.5t72.5 29.5t73 -29.5t30 -72.5t-30 -73t-73 -30t-72.5 30t-29.5 73zM666 1454q0 43 29.5 72.5t72.5 29.5t73 -29.5t30 -72.5t-30 -73t-73 -30t-72.5 30t-29.5 73zM0 614v615h123v-615q0 -217 97 -354t292 -137t292 137t97 354v615h123v-615 q0 -340 -205 -491h205q86 0 155.5 35t96.5 67l27 35l77 -90q-4 -6 -14 -18.5t-44 -41t-72 -51t-99 -41t-127 -18.5h-512q-246 0 -379 173t-133 441z" />
<glyph unicode="&#xe2;" horiz-adv-x="1228" d="M235 942l355 492h28l375 -492h-143l-246 324l-225 -324h-144zM0 410q0 168 121 288.5t289 120.5q166 0 286 -117v117h123v-696h166q86 0 154.5 35t95.5 67l27 35l77 -90q-4 -6 -14 -18.5t-43 -41t-70.5 -51t-99 -41t-127.5 -18.5h-289v117q-12 -27 -111.5 -72t-174.5 -45 q-168 0 -289 121t-121 289zM123 409.5q0 -118.5 84 -202.5t202.5 -84t202.5 84t84 202.5t-84 202.5t-202.5 84t-202.5 -84t-84 -202.5z" />
<glyph unicode="&#xe3;" horiz-adv-x="1228" d="M92 1024q0 10 2 28.5t16.5 64.5t39 81t80 63.5t129.5 28.5q55 0 112.5 -21.5t88 -41t89.5 -62.5q133 -100 222 -100q63 0 99 35.5t40 70.5l4 37h123q0 -10 -2 -28.5t-16.5 -64.5t-39 -81t-80 -63.5t-128.5 -28.5q-84 0 -150 32.5t-152 100.5q-129 92 -210 92 q-63 0 -99.5 -36t-40.5 -70l-4 -37h-123zM0 410q0 168 121 288.5t289 120.5q166 0 286 -117v117h123v-696h166q86 0 154.5 35t95.5 67l27 35l77 -90q-4 -6 -14 -18.5t-43 -41t-70.5 -51t-99 -41t-127.5 -18.5h-289v117q-12 -27 -111.5 -72t-174.5 -45q-168 0 -289 121 t-121 289zM123 409.5q0 -118.5 84 -202.5t202.5 -84t202.5 84t84 202.5t-84 202.5t-202.5 84t-202.5 -84t-84 -202.5z" />
<glyph unicode="&#xe4;" horiz-adv-x="1228" d="M256 1045q0 43 29.5 72.5t72.5 29.5t73 -29.5t30 -72.5t-30 -73t-73 -30t-72.5 30t-29.5 73zM768 1045q0 43 29.5 72.5t72.5 29.5t73 -29.5t30 -72.5t-30 -73t-73 -30t-72.5 30t-29.5 73zM0 410q0 168 121 288.5t289 120.5q166 0 286 -117v117h123v-696h166 q86 0 154.5 35t95.5 67l27 35l77 -90q-4 -6 -14 -18.5t-43 -41t-70.5 -51t-99 -41t-127.5 -18.5h-289v117q-12 -27 -111.5 -72t-174.5 -45q-168 0 -289 121t-121 289zM123 409.5q0 -118.5 84 -202.5t202.5 -84t202.5 84t84 202.5t-84 202.5t-202.5 84t-202.5 -84t-84 -202.5 z" />
<glyph unicode="&#xe5;" horiz-adv-x="1228" d="M410 1146q0 84 60.5 144.5t144.5 60.5t144.5 -60.5t60.5 -144.5t-60.5 -144t-144.5 -60t-144.5 60t-60.5 144zM523 1146q0 -39 26.5 -65.5t65.5 -26.5q37 0 64.5 26.5t27.5 65.5q0 37 -27.5 65t-64.5 28q-39 0 -65.5 -28t-26.5 -65zM0 410q0 168 121 288.5t289 120.5 q166 0 286 -117v117h123v-696h166q86 0 154.5 35t95.5 67l27 35l77 -90q-4 -6 -14 -18.5t-43 -41t-70.5 -51t-99 -41t-127.5 -18.5h-289v117q-12 -27 -111.5 -72t-174.5 -45q-168 0 -289 121t-121 289zM123 409.5q0 -118.5 84 -202.5t202.5 -84t202.5 84t84 202.5t-84 202.5 t-202.5 84t-202.5 -84t-84 -202.5z" />
<glyph unicode="&#xea;" horiz-adv-x="1122" d="M33 942l355 492h28l375 -492h-143l-246 324l-225 -324h-144zM2 410q0 168 120 288.5t290 120.5q168 0 287.5 -122t119.5 -328h-694q16 -104 97 -175t188 -71h471q86 0 155.5 35t96.5 67l26 35l78 -90q-4 -6 -14.5 -18.5t-44 -41t-71.5 -51t-99.5 -41t-126.5 -18.5h-471 q-168 0 -288 120t-120 290zM133 479h551q-8 94 -90 153.5t-186 59.5q-94 0 -171 -53.5t-104 -159.5z" />
<glyph unicode="&#xeb;" horiz-adv-x="1122" d="M53 1045q0 43 29.5 72.5t72.5 29.5t73 -29.5t30 -72.5t-30 -73t-73 -30t-72.5 30t-29.5 73zM565 1045q0 43 29.5 72.5t72.5 29.5t73 -29.5t30 -72.5t-30 -73t-73 -30t-72.5 30t-29.5 73zM2 410q0 168 120 288.5t290 120.5q168 0 287.5 -122t119.5 -328h-694 q16 -104 97 -175t188 -71h471q86 0 155.5 35t96.5 67l26 35l78 -90q-4 -6 -14.5 -18.5t-44 -41t-71.5 -51t-99.5 -41t-126.5 -18.5h-471q-168 0 -288 120t-120 290zM133 479h551q-8 94 -90 153.5t-186 59.5q-94 0 -171 -53.5t-104 -159.5z" />
<glyph unicode="&#xee;" horiz-adv-x="647" d="M-328 1351l355 492h28l375 -492h-143l-246 324l-225 -324h-144zM-51 1126q0 43 29.5 73t72.5 30t73 -30t30 -73t-30 -72.5t-73 -29.5t-72.5 29.5t-29.5 72.5zM0 410v409h123v-409q0 -119 84 -203t203 -84q86 0 155.5 35t96.5 67l26 35l78 -90q-4 -6 -14.5 -18.5t-44 -41 t-71.5 -51t-99.5 -41t-126.5 -18.5q-168 0 -289 121t-121 289z" />
<glyph unicode="&#xef;" horiz-adv-x="647" d="M-307 1454q0 43 29.5 72.5t72.5 29.5t73 -29.5t30 -72.5t-30 -73t-73 -30t-72.5 30t-29.5 73zM205 1454q0 43 29.5 72.5t72.5 29.5t73 -29.5t30 -72.5t-30 -73t-73 -30t-72.5 30t-29.5 73zM-51 1126q0 43 29.5 73t72.5 30t73 -30t30 -73t-30 -72.5t-73 -29.5t-72.5 29.5 t-29.5 72.5zM0 410v409h123v-409q0 -119 84 -203t203 -84q86 0 155.5 35t96.5 67l26 35l78 -90q-4 -6 -14.5 -18.5t-44 -41t-71.5 -51t-99.5 -41t-126.5 -18.5q-168 0 -289 121t-121 289z" />
<glyph unicode="&#xf1;" d="M96 1024q0 10 2 28.5t16.5 64.5t39 81t80 63.5t129.5 28.5q55 0 112.5 -21.5t88 -41t89.5 -62.5q133 -100 222 -100q63 0 99 35.5t40 70.5l4 37h123q0 -10 -2 -28.5t-16.5 -64.5t-39 -81t-80 -63.5t-128.5 -28.5q-84 0 -150 32.5t-152 100.5q-129 92 -210 92 q-63 0 -99.5 -36t-40.5 -70l-4 -37h-123zM0 0v819h123v-180q39 82 128 131t179 49q168 0 278.5 -118.5t110.5 -290.5v-287h123q41 0 95.5 35t88.5 67l33 35l78 -90q-16 -18 -44 -47t-105.5 -76t-145.5 -47h-246v410q0 119 -84 202.5t-202.5 83.5t-202.5 -84t-84 -202v-410 h-123z" />
<glyph unicode="&#xf4;" horiz-adv-x="1046" d="M30 942l355 492h28l375 -492h-143l-246 324l-225 -324h-144zM0 410q0 168 121 288.5t289 120.5t288.5 -120.5t120.5 -288.5t-119 -287h99q86 0 155.5 35t96.5 67l26 35l78 -90q-4 -6 -14.5 -18.5t-44 -41t-71.5 -51t-99.5 -41t-126.5 -18.5h-389q-168 0 -289 121 t-121 289zM123 409.5q0 -118.5 84 -202.5t202.5 -84t202.5 84t84 202.5t-84 202.5t-202.5 84t-202.5 -84t-84 -202.5z" />
<glyph unicode="&#xf5;" horiz-adv-x="1046" d="M-113 1024q0 10 2 28.5t16.5 64.5t39 81t80 63.5t129.5 28.5q55 0 112.5 -21.5t88 -41t89.5 -62.5q133 -100 222 -100q63 0 99 35.5t40 70.5l4 37h123q0 -10 -2 -28.5t-16.5 -64.5t-39 -81t-80 -63.5t-128.5 -28.5q-84 0 -150 32.5t-152 100.5q-129 92 -210 92 q-63 0 -99.5 -36t-40.5 -70l-4 -37h-123zM0 410q0 168 121 288.5t289 120.5t288.5 -120.5t120.5 -288.5t-119 -287h99q86 0 155.5 35t96.5 67l26 35l78 -90q-4 -6 -14.5 -18.5t-44 -41t-71.5 -51t-99.5 -41t-126.5 -18.5h-389q-168 0 -289 121t-121 289zM123 409.5 q0 -118.5 84 -202.5t202.5 -84t202.5 84t84 202.5t-84 202.5t-202.5 84t-202.5 -84t-84 -202.5z" />
<glyph unicode="&#xf6;" horiz-adv-x="1046" d="M51 1045q0 43 29.5 72.5t72.5 29.5t73 -29.5t30 -72.5t-30 -73t-73 -30t-72.5 30t-29.5 73zM563 1045q0 43 29.5 72.5t72.5 29.5t73 -29.5t30 -72.5t-30 -73t-73 -30t-72.5 30t-29.5 73zM0 410q0 168 121 288.5t289 120.5t288.5 -120.5t120.5 -288.5t-119 -287h99 q86 0 155.5 35t96.5 67l26 35l78 -90q-4 -6 -14.5 -18.5t-44 -41t-71.5 -51t-99.5 -41t-126.5 -18.5h-389q-168 0 -289 121t-121 289zM123 409.5q0 -118.5 84 -202.5t202.5 -84t202.5 84t84 202.5t-84 202.5t-202.5 84t-202.5 -84t-84 -202.5z" />
<glyph unicode="&#xf7;" horiz-adv-x="1146" d="M172 410v112h717v-112h-717zM438 205q0 43 30 72.5t73 29.5t72.5 -29.5t29.5 -72.5t-29.5 -73t-72.5 -30t-73 30t-30 73zM438 717q0 43 30 72.5t73 29.5t72.5 -29.5t29.5 -72.5t-29.5 -73t-72.5 -30t-73 30t-30 73z" />
<glyph unicode="&#xfb;" horiz-adv-x="1097" d="M30 942l355 492h28l375 -492h-143l-246 324l-225 -324h-144zM0 410v409h123v-409q0 -119 84 -203t202.5 -84t202.5 84t84 203v409h123v-409q0 -168 -119 -287h156q86 0 155.5 35t96.5 67l27 35l77 -90q-4 -6 -14 -18.5t-44 -41t-72 -51t-99 -41t-127 -18.5h-446 q-168 0 -289 121t-121 289z" />
<glyph unicode="&#xfc;" horiz-adv-x="1097" d="M51 1045q0 43 29.5 72.5t72.5 29.5t73 -29.5t30 -72.5t-30 -73t-73 -30t-72.5 30t-29.5 73zM563 1045q0 43 29.5 72.5t72.5 29.5t73 -29.5t30 -72.5t-30 -73t-73 -30t-72.5 30t-29.5 73zM0 410v409h123v-409q0 -119 84 -203t202.5 -84t202.5 84t84 203v409h123v-409 q0 -168 -119 -287h156q86 0 155.5 35t96.5 67l27 35l77 -90q-4 -6 -14 -18.5t-44 -41t-72 -51t-99 -41t-127 -18.5h-446q-168 0 -289 121t-121 289z" />
<glyph unicode="&#xff;" d="M51 1045q0 43 29.5 72.5t72.5 29.5t73 -29.5t30 -72.5t-30 -73t-73 -30t-72.5 30t-29.5 73zM563 1045q0 43 29.5 72.5t72.5 29.5t73 -29.5t30 -72.5t-30 -73t-73 -30t-72.5 30t-29.5 73zM0 -287q0 109 52 201t143 147q-90 55 -142.5 147.5t-52.5 201.5v409h123v-409 q0 -119 84 -203t202.5 -84t202.5 84t84 203v409h123v-409q0 -168 -119 -287h181q86 0 155.5 35t96.5 67l26 35l78 -90q-4 -6 -14.5 -18.5t-44 -41t-71.5 -51t-99.5 -41t-126.5 -18.5h-179q117 -121 117 -287q0 -168 -120.5 -288.5t-288.5 -120.5t-289 120.5t-121 288.5z M123 -287q0 -119 84 -202.5t202.5 -83.5t202.5 83.5t84 202.5q0 115 -80.5 199t-195.5 88h-10q-119 0 -203 -84t-84 -203z" />
<glyph unicode="&#x152;" horiz-adv-x="2748" d="M1380 1024q0 102 67.5 153.5t178.5 51.5h819v-113h-696v-399h594v-113h-594v-481h757q86 0 156 35t96 67l27 35l78 -90q-4 -6 -14.5 -18.5t-44 -41t-71.5 -51t-99.5 -41t-127.5 -18.5h-880v819q-111 0 -178.5 50.5t-67.5 154.5zM1503 1024q0 -82 123 -82v164 q-123 0 -123 -82zM0 614q0 254 180 434.5t434 180.5t434.5 -180.5t180.5 -434.5q0 -150 -65.5 -278.5t-180.5 -212.5h164q86 0 155.5 35t96.5 67l26 35l78 -90q-4 -6 -14 -18.5t-44 -41t-72 -51t-99.5 -41t-126.5 -18.5h-533q-254 0 -434 180t-180 434zM123 614.5 q0 -204.5 143.5 -348t348 -143.5t348 143.5t143.5 348t-143.5 348t-348 143.5t-348 -143.5t-143.5 -348z" />
<glyph unicode="&#x153;" horiz-adv-x="2168" d="M1049 410q0 168 120 288.5t290 120.5q168 0 287.5 -122t119.5 -328h-694q16 -104 97 -175t188 -71h471q86 0 155.5 35t96.5 67l26 35l78 -90q-4 -6 -14.5 -18.5t-44 -41t-71.5 -51t-99.5 -41t-126.5 -18.5h-471q-168 0 -288 120t-120 290zM1180 479h551q-8 94 -90 153.5 t-186 59.5q-94 0 -171 -53.5t-104 -159.5zM0 410q0 168 121 288.5t289 120.5t288.5 -120.5t120.5 -288.5t-119 -287h99q86 0 155.5 35t96.5 67l26 35l78 -90q-4 -6 -14.5 -18.5t-44 -41t-71.5 -51t-99.5 -41t-126.5 -18.5h-389q-168 0 -289 121t-121 289zM123 409.5 q0 -118.5 84 -202.5t202.5 -84t202.5 84t84 202.5t-84 202.5t-202.5 84t-202.5 -84t-84 -202.5z" />
<glyph unicode="&#x178;" horiz-adv-x="1142" d="M102 1454q0 43 29.5 72.5t72.5 29.5t73 -29.5t30 -72.5t-30 -73t-73 -30t-72.5 30t-29.5 73zM614 1454q0 43 29.5 72.5t72.5 29.5t73 -29.5t30 -72.5t-30 -73t-73 -30t-72.5 30t-29.5 73zM0 1229h139l330 -688l313 688h140l-390 -819v-287h371q86 0 155.5 35t96.5 67 l27 35l78 -90q-4 -6 -14.5 -18.5t-44.5 -41t-71.5 -51t-99 -41t-127.5 -18.5h-371q0 -147 -79.5 -206.5t-227.5 -59.5h-61v123h61q184 0 185 143v410z" />
<glyph unicode="&#x2c6;" horiz-adv-x="1257" d="M266 819l355 492h28l375 -492h-143l-246 324l-225 -324h-144z" />
<glyph unicode="&#x2dc;" horiz-adv-x="512" d="M-523 205q0 10 2 28.5t16.5 64.5t39 81t80 63.5t129.5 28.5q55 0 112.5 -21.5t88 -41t89.5 -62.5q133 -100 222 -100q63 0 99 35.5t40 70.5l4 37h123q0 -10 -2 -28.5t-16.5 -64.5t-39 -81t-80 -63.5t-128.5 -28.5q-84 0 -150 32.5t-152 100.5q-129 92 -210 92 q-63 0 -99.5 -36t-40.5 -70l-4 -37h-123z" />
<glyph unicode="&#x2000;" horiz-adv-x="921" />
<glyph unicode="&#x2001;" horiz-adv-x="1843" />
<glyph unicode="&#x2002;" horiz-adv-x="921" />
<glyph unicode="&#x2003;" horiz-adv-x="1843" />
<glyph unicode="&#x2004;" horiz-adv-x="614" />
<glyph unicode="&#x2005;" horiz-adv-x="460" />
<glyph unicode="&#x2006;" horiz-adv-x="307" />
<glyph unicode="&#x2007;" horiz-adv-x="307" />
<glyph unicode="&#x2008;" horiz-adv-x="229" />
<glyph unicode="&#x2009;" horiz-adv-x="368" />
<glyph unicode="&#x200a;" horiz-adv-x="102" />
<glyph unicode="&#x2010;" horiz-adv-x="1058" d="M205 348v113h614v-113h-614z" />
<glyph unicode="&#x2011;" horiz-adv-x="1058" d="M205 348v113h614v-113h-614z" />
<glyph unicode="&#x2012;" horiz-adv-x="1058" d="M205 348v113h614v-113h-614z" />
<glyph unicode="&#x2013;" horiz-adv-x="1114" d="M205 348v113h717v-113h-717z" />
<glyph unicode="&#x2014;" horiz-adv-x="1443" d="M205 348v113h1024v-113h-1024z" />
<glyph unicode="&#x2018;" horiz-adv-x="612" d="M307 717v614h123v-614h-123z" />
<glyph unicode="&#x2019;" horiz-adv-x="612" d="M307 717v614h123v-614h-123z" />
<glyph unicode="&#x201a;" horiz-adv-x="612" d="M307 -307v614h123v-614h-123z" />
<glyph unicode="&#x201c;" horiz-adv-x="612" d="M102 717v614h123v-614h-123zM369 717v614h123v-614h-123z" />
<glyph unicode="&#x201d;" horiz-adv-x="612" d="M102 717v614h123v-614h-123zM369 717v614h123v-614h-123z" />
<glyph unicode="&#x201e;" horiz-adv-x="798" d="M307 -307v614h123v-614h-123zM553 -307v614h123v-614h-123z" />
<glyph unicode="&#x2022;" horiz-adv-x="921" d="M307 460.5q0 63.5 45 108.5t108.5 45t108.5 -45t45 -108.5t-45 -108.5t-108.5 -45t-108.5 45t-45 108.5z" />
<glyph unicode="&#x2026;" horiz-adv-x="1837" d="M205 102q0 43 29.5 73t72.5 30t73 -30t30 -73t-30 -72.5t-73 -29.5t-72.5 29.5t-29.5 72.5zM817 102q0 43 30 73t73 30t72.5 -30t29.5 -73t-29.5 -72.5t-72.5 -29.5t-73 29.5t-30 72.5zM1430 102q0 43 29.5 73t72.5 30t72.5 -30t29.5 -73t-29.5 -72.5t-72.5 -29.5 t-72.5 29.5t-29.5 72.5z" />
<glyph unicode="&#x202f;" horiz-adv-x="368" />
<glyph unicode="&#x2039;" horiz-adv-x="1044" d="M225 389v27l615 403v-143l-416 -266l416 -265v-145z" />
<glyph unicode="&#x203a;" horiz-adv-x="1044" d="M225 0v145l416 265l-416 266v143l615 -403v-27z" />
<glyph unicode="&#x205f;" horiz-adv-x="460" />
<glyph unicode="&#x20ac;" horiz-adv-x="1335" d="M102 451v122h103v82h-103v123h125q55 197 219 324t373 127q258 0 438 -185l-83 -86q-143 147 -355 148q-160 0 -286.5 -91t-178.5 -237h690l-102 -123h-612v-82h571l-102 -122h-445q51 -145 178 -236.5t287 -91.5h266q86 0 156 35t96 67l27 35l78 -90q-4 -6 -14.5 -18.5 t-44 -41t-71.5 -51t-99.5 -41t-127.5 -18.5h-266q-209 0 -372.5 127t-219.5 324h-125z" />
<glyph unicode="&#x2122;" horiz-adv-x="2045" d="M0 1024q0 102 67.5 153.5t178.5 51.5h704l162 -537l145 537h218v-553h122q86 0 156 34.5t96 67.5l27 35l78 -90q-4 -6 -14.5 -18.5t-44 -41t-71.5 -51t-99.5 -41t-127.5 -18.5h-245v530l-156 -530h-164l-174 530v-530h-123v563h-223v-563q0 -147 -80 -206.5t-227 -59.5 h-62v123h62q184 0 184 143v563h-143q-53 0 -88 -23.5t-35 -64.5q0 -43 35 -64.5t88 -21.5v-123q-111 0 -178.5 50.5t-67.5 154.5z" />
<glyph unicode="&#xe000;" horiz-adv-x="820" d="M0 820h820v-820h-820v820z" />
<glyph unicode="&#xfb01;" horiz-adv-x="1359" d="M662 1126q0 43 29.5 73t72.5 30t73 -30t30 -73t-30 -72.5t-73 -29.5t-72.5 29.5t-29.5 72.5zM713 410v409h123v-409q0 -119 84 -203t203 -84q86 0 155.5 35t96.5 67l26 35l78 -90q-4 -6 -14.5 -18.5t-44 -41t-71.5 -51t-99.5 -41t-126.5 -18.5q-168 0 -289 121t-121 289z M-102 707v112h102v266q0 90 72.5 168t183.5 78t183.5 -77.5t72.5 -168.5h-123q0 45 -36 84t-97 39t-97 -39t-36 -84v-266h389v-112h-389v-584h348q86 0 155.5 35t96.5 67l27 35l77 -90q-4 -6 -14 -18.5t-44 -41t-72 -51t-99 -41t-127 -18.5h-471v707h-102z" />
<glyph unicode="&#xfb02;" horiz-adv-x="1370" d="M713 410v921h123v-921q0 -119 84 -203t203 -84q86 0 155.5 35t96.5 67l26 35l78 -90q-4 -6 -14.5 -18.5t-44 -41t-71.5 -51t-99.5 -41t-126.5 -18.5q-168 0 -289 121t-121 289zM-102 707v112h102v266q0 90 72.5 168t183.5 78t183.5 -77.5t72.5 -168.5h-123q0 45 -36 84 t-97 39t-97 -39t-36 -84v-266h389v-112h-389v-584h348q86 0 155.5 35t96.5 67l27 35l77 -90q-4 -6 -14 -18.5t-44 -41t-72 -51t-99 -41t-127 -18.5h-471v707h-102z" />
<glyph unicode="&#xfb03;" horiz-adv-x="2072" d="M1374 1126q0 43 29.5 73t72.5 30t73 -30t30 -73t-30 -72.5t-73 -29.5t-72.5 29.5t-29.5 72.5zM1425 410v409h123v-409q0 -119 84 -203t203 -84q86 0 155.5 35t96.5 67l26 35l78 -90q-4 -6 -14.5 -18.5t-44 -41t-71.5 -51t-99.5 -41t-126.5 -18.5q-168 0 -289 121 t-121 289zM611 707v112h102v266q0 90 72.5 168t183.5 78t183.5 -77.5t72.5 -168.5h-123q0 45 -36 84t-97 39t-97 -39t-36 -84v-266h389v-112h-389v-584h348q86 0 155.5 35t96.5 67l27 35l77 -90q-4 -6 -14 -18.5t-44 -41t-72 -51t-99 -41t-127 -18.5h-471v707h-102z M-102 707v112h102v266q0 90 72.5 168t183.5 78t183.5 -77.5t72.5 -168.5h-123q0 45 -36 84t-97 39t-97 -39t-36 -84v-266h389v-112h-389v-584h348q86 0 155.5 35t96.5 67l27 35l77 -90q-4 -6 -14 -18.5t-44 -41t-72 -51t-99 -41t-127 -18.5h-471v707h-102z" />
<glyph unicode="&#xfb04;" horiz-adv-x="2082" d="M1425 410v921h123v-921q0 -119 84 -203t203 -84q86 0 155.5 35t96.5 67l26 35l78 -90q-4 -6 -14.5 -18.5t-44 -41t-71.5 -51t-99.5 -41t-126.5 -18.5q-168 0 -289 121t-121 289zM611 707v112h102v266q0 90 72.5 168t183.5 78t183.5 -77.5t72.5 -168.5h-123q0 45 -36 84 t-97 39t-97 -39t-36 -84v-266h389v-112h-389v-584h348q86 0 155.5 35t96.5 67l27 35l77 -90q-4 -6 -14 -18.5t-44 -41t-72 -51t-99 -41t-127 -18.5h-471v707h-102zM-102 707v112h102v266q0 90 72.5 168t183.5 78t183.5 -77.5t72.5 -168.5h-123q0 45 -36 84t-97 39t-97 -39 t-36 -84v-266h389v-112h-389v-584h348q86 0 155.5 35t96.5 67l27 35l77 -90q-4 -6 -14 -18.5t-44 -41t-72 -51t-99 -41t-127 -18.5h-471v707h-102z" />
</font>
</defs>
</svg>
