<?xml version="1.0" standalone="no"?>
<!DOCTYPE svg PUBLIC "-//W3C//DTD SVG 1.1//EN" "http://www.w3.org/Graphics/SVG/1.1/DTD/svg11.dtd" >
<svg xmlns="http://www.w3.org/2000/svg">
<metadata>
This is a custom SVG webfont generated by Font Squirrel.
Copyright   : c Copyright TYPADELIC 2002 All rights reserved wwwtypadeliccom
</metadata>
<defs>
<font id="webfontecqheqea" horiz-adv-x="862" >
<font-face units-per-em="2048" ascent="1638" descent="-410" />
<missing-glyph horiz-adv-x="512" />
<glyph unicode=" "  horiz-adv-x="512" />
<glyph unicode="&#x09;" horiz-adv-x="512" />
<glyph unicode="&#xa0;" horiz-adv-x="512" />
<glyph unicode="!" horiz-adv-x="643" d="M205 82q0 -37 24.5 -59.5t59.5 -22.5q49 0 62.5 31.5t13.5 72.5q0 35 -28 58.5t-61 23.5q-41 0 -56 -34.5t-15 -69.5zM287 473q0 -14 4 -37.5t26 -23.5q35 0 46.5 23.5t15.5 51.5l33 160l32 160l59 272l60 273l12 61q6 31 7 64q0 55 -20.5 84.5t-80.5 29.5q-31 0 -52 -12 t-34.5 -31.5t-20.5 -45l-14 -52.5q-12 -59 -17 -137l-9 -139q-10 -117 -16.5 -231t-14.5 -230q-4 -53 -7 -105.5t-7 -105.5q0 -8 -1 -14.5t-1 -14.5z" />
<glyph unicode="&#x22;" horiz-adv-x="628" d="M205 1341q0 -2 2 -25.5t4 -59t5 -77.5l6 -81q3 -39 6 -71t5 -44l10 -37q5 -20 27 -20q23 0 30 18.5t9 36.5l7 82q5 57 11.5 118.5t10.5 109.5t4 50q0 29 -20.5 50.5t-49.5 21.5t-48 -21.5t-19 -50.5zM430 1341q0 -2 4 -48l9 -104l11 -117q5 -58 7 -89q2 -16 7 -36.5 t28 -20.5t29.5 18.5t9.5 36.5q2 31 7 90t11 118.5t10 104.5t4 47q0 29 -20.5 50.5t-48.5 21.5q-29 0 -48.5 -21.5t-19.5 -50.5z" />
<glyph unicode="$" horiz-adv-x="1294" d="M61 14q4 -18 22.5 -29.5t42.5 -16.5t48.5 -6t40.5 -3q55 -6 109 -6q66 0 150.5 6t174.5 27v-133q0 -18 12.5 -32t30.5 -14q20 0 29.5 12.5t13.5 30.5q4 29 3 60t1 59l2 41q63 18 120 47t100 68t67.5 89t24.5 114q0 59 -24.5 113.5t-64.5 105.5t-90.5 98l-103.5 92l8 231 l8 230q2 45 3.5 88t3.5 88q10 4 18 5t16 3q35 6 70 8.5t70 2.5q10 0 26.5 -1t32.5 -4.5t28.5 -11.5t12.5 -24q0 -23 -21.5 -46.5t-46 -47t-46 -48t-21.5 -49.5q0 -23 15.5 -37t37.5 -14q23 0 48.5 9t51 23.5t49 31t37.5 30.5q29 25 45.5 63t16.5 74q0 39 -23.5 62.5 t-58.5 36t-73 16.5t-66 4q-47 0 -102.5 -3t-114.5 -11q2 33 2 63v64q0 29 -16.5 48t-45.5 19q-47 0 -66.5 -34.5t-19.5 -75.5v-113q-70 -18 -135 -47t-115.5 -69.5t-80 -97t-29.5 -128.5q0 -76 32.5 -143.5t84 -128t115.5 -114.5l128 -103v-508q-92 -25 -181 -33t-140 -8 q-53 0 -101.5 13t-99.5 13q-23 0 -44.5 -4t-21.5 -32v-13zM481 1100q0 70 50.5 125t117.5 92v-477q-72 63 -120 127.5t-48 132.5zM745 111l7 153q4 59 6 116l4 116q63 -53 103 -105.5t40 -105.5q0 -59 -45 -102t-115 -72z" />
<glyph unicode="%" horiz-adv-x="1654" d="M123 1036q0 -49 10 -98t35 -90t64.5 -66.5t97.5 -25.5q84 0 154.5 46t121.5 116.5t79 154.5t28 160q0 49 -10.5 101t-34 95.5t-62.5 71t-98 27.5q-88 0 -158.5 -48t-121 -121t-78 -159t-27.5 -164zM242 1016q0 51 19.5 121.5t55 136t86 112t111.5 46.5q31 0 54.5 -19.5 t38 -47.5t21.5 -59.5t7 -58.5q0 -55 -22.5 -127.5t-62.5 -138.5t-94.5 -112t-117.5 -46q-33 0 -51.5 21.5t-28.5 51.5t-13 62.5t-3 57.5zM403 -43q0 -16 13.5 -28.5t29.5 -12.5t23.5 7t15.5 18q16 25 27.5 52t24.5 54l131 264l205 420l206 420l57 116l56 115l26 53 q13 28 23 54q8 20 8 35q0 29 -21.5 44t-49.5 15q-31 0 -54.5 -23.5t-33.5 -50.5l-682 -1532q-5 -12 -5 -20zM942 279q0 -49 10.5 -98.5t35 -90.5t64.5 -66.5t97 -25.5q84 0 154.5 46t122 116.5t79 154.5t27.5 160q0 49 -10.5 101.5t-34 95.5t-62.5 70.5t-98 27.5 q-88 0 -158.5 -48t-121 -121t-78 -158.5t-27.5 -163.5zM1061 258q0 51 19.5 122t55 136.5t86 111.5t111.5 46q31 0 54.5 -19.5t38 -47t21.5 -59.5t7 -59q0 -55 -22.5 -127.5t-62.5 -138t-94 -111.5t-118 -46q-33 0 -51.5 21.5t-28.5 51t-13 62t-3 57.5z" />
<glyph unicode="&#x26;" horiz-adv-x="1009" d="M92 303q0 -70 26.5 -125t70.5 -95t103.5 -61.5t125.5 -21.5q88 0 181 35t159 94l63 -125q10 -18 25.5 -22.5t32.5 -4.5q23 0 43 9.5t20 31.5q0 6 -11 30l-25 51q-13 28 -26.5 52.5t-19.5 34.5q16 12 31.5 25.5t30.5 28.5q16 16 29.5 36.5t13.5 38.5q0 16 -14.5 33 t-32.5 17q-14 0 -29 -9.5t-28 -23t-24 -27.5l-20 -24l-111 221l-110 221q53 33 109.5 74t102.5 91t74.5 110.5t28.5 131.5q0 55 -22.5 98.5t-60 73t-85 45t-96.5 15.5q-70 0 -127 -27.5t-98 -75t-63.5 -107.5t-22.5 -128q0 -66 20.5 -128t49.5 -120q-53 -39 -109.5 -91 t-101.5 -112.5t-74 -129t-29 -140.5zM231 256q0 61 22.5 119.5t59.5 112t83 100.5t93 84l113 -231l113 -230q-68 -49 -141.5 -89t-159.5 -40q-88 0 -135.5 42t-47.5 132zM463 1036q0 45 14.5 89t41 79t64.5 56.5t85 21.5q92 0 92 -94q0 -59 -21.5 -110.5t-57.5 -95.5 t-81 -81t-92 -67q-20 49 -32.5 99t-12.5 103z" />
<glyph unicode="'" horiz-adv-x="403" d="M205 1341q0 -2 2 -25.5t4 -59t5 -77.5l6 -81q3 -39 6 -71t5 -44l10 -37q5 -20 27 -20q23 0 30 18.5t9 36.5l7 82q5 57 11.5 118.5t10.5 109.5t4 50q0 29 -20.5 50.5t-49.5 21.5t-48 -21.5t-19 -50.5z" />
<glyph unicode="(" horiz-adv-x="749" d="M61 698q0 -86 18.5 -187t63.5 -205.5t122 -206t194 -187.5q16 -12 28 -12q18 0 27.5 15t9.5 34q0 12 -5 19t-13 16q-23 20 -42 41l-40 43q-51 61 -87 133.5t-59.5 150.5t-35 159t-11.5 161q0 229 94.5 434t249.5 369q23 23 47.5 44t47.5 44q8 8 13 15t5 19q0 18 -9 34 t-28 16q-12 0 -28 -13q-106 -78 -208 -180t-179.5 -223t-126 -256.5t-48.5 -276.5z" />
<glyph unicode=")" horiz-adv-x="749" d="M61 -51q0 -18 9.5 -33.5t27.5 -15.5q12 0 29 12q106 78 207.5 180.5t179.5 223t126 256t48 276.5q0 86 -18.5 187.5t-63.5 206t-121.5 205.5t-193.5 187q-16 12 -29 13q-18 0 -27.5 -15.5t-9.5 -34.5q0 -12 5.5 -19t13.5 -15q23 -20 42 -41l40 -43q51 -61 87 -134 t59.5 -151t34.5 -159t11 -161q0 -229 -94 -433.5t-250 -368.5q-23 -23 -47.5 -44.5t-46.5 -43.5q-8 -8 -13.5 -15.5t-5.5 -19.5z" />
<glyph unicode="*" horiz-adv-x="1007" d="M205 1067q0 -18 12 -30.5t31 -12.5h223l-158 -158q-14 -14 -14 -30t14.5 -30.5t30.5 -14.5t31 14l157 158v-224q0 -18 12.5 -30.5t30.5 -12.5t30.5 12.5t12.5 30.5v224l158 -158q14 -14 31 -14q16 0 30.5 14t14.5 31q0 16 -14 30l-158 158h223q18 0 30.5 12.5t12.5 30.5 t-12 30.5t-31 12.5h-223l158 158q14 14 14 30t-14.5 30.5t-30.5 14.5t-31 -14l-158 -158v224q0 18 -12 30.5t-31 12.5q-18 0 -30.5 -12.5t-12.5 -30.5v-224l-157 158q-14 14 -31 14q-16 0 -30.5 -14t-14.5 -31q0 -16 14 -30l158 -158h-223q-18 0 -30.5 -12.5t-12.5 -30.5z " />
<glyph unicode="+" horiz-adv-x="878" d="M123 287h278v-291h76v291h279v69h-279v287h-76v-287h-278v-69z" />
<glyph unicode="," horiz-adv-x="577" d="M205 -211q0 -18 18 -18q29 0 61.5 34.5t61.5 81.5t50.5 95.5t23.5 74.5q2 10 3 26.5t1 27.5q0 66 -70 65q-35 0 -59.5 -26.5t-24.5 -61.5q0 -20 5.5 -41.5t5.5 -44.5q0 -47 -12.5 -83t-26 -61.5t-25.5 -43t-12 -25.5z" />
<glyph unicode="-" horiz-adv-x="985" d="M205 422q0 -18 3 -27.5t21.5 -15.5t58.5 -7t60 -1q51 0 114.5 2t130 6t129 12t112.5 21q10 4 19 6t9 16q0 25 -17.5 30t-35.5 5q-68 0 -136.5 -3t-135.5 -3q-88 0 -179 6l-43 4q-20 2 -43 2t-45 -12t-22 -41z" />
<glyph unicode="." horiz-adv-x="518" d="M205 82q0 -37 24.5 -59.5t59.5 -22.5q49 0 62.5 31.5t13.5 72.5q0 35 -28 58.5t-61 23.5q-41 0 -56 -34.5t-15 -69.5z" />
<glyph unicode="/" horiz-adv-x="905" d="M61 -43q0 -16 13.5 -28.5t29.5 -12.5t23.5 7t15.5 18q16 25 27.5 52t24.5 54l131 264l205 420l206 420l56 116l55 115l26 53q14 28 25 54q6 16 6 35q0 29 -20.5 44t-48.5 15q-31 0 -54.5 -23.5t-33.5 -50.5l-682 -1532q-5 -12 -5 -20z" />
<glyph unicode="0" horiz-adv-x="1054" d="M72 381q0 -74 16 -150.5t53 -139t97.5 -101.5t148.5 -39q131 0 240.5 71.5t188.5 180t123 239.5t44 248q0 74 -15.5 154t-51 146.5t-96 108.5t-150.5 42q-135 0 -246 -74t-188.5 -186.5t-120.5 -245.5t-43 -254zM233 348q0 84 32 199t90.5 219t140.5 177t182 73 q53 0 92 -31t64.5 -77t38 -99t12.5 -96q0 -59 -16.5 -133t-47 -150t-75 -147.5t-97.5 -128t-116.5 -90t-133.5 -33.5q-53 0 -85.5 34.5t-50 85t-24 104.5t-6.5 93z" />
<glyph unicode="1" horiz-adv-x="708" d="M61 723q0 -16 6.5 -27.5t26.5 -11.5q25 0 65 21.5t82 50t80 58.5l58 46q-10 -127 -39 -249t-64 -244q-8 -31 -27 -88l-39 -119q-19 -61 -33.5 -115.5t-14.5 -79.5q0 -16 5 -28.5t23 -12.5q10 0 15 2q25 6 52.5 9.5t51 12.5t40 26.5t22.5 48.5q8 41 13 82.5t13 82.5 q27 143 56.5 283.5t68.5 282.5q18 70 41 141.5t58 134.5q10 16 18 31.5t8 34.5q0 16 -10 26.5t-24.5 16.5t-31 8t-28.5 2q-37 0 -64.5 -12.5t-50.5 -42.5q-55 -78 -123.5 -144.5t-146.5 -122.5q-20 -14 -42 -26.5t-40 -28.5q-25 -20 -25 -49z" />
<glyph unicode="2" horiz-adv-x="1019" d="M57 12q0 18 47 65l119 113l154 152q82 84 153.5 178t118.5 194.5t47 198.5q0 37 -14 73t-39 62.5t-58.5 43t-72.5 16.5q-45 0 -91 -16.5t-86 -46t-68.5 -68.5t-39.5 -84q-4 -23 -10 -47.5t-37 -24.5q-27 0 -35 14.5t-8 38.5q0 74 39 134.5t99.5 104.5t132 68.5 t137.5 24.5q68 0 129 -22.5t107 -63.5t74 -98t28 -129q0 -59 -31 -129t-82 -141.5t-114.5 -143t-129 -136t-126.5 -118.5l-105 -90q47 20 104 21q47 0 94.5 -9.5l93.5 -19.5l92 -19.5t91 -9.5q29 0 58.5 4t54.5 19q16 10 28.5 30.5t26.5 20.5q16 0 27.5 -11t11.5 -28 q0 -35 -23.5 -64.5t-58.5 -51t-73 -33t-68 -11.5q-86 0 -167 22.5t-167 22.5q-53 0 -104.5 -9t-102.5 -19q-25 -4 -50.5 -11.5t-51.5 -7.5q-20 0 -37 9t-17 32z" />
<glyph unicode="3" horiz-adv-x="958" d="M-143 -346q0 -33 32.5 -52.5t75.5 -29.5t87 -13t67 -3q80 0 170 22.5t179 63.5t170 99t142.5 129t98 152.5t36.5 172.5q0 102 -39.5 176.5t-106.5 125t-152 80t-175 37.5q43 23 88 54.5t83 71.5t61.5 88.5t23.5 101.5q0 49 -24.5 80.5t-62.5 50t-82 26t-83 7.5t-84 -9.5 t-89 -27t-81.5 -41t-64.5 -53.5q-14 -16 -22.5 -32t-8.5 -38q0 -25 15.5 -41t40.5 -16q20 0 29 9t20 25q35 55 83 99.5t119 44.5q45 0 71 -31t26 -74q0 -53 -30 -101t-75 -88t-96 -73t-92 -55l-39 -23q-14 -8 -25 -37q-2 -4 -2 -12q0 -23 18.5 -30t35.5 -7q31 0 60.5 4.5 t59.5 4.5q72 0 147 -20.5t135 -61.5t99 -102.5t39 -143.5q0 -119 -58.5 -214t-150.5 -163t-203.5 -104.5t-218.5 -36.5q-27 0 -51 2t-49 12q-27 10 -50.5 20.5t-51.5 10.5q-18 0 -31.5 -7t-13.5 -30z" />
<glyph unicode="4" horiz-adv-x="1118" d="M61 307q0 -37 22.5 -55.5t55.5 -27.5t68 -10t59 -1q92 0 184.5 2t184.5 8q-14 -96 -36 -189l-44 -188q-2 -6 -2 -20q0 -23 13.5 -38t37.5 -15q31 0 47 30q6 10 8.5 22.5t6.5 24.5q20 98 45 194l49 194q27 0 81 3t109.5 13t96 30.5t40.5 57.5q0 23 -17 33t-38 10 q-59 0 -119.5 -8t-119.5 -12l26 97l38 143l34.5 140.5t15.5 85.5q0 51 -53 52q-39 0 -55.5 -24.5t-24.5 -57.5q-27 -115 -60.5 -227.5t-56.5 -223.5q-35 -2 -68.5 -3t-68.5 -1q-14 0 -54 -1t-83 1t-76 7t-33 18q0 18 32 76.5t81 137.5l108 168l113 168l99 139q43 60 61 79 q14 16 32.5 34.5t18.5 40.5q0 27 -18.5 43.5t-44.5 16.5q-29 0 -58.5 -24.5t-46.5 -45.5l-73 -97l-114 -155l-129 -181l-124 -181l-97 -151.5t-46 -92.5q-7 -19 -7 -39z" />
<glyph unicode="5" horiz-adv-x="989" d="M-135 -276q0 -35 23.5 -53.5t56 -28t68.5 -11.5t61 -2h22q166 0 328 58q82 29 170 81t161.5 122.5t121 157.5t47.5 183q0 92 -35 160t-94.5 117t-135 82t-157.5 52.5t-164 28.5t-152 11q4 20 15.5 57t26 77l28.5 75t27 49q61 0 122.5 6t122.5 6q37 0 80 -1t86 -1 q45 0 87 3t79 12q31 6 50.5 12t31.5 15t18.5 25.5t10.5 45.5v4q0 16 -8.5 20.5t-24.5 4.5q-53 0 -105.5 -9.5t-105.5 -9.5q-59 0 -120.5 2t-121.5 2h-53q-39 0 -80 -2t-75.5 -8t-43 -18.5t-23.5 -47t-32.5 -81l-35.5 -97.5l-31 -97q-14 -46 -23.5 -83t-9.5 -53 q0 -31 20.5 -37t44.5 -6q29 0 57.5 1t57.5 1q80 0 161 -17.5t145.5 -57.5t105.5 -105.5t41 -159.5q0 -53 -14.5 -104.5t-41.5 -98.5q-41 -74 -101 -128t-132 -91t-153 -54.5t-163 -17.5q-29 0 -54 8.5t-46.5 18.5l-41 18.5t-38.5 8.5q-20 0 -40.5 -11t-20.5 -34z" />
<glyph unicode="6" horiz-adv-x="1058" d="M102 356q0 274 112 497.5t308 410.5l55 49q34 31 72.5 58.5t76.5 48t65 20.5q16 0 29.5 -6.5t13.5 -26.5q0 -18 -16.5 -27.5t-31.5 -15.5q-47 -20 -83.5 -49t-71.5 -64q-72 -76 -135.5 -177t-110.5 -212.5t-74.5 -228.5t-27.5 -221q0 -51 12 -115t39.5 -120t72 -94 t107.5 -38q156 0 250 94t94 250q0 131 -78 198.5t-205 67.5q-33 0 -60.5 -6t-57.5 -18q-12 -4 -23.5 -9.5t-25.5 -5.5q-6 0 -12.5 3.5t-6.5 11.5q0 20 24.5 39.5t57.5 36t66.5 27.5t50.5 16q29 6 57.5 10t56.5 4q66 0 123.5 -25.5t100.5 -68.5t67.5 -101.5t24.5 -124.5 q0 -88 -51.5 -178t-131 -161.5t-174 -117.5t-180.5 -46q-82 0 -151.5 35.5t-119.5 94t-79 133t-29 152.5z" />
<glyph unicode="7" horiz-adv-x="942" d="M74 1020q0 -35 23.5 -44t52.5 -9q141 0 278 18.5t279 18.5q14 0 25 -2.5t11 -20.5q0 -12 -4 -29q-8 -33 -25.5 -71.5t-37.5 -78.5l-40 -79l-36 -70l-74 -142l-96 -189l-102 -214q-51 -112 -93 -215.5t-69 -190.5t-27 -142q0 -27 21.5 -38t44.5 -11q47 0 73.5 35.5 t40.5 76.5l66 188q33 93 70 185q90 223 195.5 434t226.5 418q23 41 45 90t22 96q0 25 -12 38t-30.5 21.5t-39 10.5t-39.5 2q-10 0 -18 -1t-19 -1q-121 -10 -239.5 -13.5t-239.5 -3.5q-41 0 -79 1.5t-78 1.5q-33 0 -54.5 -17.5t-21.5 -52.5z" />
<glyph unicode="8" horiz-adv-x="1042" d="M92 211q0 -135 86 -206t215 -71q78 0 153 25t134 72t96 113.5t37 148.5q0 49 -18.5 100t-46 100.5t-59.5 95.5l-60 83l109 78l108 79l49 36q25 17 47 38l22 22q11 11 11 27q0 14 -11.5 20.5t-23.5 6.5q-20 0 -45 -14q-29 -14 -53 -30l-51 -32l-228 -141l-54 66 q-34 42 -65.5 89.5t-55 92.5t-23.5 77q0 49 33.5 83t80.5 54.5t99.5 30t91.5 9.5q49 0 93 -4.5t79 -19.5t60.5 -47t39.5 -87q4 -20 15.5 -50t37.5 -30q29 0 48.5 24.5t19.5 51.5q0 66 -41 108.5t-101.5 68.5t-127 37t-115.5 11q-61 0 -144 -11t-160 -40t-130.5 -80 t-53.5 -131q0 -49 25 -103.5t60.5 -108.5t76.5 -102l72 -83q-55 -41 -113.5 -89.5t-106.5 -105.5t-80 -121.5t-32 -140.5zM238 211q0 59 27.5 110.5t68.5 96.5t88 85l86 75q25 -27 51.5 -63t48 -76t35.5 -82t14 -81q0 -49 -16 -97t-47 -86t-75 -60.5t-97 -22.5 q-41 0 -75 16.5t-58.5 44t-37.5 64.5t-13 76z" />
<glyph unicode="9" horiz-adv-x="1048" d="M61 582q0 88 51.5 178t131.5 161.5t174 117.5t180 46q82 0 151.5 -35.5t120 -94t79 -133t28.5 -152.5q0 -274 -111.5 -497.5t-308.5 -410.5l-54 -49q-34 -31 -73 -58.5t-77 -48t-64 -20.5q-16 0 -29.5 6.5t-13.5 26.5q0 18 16.5 27.5t30.5 15.5q47 20 84 49t72 64 q72 76 135 177t110 212.5t75 228.5t28 221q0 51 -12.5 115t-40 120t-71.5 94t-108 38q-156 0 -250 -94t-94 -250q0 -131 78 -198.5t205 -67.5q33 0 60.5 6t58.5 18q12 4 23 9.5t26 5.5q6 0 12 -3.5t6 -11.5q0 -20 -24.5 -39.5t-57.5 -35t-66.5 -26.5t-49.5 -15l-57.5 -11.5 t-57.5 -5.5q-66 0 -123 25.5t-100 68.5t-68 101.5t-25 124.5z" />
<glyph unicode=":" horiz-adv-x="600" d="M205 82q0 -37 24.5 -59.5t59.5 -22.5q49 0 62.5 31.5t13.5 72.5q0 35 -28 58.5t-61 23.5q-41 0 -56 -34.5t-15 -69.5zM287 614q0 -37 24.5 -59.5t59.5 -22.5q49 0 62 32t13 73q0 35 -27.5 58.5t-60.5 23.5q-41 0 -56 -35t-15 -70z" />
<glyph unicode=";" horiz-adv-x="649" d="M205 -211q0 -18 18 -18q29 0 61.5 34.5t61.5 81.5t50.5 95.5t23.5 74.5q2 10 3 26.5t1 27.5q0 66 -70 65q-35 0 -59.5 -26.5t-24.5 -61.5q0 -20 5.5 -41.5t5.5 -44.5q0 -47 -12.5 -83t-26 -61.5t-25.5 -43t-12 -25.5zM336 614q0 -37 24.5 -59.5t59.5 -22.5q49 0 62.5 32 t13.5 73q0 35 -28 58.5t-60 23.5q-41 0 -56.5 -35t-15.5 -70z" />
<glyph unicode="&#x37e;" horiz-adv-x="649" d="M205 -211q0 -18 18 -18q29 0 61.5 34.5t61.5 81.5t50.5 95.5t23.5 74.5q2 10 3 26.5t1 27.5q0 66 -70 65q-35 0 -59.5 -26.5t-24.5 -61.5q0 -20 5.5 -41.5t5.5 -44.5q0 -47 -12.5 -83t-26 -61.5t-25.5 -43t-12 -25.5zM336 614q0 -37 24.5 -59.5t59.5 -22.5q49 0 62.5 32 t13.5 73q0 35 -28 58.5t-60 23.5q-41 0 -56.5 -35t-15.5 -70z" />
<glyph unicode="&#x3c;" horiz-adv-x="960" d="M123 311l715 -293v78l-596 240l596 242v77l-715 -293v-51z" />
<glyph unicode="=" horiz-adv-x="972" d="M123 178h727v70h-727v-70zM123 393h727v68h-727v-68z" />
<glyph unicode="&#x3e;" horiz-adv-x="960" d="M123 20l715 293v52l-715 294v-79l598 -242l-598 -242v-76z" />
<glyph unicode="?" horiz-adv-x="1028" d="M246 82q0 -37 24.5 -59.5t59.5 -22.5q49 0 62.5 31.5t13.5 72.5q0 35 -28 58.5t-61 23.5q-41 0 -56 -34.5t-15 -69.5zM307 1284q0 -20 7.5 -55t20.5 -68t33.5 -56.5t47.5 -23.5q16 0 29.5 10.5t13.5 26.5q0 8 -9.5 22.5t-19.5 36t-19.5 49t-9.5 60.5q0 39 17.5 73 t45.5 59.5t63.5 41t72.5 15.5t67.5 -15.5t54 -41t37 -58.5t13.5 -68q0 -98 -33.5 -178t-86 -148.5t-112 -131t-111.5 -126t-86 -133t-34 -153.5q0 -8 1 -22.5t5 -28t12.5 -22.5t22.5 -9q16 0 24.5 7t11.5 17.5t3 22.5t2 23q8 72 53 137t110 130l137 132q73 68 133.5 142.5 t101.5 159.5t41 185q0 76 -27 129.5t-72 88t-105.5 51t-127.5 16.5q-59 0 -118.5 -22.5t-105.5 -62.5t-75 -94.5t-29 -117.5z" />
<glyph unicode="A" horiz-adv-x="1468" d="M-225 -135q0 -20 17.5 -32.5t41 -19t48 -8.5t38.5 -2q123 0 217 74t166 182.5t126 228.5l97 212q74 8 146.5 21.5t146.5 23.5q10 -72 31.5 -171.5t62.5 -189.5t105.5 -153.5t159.5 -63.5q57 0 115.5 34t110.5 83t95 106.5t68 102.5q6 12 11 24.5t5 26.5q0 12 -12 20.5 t-23 8.5q-16 0 -26.5 -12.5t-20.5 -22.5l-60 -80q-34 -43 -73 -80t-84 -61.5t-96 -24.5q-31 0 -56.5 29t-46 75t-36 101t-26.5 108.5t-17.5 98.5t-8.5 67q41 6 90.5 10.5t86.5 18.5q18 6 34.5 18.5t16.5 34.5q0 16 -12.5 22.5t-26.5 6.5q-49 0 -98.5 -9t-98.5 -16 q-10 90 -12 178.5t-2 178.5q0 113 9 225.5t9 224.5q0 23 -9 51.5t-38 28.5q-18 0 -49 -8t-61.5 -22.5t-52 -34t-21.5 -41.5q0 -61 -12.5 -114.5t-34.5 -111.5l-74 -190q-47 -125 -108.5 -272.5t-134 -302t-150.5 -280.5t-159 -206t-161 -80q-29 0 -54.5 9.5t-53.5 9.5 q-16 0 -30.5 -8.5t-14.5 -26.5zM567 594q35 74 65 148l58 151q4 10 13.5 36.5l20.5 55.5t21.5 51.5t14.5 22.5t6 -5t2 -7q10 -35 10 -76t2 -78q10 -137 25 -268q-59 -8 -119 -14.5t-119 -16.5z" />
<glyph unicode="B" horiz-adv-x="1083" d="M-68 1249q0 -27 31 -26q16 0 31.5 3t32.5 5q45 6 90 9t92 7q-47 -217 -82 -433t-59 -437q-8 -68 -15 -136l-12 -137q-4 -39 -7 -77.5t-3 -77.5q0 -23 25.5 -28t41.5 -5q55 0 80 13.5t45 66.5q55 0 133 13.5t162 39t167 62t147.5 86t105.5 109t41 128.5q0 72 -53.5 127 t-129 95t-156.5 66t-136 38q35 8 84 28.5t102 49t104.5 64.5t93.5 76t67.5 81t25.5 82q0 45 -34 75.5t-86 52t-116.5 34t-128 18.5t-118 8t-84.5 2q10 51 21 113.5t32 109.5q4 8 4 15q0 12 -13.5 14t-21.5 2q-37 0 -76 -16q-74 -31 -96 -103q-20 -70 -37 -141 q-53 -4 -106 -11t-107 -16q-23 -4 -52.5 -11t-29.5 -38zM238 152v41q0 131 20 261l41 259q39 -6 94.5 -17.5t117.5 -29t123.5 -41t111 -55t80 -72.5t30.5 -90q0 -45 -36 -83t-93 -70t-127 -57.5t-138.5 -43t-128 -28.5t-93.5 -13q-2 21 -2 39zM317 807l37 222q18 112 41 222 q23 0 65 -2t94 -6t106.5 -13t98.5 -24.5t72.5 -37t28.5 -52.5q0 -61 -66.5 -112.5t-156.5 -91.5t-180.5 -66.5t-139.5 -38.5z" />
<glyph unicode="C" horiz-adv-x="1239" d="M150 596q0 -127 35.5 -247t106 -212t176 -148.5t245.5 -56.5q96 0 189 29t176 80t152.5 120.5t117.5 151.5q8 12 17 32t9 34t-9 24.5t-24 10.5q-18 0 -31.5 -16.5t-23.5 -30.5l-30.5 -49.5t-32.5 -47.5q-84 -104 -202 -162.5t-253 -58.5q-121 0 -196.5 48t-118.5 126 t-58.5 175.5t-15.5 197.5q0 59 13.5 142t40 173t66.5 178.5t91 159t114.5 113.5t137.5 43q76 0 115.5 -52.5t39.5 -123.5q0 -43 -7 -89t-19 -87q-4 -12 -12 -31l-15 -38q-8 -19 -13 -36.5t-5 -29.5q0 -23 16 -30t35 -7q29 0 49 14q23 16 38 60t24.5 96.5t13.5 102.5t4 77 q0 61 -20.5 114.5t-57.5 91.5t-89 60.5t-114 22.5q-109 0 -202 -42t-167.5 -114t-132 -166t-96.5 -196.5t-58 -207t-19 -198.5z" />
<glyph unicode="D" horiz-adv-x="1253" d="M70 1327q0 -27 32 -27q16 0 29.5 2.5t30.5 6.5q29 4 58.5 7t58.5 7q-47 -209 -82 -418t-64 -420q-18 -135 -33.5 -271t-15.5 -273q0 -23 26.5 -28t43.5 -5q37 0 56 1t30.5 9t18.5 25.5t17 52.5q63 0 141.5 22.5t137.5 44.5q106 43 219 108t206 152t152.5 195.5 t59.5 237.5q0 164 -53.5 285.5t-148.5 200.5t-225 118q-124 37 -270 37h-16q8 35 15.5 71.5t23.5 69.5q4 12 4 16q0 14 -10 22.5t-23 8.5q-37 0 -75.5 -16.5t-60 -40t-36.5 -62.5q-6 -18 -13 -36.5t-11 -38.5q-16 0 -53 -2.5t-75 -8.5t-66.5 -18t-28.5 -35zM285 121 q0 111 14 218t31 216q59 391 135 772q123 -2 233.5 -41t194.5 -110.5t133 -175t49 -232.5q0 -109 -48 -199t-124 -161.5t-169 -125t-183 -89.5q-66 -27 -131 -46.5t-135 -25.5z" />
<glyph unicode="E" horiz-adv-x="1054" d="M-18 602q0 29 17 46.5t43 27.5t53 15l48 9q16 76 48 167t76 182.5t101.5 178.5t126 153.5t149.5 106.5t173 40q104 0 164.5 -57.5t60.5 -161.5q0 -23 -5 -46.5t-36 -23.5q-23 0 -31.5 28.5t-24 63.5t-44.5 63.5t-90 28.5q-59 0 -113.5 -36.5t-100.5 -96t-84 -134.5 t-68.5 -150.5t-51 -144t-33.5 -116.5q33 10 100.5 17.5t144.5 12.5t147.5 7t109.5 2h19q14 0 28.5 -1t25.5 -3t11 -6q0 -29 -20.5 -49t-46.5 -27q-12 2 -52.5 -5t-92.5 -18l-113 -26l-117 -27l-101 -24q-45 -10 -65 -16q-6 -37 -6 -72q0 -74 13 -158t47 -155.5t93.5 -118.5 t151.5 -47q59 0 113.5 17.5t104.5 47t93 69.5t78 85q20 25 35.5 51.5t34.5 50.5q8 10 15 16.5t22 6.5q16 0 25 -10.5t9 -26.5q0 -20 -15 -47t-28 -43q-49 -70 -113.5 -132.5t-141 -109.5t-161.5 -74.5t-173 -27.5q-117 0 -196 53t-126 136t-67.5 184.5t-20.5 199.5 q0 14 1 27.5t1 27.5h-45q-25 0 -47.5 6.5t-37.5 20.5t-15 43z" />
<glyph unicode="F" horiz-adv-x="1179" d="M68 1130q0 -35 10 -73.5t27.5 -75.5t42 -68.5t53.5 -52.5q14 -10 22 -12t25 0h4q16 8 16 24q0 10 -14 32l-33 51q-18 30 -32.5 67t-14.5 78q0 37 27.5 59.5t66.5 35.5t79 19l67 11q98 16 197.5 23t197.5 22q0 -10 1 -18.5t1 -18.5q0 -141 -19.5 -279.5t-46.5 -277.5 q-41 -8 -84 -13.5t-83 -9.5q-16 -2 -39 -2q-20 0 -37 -4q-18 -6 -27.5 -22.5t-9.5 -34.5q0 -35 35 -35q57 0 114 11l115 22q-6 -45 -19.5 -109.5t-35 -135.5t-51 -139.5t-68.5 -123.5t-87 -90t-106 -35q-43 0 -70.5 18.5t-46.5 39.5l-35 40q-15 18 -36 19q-20 0 -33 -23 q0 -25 11.5 -44t25.5 -38q39 -47 84 -69.5t107 -22.5q90 0 162.5 36t130 95.5t99.5 136t73.5 160.5t52 167t33.5 155q12 4 45.5 12t69.5 20.5t62.5 26.5t26.5 29q0 16 -10 22t-24 6q-39 0 -77 -10t-75 -18q16 88 29.5 175t23.5 177l13 114q6 56 6 113q33 6 73.5 12.5 t82.5 14.5t82 20.5t66.5 26.5t36 32.5t9.5 47.5q0 14 -3 31.5t-24 17.5q-12 0 -32.5 -5t-42 -13.5t-43 -15.5t-35.5 -11q-90 -23 -182.5 -36t-185.5 -23.5t-186.5 -19.5t-185.5 -21q-47 -6 -110.5 -18.5t-121.5 -36t-99 -64t-41 -101.5z" />
<glyph unicode="G" horiz-adv-x="1177" d="M-16 334q0 -51 9 -108.5t32.5 -105.5t64.5 -80t105 -32q96 0 190 63.5t177 154.5t149.5 192.5t107.5 177.5q-2 -59 -11 -159.5t-27.5 -215.5t-49.5 -231.5t-76 -210.5t-107.5 -153.5t-146.5 -59.5q-51 0 -88 17.5t-63.5 39t-47 40t-36.5 18.5q-14 0 -22.5 -12.5 t-8.5 -24.5q0 -23 17.5 -44.5t33.5 -35.5q39 -37 101.5 -57.5t115.5 -20.5q111 0 196 64.5t148.5 168t109.5 233.5t77 261t48 250l28 201l19 190q9 94 9 190q0 27 -10 48.5t-43 21.5q-37 0 -56.5 -10t-30.5 -27.5t-16 -41t-14 -52.5q-25 -92 -84 -210t-136 -233.5t-164 -213 t-167 -150.5q-18 -12 -39.5 -23.5t-44.5 -11.5q-25 0 -40 16.5t-22 39t-9 47t-2 43.5q0 113 43 246t113.5 257.5t163.5 229t192 158.5q41 23 84 35t90 16q16 2 31 2h32q37 0 60.5 -7t40 -16.5l28 -16.5t21.5 -7q23 0 28 24.5t5 38.5q0 41 -29 68.5t-71 45t-87 26t-76 8.5 q-115 0 -222 -50.5t-201.5 -133.5t-171 -192.5t-133 -227t-87 -236.5t-30.5 -221z" />
<glyph unicode="H" horiz-adv-x="1454" d="M-43 0q0 70 28.5 136.5t74.5 127t101.5 112.5t106.5 91q35 27 74 49.5t74 48.5q4 4 12 44t17 102l21 133q11 72 19.5 137.5t13.5 114.5t5 63q0 31 -5 75t-18.5 85t-39 70.5t-66.5 29.5q-18 0 -33.5 -7t-34.5 -7q-12 0 -27.5 11t-15.5 26q0 18 26.5 32.5t60.5 25.5 t68 17.5t48 6.5q68 0 111 -33t67.5 -82t33.5 -108.5t9 -112.5q0 -141 -24.5 -280.5t-59.5 -274.5q115 37 229.5 68.5t233.5 43.5q72 188 165 366.5t210 344.5q10 16 29.5 42t41 51.5t45 44t44.5 18.5q27 0 26 -23q0 -20 -10 -39.5t-25.5 -38t-32 -35t-26.5 -32.5 q-51 -74 -99.5 -158t-91.5 -172t-79.5 -178t-65.5 -174q51 4 100 4h101q31 0 61.5 -1t61.5 -9q29 -6 49 -17.5t20 -46.5q0 -23 -15 -38t-38 -15q-53 0 -104.5 21.5t-108.5 21.5q-39 0 -77 -3t-77 -7q-25 -49 -43 -111.5t-31.5 -127t-20.5 -129t-7 -120.5q0 -31 7 -57.5 t16.5 -48t16.5 -35.5t7 -20q0 -16 -15.5 -27.5t-29.5 -11.5q-23 0 -43 18t-31 37q-25 41 -32 96t-7 103q0 104 20.5 209.5t55.5 203.5q-117 -23 -230.5 -58.5t-223.5 -84.5l-36 -118q-22 -71 -50.5 -148.5t-65.5 -154.5t-81 -138.5t-98 -99t-116 -37.5q-88 0 -132 52 t-44 136zM70 -4q0 -16 13 -28.5t30 -12.5q20 0 37.5 10t31.5 25q23 23 57.5 83t69.5 129.5t60.5 135t29.5 96.5q-49 -27 -106 -77t-107.5 -110.5t-83 -126t-32.5 -124.5z" />
<glyph unicode="I" horiz-adv-x="933" d="M0 31q0 -29 20.5 -49.5t50 -35t61.5 -20.5t54 -6q125 0 224.5 68.5t174 180.5t128 252t86 282.5t48 274.5t15.5 226q0 55 -5 114.5t-25.5 110t-61.5 83t-113 32.5q-70 0 -143.5 -41t-138 -102.5t-116.5 -132t-79 -129.5q-33 -72 -54.5 -148t-21.5 -153q0 -20 2.5 -52 t10.5 -62t24.5 -51.5t44.5 -21.5q41 0 41 45q0 16 -6 31l-13 31q-7 16 -13.5 37.5t-6.5 52.5q0 66 18.5 141.5t47.5 132.5q18 35 56 84t84 94.5t95.5 77t92.5 31.5q29 0 46 -18.5t26.5 -44t12.5 -54t3 -49.5q0 -63 -13.5 -180t-39 -255t-65.5 -281.5t-93 -261.5t-122 -192.5 t-151 -74.5q-35 0 -57.5 9t-37.5 22l-28 21q-12 9 -28 9q-10 0 -22.5 -8t-12.5 -20z" />
<glyph unicode="J" horiz-adv-x="956" d="M0 -389v-29q0 -35 3 -76t16.5 -75.5t40 -58t73.5 -23.5q41 0 80 21.5t68 49.5q84 76 151.5 201t119.5 265.5t89 280.5t61 251q18 8 40 19.5t41.5 26.5t32.5 34.5t13 42.5q0 14 -10 18t-20 4q-14 0 -26.5 -5t-27.5 -5h-2q41 143 66 286.5t25 293.5q0 49 -3.5 119.5 t-21.5 135t-56 110.5t-110 46t-147.5 -40t-142 -101.5t-119 -132t-80.5 -131.5q-33 -72 -54.5 -148t-21.5 -153q0 -20 2 -53t11 -62t26.5 -50.5t48.5 -21.5q41 0 41 45q0 16 -6 30.5l-12.5 31t-12.5 36t-6 46.5q0 33 5 70.5t15.5 75.5t23.5 74t28 64q18 37 55 86.5t81 93.5 t93 74.5t94 30.5q37 0 56.5 -25.5t28.5 -62.5t10.5 -75t1.5 -62q0 -178 -36 -349t-79 -341q-84 -63 -179.5 -169t-177 -228t-136 -248.5t-54.5 -237.5zM96 -410q0 84 42 194t104.5 218.5t135.5 202.5t136 149q-8 -33 -32 -108l-55 -171q-32 -95 -71 -197.5t-78.5 -187.5 t-76.5 -139.5t-68 -54.5q-12 0 -20.5 11.5t-11.5 26.5t-4 31.5t-1 24.5z" />
<glyph unicode="K" horiz-adv-x="952" d="M0 -84q0 338 39 666.5t127 654.5q4 18 13 51t20.5 67t26 62.5t30.5 36.5q10 6 22.5 7t22.5 1q41 0 71.5 -11t30.5 -60q0 -20 -8 -53t-19 -69l-23 -71q-11 -35 -17 -57q-39 -141 -66.5 -284.5t-42.5 -291.5l600 772q25 31 60 31q16 0 32.5 -8t16.5 -27q0 -20 -27.5 -68 t-70.5 -111.5t-97 -133.5l-101 -132l-87 -112l-55 -69l-100 -127l-97 -129q100 -76 218 -132.5t237 -93.5l27 -8q13 -4 30 -6q8 -2 25 -2q18 0 36.5 -3t32 -10.5t13.5 -19.5q0 -47 -30 -75.5t-77 -28.5q-41 0 -129 30.5t-185.5 72.5t-182.5 85t-119 70q-6 -25 -13.5 -68 t-11.5 -90t-7 -91t-3 -69q0 -27 2 -50t-2 -42.5t-17.5 -36t-44.5 -30.5q-25 -10 -47 -11q-33 0 -43 23.5t-10 50.5z" />
<glyph unicode="L" horiz-adv-x="1171" d="M51 37q0 -14 8.5 -32.5t20.5 -35t28.5 -28t30.5 -11.5q12 0 29 9q61 29 125.5 52t134.5 23q59 0 117.5 -9t116 -20.5t116 -20.5t117.5 -9q61 0 116.5 26.5t103.5 69.5t86 95.5t65 101.5q6 12 11 24.5t5 26.5q0 12 -12.5 20.5t-22.5 8.5q-23 0 -52.5 -44t-72.5 -96.5 t-101 -96.5t-140 -44q-61 0 -120 16.5t-116 35t-115.5 35t-119.5 16.5q20 49 39 164l39 261l47 302q25 156 56.5 285.5t70 212.5t90.5 83q55 0 75.5 -42t29.5 -92l17 -92q8 -42 37 -42q25 0 33 12t8 35q0 47 -11 104.5t-37.5 106.5t-66.5 83t-100 34q-49 0 -94 -27t-80 -61 q-72 -74 -116 -195t-70.5 -261t-43 -285.5t-33.5 -270.5t-43 -214t-71 -118q-18 -10 -40.5 -15t-44 -12.5t-36 -22.5t-14.5 -46z" />
<glyph unicode="M" horiz-adv-x="1705" d="M-143 -147q0 -18 9 -28.5t23.5 -17t31 -7.5t30.5 -1q86 0 156.5 41t129 107.5t103.5 152.5t80 174t61 173l47 151q2 4 4.5 12t6.5 8t4 -8v-10q0 -74 1 -163t8 -181t22.5 -178t41.5 -154q14 -35 42 -62.5t69 -27.5q53 0 112.5 57.5t118 144.5t113.5 188l99 189l75 146 q31 59 39 64q2 -2 2 -7q0 -37 1 -93t7 -120.5t19.5 -130t37 -118t59.5 -85t89 -32.5q49 0 101.5 36t100.5 86t86 106.5t56 96.5q6 12 11.5 24.5t5.5 27.5q0 12 -11.5 20t-21.5 8q-16 0 -27.5 -11t-19.5 -23q-20 -29 -46 -72t-55.5 -83t-65.5 -68.5t-79 -28.5 q-31 0 -49.5 30.5t-28.5 72.5t-13 84t-3 65q0 141 13 278t36 275q8 47 14 92t6 92q0 27 -6 56.5t-41 29.5q-25 0 -49 -10q-18 -8 -29.5 -25.5t-18.5 -39t-11 -44t-8 -41.5q-12 -55 -39 -107.5t-50 -105.5l-104 -221l-111 -219l-77 -147q-39 -73 -84 -144q-6 -8 -15.5 -22.5 t-20.5 -29t-22.5 -24.5t-21.5 -10q-16 0 -23.5 38t-10.5 86q-2 36 -2 70v23q1 45 1 57q0 205 5 404t5 403q0 18 -1 59.5t-5 84.5t-14.5 78.5t-28.5 44.5q-25 12 -57 12q-14 0 -41 -8.5t-51.5 -21.5t-43 -30.5t-18.5 -35.5q0 -8 2 -13q14 -41 18.5 -83t4.5 -85 q0 -63 -18.5 -181t-53.5 -255t-84 -280.5t-111.5 -260t-135 -190.5t-154.5 -74q-23 0 -44.5 5.5t-43.5 5.5q-16 0 -27.5 -12.5t-11.5 -28.5z" />
<glyph unicode="N" horiz-adv-x="1540" d="M-115 -147q0 -18 17.5 -28.5t41 -17t48 -7.5t37.5 -1q90 0 157.5 41t117.5 108.5t86 152.5t60.5 175.5t39 175.5t24.5 152q2 12 5 46t7 71t11.5 64.5t15.5 27.5q10 0 14 -9t6 -16l48 -143q27 -84 62.5 -176t79.5 -183t98 -164t121 -118t144 -45q59 0 104.5 82t78 209 t53 279.5t33 296t17.5 258t5 163.5q0 20 -5 45t-34 25q-35 0 -47 -16.5t-12 -49.5q0 -10 1 -20t1 -21q0 -86 -5 -170t-13 -170l-14 -162q-7 -85 -18 -170t-27.5 -168t-41.5 -157q-2 -8 -8 -24.5t-14.5 -31t-18.5 -25.5t-22 -11q-39 0 -82 54t-85 139t-82 188.5t-72 201 t-55.5 176t-33.5 115.5q-12 45 -22.5 90t-18.5 93l-6 49q-4 29 -17.5 56.5t-48.5 27.5q-18 0 -43.5 -9.5t-49 -24.5t-40 -34.5t-16.5 -42.5q0 -25 8 -48.5t8 -49.5q0 -45 -6 -88q-6 -66 -17 -174.5t-30.5 -233.5t-51.5 -253t-80 -231.5t-114.5 -169t-158.5 -65.5 q-23 0 -46.5 3.5t-46.5 3.5q-18 0 -32.5 -10.5t-14.5 -30.5z" />
<glyph unicode="O" horiz-adv-x="1255" d="M37 496q0 -98 19.5 -202t65.5 -186.5t126 -136t198 -53.5q113 0 209.5 45t175 120t139 174t101.5 206.5t61.5 217.5t20.5 206q0 41 -6 101.5t-19.5 127t-36 132t-54 117.5t-74.5 85t-99 33q-23 0 -46 -3t-46 -3q-35 0 -65.5 10t-65.5 10q-88 0 -161.5 -40t-133.5 -99 q-78 -78 -136 -182.5t-96 -219t-57.5 -233t-19.5 -227.5zM225 449q0 98 22.5 208.5t62.5 218t97.5 204t127.5 165.5q47 47 104 82t125 35q84 0 137 -56.5t86 -137.5t45 -169t12 -151q0 -70 -16 -157t-47 -175t-77 -171t-105.5 -148.5t-132 -104.5t-156.5 -39 q-86 0 -141.5 35t-87 91.5t-44 127t-12.5 142.5z" />
<glyph unicode="P" horiz-adv-x="925" d="M2 -63q0 154 6 293t22.5 274t43 271t65.5 286q6 20 14.5 52t20.5 64.5t27.5 59.5t34.5 37q12 8 26 10t29 2q37 0 61.5 -15.5t24.5 -56.5q0 -20 -6 -49.5t-15.5 -61.5t-19.5 -61.5t-17 -52.5q-41 -147 -68.5 -297.5t-41.5 -304.5q86 20 188.5 59t189.5 98.5t146.5 141.5 t59.5 186q0 94 -48.5 174t-123 140.5t-164.5 97.5t-176 45q-12 2 -38 3t-51.5 6t-44 15.5t-18.5 30.5q0 12 8 33q16 39 33.5 47.5t58.5 8.5q109 0 231 -39t225 -111t172 -171t69 -222q0 -127 -73 -232.5t-181.5 -184.5t-235.5 -129t-235 -69q-8 -23 -14.5 -60.5t-11.5 -78.5 t-8 -80t-3 -63q0 -27 2 -50.5t-2 -43t-17.5 -36t-44.5 -30.5q-25 -10 -47 -10q-33 0 -43 23.5t-10 50.5z" />
<glyph unicode="Q" horiz-adv-x="1255" d="M29 553q0 -96 18.5 -206.5t64.5 -205t123.5 -157t198.5 -62.5q55 0 109.5 15.5t105.5 41t97.5 59.5t82.5 73q41 -47 61.5 -88t20.5 -107q0 -14 -1 -31.5t1 -33t12.5 -25.5t30.5 -10q16 0 25.5 14t14.5 34.5t7.5 40t2.5 32.5q0 68 -24 131t-65 116l75 105q36 51 63 110 q51 115 76.5 239t25.5 249q0 123 -25.5 249t-95.5 230q-29 41 -72.5 80t-97.5 39q-23 0 -46 -3t-46 -3q-35 0 -65.5 10t-65.5 10q-45 0 -90 -15.5t-85 -41t-76 -57t-64 -64.5q-68 -76 -123.5 -167t-93 -190.5t-59 -204t-21.5 -206.5zM217 449q0 135 43 258q12 -70 47 -128.5 t83 -107.5t104.5 -92l109.5 -80l79 -56q42 -30 71 -65q-20 -27 -52 -47t-69 -35.5t-76 -24t-72 -8.5q-74 0 -124 38t-82.5 94.5t-47 124.5t-14.5 129zM362 881q0 43 11 94q12 61 50 130t90 126t117.5 94t133.5 37q84 0 137 -56.5t86 -137.5t45 -169t12 -151 q0 -98 -17 -192.5t-52 -184.5q-8 -23 -22.5 -52.5t-31 -59t-36 -54t-39.5 -39.5q-61 72 -144.5 136.5t-159 135t-128 154t-52.5 189.5z" />
<glyph unicode="R" horiz-adv-x="923" d="M0 -63q0 154 6 293t22.5 274t43 271t65.5 286q6 20 14.5 53t20.5 64.5t27.5 59.5t36 38t53.5 10q37 0 61.5 -15.5t24.5 -56.5q0 -20 -9.5 -53l-20.5 -68.5t-23.5 -70.5t-18.5 -57q-72 -260 -96 -521q86 20 188.5 59.5t189.5 99t146.5 141t59.5 186.5q0 92 -50.5 162.5 t-127 121t-167 79t-167.5 36.5q-12 2 -38 3t-51.5 6t-44 15.5t-18.5 30.5q0 12 8 33q16 39 33.5 47.5t58.5 8.5q16 0 34 -1.5t34 -3.5q98 -12 208.5 -43.5t204 -89t155 -143.5t61.5 -205q0 -115 -65.5 -217t-165 -184t-215.5 -136.5t-218 -72.5q109 -80 232.5 -134.5 t252.5 -92.5l28 -9q13 -4 28 -6q8 -2 26 -2t37 -3t32 -10t13 -20q0 -47 -29.5 -75.5t-76.5 -28.5q-41 0 -129 30.5t-185.5 72.5t-182.5 85t-120 70q-6 -20 -11 -49t-8 -59.5t-4 -60.5t-1 -52q0 -27 2 -50.5t-2 -43t-17.5 -36t-44.5 -30.5q-25 -10 -47 -10q-33 0 -43 23.5 t-10 50.5z" />
<glyph unicode="S" horiz-adv-x="1140" d="M0 18q0 -20 19.5 -31.5t45 -16.5t51 -7t38.5 -4q55 -6 108 -6q59 0 135 6t158 21.5t160 42t139 67.5t99 100.5t38 137.5q0 80 -42 150.5t-105.5 136t-138 125t-138 119t-105.5 118.5t-42 123q0 57 36 105t89 85t112.5 60.5t108.5 31.5q35 6 69.5 8.5t69.5 2.5 q10 0 26.5 -1t33 -4.5t29 -11.5t12.5 -24q0 -25 -22 -47l-46 -47q-25 -24 -46.5 -48t-21.5 -49q0 -23 15.5 -37t38.5 -14q20 0 46.5 9t52.5 23.5t49.5 31t37.5 30.5q29 27 45 63t16 74q0 39 -23.5 62.5t-58 36t-72.5 16.5t-67 4q-59 0 -137 -6t-158 -21.5t-156.5 -43 t-137 -70.5t-97.5 -103.5t-37 -140.5q0 -92 46 -171t114 -147.5t148.5 -129t148.5 -117.5t114 -112.5t46 -112.5q0 -51 -33 -89t-84 -66t-116.5 -45t-129 -28.5t-121 -15.5t-94.5 -4q-51 0 -100 13t-100 13q-29 0 -47.5 -5t-18.5 -40z" />
<glyph unicode="T" horiz-adv-x="1161" d="M0 1130q0 -37 12.5 -75.5t34 -75.5t49 -67.5t58.5 -51.5q18 -12 41 -12h12q14 8 14 22q0 12 -17.5 34t-39 53.5t-38.5 72.5t-17 90q0 27 28.5 45.5t67.5 30.5t78 19.5t57 9.5q98 16 195.5 23t195.5 22q6 -41 7 -83t1 -83q0 -55 -5 -162.5t-18.5 -235.5t-38 -261.5 t-64.5 -242t-96 -178t-134 -69.5q-43 0 -71.5 18.5t-50.5 39.5l-39 40q-17 18 -36 19q-18 0 -30 -23q2 -25 14 -45t29 -37q41 -47 87 -69.5t109 -22.5q119 0 204 72.5t145.5 189.5t98.5 263.5t58.5 291t27.5 273.5t7 213v57q0 29 -4 57q29 10 70.5 17.5l84.5 15.5t82 18.5 t62 22.5q20 12 29.5 26.5t9.5 39.5q0 16 -4 39.5t-27 23.5q-12 0 -31.5 -5t-41.5 -13l-42 -16q-20 -7 -34 -11q-88 -23 -180.5 -37t-184.5 -23l-184 -19q-92 -9 -183 -21q-47 -6 -108.5 -18.5t-116.5 -36t-94 -63t-39 -102.5z" />
<glyph unicode="U" horiz-adv-x="1218" d="M53 442q0 166 17.5 337t64.5 331q6 23 16.5 54.5t24.5 62t32.5 56.5t41.5 36q12 6 25.5 7t27.5 1q29 0 53.5 -9t24.5 -46q0 -10 -2 -19.5t-6 -19.5q-29 -92 -51.5 -197.5t-39 -215t-24.5 -217t-8 -204.5q0 -25 1 -62.5t9 -72.5t27.5 -60.5t54.5 -25.5q53 0 113.5 51.5 t123 130t123 177t112.5 192.5t92 174l61 125l34 69q20 40 27 70l12 47q6 23 17.5 41.5t31 29.5t50.5 11q51 0 51 -51q0 -14 -11 -54l-25 -86l-27 -89q-13 -43 -19 -66q-49 -217 -82 -434t-45 -440v-21q0 -23 1 -44t1 -44q0 -27 -9 -52.5t-44 -25.5q-25 0 -37 39t-17.5 89.5 t-6.5 97.5t-1 63q0 123 6.5 245t22.5 245l-64 -120q-38 -69 -86.5 -140.5t-103.5 -141t-115.5 -125t-126 -89.5t-131.5 -34q-78 0 -122 45.5t-65.5 111t-25.5 139t-4 128.5z" />
<glyph unicode="V" horiz-adv-x="1230" d="M0 1229q0 16 10 35.5t25.5 38t33 31t33.5 12.5q23 0 46 -23l40 -39q33 -35 58.5 -72.5t50.5 -78.5q117 -195 193.5 -407t123.5 -433q16 55 44 106l57 103l107 193l110 192l125 218q63 112 131 214q6 10 15 23.5t20.5 26.5t22.5 22.5t24 9.5q23 0 43 -17.5t20 -40.5 q0 -10 -7 -19l-13 -17q-59 -74 -106 -157l-93 -165l-172 -304l-166 -306l-37 -68l-41 -76q-20 -39 -37.5 -76.5t-25.5 -68.5q-8 -27 -11 -50.5t-11.5 -39.5t-26 -26.5t-54.5 -10.5q-25 0 -37 12.5t-18 30.5t-7 38.5t-5 37.5q-37 229 -120 460.5t-187 440.5l-52 96 q-27 49 -61 90q-10 10 -27.5 30t-17.5 34z" />
<glyph unicode="W" horiz-adv-x="1748" d="M27 14q0 14 5 25.5t11 23.5q66 135 85 294t19 309q0 166 -20.5 331.5t-81.5 319.5l-11 31q-5 14 -5 30q0 35 25.5 44.5t51.5 9.5q47 0 74 -28t43 -69q10 -25 16.5 -51.5t14.5 -52.5q35 -135 56.5 -269.5t21.5 -273.5q0 -43 -3 -86t-7 -86q41 96 98 184l115 174l81 123 l82 123l43 62q20 31 45 59q20 23 43 44.5t58 21.5q37 0 71.5 -18.5t34.5 -61.5q0 -29 -6 -54.5t-10 -54.5q-20 -115 -21 -239q0 -143 24 -295t71 -287l18 -52q10 -30 25.5 -56.5t37 -45t52.5 -18.5q37 0 64.5 17.5t49 45t36.5 59.5l30 60q45 94 85 199.5t69.5 215t47 220.5 t17.5 217t-22 219q-4 12 -6.5 23.5t-2.5 23.5q0 20 14.5 29.5t32.5 9.5q29 0 46.5 -39t26.5 -89t11.5 -99t2.5 -70q0 -129 -24 -282.5t-71 -305t-114.5 -287.5t-157.5 -233q-35 -39 -86 -68.5t-105 -29.5q-53 0 -95 28.5t-75 69.5q-57 74 -96 178.5t-62.5 219t-32.5 229.5 t-9 207q0 35 1 67.5t7 65.5q-51 -49 -110.5 -139t-116.5 -192l-109 -199l-86 -166l-61 -119q-31 -59 -54 -121l-17 -47q-9 -25 -22.5 -44t-33 -31.5t-50.5 -12.5t-55 11t-24 48z" />
<glyph unicode="X" horiz-adv-x="1290" d="M-29 -27q0 -35 27 -57t59 -22q41 0 93.5 37.5t108.5 98t114 134.5l108 145l93 134l67 98q8 -37 24.5 -92.5t40 -118t53 -127t63.5 -118.5t71 -93t76 -49q10 -4 18 -4h21q23 0 52.5 4t56 14t46 29.5t19.5 48.5q0 16 -9.5 26.5t-25.5 10.5q-12 0 -23.5 -6.5t-23.5 -6.5 q-35 0 -70 44t-65.5 112t-58 152t-48 161.5t-35 142t-18.5 95.5q78 113 161 221.5t181 202.5q29 29 61.5 50.5t61.5 49.5q14 14 20 25.5t6 32.5q0 16 -6 25t-24 9q-37 0 -82 -27.5t-94.5 -71.5t-97.5 -98l-92 -108q-44 -53 -79 -101l-55 -77q-14 74 -37.5 161t-63.5 162.5 t-102.5 127t-156.5 51.5q-109 0 -191 -47t-154 -125q-23 -23 -45 -49.5t-22 -61.5q0 -16 10 -30.5t29 -14.5q18 0 40.5 23.5t57.5 52.5t87 52.5t128 23.5q53 0 89 -35t60.5 -86t40 -105.5t23.5 -95.5l24 -111l21 -112l-54 -81l-86 -127l-104 -146q-55 -76 -105 -138.5 t-91 -102.5t-64 -40q-18 0 -40.5 -2t-42 -9t-33 -21.5t-13.5 -39.5z" />
<glyph unicode="Y" horiz-adv-x="1204" d="M25 498q0 -59 6 -140.5t29.5 -155t71.5 -124.5t130 -51q70 0 137.5 37.5t128 100t115.5 141.5t101.5 160t80.5 156l60 130q-4 -74 -15.5 -168.5t-29 -195.5t-42 -205.5t-56 -201t-70.5 -179.5t-84 -142q-35 -45 -84 -72.5t-107 -27.5q-49 0 -86 17t-64.5 37.5t-48 38 t-36.5 17.5q-33 0 -33 -30q0 -20 19.5 -46t35.5 -40q41 -37 96.5 -59.5t112.5 -22.5q94 0 174 50t145.5 136t119 199.5t95.5 239.5t73.5 257t54 251t38 222.5t23.5 169.5l11.5 93.5t9.5 93.5q4 25 7 50.5t3 49.5q0 29 -8.5 49.5t-42.5 20.5h-17q-8 0 -16 -4 q-29 -10 -44 -21.5t-22.5 -26t-10.5 -33.5l-7 -46q-2 -14 -9 -34l-16 -40q-8 -20 -17 -39.5t-15 -34.5l-56 -127q-37 -84 -85 -182t-105.5 -201.5t-117.5 -187.5t-119.5 -137.5t-112.5 -53.5q-39 0 -60.5 32t-31 76t-11.5 90t-2 73q0 205 22.5 419t75.5 412q2 10 4.5 17.5 t2.5 17.5q0 33 -20.5 46t-49.5 13q-16 0 -31.5 -1t-29.5 -9q-20 -10 -38 -35.5t-31 -56.5t-22.5 -61.5t-15.5 -53.5q-43 -160 -53 -331.5t-10 -335.5z" />
<glyph unicode="Z" horiz-adv-x="1122" d="M90 1073q0 -23 19.5 -31t35.5 -8t27.5 6.5t24.5 18.5q35 35 74.5 59.5t88.5 32.5q92 16 187 16h188q41 0 84 -1t84 -11q4 0 8 -2t4 -6q0 -14 -39.5 -75.5t-101.5 -147.5l-135 -185l-141 -187l-121 -158l-74 -95l-32 -42l-37 -48l-37 -47q-18 -23 -35 -35 q-23 -18 -43.5 -38.5t-20.5 -53.5q0 -31 27 -57.5t57 -26.5q4 0 6 1t7 1q133 27 271 28t273 1q29 0 57.5 -1t57.5 -6q35 -6 70 -6q31 0 53 11q18 8 40.5 35.5t42 61.5t33 66.5t13.5 53.5q0 20 -18.5 29.5t-34.5 9.5q-29 0 -54 -25q-35 -37 -72.5 -61.5t-90.5 -30.5 q-51 -6 -101.5 -7t-101.5 -3l-363 -13l170 207l168 207l167 222l159 229l59 92q29 45 62 90l43 59q25 35 24 68q0 20 -13 28.5t-30 8.5q-186 0 -370.5 1t-370.5 1q-20 0 -39.5 2t-40.5 2q-23 0 -39 -8q-18 -8 -40.5 -38t-42 -66t-33 -72t-13.5 -56z" />
<glyph unicode="^" horiz-adv-x="1079" d="M123 1214h104l314 310l313 -310h102l-360 385h-111z" />
<glyph unicode="_" horiz-adv-x="933" d="M-37 -137v-72h1008v72h-1008z" />
<glyph unicode="`" horiz-adv-x="565" d="M123 1235q0 -20 14 -43q18 -29 41 -55l45 -54l70 -85q35 -42 74 -83l21 -20q11 -10 26 -10q12 0 20 9t8 21q0 10 -5 20.5t-9 20.5l-59.5 104.5l-59.5 104.5l-28.5 53.5t-30.5 51.5q-25 31 -62 30q-29 0 -47 -18t-18 -47z" />
<glyph unicode="a" d="M0 215q0 -29 5 -65.5t18.5 -69.5t38 -55.5t61.5 -22.5q41 0 83 30.5t81 74t70 89.5l53 76q-1 -12 -1 -26q0 -28 3 -65q4 -54 20.5 -104t47 -86t81.5 -36q53 0 107.5 30.5t102.5 75.5t89 97l70 90q10 16 27.5 40.5t17.5 43.5q0 39 -33 39q-23 0 -35 -17.5t-22 -34.5 q-18 -29 -55 -75.5t-80 -90.5t-88.5 -77t-81.5 -33q-25 0 -38.5 25.5t-19.5 59.5t-7 66.5t-1 49.5q0 53 7 113.5t24 113.5l22 59q14 37 15 60q0 20 -15.5 26.5t-31.5 6.5q-29 0 -44.5 -19.5t-25.5 -42.5l-30 -62q-19 -42 -46 -91l-56 -102q-30 -52 -60.5 -94t-59.5 -69.5 t-51 -27.5q-18 0 -22.5 18.5t-4.5 30.5q0 117 47 218t127 183q45 47 95.5 83t105.5 69q8 4 14 9t6 15q0 23 -22.5 43.5t-44.5 20.5q-90 0 -173 -61.5t-147.5 -152.5t-103.5 -193.5t-39 -182.5z" />
<glyph unicode="b" horiz-adv-x="841" d="M41 352q0 -51 7 -120.5t29.5 -131t65.5 -104.5t115 -43q66 0 127 36t107 81q86 84 136 198.5t50 233.5q0 88 -45 153l43 7q29 4 56.5 12t48 21.5t20.5 31.5t-15.5 31.5t-33.5 11.5h-7q-61 -4 -121.5 -12t-121.5 -13q-31 -2 -62 -2q-29 0 -59 -2q-27 -2 -52.5 -15 t-25.5 -44q0 -16 14.5 -36.5t32.5 -20.5q92 0 149.5 -40t57.5 -141q0 -41 -13.5 -92t-36 -100t-50 -93t-58.5 -73q-16 -16 -38.5 -31.5t-49.5 -15.5q-39 0 -59.5 40t-30.5 92t-12 104.5t-2 74.5q0 98 16 197l33 196q31 197 90.5 388.5t130.5 375.5l19 46q10 26 19 53.5 t15.5 55.5t6.5 48q0 23 -10.5 36t-32.5 13q-18 0 -37 -6t-35 -14q-25 -12 -42.5 -22.5t-29.5 -24t-21.5 -32t-19.5 -42.5q-29 -74 -51 -150l-45 -151q-68 -236 -120 -477.5t-52 -487.5z" />
<glyph unicode="c" horiz-adv-x="755" d="M43 303q0 -61 14.5 -122.5t47 -112t83 -82t119.5 -31.5q90 0 174 29.5t156 81t131 120t102 144.5q6 10 12.5 22.5t6.5 24.5q0 33 -33 33q-20 0 -35.5 -18.5t-25.5 -35.5q-33 -55 -77 -107t-96.5 -92t-114 -64.5t-128.5 -24.5q-45 0 -77 18t-51.5 49t-27.5 69t-8 77 q0 45 16.5 120.5t47 149.5t75.5 127t103 53q35 0 42 -25.5t7 -54.5q0 -45 -18.5 -80.5t-18.5 -58.5q0 -20 23 -20q31 0 51 18t30.5 45t14.5 56.5t4 54.5q0 82 -44 118.5t-122 36.5q-92 0 -164 -51t-121 -128t-73.5 -168t-24.5 -171z" />
<glyph unicode="d" horiz-adv-x="1036" d="M27 211q0 -27 7 -59.5t21.5 -62.5t38 -50.5t56.5 -20.5q45 0 98 29t104 69t97 85l73 75q6 -41 19.5 -94t38 -101t60.5 -82t89 -34q66 0 124 33t109.5 81t93.5 105.5t74 106.5q12 18 25.5 40.5t13.5 45.5q0 14 -5 28.5t-23 14.5q-20 0 -37 -25l-27 -41q-20 -35 -56 -84 t-78 -93t-89 -74.5t-92 -30.5q-31 0 -49.5 41t-26.5 95t-10 106.5t-2 74.5q49 96 109.5 229.5t112.5 275.5t87 281.5t35 245.5q0 27 -4 65t-16.5 72.5t-35 59t-59.5 24.5q-31 0 -60.5 -20t-51.5 -41q-43 -39 -80 -106.5t-69 -148.5t-55.5 -172t-41 -178t-25.5 -167t-8 -137 q-41 47 -104 47q-47 0 -99.5 -25.5t-87.5 -54.5q-90 -78 -142 -193.5t-52 -234.5zM141 150q0 63 31 139t82 140.5t116.5 108.5t135.5 44v-88q0 -43 4 -88q-14 -27 -58 -76t-97.5 -98.5t-106.5 -86t-86 -36.5q-16 0 -18.5 15.5t-2.5 25.5zM662 559v21q0 45 8 119.5 t23.5 164.5t36 186.5t44 182.5t50 152.5t53.5 97.5l14 14q8 8 18 8q8 0 12.5 -7t6.5 -17.5t2 -20.5v-12q0 -94 -26.5 -213t-66.5 -240t-87 -235.5t-88 -200.5z" />
<glyph unicode="e" horiz-adv-x="657" d="M18 252q0 -55 12.5 -105.5t40 -88.5t70.5 -61.5t105 -23.5q84 0 161.5 29t145.5 77t124 111.5t95 133.5q10 16 14.5 28.5t4.5 32.5q0 10 -9.5 16.5t-19.5 6.5q-23 0 -37 -18.5t-25 -35.5q-31 -51 -71.5 -102t-90 -91t-106.5 -65.5t-123 -25.5q-72 0 -102.5 40t-30.5 109 q0 39 10 86q47 16 102.5 61.5t103.5 103.5t80 120.5t32 114.5q0 53 -30 87.5t-85 34.5q-82 0 -150.5 -63.5t-117.5 -154.5t-76 -189t-27 -168zM193 383q4 27 22 85t45 116.5t57.5 102.5t61.5 44q20 0 27.5 -15.5t7.5 -31.5q0 -41 -22.5 -85t-55.5 -86t-71.5 -76t-71.5 -54z " />
<glyph unicode="f" horiz-adv-x="714" d="M31 -20q0 -29 1 -79.5t6 -106.5t15 -114.5t29.5 -106.5t49.5 -78t73 -30q98 0 162.5 61.5t103.5 151t54.5 188.5t15.5 175q0 49 -6.5 108.5t-20.5 119t-38.5 112.5t-63.5 88q27 0 61 -1h10q29 0 56 5q31 6 52 24.5t21 57.5q0 16 -11 20.5t-23 4.5q-16 0 -32 -3.5 t-32 -7.5q-25 -4 -49.5 -6t-50.5 -2q-18 0 -46 1t-56.5 3t-55.5 6t-43 11q35 215 100.5 420.5t151.5 404.5q27 59 56.5 117.5t56.5 117.5q8 16 13 34t5 38q0 25 -11.5 43.5t-39.5 18.5q-18 0 -41 -6.5t-45.5 -16.5t-42 -23.5t-31.5 -25.5q-16 -18 -27 -41l-20 -45 q-154 -399 -230.5 -803.5t-76.5 -834.5zM127 -147q0 145 16.5 288.5t38.5 286.5q59 -31 99.5 -80t65 -108.5t35.5 -125t11 -126.5v-6q0 -41 -3 -81t-11 -81q-4 -27 -17.5 -74t-34 -92t-49 -78t-65.5 -33q-29 0 -46 40t-26.5 93.5t-11.5 103.5t-2 73z" />
<glyph unicode="g" horiz-adv-x="966" d="M27 231q0 -37 7 -71.5t24.5 -61t46 -43t71.5 -16.5q61 0 126 41t122 99.5t105.5 123t76.5 113.5q4 -41 5 -83t1 -83q0 -49 -9 -136t-27.5 -188.5t-48 -205t-70.5 -188.5t-93.5 -138t-117.5 -53q-29 0 -42.5 13t-22.5 30.5t-18 31t-28 13.5q-20 0 -32.5 -15.5t-12.5 -34.5 q0 -10 4 -19t8 -19q25 -43 64 -63.5t88 -20.5q127 0 215 73.5t147.5 191.5t94 265t52 294.5t23 280t5.5 220.5q0 35 -19.5 57.5t-56.5 22.5q-43 0 -74 -36t-47 -71q-16 -41 -63.5 -110.5t-105.5 -136t-120.5 -115t-109.5 -48.5q-37 0 -50.5 24t-13.5 56q0 43 17.5 92.5 t44 96.5t58.5 89t60 72q63 66 146.5 114t179.5 48q29 0 54.5 -9t46 -19.5l37 -19.5t26.5 -9q8 0 15 5t7 15q0 29 -26.5 50.5t-63.5 35t-73.5 20.5t-59.5 7q-111 0 -207 -42t-174 -120q-39 -39 -73.5 -88t-61.5 -104.5t-42 -114t-15 -113.5z" />
<glyph unicode="h" horiz-adv-x="1114" d="M23 39q0 -16 2 -37.5t10 -40t21.5 -32t35.5 -13.5q23 0 41.5 12.5t31.5 30.5t24.5 38.5t19.5 39.5q12 27 44 87l74 136l91 157l94 148q45 68 84 111t61 43q16 0 18.5 -19.5t2.5 -29.5v-17q-10 -111 -21.5 -221t-11.5 -221q0 -29 1 -77t11.5 -93t32 -78t64.5 -33 q72 0 144.5 40t136 100.5t114.5 130t82 129.5q4 8 8 15t4 17q0 16 -6 28.5t-25 12.5q-18 0 -31 -19l-22 -32q-20 -33 -59 -84t-84 -98t-93.5 -82t-91.5 -35q-20 0 -31.5 9.5t-16.5 22.5t-6 29.5t-1 30.5q0 129 19.5 257t19.5 257q0 29 -5 61t-18.5 59.5t-36 46t-57.5 18.5 q-47 0 -99 -34t-102.5 -89t-98.5 -123t-89 -136.5t-73.5 -129t-51.5 -101.5q4 20 11.5 70.5l16.5 106t18.5 101.5t15.5 58l51 95q27 47 51 96q102 203 171 420t69 446q0 25 -4 58.5t-16.5 63.5t-34 50.5t-56.5 20.5q-29 0 -55.5 -13.5t-48 -35t-39 -46t-29.5 -49.5 q-49 -96 -84 -228t-59.5 -274.5t-42 -281.5t-29.5 -250q-10 -98 -21 -195l-24 -194q-6 -53 -14 -105.5t-8 -105.5zM233 745q2 35 13.5 120t29 192.5t41 223.5t51 212t57.5 157.5t62 61.5q10 0 14.5 -12t7.5 -28.5t3 -33.5v-22q0 -94 -26.5 -211t-66.5 -235.5t-89.5 -229.5 t-96.5 -195z" />
<glyph unicode="i" horiz-adv-x="538" d="M43 305q0 -45 6 -105.5t26.5 -114.5t56.5 -92t97 -38q55 0 112.5 36t112 87t99.5 107.5t74 97.5l15 21q9 13 18.5 28.5t15.5 30t6 24.5q0 16 -3 30.5t-24 14.5q-20 0 -33 -18l-24 -33q-20 -33 -58 -88t-84 -107.5t-94.5 -90.5t-89.5 -38q-27 0 -41 22.5t-21 53.5t-8 61.5 t-1 49.5q0 94 18 182q6 23 17 52l20 60q10 30 17.5 57.5t7.5 47.5q0 45 -48 45q-66 0 -97.5 -38t-49.5 -93q-16 -53 -29.5 -124t-13.5 -128zM186 893q0 -31 18.5 -54.5t51.5 -23.5q41 0 69.5 34t28.5 75q0 31 -19.5 54t-51.5 23q-41 0 -69 -34.5t-28 -73.5z" />
<glyph unicode="j" horiz-adv-x="471" d="M-381 -567q0 -41 10.5 -81t33 -71t55 -50t79.5 -19q66 0 125.5 33.5t102.5 78.5q98 100 155.5 259t86 337t35.5 354.5t7 313.5v39q0 25 -4 46t-16.5 37.5t-34.5 16.5q-18 0 -37.5 -12.5t-36 -30.5t-28 -38.5t-15.5 -37.5l-12 -61q-23 -94 -66 -163t-98 -146 q-8 -10 -13 -20.5t-5 -24.5q0 -27 26 -27q23 0 51.5 28.5t55 66.5t47 76t29.5 58q2 -61 3 -124v-41q0 -41 -1 -83v-20l-37 -25q-80 -53 -167 -124.5t-161 -157.5t-122 -184.5t-48 -202.5zM-293 -573q0 84 46 172t112.5 169.5t142.5 152.5t135 118q-6 -41 -19 -110.5 t-34.5 -151.5t-51.5 -165t-68 -150.5t-83 -110.5t-96 -43q-23 0 -39 11t-26.5 28.5t-14.5 39.5t-4 40zM129 940q0 -37 22.5 -69.5t63.5 -32.5t63.5 32.5t22.5 69.5t-22.5 68.5t-63.5 31.5t-63.5 -31.5t-22.5 -68.5z" />
<glyph unicode="k" horiz-adv-x="808" d="M57 121q0 -49 2 -98.5t5.5 -97.5t11.5 -87q4 -23 15 -40t38 -17q18 0 29.5 10t16.5 24.5t6 31t1 30.5q0 47 4 92l9 92q4 59 9 117t15 115q31 -10 59.5 -24.5l57.5 -30.5q70 -35 138.5 -73l137.5 -73q16 -8 31.5 -14t32.5 -6q14 0 28.5 5t14.5 23q0 29 -20.5 52.5 t-43.5 40.5q-59 41 -121 76l-126 71l-77 43q-38 20 -79 37l198 186q99 92 205 178q16 14 36 34t20 42q0 16 -13.5 31.5t-29.5 15.5q-20 0 -40 -18.5l-34 -30.5l-188 -176q-94 -86 -185 -180q20 180 52 355t73 351l38 157q19 79 48 157q8 23 14.5 45t6.5 45q0 55 -52 55 q-72 0 -110.5 -47t-57.5 -109q-41 -135 -66.5 -274t-47.5 -279q-29 -186 -45.5 -372.5t-16.5 -374.5v-90z" />
<glyph unicode="l" horiz-adv-x="612" d="M31 567q0 -39 3 -102.5t11 -136t24.5 -145t45 -131t68.5 -95.5t98 -37q63 0 126.5 40t121 97.5t103.5 123t77 114.5q10 16 20 34.5t10 39.5q0 14 -6 25.5t-22 11.5t-25.5 -8.5t-17.5 -20.5q-14 -20 -26.5 -42t-27.5 -42q-20 -29 -54 -72t-74 -83t-83 -67.5t-79 -27.5 q-43 0 -68 39t-39 92t-18 107.5t-4 85.5q0 18 1 45.5t7 44.5q4 14 15 30l20 29l50 79t48 79q47 84 92 190.5t82 219t59.5 225t22.5 209.5q0 29 -6 61.5t-19.5 60t-37 45t-60.5 17.5q-45 0 -89 -33t-82 -81t-66.5 -99t-45.5 -88q-86 -199 -120.5 -409t-34.5 -425zM188 674v31 q0 147 36 308t79 302l24 74q15 49 36.5 96t50 83t61.5 36q12 0 18.5 -9.5t9.5 -21.5t3 -27v-18q0 -98 -31 -217t-77 -239t-102 -231.5t-106 -195.5q-2 17 -2 29z" />
<glyph unicode="m" horiz-adv-x="1624" d="M4 35q0 -18 10.5 -31.5t30.5 -13.5q29 0 46.5 19.5t27.5 41.5q10 25 39 78l67 121l83 139q44 72 86 131.5t78 97t56 37.5q16 0 18.5 -16t2.5 -27v-73v-119q0 -68 4 -139.5t12 -132t22.5 -99.5t35.5 -39q20 0 32.5 10.5t22.5 26.5q16 25 46 79l69 122l83 140 q44 73 86 132.5t78.5 97t61.5 37.5q12 0 19 -10t10.5 -23.5t4.5 -27.5t1 -23q0 -94 -9.5 -186t-9.5 -184q0 -37 3 -84t17.5 -90t42 -72t79.5 -29q53 0 115.5 35t123 85t110.5 105.5t81 96.5q6 8 13 19.5t7 21.5q0 14 -5 28.5t-24 14.5q-20 0 -36.5 -19.5t-26.5 -33.5 q-20 -27 -57 -69t-80 -81t-87 -66.5t-79 -27.5q-20 0 -31.5 12t-16.5 28.5t-6 36t-1 33.5q0 119 14 237t14 236q0 29 -7 59t-22.5 54.5t-40 40.5t-57.5 16q-47 0 -91 -30.5t-82 -73.5t-70 -90l-58 -82l-83 -118q-42 -58 -79 -120q-4 -6 -13 -21t-15 -15q-4 0 -6 6t-2 8 q-8 31 -9 63v66q0 59 2 118.5t2 118.5q0 20 -3 49t-12 56t-25.5 45t-45.5 18q-41 0 -90 -42t-95 -99t-85 -117l-61 -92q10 59 24.5 118.5t36.5 115.5l21 49l24 58q12 30 20.5 58.5t8.5 49.5q0 23 -10.5 36t-32.5 13q-43 0 -90 -20.5t-70 -61.5q-12 -25 -30.5 -86t-37 -142 t-37 -171.5t-31.5 -173l-22.5 -148t-9.5 -96.5z" />
<glyph unicode="n" horiz-adv-x="923" d="M2 -23q0 -20 10.5 -35.5t32.5 -15.5q29 0 50.5 20.5t33.5 45.5q35 78 72 152.5t82 146.5q37 59 82 124.5t96 114.5q8 8 22.5 20.5t24.5 12.5q12 0 15 -16.5t3 -24.5q0 -59 -4 -116.5t-4 -116.5q0 -39 3 -86t18.5 -88t45 -69t83.5 -28q57 0 117.5 37t114.5 90.5t96 113.5 t65 108q4 8 9 20t5 21q0 14 -9 27.5t-26 13.5q-18 0 -30.5 -18.5t-20.5 -33.5q-16 -33 -47 -80t-69.5 -91t-80.5 -75.5t-83 -31.5q-25 0 -38.5 12t-19.5 30.5t-7 40t-1 40.5q0 72 4 143.5t4 142.5q0 23 -2 55.5t-11 65.5t-27.5 55.5t-49.5 22.5q-39 0 -91 -45t-103.5 -104.5 t-95.5 -120.5l-66 -95q8 59 20.5 119t34.5 117q18 49 35.5 107.5t17.5 111.5q0 33 -13 51.5t-48 18.5q-39 0 -75 -31t-44 -68q-10 -47 -18.5 -96t-18.5 -96l-62 -307q-32 -160 -32 -312z" />
<glyph unicode="o" horiz-adv-x="753" d="M51 233q0 -45 10.5 -94t33 -88t60.5 -64.5t93 -25.5q43 0 84 15.5t76 37.5q59 39 100 94.5t67.5 119t39 132t12.5 136.5q0 47 -9.5 96t-31 90t-58 67.5t-94.5 26.5q-92 0 -162.5 -56t-120 -138t-75 -176.5t-25.5 -172.5zM199 229q0 47 15 117t45 135.5t74 112.5t101 47 q33 0 53.5 -19.5t32.5 -47t16.5 -60.5t4.5 -57q0 -47 -8.5 -97.5t-26 -97.5t-45 -89t-66.5 -73q-20 -16 -43.5 -27.5t-50.5 -11.5q-31 0 -51.5 17.5t-31.5 42t-15 54t-4 54.5z" />
<glyph unicode="p" horiz-adv-x="960" d="M-190 -795q0 -25 4 -61.5t16 -69t34.5 -56.5t57.5 -24q27 0 48.5 13.5t40 34t31.5 44t21 44.5q35 82 58.5 204.5t41 254.5t30 260t20.5 223q23 -33 61.5 -53.5t85 -33t92.5 -16.5t83 -4q90 0 166.5 25.5t141 72t119 108.5t99.5 136q10 16 15 27.5t5 32.5q0 37 -34 36 q-18 0 -28.5 -19t-19.5 -32q-33 -59 -80 -115.5t-105 -99.5t-124.5 -69.5t-138.5 -26.5q-31 0 -62 6q29 4 52.5 19.5t44.5 35.5q41 39 73.5 97.5t56 123t37 130t13.5 120.5q0 41 -8 82t-26.5 73t-51.5 51.5t-82 19.5t-101.5 -31t-100.5 -76t-89 -93t-67 -85q4 35 9 71t5 70 q0 18 -8 40t-22.5 41.5t-34 31.5t-39.5 12q-27 0 -40.5 -18.5t-19.5 -43t-7 -52t-3 -45.5q-8 -72 -14.5 -143.5t-14.5 -143.5q-2 -20 -4 -55t-8 -54l-78 -240q-41 -130 -74.5 -265.5t-55 -267.5t-21.5 -247zM-102 -805q0 80 14 192.5t38.5 230.5t54.5 227.5t61 183.5 q-10 -176 -28 -351.5t-46 -349.5q-2 -10 -8.5 -46t-15.5 -76t-21.5 -71.5t-24.5 -31.5q-10 0 -14 12.5t-7 27.5t-3 32v20zM219 133q2 16 5 56t8.5 83t11.5 80t12 47q16 31 55 84.5t85 103.5t94.5 88t82.5 38q39 0 50.5 -35t11.5 -66q0 -51 -23.5 -136t-64.5 -166t-96.5 -140 t-116.5 -59q-43 0 -62.5 14t-38.5 14q-8 0 -14 -6z" />
<glyph unicode="q" horiz-adv-x="931" d="M14 178q0 160 71 302.5t185 250.5q47 43 106.5 82t125.5 39q27 0 44 -11.5t17 -39.5q0 -18 -10 -32.5t-25.5 -26t-33 -20.5t-29.5 -20q-49 -35 -105.5 -98t-105.5 -137t-81 -150.5t-32 -138.5q0 -8 1 -21.5t4.5 -25.5t10.5 -20.5t19 -8.5q20 0 48 30t58.5 77t62.5 103 l59 110l51 96l32 62q16 27 39 54.5t58 27.5q25 0 54.5 -16.5t29.5 -45.5q0 -53 -20.5 -111.5t-33.5 -109.5q-20 -78 -35.5 -158t-33.5 -158q35 -10 63 -10q59 0 112.5 26.5t99.5 68.5t83 93.5t62 98.5l20 38.5t35 22.5q20 0 26.5 -13t6.5 -30q0 -23 -13 -46l-22 -44 q-33 -55 -78 -110.5t-101.5 -100.5t-120 -72.5t-132.5 -27.5h-19q-8 0 -18 2q16 -66 18 -136.5t2 -137.5q0 -66 -4 -151t-14 -172t-29.5 -168t-50.5 -138q-8 -16 -22.5 -38t-31 -40t-36 -31.5t-41.5 -13.5q-35 0 -56.5 30.5t-33.5 71.5t-16.5 85t-4.5 69q0 207 41 408.5 t99 400.5q29 96 60.5 189.5t57.5 191.5q-16 -35 -50 -93.5t-74.5 -116.5t-83.5 -106.5t-80 -60.5l-32 -8q-15 -4 -32 -4q-37 0 -59.5 18.5t-36.5 46t-19.5 61t-5.5 62.5zM344 -868v-21q0 -14 2 -27.5t7 -24.5t14 -11q10 0 19 14t13 23q23 45 39.5 121.5t25.5 159.5t13 163 t4 133q0 51 -2 102.5t-12 102.5l-47 -212q-23 -105 -41 -214q-14 -78 -24.5 -154.5t-10.5 -154.5z" />
<glyph unicode="r" horiz-adv-x="798" d="M-55 193q0 -27 26 -27q16 0 30.5 10t25.5 21q35 35 63.5 80t53 94t43.5 98l36 94q45 -14 83 -45t38 -82q0 -57 -5 -112.5t-5 -112.5q0 -37 3 -86t17.5 -93t43 -76t79.5 -32q49 0 109.5 40t117 95.5t104.5 114.5t73 98q6 10 11 20.5t5 22.5q0 16 -5 29.5t-24 13.5 q-18 0 -31 -17l-24 -32q-18 -29 -57 -77t-84 -95t-91 -82t-81 -35q-29 0 -34 28t-5 48q0 74 12 145.5t29 143.5q10 45 10 80q0 68 -28.5 107.5t-68.5 67.5t-81 51.5t-66 60.5q6 49 6 98q0 16 -2 43t-10 52.5t-20.5 45t-34.5 19.5q-31 0 -53.5 -27t-38 -63.5t-22.5 -75.5 t-7 -64q0 -47 12.5 -91t40.5 -81q-12 -104 -64 -194t-112 -176q-8 -10 -13 -21.5t-5 -23.5z" />
<glyph unicode="s" horiz-adv-x="796" d="M-57 193q0 16 7 28t17 25q139 174 209 391q-18 53 -18 108q0 31 10 72t28.5 78t47 63.5t65.5 26.5q18 0 31.5 -11t21 -28.5t10.5 -36t3 -35.5q0 -51 -14.5 -103t-32.5 -99q25 -59 57 -119l64 -120q31 -60 51 -123.5t20 -129.5q0 -41 -11 -82t-36 -75q2 0 4 -1q35 0 82 32 q49 34 98.5 80t90 94t59.5 77l24 34q14 19 35 19q18 0 24.5 -12t6.5 -29q0 -10 -7 -21t-11 -22q-57 -90 -121 -161.5t-138.5 -120.5t-166 -75t-201.5 -26q-59 0 -128 12.5t-114 55.5q-10 10 -16 20.5t-6 24.5q0 31 32 31q12 0 20 -4l17 -11q35 -23 70 -30.5t76 -7.5 q82 0 124 50t42 128q0 47 -13.5 100t-34 106.5t-46 103.5t-50.5 87q-14 -41 -35.5 -91t-48 -99.5t-56.5 -94.5t-60 -75q-10 -10 -23.5 -21.5t-30.5 -11.5q-28 0 -28 29z" />
<glyph unicode="t" horiz-adv-x="632" d="M-10 950q0 -49 49 -49q23 0 43 6q-20 -98 -27.5 -199.5t-7.5 -201.5q0 -39 4 -97.5t14.5 -124t29 -131t46 -117.5t67.5 -85t93 -33q61 0 124.5 40t121 97.5t104.5 122t76 113.5q12 20 22.5 40.5t10.5 43.5q0 12 -8.5 21.5t-20.5 9.5q-16 0 -30.5 -16.5t-22.5 -31.5 q-23 -37 -60.5 -91t-84 -103t-96.5 -85t-97 -36q-41 0 -66.5 49t-39 114.5t-18.5 130t-5 95.5v23q0 14 4 22q4 10 13 22l18 21l28 40q14 19 27 42q51 84 98 179.5t72 189.5q12 2 37 8l51 13q27 7 49.5 14.5t30.5 11.5q12 8 19.5 15t7.5 24q0 27 -29 26q-35 0 -70 -6t-69 -10 q23 78 34 160t11 162q0 23 -2 54.5t-11.5 60t-28 49t-50.5 20.5q-72 0 -130.5 -65.5t-103.5 -156.5t-75.5 -184.5l-47.5 -148.5q-33 -2 -68.5 -14.5t-35.5 -53.5zM195 596q6 82 11 165t23 163q35 10 72 13t74 11q-10 -37 -30.5 -85t-46.5 -98t-53 -95t-50 -74zM242 1034 q4 31 23.5 102.5t48 146.5t63.5 131t69 56q8 0 12.5 -8t6.5 -18t2 -21v-14q0 -82 -16.5 -178t-40.5 -174q-41 -10 -84 -13.5t-84 -9.5z" />
<glyph unicode="u" horiz-adv-x="1024" d="M39 266q0 -39 3 -89t16.5 -94t43 -75t84.5 -31q57 0 115.5 36t112 87.5t97.5 108.5l75 100q-4 -20 -4 -39v-39q0 -33 3 -83t17 -95t41 -77.5t74 -32.5q59 0 124.5 45t127 108.5t110.5 132t74 117.5l9 21.5t5 21.5q0 16 -5 27.5t-23 11.5t-36 -24l-28 -37 q-16 -27 -56 -82.5t-87 -111.5t-94 -98t-78 -42q-20 0 -32.5 17.5t-19 41t-8.5 48t-2 38.5q0 47 6.5 106.5t17.5 119t26.5 117t31.5 102.5q6 18 13.5 37.5t7.5 39.5q0 23 -13.5 29t-31.5 6q-27 0 -44.5 -13t-29.5 -32.5t-20.5 -43t-16.5 -42.5q-12 -31 -41 -82l-65 -111 q-37 -60 -80 -122t-87 -112t-86 -82t-77 -32q-29 0 -34 31t-5 51q0 53 9 117t22.5 128.5t31 126t33.5 112.5q4 16 9.5 33.5t5.5 33.5q0 45 -48 45q-47 0 -84.5 -26.5t-54.5 -73.5q-29 -88 -42 -185.5t-13 -189.5z" />
<glyph unicode="v" horiz-adv-x="817" d="M0 657q0 -12 10 -23l19 -20q37 -43 73.5 -117.5t69.5 -158.5t56.5 -166t31.5 -137q6 -33 13.5 -54.5t48.5 -21.5q37 0 46 20.5t15 49.5q4 20 30 70l62 117l80 141l84 142l74 118q33 52 49 73q4 6 9 12.5t5 16.5q0 20 -18.5 33.5t-36.5 13.5t-31 -15l-22 -28 q-86 -123 -157 -254l-142 -260q-12 57 -35 124.5t-52.5 135.5t-64.5 129t-76 104q-12 14 -26.5 24.5t-34.5 10.5q-27 0 -53.5 -26.5t-26.5 -53.5z" />
<glyph unicode="w" horiz-adv-x="1183" d="M29 184q0 -29 3 -61.5t14 -59t32.5 -44t60.5 -17.5q49 0 110.5 46t122 108.5t112.5 127.5l83 101q2 -37 8.5 -95.5t17.5 -119.5t29.5 -114.5t45.5 -80.5q25 -25 55.5 -40t64.5 -15q86 0 140.5 64.5t83 154.5t39 185.5t10.5 158.5q0 20 -2 60.5t-10.5 81.5t-24.5 71.5 t-45 30.5q-23 0 -35 -18.5t-12 -38.5q0 -33 12 -44.5t25 -35.5q4 -8 7 -25.5t5 -37t2 -38.5v-30q0 -31 -8 -101.5t-25.5 -142.5t-45 -127t-68.5 -55q-20 0 -37 29.5t-29 75.5t-22.5 101.5t-16.5 107.5t-9 94t-3 59q0 33 -9.5 63.5t-50.5 30.5q-20 0 -41.5 -4t-33.5 -23 q-16 -23 -35 -54l-35 -58q-88 -129 -195 -236l-23 -22l-32 -29q-16 -14 -33.5 -24.5t-29.5 -10.5q-10 0 -11.5 11.5t-1.5 17.5q0 57 12.5 121.5t33 130t45 127t51.5 110.5q4 10 9 20.5t5 20.5q0 27 -21.5 36t-43.5 9q-27 0 -51.5 -10t-41.5 -33q-25 -37 -52.5 -104.5 t-51 -143t-38.5 -147.5t-15 -115z" />
<glyph unicode="x" horiz-adv-x="872" d="M29 309q0 -31 32 -30q20 0 49 51t59 112l55 113q26 51 38 51q10 0 17.5 -20.5t9.5 -28.5q16 -61 34.5 -120.5t34.5 -121.5q-12 -18 -51 -70l-79 -110q-40 -57 -71.5 -108.5t-31.5 -65.5q0 -18 17.5 -30.5t33.5 -12.5q23 0 35 19l184 284q14 -33 34 -71.5t45.5 -72.5 t59 -55.5t76.5 -21.5q61 0 123 39t116 95t96 119.5t67 115.5q4 8 9 19t5 22q0 14 -7 27.5t-24 13.5q-20 0 -34.5 -19.5t-22.5 -36.5q-18 -37 -50 -83t-72 -86t-84 -67.5t-91 -27.5q-23 0 -45.5 32t-41.5 74t-34 82l-20 60l107 162q54 80 102 166q6 10 10 20t4 23q0 12 -8 22 t-23 10q-12 0 -20 -7t-15 -17l-93 -146l-95 -145q-10 33 -24 63l-25 62l-22 47q-11 25 -26.5 45.5t-36 32.5t-50.5 12q-35 0 -72 -47t-69.5 -109.5t-59.5 -125t-41 -91.5q-14 -24 -14 -47z" />
<glyph unicode="y" horiz-adv-x="931" d="M16 233q0 -27 4.5 -56.5t16.5 -53t33.5 -38.5t56.5 -15q51 0 121.5 50t140.5 118.5t128 139.5t83 114q6 -160 6 -318v-59q0 -29 -2 -58q-80 -51 -173 -126.5t-174 -165t-135 -189.5t-54 -203q0 -41 9 -81t29.5 -70.5t53.5 -50t80 -19.5q49 0 94 18.5t84 47t72.5 66.5 t58.5 77q76 117 118 252t63.5 277.5t26.5 287t5 279.5v51q0 35 -3 71.5t-10.5 69.5t-19.5 41q-20 14 -41 15q-25 0 -42 -21l-32 -37l-144 -189q-71 -95 -155 -182l-27 -26q-19 -18 -41 -36.5t-42.5 -33t-32.5 -14.5q-16 0 -18 16.5t-2 26.5q0 29 9 72t22.5 90t28.5 90l26 69 q10 25 26.5 61t16.5 62q0 35 -27 59.5t-61 24.5q-29 0 -47.5 -16t-30.5 -41q-10 -18 -15.5 -37.5l-11.5 -40.5q-29 -88 -50.5 -182.5t-21.5 -186.5zM158 -631q0 90 44 176t109.5 163t141.5 142l141 119q-6 -68 -22.5 -150.5t-40 -166.5t-55.5 -161t-73 -130 q-14 -18 -32.5 -39.5t-40 -40t-45 -31t-47.5 -12.5q-25 0 -40.5 13.5t-24.5 33t-12 43t-3 41.5z" />
<glyph unicode="z" horiz-adv-x="772" d="M-53 -668q0 -86 54 -133t138 -47q109 0 196 59.5t146.5 149.5t91 196.5t31.5 202.5q0 63 -10 126t-33.5 120t-61.5 106.5t-93 86.5q31 41 72.5 87t79.5 96t64.5 103.5t26.5 106.5q0 82 -47 123t-125 41q-61 0 -120.5 -18.5t-112.5 -45.5q-2 49 -29 88t-80 39 q-51 0 -86 -29.5t-35 -82.5q0 -29 13.5 -47.5t35 -28.5t46 -14.5t47.5 -2.5h8q-2 -18 -18.5 -58t-37.5 -84l-43 -84q-22 -40 -34 -56q-10 -12 -17.5 -26.5t-7.5 -31.5q0 -14 9.5 -24t23.5 -10q23 0 50.5 41t55 94t48 104t26.5 72q6 16 9 34.5t10 35.5q35 16 79.5 27t81.5 11 q35 0 60.5 -14t25.5 -55q0 -45 -22.5 -94.5t-56 -95.5t-72.5 -87t-70 -69q-12 -10 -25.5 -25.5t-13.5 -32.5q0 -23 16.5 -40t32.5 -29q43 -39 82 -82t58 -101q-82 -41 -165 -103t-150.5 -140t-109.5 -169.5t-42 -189.5zM31 -653q0 86 36.5 158.5t95 133t131.5 107.5t142 80 q6 -35 6 -68q0 -47 -10 -103t-28.5 -112.5t-45 -106.5t-57.5 -85q-33 -37 -83 -74t-103 -37q-47 0 -65.5 33t-18.5 74zM82 715q0 45 43 45q31 0 40 -26.5t7 -49.5v-8q-8 -2 -22 -2q-20 0 -44 8t-24 33z" />
<glyph unicode="|" horiz-adv-x="329" d="M123 -160h84v1612h-84v-1612z" />
<glyph unicode="~" horiz-adv-x="772" d="M123 1223q66 39 94.5 52t54.5 13q27 0 55.5 -13t58.5 -29.5t57.5 -30t54.5 -13.5q39 0 71.5 12.5t79.5 38.5v78q-66 -39 -95.5 -51t-55.5 -12q-20 0 -49 12q-41 16 -87.5 45t-89.5 29q-39 0 -70.5 -14.5t-78.5 -41.5v-75z" />
<glyph unicode="&#xa1;" horiz-adv-x="643" d="M61 -295q0 -53 20.5 -84t80.5 -31q31 0 52.5 12.5t34.5 33t20 46l14 50.5q12 59 17 137l9 139q10 117 16.5 230.5t14.5 230.5q4 53 7 105.5t7 105.5q0 8 1 15t1 14q0 16 -4 38.5t-26 22.5q-35 0 -46.5 -23.5t-15.5 -52.5l-33 -159l-32 -160l-59 -272l-60 -273 l-12.5 -60.5t-6.5 -64.5zM279 1077q0 -35 27.5 -58.5t60.5 -23.5q41 0 56 36t15 69q0 37 -24.5 59.5t-59.5 22.5q-49 0 -62 -32t-13 -73z" />
<glyph unicode="&#xa3;" horiz-adv-x="1282" d="M51 37q0 -14 8.5 -32.5t20.5 -35t28.5 -28t30.5 -11.5q12 0 29 9q61 29 125.5 52t134.5 23q59 0 117.5 -9t116 -20.5t116 -20.5t117.5 -9q61 0 116.5 26.5t103.5 69.5t86 95.5t65 101.5q6 12 11 24.5t5 26.5q0 12 -12.5 20.5t-22.5 8.5q-23 0 -52.5 -44t-72.5 -96.5 t-101 -96.5t-140 -44q-61 0 -120 16.5t-116 35t-115.5 35t-119.5 16.5q16 37 29.5 102t24.5 139t20 143l16 111q59 4 119.5 11.5t119.5 21.5q10 4 19.5 6t9.5 16q0 25 -17.5 30t-35.5 5q-51 0 -102 -2l-101 -4l13.5 91.5t23.5 145.5t33.5 168t45 158.5t56.5 118.5t68 47 q55 0 75.5 -42t29.5 -92l17 -92q8 -42 37 -42q25 0 33 12t8 35q0 47 -11 104.5t-37.5 106.5t-66.5 83t-100 34q-51 0 -95 -27t-79 -61q-59 -59 -99 -152.5t-65.5 -198t-40 -209t-24.5 -186.5q-39 2 -78 6t-78 4q-25 0 -46 -12t-21 -41q0 -20 3 -27.5t21 -15.5q10 -4 35 -6 t53 -2h58h41l-13 -113q-8 -76 -23.5 -155.5t-40 -147t-59.5 -88.5q-18 -10 -40.5 -15t-44 -13.5t-36 -22.5t-14.5 -45z" />
<glyph unicode="&#xa8;" horiz-adv-x="692" d="M123 975q0 -37 24.5 -59.5t59.5 -22.5q49 0 62.5 31.5t13.5 72.5q0 35 -28 58.5t-60 23.5q-41 0 -56.5 -34.5t-15.5 -69.5zM410 975q0 -37 24.5 -59.5t59.5 -22.5q49 0 62 31.5t13 72.5q0 35 -27.5 58.5t-60.5 23.5q-41 0 -56 -34.5t-15 -69.5z" />
<glyph unicode="&#xa9;" horiz-adv-x="1384" d="M123 551q0 -117 45 -220.5t122 -181t180 -122.5t220 -45t221.5 45t182 121.5t123 181t45.5 221.5q0 121 -44 224.5t-122 181t-181.5 121.5t-224.5 44q-119 0 -222 -45t-180 -122.5t-121 -181t-44 -222.5zM199 551q0 102 38.5 192.5t105.5 157t156 105t191 38.5 q104 0 194.5 -37.5t157 -104t104.5 -157t38 -194.5q0 -100 -39 -190.5t-106.5 -156t-156.5 -104.5t-192 -39q-100 0 -189 39t-157 105.5t-106.5 156t-38.5 189.5zM387 549q0 -162 82 -255t219 -93q223 0 279 231h-109q-23 -74 -61.5 -106.5t-98.5 -32.5q-90 0 -140 64.5 t-50 193.5q0 131 50 198.5t140 67.5q55 0 92 -29.5t60 -95.5h111q-53 213 -265 213q-141 0 -225 -95t-84 -261z" />
<glyph unicode="&#xaa;" d="M0 215q0 -29 5 -65.5t18.5 -69.5t38 -55.5t61.5 -22.5q41 0 83 30.5t81 74t70 89.5l53 76q-1 -12 -1 -26q0 -28 3 -65q4 -54 20.5 -104t47 -86t81.5 -36q53 0 107.5 30.5t102.5 75.5t89 97l70 90q10 16 27.5 40.5t17.5 43.5q0 39 -33 39q-23 0 -35 -17.5t-22 -34.5 q-18 -29 -55 -75.5t-80 -90.5t-88.5 -77t-81.5 -33q-25 0 -38.5 25.5t-19.5 59.5t-7 66.5t-1 49.5q0 53 7 113.5t24 113.5l22 59q14 37 15 60q0 20 -15.5 26.5t-31.5 6.5q-29 0 -44.5 -19.5t-25.5 -42.5l-30 -62q-19 -42 -46 -91l-56 -102q-30 -52 -60.5 -94t-59.5 -69.5 t-51 -27.5q-18 0 -22.5 18.5t-4.5 30.5q0 117 47 218t127 183q45 47 95.5 83t105.5 69q8 4 14 9t6 15q0 23 -22.5 43.5t-44.5 20.5q-90 0 -173 -61.5t-147.5 -152.5t-103.5 -193.5t-39 -182.5z" />
<glyph unicode="&#xab;" horiz-adv-x="1189" d="M123 350q0 -14 16 -26l414 -295q31 -20 61 -21q14 0 25.5 8.5t11.5 24.5q0 10 -1 18.5t-9 14.5l-303 276l307 258q12 10 12 37q0 16 -11 19.5t-23 3.5q-18 0 -36 -6.5t-34 -16.5l-414 -266q-16 -11 -16 -29zM532 350q0 -14 17 -26l414 -295q31 -20 61 -21q14 0 25.5 8.5 t11.5 24.5q0 10 -1 18.5t-9 14.5l-303 276l307 258q12 10 12 37q0 16 -11.5 19.5t-23.5 3.5q-18 0 -35.5 -6.5t-33.5 -16.5l-414 -266q-17 -11 -17 -29z" />
<glyph unicode="&#xac;" horiz-adv-x="972" d="M123 338h659v-201h68v269h-727v-68z" />
<glyph unicode="&#xad;" horiz-adv-x="985" d="M205 422q0 -18 3 -27.5t21.5 -15.5t58.5 -7t60 -1q51 0 114.5 2t130 6t129 12t112.5 21q10 4 19 6t9 16q0 25 -17.5 30t-35.5 5q-68 0 -136.5 -3t-135.5 -3q-88 0 -179 6l-43 4q-20 2 -43 2t-45 -12t-22 -41z" />
<glyph unicode="&#xae;" horiz-adv-x="792" d="M123 1241q0 -117 80 -201q37 -39 85 -59t101 -20q117 0 197 79q84 84 84 195q0 57 -21.5 106.5t-58.5 86t-87 58t-108 21.5q-113 0 -192.5 -80t-79.5 -186zM174 1235q0 94 63.5 157.5t157.5 63.5q47 0 88 -17.5t72 -47t48.5 -69.5t17.5 -87t-17.5 -88t-48.5 -70.5 t-72 -47t-88 -17.5q-45 0 -85 17.5t-70.5 47t-48 70.5t-17.5 88zM285 1083h71v121h33l57 -121h82l-67 131q61 25 61 80q0 43 -32.5 67.5t-96.5 24.5h-108v-303zM356 1255v72h33q57 0 57 -35q0 -37 -53 -37h-37z" />
<glyph unicode="&#xb1;" horiz-adv-x="972" d="M123 -6h727v69h-727v-69zM123 385h330v-207h69v207h328v70h-328v209h-69v-209h-330v-70z" />
<glyph unicode="&#xb2;" horiz-adv-x="1019" d="M57 12q0 18 47 65l119 113l154 152q82 84 153.5 178t118.5 194.5t47 198.5q0 37 -14 73t-39 62.5t-58.5 43t-72.5 16.5q-45 0 -91 -16.5t-86 -46t-68.5 -68.5t-39.5 -84q-4 -23 -10 -47.5t-37 -24.5q-27 0 -35 14.5t-8 38.5q0 74 39 134.5t99.5 104.5t132 68.5 t137.5 24.5q68 0 129 -22.5t107 -63.5t74 -98t28 -129q0 -59 -31 -129t-82 -141.5t-114.5 -143t-129 -136t-126.5 -118.5l-105 -90q47 20 104 21q47 0 94.5 -9.5l93.5 -19.5l92 -19.5t91 -9.5q29 0 58.5 4t54.5 19q16 10 28.5 30.5t26.5 20.5q16 0 27.5 -11t11.5 -28 q0 -35 -23.5 -64.5t-58.5 -51t-73 -33t-68 -11.5q-86 0 -167 22.5t-167 22.5q-53 0 -104.5 -9t-102.5 -19q-25 -4 -50.5 -11.5t-51.5 -7.5q-20 0 -37 9t-17 32z" />
<glyph unicode="&#xb3;" horiz-adv-x="958" d="M-143 -346q0 -33 32.5 -52.5t75.5 -29.5t87 -13t67 -3q80 0 170 22.5t179 63.5t170 99t142.5 129t98 152.5t36.5 172.5q0 102 -39.5 176.5t-106.5 125t-152 80t-175 37.5q43 23 88 54.5t83 71.5t61.5 88.5t23.5 101.5q0 49 -24.5 80.5t-62.5 50t-82 26t-83 7.5t-84 -9.5 t-89 -27t-81.5 -41t-64.5 -53.5q-14 -16 -22.5 -32t-8.5 -38q0 -25 15.5 -41t40.5 -16q20 0 29 9t20 25q35 55 83 99.5t119 44.5q45 0 71 -31t26 -74q0 -53 -30 -101t-75 -88t-96 -73t-92 -55l-39 -23q-14 -8 -25 -37q-2 -4 -2 -12q0 -23 18.5 -30t35.5 -7q31 0 60.5 4.5 t59.5 4.5q72 0 147 -20.5t135 -61.5t99 -102.5t39 -143.5q0 -119 -58.5 -214t-150.5 -163t-203.5 -104.5t-218.5 -36.5q-27 0 -51 2t-49 12q-27 10 -50.5 20.5t-51.5 10.5q-18 0 -31.5 -7t-13.5 -30z" />
<glyph unicode="&#xb4;" horiz-adv-x="565" d="M123 915q0 10 5 20.5t9 20.5l59.5 104.5l59.5 104.5l28.5 53.5t30.5 51.5q25 31 62 30q29 0 47 -18t18 -47q0 -20 -14 -43q-18 -29 -41 -55l-45 -54l-70 -85q-35 -42 -73 -83l-22 -20q-11 -10 -25 -10q-12 0 -20.5 9t-8.5 21z" />
<glyph unicode="&#xb9;" horiz-adv-x="708" d="M61 723q0 -16 6.5 -27.5t26.5 -11.5q25 0 65 21.5t82 50t80 58.5l58 46q-10 -127 -39 -249t-64 -244q-8 -31 -27 -88l-39 -119q-19 -61 -33.5 -115.5t-14.5 -79.5q0 -16 5 -28.5t23 -12.5q10 0 15 2q25 6 52.5 9.5t51 12.5t40 26.5t22.5 48.5q8 41 13 82.5t13 82.5 q27 143 56.5 283.5t68.5 282.5q18 70 41 141.5t58 134.5q10 16 18 31.5t8 34.5q0 16 -10 26.5t-24.5 16.5t-31 8t-28.5 2q-37 0 -64.5 -12.5t-50.5 -42.5q-55 -78 -123.5 -144.5t-146.5 -122.5q-20 -14 -42 -26.5t-40 -28.5q-25 -20 -25 -49z" />
<glyph unicode="&#xba;" horiz-adv-x="753" d="M51 233q0 -45 10.5 -94t33 -88t60.5 -64.5t93 -25.5q43 0 84 15.5t76 37.5q59 39 100 94.5t67.5 119t39 132t12.5 136.5q0 47 -9.5 96t-31 90t-58 67.5t-94.5 26.5q-92 0 -162.5 -56t-120 -138t-75 -176.5t-25.5 -172.5zM199 229q0 47 15 117t45 135.5t74 112.5t101 47 q33 0 53.5 -19.5t32.5 -47t16.5 -60.5t4.5 -57q0 -47 -8.5 -97.5t-26 -97.5t-45 -89t-66.5 -73q-20 -16 -43.5 -27.5t-50.5 -11.5q-31 0 -51.5 17.5t-31.5 42t-15 54t-4 54.5z" />
<glyph unicode="&#xbb;" horiz-adv-x="1189" d="M123 645q0 16 11 19.5t24 3.5q18 0 35.5 -6.5t33.5 -16.5l414 -266q16 -10 16 -29q0 -14 -16 -26l-414 -295q-31 -20 -61 -21q-14 0 -25.5 8.5t-11.5 24.5q0 10 1 18.5t9 14.5l303 276l-307 258q-12 10 -12 37zM532 645q0 16 11.5 19.5t23.5 3.5q18 0 36 -6.5t34 -16.5 l414 -266q16 -10 16 -29q0 -14 -16 -26l-414 -295q-31 -20 -62 -21q-14 0 -25 8.5t-11 24.5q0 10 1 18.5t9 14.5l303 276l-307 258q-13 10 -13 37z" />
<glyph unicode="&#xbf;" horiz-adv-x="1028" d="M61 -125q0 -74 27 -128t72 -89t105.5 -51.5t127.5 -16.5q59 0 118.5 22.5t106 62.5t75 94.5t28.5 117.5q0 20 -7 55t-20.5 68t-34 56.5t-47.5 23.5q-16 0 -29.5 -10t-13.5 -27q0 -6 9.5 -20.5t19.5 -36t19.5 -50t9.5 -61.5q0 -39 -17.5 -72.5t-45 -59t-63.5 -41 t-73 -15.5t-67.5 15.5t-54 41t-37 58t-13.5 67.5q0 98 34 178t86 148.5t111.5 131t111.5 127t86 134.5t34 152q0 10 -1 24t-5 26.5t-12.5 21.5t-22.5 9q-16 0 -24.5 -6t-11.5 -16t-3 -23q0 -12 -2 -24q-8 -72 -53 -137.5t-110 -129.5l-137 -133q-73 -68 -133.5 -142.5 t-101.5 -159.5t-41 -185zM623 1067q0 -35 27.5 -58.5t60.5 -23.5q41 0 56 36t15 69q0 37 -24.5 59t-59.5 22q-49 0 -62 -31.5t-13 -72.5z" />
<glyph unicode="&#xc0;" horiz-adv-x="1468" d="M-225 -135q0 -20 17.5 -32.5t41 -19t48 -8.5t38.5 -2q82 0 150.5 35t126 91.5t105.5 129t88 150.5t73 153.5t63 137.5q74 8 146.5 21.5t146.5 23.5q10 -72 31.5 -171.5t62.5 -189.5t105.5 -153.5t159.5 -63.5q57 0 115.5 34t110.5 83t94 106.5t69 102.5q6 12 11 24.5 t5 26.5q0 12 -12 20.5t-23 8.5q-16 0 -27.5 -12.5t-19.5 -22.5q-25 -37 -58.5 -80t-73.5 -80t-86 -61.5t-95 -24.5q-31 0 -56.5 29t-46 75t-36 101t-26.5 108.5t-17.5 98.5t-8.5 67q37 6 89.5 12.5t87.5 16.5q18 4 34.5 17.5t16.5 35.5q0 16 -12.5 22.5t-26.5 6.5 q-49 0 -99.5 -9t-97.5 -16q-10 90 -12 178.5t-2 178.5q0 113 9 225.5t9 224.5v6q0 20 -11 47t-36 27q-18 0 -50 -8t-61.5 -22.5t-51 -34t-21.5 -41.5q0 -61 -11.5 -114.5t-35.5 -111.5l-52 -132l-73 -186l-89 -218q-48 -115 -101.5 -227.5t-112 -215t-117.5 -181.5 t-120.5 -125t-121.5 -46q-29 0 -55.5 9.5t-52.5 9.5q-16 0 -30.5 -8.5t-14.5 -26.5zM567 594q35 74 65 148l58 151q4 10 13.5 36.5l20.5 55.5t21.5 51.5t14.5 22.5q6 0 10 -20.5t6 -48t3 -55.5t1 -42q4 -68 10.5 -134.5t14.5 -133.5q-59 -8 -119 -14.5t-119 -16.5zM614 1972 q0 -20 15 -43q18 -29 41 -55l45 -53l69 -85q35 -42 74 -83l21.5 -20.5t25.5 -10.5q12 0 20.5 9t8.5 22q0 10 -5 20t-9 21q-29 53 -60 104t-59 105l-28.5 53.5t-31.5 50.5q-25 31 -61 31q-29 0 -47.5 -18.5t-18.5 -47.5z" />
<glyph unicode="&#xc1;" horiz-adv-x="1468" d="M-225 -135q0 -20 17.5 -32.5t41 -19t48 -8.5t38.5 -2q82 0 150.5 35t126 91.5t105.5 129t88 150.5t73 153.5t63 137.5q74 8 146.5 21.5t146.5 23.5q10 -72 31.5 -171.5t62.5 -189.5t105.5 -153.5t159.5 -63.5q57 0 115.5 34t110.5 83t94 106.5t69 102.5q6 12 11 24.5 t5 26.5q0 12 -12 20.5t-23 8.5q-16 0 -27.5 -12.5t-19.5 -22.5q-25 -37 -58.5 -80t-73.5 -80t-86 -61.5t-95 -24.5q-31 0 -56.5 29t-46 75t-36 101t-26.5 108.5t-17.5 98.5t-8.5 67q37 6 89.5 12.5t87.5 16.5q18 4 34.5 17.5t16.5 35.5q0 16 -12.5 22.5t-26.5 6.5 q-49 0 -99.5 -9t-97.5 -16q-10 90 -12 178.5t-2 178.5q0 113 9 225.5t9 224.5v6q0 20 -11 47t-36 27q-18 0 -50 -8t-61.5 -22.5t-51 -34t-21.5 -41.5q0 -61 -11.5 -114.5t-35.5 -111.5l-52 -132l-73 -186l-89 -218q-48 -115 -101.5 -227.5t-112 -215t-117.5 -181.5 t-120.5 -125t-121.5 -46q-29 0 -55.5 9.5t-52.5 9.5q-16 0 -30.5 -8.5t-14.5 -26.5zM567 594q35 74 65 148l58 151q4 10 13.5 36.5l20.5 55.5t21.5 51.5t14.5 22.5q6 0 10 -20.5t6 -48t3 -55.5t1 -42q4 -68 10.5 -134.5t14.5 -133.5q-59 -8 -119 -14.5t-119 -16.5zM840 1653 q0 10 5 20t9 21l59.5 104t59.5 105l28.5 53.5t30.5 50.5q25 31 62 31q29 0 47 -18.5t18 -47.5q0 -20 -14 -43q-18 -29 -41 -55l-45 -53l-70 -85q-35 -42 -74 -83l-21 -20.5t-26 -10.5q-12 0 -20 9.5t-8 21.5z" />
<glyph unicode="&#xc2;" horiz-adv-x="1468" d="M-225 -135q0 -20 17.5 -32.5t41 -19t48 -8.5t38.5 -2q82 0 150.5 35t126 91.5t105.5 129t88 150.5t73 153.5t63 137.5q74 8 146.5 21.5t146.5 23.5q10 -72 31.5 -171.5t62.5 -189.5t105.5 -153.5t159.5 -63.5q57 0 115.5 34t110.5 83t94 106.5t69 102.5q6 12 11 24.5 t5 26.5q0 12 -12 20.5t-23 8.5q-16 0 -27.5 -12.5t-19.5 -22.5q-25 -37 -58.5 -80t-73.5 -80t-86 -61.5t-95 -24.5q-31 0 -56.5 29t-46 75t-36 101t-26.5 108.5t-17.5 98.5t-8.5 67q37 6 89.5 12.5t87.5 16.5q18 4 34.5 17.5t16.5 35.5q0 16 -12.5 22.5t-26.5 6.5 q-49 0 -99.5 -9t-97.5 -16q-10 90 -12 178.5t-2 178.5q0 113 9 225.5t9 224.5v6q0 20 -11 47t-36 27q-18 0 -50 -8t-61.5 -22.5t-51 -34t-21.5 -41.5q0 -61 -11.5 -114.5t-35.5 -111.5l-52 -132l-73 -186l-89 -218q-48 -115 -101.5 -227.5t-112 -215t-117.5 -181.5 t-120.5 -125t-121.5 -46q-29 0 -55.5 9.5t-52.5 9.5q-16 0 -30.5 -8.5t-14.5 -26.5zM567 594q35 74 65 148l58 151q4 10 13.5 36.5l20.5 55.5t21.5 51.5t14.5 22.5q6 0 10 -20.5t6 -48t3 -55.5t1 -42q4 -68 10.5 -134.5t14.5 -133.5q-59 -8 -119 -14.5t-119 -16.5zM594 1583 q0 -14 8 -21.5t19 -7.5q12 0 28 13l230 188l215 -190q16 -12 28 -13q20 0 21 27q0 12 -6.5 23.5t-12.5 19.5l-221 256q-10 10 -24 10q-12 0 -23 -10l-244 -256q-6 -8 -12 -17.5t-6 -21.5z" />
<glyph unicode="&#xc3;" horiz-adv-x="1468" d="M-225 -135q0 -20 17.5 -32.5t41 -19t48 -8.5t38.5 -2q82 0 150.5 35t126 91.5t105.5 129t88 150.5t73 153.5t63 137.5q74 8 146.5 21.5t146.5 23.5q10 -72 31.5 -171.5t62.5 -189.5t105.5 -153.5t159.5 -63.5q57 0 115.5 34t110.5 83t94 106.5t69 102.5q6 12 11 24.5 t5 26.5q0 12 -12 20.5t-23 8.5q-16 0 -27.5 -12.5t-19.5 -22.5q-25 -37 -58.5 -80t-73.5 -80t-86 -61.5t-95 -24.5q-31 0 -56.5 29t-46 75t-36 101t-26.5 108.5t-17.5 98.5t-8.5 67q37 6 89.5 12.5t87.5 16.5q18 4 34.5 17.5t16.5 35.5q0 16 -12.5 22.5t-26.5 6.5 q-49 0 -99.5 -9t-97.5 -16q-10 90 -12 178.5t-2 178.5q0 113 9 225.5t9 224.5v6q0 20 -11 47t-36 27q-18 0 -50 -8t-61.5 -22.5t-51 -34t-21.5 -41.5q0 -61 -11.5 -114.5t-35.5 -111.5l-52 -132l-73 -186l-89 -218q-48 -115 -101.5 -227.5t-112 -215t-117.5 -181.5 t-120.5 -125t-121.5 -46q-29 0 -55.5 9.5t-52.5 9.5q-16 0 -30.5 -8.5t-14.5 -26.5zM567 594q35 74 65 148l58 151q4 10 13.5 36.5l20.5 55.5t21.5 51.5t14.5 22.5q6 0 10 -20.5t6 -48t3 -55.5t1 -42q4 -68 10.5 -134.5t14.5 -133.5q-59 -8 -119 -14.5t-119 -16.5zM614 1645 q0 -10 6.5 -20.5t22.5 -10.5t22.5 10t6.5 21q0 29 35.5 50t87.5 21q31 0 50 -17.5t39.5 -39t50.5 -38.5t83 -17q63 0 107 38.5t44 114.5q0 33 -28 33q-31 0 -31 -29q0 -27 -28.5 -43t-63.5 -16q-37 0 -59.5 17.5t-43 38t-47 37.5t-73.5 17q-29 0 -61 -13t-58.5 -35.5 t-44 -53t-17.5 -65.5z" />
<glyph unicode="&#xc4;" horiz-adv-x="1468" d="M-225 -135q0 -20 17.5 -32.5t41 -19t48 -8.5t38.5 -2q82 0 150.5 35t126 91.5t105.5 129t88 150.5t73 153.5t63 137.5q74 8 146.5 21.5t146.5 23.5q10 -72 31.5 -171.5t62.5 -189.5t105.5 -153.5t159.5 -63.5q57 0 115.5 34t110.5 83t94 106.5t69 102.5q6 12 11 24.5 t5 26.5q0 12 -12 20.5t-23 8.5q-16 0 -27.5 -12.5t-19.5 -22.5q-25 -37 -58.5 -80t-73.5 -80t-86 -61.5t-95 -24.5q-31 0 -56.5 29t-46 75t-36 101t-26.5 108.5t-17.5 98.5t-8.5 67q37 6 89.5 12.5t87.5 16.5q18 4 34.5 17.5t16.5 35.5q0 16 -12.5 22.5t-26.5 6.5 q-49 0 -99.5 -9t-97.5 -16q-10 90 -12 178.5t-2 178.5q0 113 9 225.5t9 224.5v6q0 20 -11 47t-36 27q-18 0 -50 -8t-61.5 -22.5t-51 -34t-21.5 -41.5q0 -61 -11.5 -114.5t-35.5 -111.5l-52 -132l-73 -186l-89 -218q-48 -115 -101.5 -227.5t-112 -215t-117.5 -181.5 t-120.5 -125t-121.5 -46q-29 0 -55.5 9.5t-52.5 9.5q-16 0 -30.5 -8.5t-14.5 -26.5zM567 594q35 74 65 148l58 151q4 10 13.5 36.5l20.5 55.5t21.5 51.5t14.5 22.5q6 0 10 -20.5t6 -48t3 -55.5t1 -42q4 -68 10.5 -134.5t14.5 -133.5q-59 -8 -119 -14.5t-119 -16.5zM655 1712 q0 -37 25 -59.5t59 -22.5q49 0 62.5 32t13.5 73q0 35 -27.5 58.5t-60.5 23.5q-41 0 -56.5 -35t-15.5 -70zM942 1712q0 -37 24.5 -59.5t59.5 -22.5q49 0 62.5 32t13.5 73q0 35 -27.5 58.5t-60.5 23.5q-41 0 -56.5 -35t-15.5 -70z" />
<glyph unicode="&#xc5;" horiz-adv-x="1468" d="M-225 -135q0 -20 17.5 -32.5t41 -19t48 -8.5t38.5 -2q82 0 150.5 35t126 91.5t105.5 129t88 150.5t73 153.5t63 137.5q74 8 146.5 21.5t146.5 23.5q10 -72 31.5 -171.5t62.5 -189.5t105.5 -153.5t159.5 -63.5q57 0 115.5 34t110.5 83t94 106.5t69 102.5q6 12 11 24.5 t5 26.5q0 12 -12 20.5t-23 8.5q-16 0 -27.5 -12.5t-19.5 -22.5q-25 -37 -58.5 -80t-73.5 -80t-86 -61.5t-95 -24.5q-31 0 -56.5 29t-46 75t-36 101t-26.5 108.5t-17.5 98.5t-8.5 67q37 6 89.5 12.5t87.5 16.5q18 4 34.5 17.5t16.5 35.5q0 16 -12.5 22.5t-26.5 6.5 q-49 0 -99.5 -9t-97.5 -16q-10 90 -12 178.5t-2 178.5q0 113 9 225.5t9 224.5v6q0 20 -11 47t-36 27q-18 0 -50 -8t-61.5 -22.5t-51 -34t-21.5 -41.5q0 -61 -11.5 -114.5t-35.5 -111.5l-52 -132l-73 -186l-89 -218q-48 -115 -101.5 -227.5t-112 -215t-117.5 -181.5 t-120.5 -125t-121.5 -46q-29 0 -55.5 9.5t-52.5 9.5q-16 0 -30.5 -8.5t-14.5 -26.5zM567 594q35 74 65 148l58 151q4 10 13.5 36.5l20.5 55.5t21.5 51.5t14.5 22.5q6 0 10 -20.5t6 -48t3 -55.5t1 -42q4 -68 10.5 -134.5t14.5 -133.5q-59 -8 -119 -14.5t-119 -16.5zM778 1755 q0 -49 24.5 -95t82.5 -46q41 0 74.5 22.5t57 56t37 73.5t13.5 77q0 25 -5 51.5t-17.5 48t-32 35t-49.5 13.5q-43 0 -77 -22.5t-57.5 -58.5t-37 -77t-13.5 -78zM858 1737q0 20 7 51t20.5 60.5t34 50t45.5 20.5q23 0 32 -26.5t9 -43.5q0 -20 -9.5 -51t-25 -58.5t-38 -47 t-46.5 -19.5q-23 0 -26 24t-3 40z" />
<glyph unicode="&#xc6;" horiz-adv-x="1775" d="M-225 -135q0 -20 17.5 -32.5t41 -19t48 -8.5t38.5 -2q82 0 150.5 35t126 91.5t105.5 129t88 150.5t73 153.5t63 137.5q74 8 146.5 21.5t146.5 23.5q6 -47 19.5 -107.5l29.5 -126.5q18 -74 48 -139.5t77 -116.5t111.5 -80.5t150.5 -29.5q88 0 172 27.5t161 74.5 t142.5 109.5t114.5 132.5l27 43q16 27 16 47q0 16 -9 26.5t-26 10.5q-14 0 -21 -6.5t-15 -16.5l-34 -52.5t-36 -49.5q-31 -37 -70 -72t-84 -63.5t-94 -48t-100 -27.5q-88 -14 -151.5 11.5t-107.5 72.5t-70 109.5t-39 124t-15 113.5t0 79q47 6 133 23l176 36l169 36 q79 17 110 26q47 10 60 28.5t7 46.5q0 4 -12 6.5t-26.5 3.5t-28.5 1h-17q-33 0 -110 -6l-164 -14l-162 -13q-76 -6 -104 -6q12 47 35.5 116.5t57.5 148.5t77 158t93 141t106.5 102t115.5 40q61 0 90 -28.5t44 -63.5t24.5 -63.5t31.5 -28.5q31 0 36 22.5t5 47.5 q0 104 -60.5 161.5t-164.5 57.5q-94 0 -178 -43t-154.5 -114t-129 -161t-101.5 -186q4 100 11 199.5t7 199.5v6q0 20 -11 47t-36 27q-18 0 -50 -8t-61.5 -22.5t-51 -34t-21.5 -41.5q0 -61 -11.5 -114.5t-35.5 -111.5l-52 -132l-73 -186l-89 -218q-48 -115 -101.5 -227.5 t-112 -215t-117.5 -181.5t-120.5 -125t-121.5 -46q-29 0 -55.5 9.5t-52.5 9.5q-16 0 -30.5 -8.5t-14.5 -26.5zM567 594q35 74 65 148l58 151q4 10 13.5 36.5l20.5 55.5t21.5 51.5t14.5 22.5q6 0 10 -20.5t6 -48t3 -55.5t1 -42q4 -68 10.5 -134.5t14.5 -133.5 q-59 -8 -119 -14.5t-119 -16.5z" />
<glyph unicode="&#xc7;" horiz-adv-x="1239" d="M150 596q0 -127 35.5 -247t106 -212t176 -148.5t245.5 -56.5q14 -31 22 -60.5t8 -64.5q0 -18 -11 -34.5t-27.5 -28.5t-38 -18.5t-39.5 -1.5q-8 2 -27 2q-18 0 -29.5 -13.5t-11.5 -29.5q0 -14 10.5 -25.5t23.5 -19t28.5 -11.5t27.5 -4q31 0 67 9.5t65.5 30t49 54 t19.5 82.5q0 86 -23 144q80 14 157 49t144.5 83t124 108.5t95.5 129.5l16 32q10 19 10 34q0 14 -9 24.5t-24 10.5q-18 0 -31.5 -16.5t-23.5 -30.5l-30.5 -49.5t-32.5 -47.5q-86 -104 -203 -162.5t-252 -58.5q-119 0 -194.5 46t-118.5 123t-59.5 175.5t-16.5 202.5 q0 57 13.5 140t40 173t65.5 178.5t90 159t114.5 114.5t139.5 44t115.5 -52.5t39.5 -123.5q0 -43 -8 -89t-18 -87q-4 -12 -12 -31l-15 -38q-8 -19 -13 -36.5t-5 -29.5q0 -23 15 -30t36 -7q29 0 49 14q23 16 38 60t24.5 96.5t13.5 102.5t4 77q0 61 -20.5 114.5t-58.5 92.5 t-89 60.5t-113 21.5q-109 0 -202 -42t-167.5 -114t-132 -166t-96.5 -196.5t-58 -207t-19 -198.5z" />
<glyph unicode="&#xc8;" horiz-adv-x="1054" d="M-18 602q0 29 17 45.5t42 26.5t53.5 15t48.5 11q16 76 47 166t76 182.5t101.5 178.5t126 153.5t150.5 107.5t173 40q104 0 164.5 -57.5t60.5 -161.5q0 -25 -5 -47.5t-36 -22.5q-23 0 -31.5 28.5t-24 63.5t-44.5 63.5t-90 28.5q-59 0 -113.5 -37.5t-100.5 -97t-85 -134.5 t-68.5 -150.5t-50 -144l-33.5 -114.5q27 8 96.5 15.5t149.5 12.5t151.5 8t104.5 3h17q14 0 29.5 -1t26.5 -3t11 -6q0 -29 -20.5 -49t-46.5 -27q-8 2 -49 -6l-97 -20l-122 -27l-122 -28l-99 -23q-42 -10 -52 -12q-4 -16 -5 -35t-1 -37q0 -76 13 -160t48 -154.5t93.5 -117.5 t150.5 -47q119 0 218 64.5t171 154.5q20 25 35.5 50.5t34.5 51.5q8 10 15 16.5t22 6.5q16 0 25 -10.5t9 -26.5q0 -20 -16 -47l-27 -43q-49 -70 -114.5 -132.5t-142 -109.5t-160.5 -74.5t-172 -27.5q-117 0 -195 53t-126 136t-68.5 184.5t-20.5 199.5q0 14 1 27.5t1 27.5h-45 q-25 0 -47.5 6.5t-37.5 20.5t-15 43zM553 1972q0 -20 14 -43q18 -29 41 -55l45 -53l70 -85q35 -42 74 -83l21 -20.5t26 -10.5q12 0 20 9t8 22q0 10 -5 20t-9 21l-59.5 104t-59.5 105l-28.5 53.5t-30.5 50.5q-25 31 -62 31q-29 0 -47 -18.5t-18 -47.5z" />
<glyph unicode="&#xc9;" horiz-adv-x="1054" d="M-18 602q0 29 17 45.5t42 26.5t53.5 15t48.5 11q16 76 47 166t76 182.5t101.5 178.5t126 153.5t150.5 107.5t173 40q104 0 164.5 -57.5t60.5 -161.5q0 -25 -5 -47.5t-36 -22.5q-23 0 -31.5 28.5t-24 63.5t-44.5 63.5t-90 28.5q-59 0 -113.5 -37.5t-100.5 -97t-85 -134.5 t-68.5 -150.5t-50 -144l-33.5 -114.5q27 8 96.5 15.5t149.5 12.5t151.5 8t104.5 3h17q14 0 29.5 -1t26.5 -3t11 -6q0 -29 -20.5 -49t-46.5 -27q-8 2 -49 -6l-97 -20l-122 -27l-122 -28l-99 -23q-42 -10 -52 -12q-4 -16 -5 -35t-1 -37q0 -76 13 -160t48 -154.5t93.5 -117.5 t150.5 -47q119 0 218 64.5t171 154.5q20 25 35.5 50.5t34.5 51.5q8 10 15 16.5t22 6.5q16 0 25 -10.5t9 -26.5q0 -20 -16 -47l-27 -43q-49 -70 -114.5 -132.5t-142 -109.5t-160.5 -74.5t-172 -27.5q-117 0 -195 53t-126 136t-68.5 184.5t-20.5 199.5q0 14 1 27.5t1 27.5h-45 q-25 0 -47.5 6.5t-37.5 20.5t-15 43zM758 1653q0 10 5 20t9 21l59.5 104t59.5 105l28.5 53.5t30.5 50.5q25 31 62 31q29 0 47 -18.5t18 -47.5q0 -20 -14 -43q-18 -29 -41 -55l-45 -53l-70 -85q-35 -42 -73 -83l-21.5 -20.5t-26.5 -10.5q-12 0 -20 9.5t-8 21.5z" />
<glyph unicode="&#xca;" horiz-adv-x="1054" d="M-18 602q0 29 17 45.5t42 26.5t53.5 15t48.5 11q16 76 47 166t76 182.5t101.5 178.5t126 153.5t150.5 107.5t173 40q104 0 164.5 -57.5t60.5 -161.5q0 -25 -5 -47.5t-36 -22.5q-23 0 -31.5 28.5t-24 63.5t-44.5 63.5t-90 28.5q-59 0 -113.5 -37.5t-100.5 -97t-85 -134.5 t-68.5 -150.5t-50 -144l-33.5 -114.5q27 8 96.5 15.5t149.5 12.5t151.5 8t104.5 3h17q14 0 29.5 -1t26.5 -3t11 -6q0 -29 -20.5 -49t-46.5 -27q-8 2 -49 -6l-97 -20l-122 -27l-122 -28l-99 -23q-42 -10 -52 -12q-4 -16 -5 -35t-1 -37q0 -76 13 -160t48 -154.5t93.5 -117.5 t150.5 -47q119 0 218 64.5t171 154.5q20 25 35.5 50.5t34.5 51.5q8 10 15 16.5t22 6.5q16 0 25 -10.5t9 -26.5q0 -20 -16 -47l-27 -43q-49 -70 -114.5 -132.5t-142 -109.5t-160.5 -74.5t-172 -27.5q-117 0 -195 53t-126 136t-68.5 184.5t-20.5 199.5q0 14 1 27.5t1 27.5h-45 q-25 0 -47.5 6.5t-37.5 20.5t-15 43zM526 1583q0 -29 27 -29q16 0 29 13l229 188l215 -190q10 -12 29 -13q20 0 20 27q0 20 -18 43l-221 256q-8 10 -25 10q-14 0 -23 -10l-243 -256l-12.5 -17.5t-6.5 -21.5z" />
<glyph unicode="&#xcb;" horiz-adv-x="1054" d="M-18 602q0 29 17 45.5t42 26.5t53.5 15t48.5 11q16 76 47 166t76 182.5t101.5 178.5t126 153.5t150.5 107.5t173 40q104 0 164.5 -57.5t60.5 -161.5q0 -25 -5 -47.5t-36 -22.5q-23 0 -31.5 28.5t-24 63.5t-44.5 63.5t-90 28.5q-59 0 -113.5 -37.5t-100.5 -97t-85 -134.5 t-68.5 -150.5t-50 -144l-33.5 -114.5q27 8 96.5 15.5t149.5 12.5t151.5 8t104.5 3h17q14 0 29.5 -1t26.5 -3t11 -6q0 -29 -20.5 -49t-46.5 -27q-8 2 -49 -6l-97 -20l-122 -27l-122 -28l-99 -23q-42 -10 -52 -12q-4 -16 -5 -35t-1 -37q0 -76 13 -160t48 -154.5t93.5 -117.5 t150.5 -47q119 0 218 64.5t171 154.5q20 25 35.5 50.5t34.5 51.5q8 10 15 16.5t22 6.5q16 0 25 -10.5t9 -26.5q0 -20 -16 -47l-27 -43q-49 -70 -114.5 -132.5t-142 -109.5t-160.5 -74.5t-172 -27.5q-117 0 -195 53t-126 136t-68.5 184.5t-20.5 199.5q0 14 1 27.5t1 27.5h-45 q-25 0 -47.5 6.5t-37.5 20.5t-15 43zM573 1692q0 -37 25 -59.5t59 -22.5q49 0 62.5 31.5t13.5 72.5q0 35 -27.5 58.5t-60.5 23.5q-41 0 -56.5 -34.5t-15.5 -69.5zM860 1692q0 -37 24.5 -59.5t59.5 -22.5q49 0 62.5 31.5t13.5 72.5q0 35 -27.5 58.5t-60.5 23.5 q-41 0 -56.5 -34.5t-15.5 -69.5z" />
<glyph unicode="&#xcc;" horiz-adv-x="933" d="M0 31q0 -29 21.5 -49.5t50 -35t61.5 -20.5t53 -6q96 0 175 40t144.5 109.5t117 161t91.5 193.5t67.5 210.5t46 212t26.5 196t8 161.5q0 55 -5 115.5t-26.5 110t-61.5 82t-112 32.5q-70 0 -142.5 -41t-139 -102.5t-117.5 -132t-78 -129.5q-31 -72 -53.5 -148t-22.5 -153 q0 -20 2.5 -52t10.5 -62t24.5 -51.5t44.5 -21.5q41 0 41 45q0 16 -5 29.5t-13 28.5q-12 23 -16.5 46t-4.5 48q0 63 18.5 141t47.5 133q18 35 56 84t84 94.5t95.5 77t92.5 31.5q29 0 46 -18.5t26.5 -44t12.5 -54t3 -49.5q0 -53 -9.5 -147.5t-29 -210t-49 -241.5t-69.5 -240.5 t-90 -209t-111.5 -145.5t-125.5 -51q-37 0 -59.5 9t-37.5 22l-27 21q-11 9 -27 9q-10 0 -22.5 -8t-12.5 -20zM369 1972q0 -20 14 -43q18 -29 41 -55l45 -53l70 -85q35 -42 73 -83l21.5 -20.5t25.5 -10.5q12 0 20.5 9t8.5 22q0 10 -5 20t-9 21l-59.5 104t-59.5 105 l-28.5 53.5t-30.5 50.5q-25 31 -62 31q-29 0 -47 -18.5t-18 -47.5z" />
<glyph unicode="&#xcd;" horiz-adv-x="933" d="M0 31q0 -29 21.5 -49.5t50 -35t61.5 -20.5t53 -6q96 0 175 40t144.5 109.5t117 161t91.5 193.5t67.5 210.5t46 212t26.5 196t8 161.5q0 55 -5 115.5t-26.5 110t-61.5 82t-112 32.5q-70 0 -142.5 -41t-139 -102.5t-117.5 -132t-78 -129.5q-31 -72 -53.5 -148t-22.5 -153 q0 -20 2.5 -52t10.5 -62t24.5 -51.5t44.5 -21.5q41 0 41 45q0 16 -5 29.5t-13 28.5q-12 23 -16.5 46t-4.5 48q0 63 18.5 141t47.5 133q18 35 56 84t84 94.5t95.5 77t92.5 31.5q29 0 46 -18.5t26.5 -44t12.5 -54t3 -49.5q0 -53 -9.5 -147.5t-29 -210t-49 -241.5t-69.5 -240.5 t-90 -209t-111.5 -145.5t-125.5 -51q-37 0 -59.5 9t-37.5 22l-27 21q-11 9 -27 9q-10 0 -22.5 -8t-12.5 -20zM614 1653q0 10 5.5 20t9.5 21l59.5 104t59.5 105l28.5 53.5t30.5 50.5q25 31 61 31q29 0 47.5 -18.5t18.5 -47.5q0 -20 -14 -43q-18 -29 -41 -55l-45 -53l-70 -85 q-35 -42 -74 -83l-21.5 -20.5t-25.5 -10.5q-12 0 -20.5 9.5t-8.5 21.5z" />
<glyph unicode="&#xce;" horiz-adv-x="933" d="M0 31q0 -29 21.5 -49.5t50 -35t61.5 -20.5t53 -6q96 0 175 40t144.5 109.5t117 161t91.5 193.5t67.5 210.5t46 212t26.5 196t8 161.5q0 55 -5 115.5t-26.5 110t-61.5 82t-112 32.5q-70 0 -142.5 -41t-139 -102.5t-117.5 -132t-78 -129.5q-31 -72 -53.5 -148t-22.5 -153 q0 -20 2.5 -52t10.5 -62t24.5 -51.5t44.5 -21.5q41 0 41 45q0 16 -5 29.5t-13 28.5q-12 23 -16.5 46t-4.5 48q0 63 18.5 141t47.5 133q18 35 56 84t84 94.5t95.5 77t92.5 31.5q29 0 46 -18.5t26.5 -44t12.5 -54t3 -49.5q0 -53 -9.5 -147.5t-29 -210t-49 -241.5t-69.5 -240.5 t-90 -209t-111.5 -145.5t-125.5 -51q-37 0 -59.5 9t-37.5 22l-27 21q-11 9 -27 9q-10 0 -22.5 -8t-12.5 -20zM362 1583q0 -29 27 -29q16 0 29 13l229 188l215 -190q10 -12 29 -13q20 0 20 27q0 20 -18 43l-221 256q-8 10 -25 10q-14 0 -22 -10l-244 -256l-12.5 -17.5 t-6.5 -21.5z" />
<glyph unicode="&#xcf;" horiz-adv-x="933" d="M0 31q0 -29 21.5 -49.5t50 -35t61.5 -20.5t53 -6q96 0 175 40t144.5 109.5t117 161t91.5 193.5t67.5 210.5t46 212t26.5 196t8 161.5q0 55 -5 115.5t-26.5 110t-61.5 82t-112 32.5q-70 0 -142.5 -41t-139 -102.5t-117.5 -132t-78 -129.5q-31 -72 -53.5 -148t-22.5 -153 q0 -20 2.5 -52t10.5 -62t24.5 -51.5t44.5 -21.5q41 0 41 45q0 16 -5 29.5t-13 28.5q-12 23 -16.5 46t-4.5 48q0 63 18.5 141t47.5 133q18 35 56 84t84 94.5t95.5 77t92.5 31.5q29 0 46 -18.5t26.5 -44t12.5 -54t3 -49.5q0 -53 -9.5 -147.5t-29 -210t-49 -241.5t-69.5 -240.5 t-90 -209t-111.5 -145.5t-125.5 -51q-37 0 -59.5 9t-37.5 22l-27 21q-11 9 -27 9q-10 0 -22.5 -8t-12.5 -20zM410 1712q0 -37 24.5 -59.5t59.5 -22.5q49 0 62 32t13 73q0 35 -27.5 58.5t-60.5 23.5q-41 0 -56 -35t-15 -70zM696 1712q0 -37 24.5 -59.5t59.5 -22.5 q49 0 62.5 32t13.5 73q0 35 -27.5 58.5t-60.5 23.5q-41 0 -56.5 -35t-15.5 -70z" />
<glyph unicode="&#xd1;" horiz-adv-x="1540" d="M-115 -147q0 -18 17.5 -28.5t42 -17t48 -7.5t36.5 -1q72 0 128 27t103 72q63 63 106.5 153t73 188.5t45.5 194.5l29 170q6 41 10 96.5t15 92.5q2 4 4 12t10 8t13 -9t7 -16l45 -140q27 -83 63 -175t80 -184t99 -165t122 -119t144 -46q59 0 104.5 81t77 206t53 277.5 t34 293.5t17.5 255t5 163v25q0 14 -4 26t-11 21.5t-24 9.5q-35 0 -47 -15.5t-12 -50.5q0 -10 1 -20t1 -21q0 -86 -5 -170t-13 -170q-6 -72 -14.5 -157.5t-20 -174.5t-27.5 -173t-39 -152q-2 -8 -8 -24.5t-14.5 -31t-18.5 -25.5t-22 -11q-39 0 -82 55t-86 141t-83 190.5 t-73 202t-55.5 175.5t-30.5 110q-12 45 -22.5 90t-18.5 93l-6 49q-4 29 -17.5 56.5t-48.5 27.5q-18 0 -43.5 -9.5t-49 -24.5t-40 -35.5t-16.5 -41.5q0 -16 8 -41.5t8 -56.5q0 -45 -6 -88q-6 -53 -14 -136t-21.5 -180.5t-33 -202t-47 -202.5t-67.5 -182t-91 -140 q-37 -41 -81 -62.5t-97 -21.5q-23 0 -46.5 3.5t-46.5 3.5q-18 0 -32.5 -10.5t-14.5 -30.5zM737 1419q0 -10 6.5 -20t22.5 -10t22.5 10t6.5 20q0 29 35.5 50.5t87.5 21.5q31 0 50 -17.5t39.5 -39t50 -39t83.5 -17.5q63 0 107 39t44 115q0 33 -28 33q-31 0 -31 -29 q0 -27 -28.5 -43t-63.5 -16q-37 0 -59.5 17t-43 37.5t-47 38t-73.5 17.5q-29 0 -61 -13t-58.5 -35.5t-44 -53.5t-17.5 -66z" />
<glyph unicode="&#xd2;" horiz-adv-x="1255" d="M37 496q0 -98 19.5 -202t65.5 -186.5t126 -136t198 -53.5q113 0 209.5 45t175 120t139 174t101.5 206.5t61.5 217.5t20.5 206q0 41 -6 101.5t-19.5 127t-36 132t-54 117.5t-74.5 85t-99 33q-23 0 -46 -3t-46 -3q-35 0 -65.5 10t-65.5 10q-86 0 -160.5 -40t-134.5 -99 q-78 -80 -136 -183.5t-96 -218t-57.5 -233t-19.5 -227.5zM225 449q0 98 22.5 208.5t62.5 217t97.5 204t127.5 166.5q47 47 104 82t125 35q84 0 137 -56.5t86 -137.5t45 -169t12 -151q0 -72 -16 -158t-47 -174t-77 -172t-105.5 -148.5t-132 -103.5t-156.5 -39 q-86 0 -141.5 36t-87 92.5t-44 127t-12.5 140.5zM492 1931q0 -20 14 -43q18 -29 41 -55l45 -53l70 -85q35 -42 73 -83l21.5 -20.5t25.5 -10.5q12 0 20.5 9t8.5 22q0 10 -5 20t-9 21l-59.5 104t-59.5 105l-28.5 53.5t-31.5 50.5q-25 31 -61 31q-29 0 -47 -18.5t-18 -47.5z " />
<glyph unicode="&#xd3;" horiz-adv-x="1255" d="M37 496q0 -98 19.5 -202t65.5 -186.5t126 -136t198 -53.5q113 0 209.5 45t175 120t139 174t101.5 206.5t61.5 217.5t20.5 206q0 41 -6 101.5t-19.5 127t-36 132t-54 117.5t-74.5 85t-99 33q-23 0 -46 -3t-46 -3q-35 0 -65.5 10t-65.5 10q-86 0 -160.5 -40t-134.5 -99 q-78 -80 -136 -183.5t-96 -218t-57.5 -233t-19.5 -227.5zM225 449q0 98 22.5 208.5t62.5 217t97.5 204t127.5 166.5q47 47 104 82t125 35q84 0 137 -56.5t86 -137.5t45 -169t12 -151q0 -72 -16 -158t-47 -174t-77 -172t-105.5 -148.5t-132 -103.5t-156.5 -39 q-86 0 -141.5 36t-87 92.5t-44 127t-12.5 140.5zM717 1612q0 10 5 20t9 21l59.5 104t59.5 105l28.5 53.5t30.5 50.5q25 31 62 31q29 0 47 -18.5t18 -47.5q0 -20 -14 -43q-18 -29 -41 -55l-45 -53l-70 -85q-35 -42 -73 -83l-21.5 -20.5t-26.5 -10.5q-12 0 -20 9.5t-8 21.5z " />
<glyph unicode="&#xd4;" horiz-adv-x="1255" d="M37 496q0 -98 19.5 -202t65.5 -186.5t126 -136t198 -53.5q113 0 209.5 45t175 120t139 174t101.5 206.5t61.5 217.5t20.5 206q0 41 -6 101.5t-19.5 127t-36 132t-54 117.5t-74.5 85t-99 33q-23 0 -46 -3t-46 -3q-35 0 -65.5 10t-65.5 10q-86 0 -160.5 -40t-134.5 -99 q-78 -80 -136 -183.5t-96 -218t-57.5 -233t-19.5 -227.5zM225 449q0 98 22.5 208.5t62.5 217t97.5 204t127.5 166.5q47 47 104 82t125 35q84 0 137 -56.5t86 -137.5t45 -169t12 -151q0 -72 -16 -158t-47 -174t-77 -172t-105.5 -148.5t-132 -103.5t-156.5 -39 q-86 0 -141.5 36t-87 92.5t-44 127t-12.5 140.5zM465 1583q0 -29 27 -29q16 0 28 13l230 188l215 -190q10 -12 28 -13q20 0 21 27q0 20 -19 43l-221 256q-8 10 -24 10q-14 0 -23 -10l-244 -256q-6 -8 -12 -17.5t-6 -21.5z" />
<glyph unicode="&#xd5;" horiz-adv-x="1255" d="M37 496q0 -98 19.5 -202t65.5 -186.5t126 -136t198 -53.5q113 0 209.5 45t175 120t139 174t101.5 206.5t61.5 217.5t20.5 206q0 41 -6 101.5t-19.5 127t-36 132t-54 117.5t-74.5 85t-99 33q-23 0 -46 -3t-46 -3q-35 0 -65.5 10t-65.5 10q-86 0 -160.5 -40t-134.5 -99 q-78 -80 -136 -183.5t-96 -218t-57.5 -233t-19.5 -227.5zM225 449q0 98 22.5 208.5t62.5 217t97.5 204t127.5 166.5q47 47 104 82t125 35q84 0 137 -56.5t86 -137.5t45 -169t12 -151q0 -72 -16 -158t-47 -174t-77 -172t-105.5 -148.5t-132 -103.5t-156.5 -39 q-86 0 -141.5 36t-87 92.5t-44 127t-12.5 140.5zM471 1604q0 -10 6 -20.5t23 -10.5q16 0 22 10t6 21q0 29 36 50t87 21q31 0 50.5 -17.5t40 -39t50 -38.5t82.5 -17q63 0 107.5 38.5t44.5 114.5q0 33 -29 33q-31 0 -30 -29q0 -27 -29 -43t-64 -16q-37 0 -59 17.5t-42.5 38 t-47.5 38t-74 17.5q-29 0 -60.5 -13.5t-58 -36t-44 -53t-17.5 -65.5z" />
<glyph unicode="&#xd6;" horiz-adv-x="1255" d="M37 496q0 -98 19.5 -202t65.5 -186.5t126 -136t198 -53.5q113 0 209.5 45t175 120t139 174t101.5 206.5t61.5 217.5t20.5 206q0 41 -6 101.5t-19.5 127t-36 132t-54 117.5t-74.5 85t-99 33q-23 0 -46 -3t-46 -3q-35 0 -65.5 10t-65.5 10q-86 0 -160.5 -40t-134.5 -99 q-78 -80 -136 -183.5t-96 -218t-57.5 -233t-19.5 -227.5zM225 449q0 98 22.5 208.5t62.5 217t97.5 204t127.5 166.5q47 47 104 82t125 35q84 0 137 -56.5t86 -137.5t45 -169t12 -151q0 -72 -16 -158t-47 -174t-77 -172t-105.5 -148.5t-132 -103.5t-156.5 -39 q-86 0 -141.5 36t-87 92.5t-44 127t-12.5 140.5zM532 1692q0 -37 25 -59.5t59 -22.5q49 0 62.5 31.5t13.5 72.5q0 35 -27.5 58.5t-60.5 23.5q-41 0 -56.5 -34.5t-15.5 -69.5zM819 1692q0 -37 24.5 -59.5t59.5 -22.5q49 0 62.5 31.5t13.5 72.5q0 35 -27.5 58.5t-60.5 23.5 q-41 0 -56.5 -34.5t-15.5 -69.5z" />
<glyph unicode="&#xd9;" horiz-adv-x="1218" d="M53 442q0 78 4 164t14.5 173t26 172t37.5 159q6 23 16.5 53.5t24.5 61t32.5 57.5t41.5 37q16 6 31.5 7t31.5 1q29 0 48.5 -12t19.5 -43q0 -10 -2 -19.5t-6 -19.5q-27 -84 -49.5 -192.5t-39 -221t-25.5 -222.5t-9 -198q0 -25 1 -61.5t9 -72.5t27.5 -61.5t54.5 -25.5 q25 0 50.5 12.5t45.5 26.5q74 53 151 155.5t147.5 219.5t131 234.5t99.5 201.5q4 6 13 27l19 44l20 43q9 19 9 25q4 25 11.5 47.5t19.5 41t31.5 29.5t48.5 11q51 0 51 -51q0 -10 -11 -50l-26 -87l-28 -92q-13 -45 -17 -66q-47 -217 -81 -434t-46 -440q-2 -29 0 -54.5 t2 -54.5q0 -27 -9 -52.5t-44 -25.5q-25 0 -37 42t-18.5 96.5t-6.5 105.5v72q0 117 7.5 231.5t21.5 231.5q-39 -76 -83 -154t-94 -150.5t-109.5 -138t-127.5 -119.5q-45 -35 -99 -61.5t-114 -26.5q-78 0 -122 45.5t-65.5 111t-25.5 139t-4 128.5zM471 1726q0 -20 14 -43 q18 -29 41 -55l45 -53l70 -85q35 -42 74 -83l21.5 -20.5t25.5 -10.5q12 0 20.5 9.5t8.5 21.5q0 10 -5.5 20.5t-9.5 20.5l-59.5 104.5l-59.5 104.5l-28.5 53.5t-30.5 50.5q-25 31 -61 31q-29 0 -47.5 -18.5t-18.5 -47.5z" />
<glyph unicode="&#xda;" horiz-adv-x="1218" d="M53 442q0 78 4 164t14.5 173t26 172t37.5 159q6 23 16.5 53.5t24.5 61t32.5 57.5t41.5 37q16 6 31.5 7t31.5 1q29 0 48.5 -12t19.5 -43q0 -10 -2 -19.5t-6 -19.5q-27 -84 -49.5 -192.5t-39 -221t-25.5 -222.5t-9 -198q0 -25 1 -61.5t9 -72.5t27.5 -61.5t54.5 -25.5 q25 0 50.5 12.5t45.5 26.5q74 53 151 155.5t147.5 219.5t131 234.5t99.5 201.5q4 6 13 27l19 44l20 43q9 19 9 25q4 25 11.5 47.5t19.5 41t31.5 29.5t48.5 11q51 0 51 -51q0 -10 -11 -50l-26 -87l-28 -92q-13 -45 -17 -66q-47 -217 -81 -434t-46 -440q-2 -29 0 -54.5 t2 -54.5q0 -27 -9 -52.5t-44 -25.5q-25 0 -37 42t-18.5 96.5t-6.5 105.5v72q0 117 7.5 231.5t21.5 231.5q-39 -76 -83 -154t-94 -150.5t-109.5 -138t-127.5 -119.5q-45 -35 -99 -61.5t-114 -26.5q-78 0 -122 45.5t-65.5 111t-25.5 139t-4 128.5zM635 1386q0 10 5 20.5 t9 20.5l59.5 104.5l59.5 104.5l28.5 53.5t30.5 51.5q25 31 62 31q29 0 47 -18.5t18 -47.5q0 -20 -14 -43q-18 -29 -41 -55l-45 -54l-70 -85q-35 -42 -73 -83q-10 -10 -21.5 -20t-25.5 -10q-12 0 -20.5 9t-8.5 21z" />
<glyph unicode="&#xdb;" horiz-adv-x="1218" d="M53 442q0 78 4 164t14.5 173t26 172t37.5 159q6 23 16.5 53.5t24.5 61t32.5 57.5t41.5 37q16 6 31.5 7t31.5 1q29 0 48.5 -12t19.5 -43q0 -10 -2 -19.5t-6 -19.5q-27 -84 -49.5 -192.5t-39 -221t-25.5 -222.5t-9 -198q0 -25 1 -61.5t9 -72.5t27.5 -61.5t54.5 -25.5 q25 0 50.5 12.5t45.5 26.5q74 53 151 155.5t147.5 219.5t131 234.5t99.5 201.5q4 6 13 27l19 44l20 43q9 19 9 25q4 25 11.5 47.5t19.5 41t31.5 29.5t48.5 11q51 0 51 -51q0 -10 -11 -50l-26 -87l-28 -92q-13 -45 -17 -66q-47 -217 -81 -434t-46 -440q-2 -29 0 -54.5 t2 -54.5q0 -27 -9 -52.5t-44 -25.5q-25 0 -37 42t-18.5 96.5t-6.5 105.5v72q0 117 7.5 231.5t21.5 231.5q-39 -76 -83 -154t-94 -150.5t-109.5 -138t-127.5 -119.5q-45 -35 -99 -61.5t-114 -26.5q-78 0 -122 45.5t-65.5 111t-25.5 139t-4 128.5zM444 1440q0 -29 27 -29 q16 0 29 12l229 189l215 -191q10 -12 29 -12q20 0 20 27q0 20 -18 43l-221 256q-8 10 -25 10q-14 0 -22 -10l-244 -256l-12.5 -17.5t-6.5 -21.5z" />
<glyph unicode="&#xdc;" horiz-adv-x="1218" d="M53 442q0 78 4 164t14.5 173t26 172t37.5 159q6 23 16.5 53.5t24.5 61t32.5 57.5t41.5 37q16 6 31.5 7t31.5 1q29 0 48.5 -12t19.5 -43q0 -10 -2 -19.5t-6 -19.5q-27 -84 -49.5 -192.5t-39 -221t-25.5 -222.5t-9 -198q0 -25 1 -61.5t9 -72.5t27.5 -61.5t54.5 -25.5 q25 0 50.5 12.5t45.5 26.5q74 53 151 155.5t147.5 219.5t131 234.5t99.5 201.5q4 6 13 27l19 44l20 43q9 19 9 25q4 25 11.5 47.5t19.5 41t31.5 29.5t48.5 11q51 0 51 -51q0 -10 -11 -50l-26 -87l-28 -92q-13 -45 -17 -66q-47 -217 -81 -434t-46 -440q-2 -29 0 -54.5 t2 -54.5q0 -27 -9 -52.5t-44 -25.5q-25 0 -37 42t-18.5 96.5t-6.5 105.5v72q0 117 7.5 231.5t21.5 231.5q-39 -76 -83 -154t-94 -150.5t-109.5 -138t-127.5 -119.5q-45 -35 -99 -61.5t-114 -26.5q-78 0 -122 45.5t-65.5 111t-25.5 139t-4 128.5zM532 1466q0 -37 25 -59.5 t59 -22.5q49 0 62.5 32t13.5 73q0 35 -27.5 58.5t-60.5 23.5q-41 0 -56.5 -35t-15.5 -70zM819 1466q0 -37 24.5 -59.5t59.5 -22.5q49 0 62.5 32t13.5 73q0 35 -27.5 58.5t-60.5 23.5q-41 0 -56.5 -35t-15.5 -70z" />
<glyph unicode="&#xdd;" horiz-adv-x="1204" d="M39 1650q0 10 5 20.5t9 20.5l59.5 104.5l59.5 104.5l28.5 53.5t30.5 51.5q25 31 62 30q29 0 47 -18t18 -47q0 -20 -14 -43q-18 -29 -41 -55l-45 -54l-70 -85q-35 -42 -73 -83l-22 -20q-11 -10 -25 -10q-12 0 -20.5 9t-8.5 21zM25 498q0 -59 6 -140.5t29.5 -155 t71.5 -124.5t130 -51q70 0 137.5 37.5t128 100t115.5 141.5t101.5 160t80.5 156l60 130q-4 -74 -15.5 -168.5t-29 -195.5t-42 -205.5t-56 -201t-70.5 -179.5t-84 -142q-35 -45 -84 -72.5t-107 -27.5q-49 0 -86 17t-64.5 37.5t-48 38t-36.5 17.5q-33 0 -33 -30 q0 -20 19.5 -46t35.5 -40q41 -37 96.5 -59.5t112.5 -22.5q94 0 174 50t145.5 136t119 199.5t95.5 239.5t73.5 257t54 251t38 222.5t23.5 169.5l11.5 93.5t9.5 93.5q4 25 7 50.5t3 49.5q0 29 -8.5 49.5t-42.5 20.5h-17q-8 0 -16 -4q-29 -10 -44 -21.5t-22.5 -26t-10.5 -33.5 l-7 -46q-2 -14 -9 -34l-16 -40q-8 -20 -17 -39.5t-15 -34.5l-56 -127q-37 -84 -85 -182t-105.5 -201.5t-117.5 -187.5t-119.5 -137.5t-112.5 -53.5q-39 0 -60.5 32t-31 76t-11.5 90t-2 73q0 205 22.5 419t75.5 412q2 10 4.5 17.5t2.5 17.5q0 33 -20.5 46t-49.5 13 q-16 0 -31.5 -1t-29.5 -9q-20 -10 -38 -35.5t-31 -56.5t-22.5 -61.5t-15.5 -53.5q-43 -160 -53 -331.5t-10 -335.5z" />
<glyph unicode="&#xe0;" d="M0 215q0 -29 5 -65.5t18.5 -69.5t37 -55.5t62.5 -22.5q33 0 64.5 18.5t62.5 47.5q51 47 93 106t67 98q-2 -37 2 -91t20.5 -104t47 -86t81.5 -36q53 0 107.5 30.5t102.5 74.5t89 95.5t70 92.5q10 16 27.5 40.5t17.5 43.5q0 39 -33 39q-23 0 -35 -17.5t-22 -34.5 q-18 -29 -55 -75.5t-80 -90.5t-88.5 -77t-81.5 -33q-25 0 -38.5 25.5t-19.5 59.5t-7 67.5t-1 48.5q0 53 7 114.5t24 112.5l22 60q14 38 15 59q0 20 -15.5 26.5t-31.5 6.5q-29 0 -44.5 -19.5t-25.5 -42.5q-10 -25 -37 -78l-60 -115q-34 -62 -73 -123t-74 -95.5t-59 -34.5 q-18 0 -22.5 18.5t-4.5 30.5q0 119 48 220t126 181q43 45 95.5 83t105.5 69q8 4 14 9t6 15q0 23 -22.5 43.5t-44.5 20.5q-59 0 -128 -36t-124 -93q-47 -49 -86 -108.5t-66.5 -121t-43 -122t-15.5 -109.5zM164 1235q0 -20 14 -43q18 -29 41 -55l45 -54l70 -85q35 -42 74 -83 l21 -20q11 -10 26 -10q12 0 20 9t8 21q0 10 -5 20.5t-9 20.5l-59.5 104.5l-59.5 104.5l-28.5 53.5t-30.5 51.5q-25 31 -62 30q-29 0 -47 -18t-18 -47z" />
<glyph unicode="&#xe1;" d="M0 215q0 -29 5 -65.5t18.5 -69.5t37 -55.5t62.5 -22.5q33 0 64.5 18.5t62.5 47.5q51 47 93 106t67 98q-2 -37 2 -91t20.5 -104t47 -86t81.5 -36q53 0 107.5 30.5t102.5 74.5t89 95.5t70 92.5q10 16 27.5 40.5t17.5 43.5q0 39 -33 39q-23 0 -35 -17.5t-22 -34.5 q-18 -29 -55 -75.5t-80 -90.5t-88.5 -77t-81.5 -33q-25 0 -38.5 25.5t-19.5 59.5t-7 67.5t-1 48.5q0 53 7 114.5t24 112.5l22 60q14 38 15 59q0 20 -15.5 26.5t-31.5 6.5q-29 0 -44.5 -19.5t-25.5 -42.5q-10 -25 -37 -78l-60 -115q-34 -62 -73 -123t-74 -95.5t-59 -34.5 q-18 0 -22.5 18.5t-4.5 30.5q0 119 48 220t126 181q43 45 95.5 83t105.5 69q8 4 14 9t6 15q0 23 -22.5 43.5t-44.5 20.5q-59 0 -128 -36t-124 -93q-47 -49 -86 -108.5t-66.5 -121t-43 -122t-15.5 -109.5zM369 915q0 10 5 20.5t9 20.5l59.5 104.5l59.5 104.5l28.5 53.5 t30.5 51.5q25 31 62 30q29 0 47 -18t18 -47q0 -20 -14 -43q-18 -29 -41 -55l-45 -54l-70 -85q-35 -42 -74 -83l-21 -20q-11 -10 -26 -10q-12 0 -20 9t-8 21z" />
<glyph unicode="&#xe2;" d="M0 215q0 -29 5 -65.5t18.5 -69.5t37 -55.5t62.5 -22.5q33 0 64.5 18.5t62.5 47.5q51 47 93 106t67 98q-2 -37 2 -91t20.5 -104t47 -86t81.5 -36q53 0 107.5 30.5t102.5 74.5t89 95.5t70 92.5q10 16 27.5 40.5t17.5 43.5q0 39 -33 39q-23 0 -35 -17.5t-22 -34.5 q-18 -29 -55 -75.5t-80 -90.5t-88.5 -77t-81.5 -33q-25 0 -38.5 25.5t-19.5 59.5t-7 67.5t-1 48.5q0 53 7 114.5t24 112.5l22 60q14 38 15 59q0 20 -15.5 26.5t-31.5 6.5q-29 0 -44.5 -19.5t-25.5 -42.5q-10 -25 -37 -78l-60 -115q-34 -62 -73 -123t-74 -95.5t-59 -34.5 q-18 0 -22.5 18.5t-4.5 30.5q0 119 48 220t126 181q43 45 95.5 83t105.5 69q8 4 14 9t6 15q0 23 -22.5 43.5t-44.5 20.5q-59 0 -128 -36t-124 -93q-47 -49 -86 -108.5t-66.5 -121t-43 -122t-15.5 -109.5zM117 825q0 -29 26 -28q16 0 29 12l229 188l215 -190q10 -12 29 -12 q20 0 21 26q0 20 -19 43l-221 256q-8 10 -25 10q-14 0 -22 -10l-244 -256q-6 -8 -12 -17.5t-6 -21.5z" />
<glyph unicode="&#xe3;" d="M0 215q0 -29 5 -65.5t18.5 -69.5t37 -55.5t62.5 -22.5q33 0 64.5 18.5t62.5 47.5q51 47 93 106t67 98q-2 -37 2 -91t20.5 -104t47 -86t81.5 -36q53 0 107.5 30.5t102.5 74.5t89 95.5t70 92.5q10 16 27.5 40.5t17.5 43.5q0 39 -33 39q-23 0 -35 -17.5t-22 -34.5 q-18 -29 -55 -75.5t-80 -90.5t-88.5 -77t-81.5 -33q-25 0 -38.5 25.5t-19.5 59.5t-7 67.5t-1 48.5q0 53 7 114.5t24 112.5l22 60q14 38 15 59q0 20 -15.5 26.5t-31.5 6.5q-29 0 -44.5 -19.5t-25.5 -42.5q-10 -25 -37 -78l-60 -115q-34 -62 -73 -123t-74 -95.5t-59 -34.5 q-18 0 -22.5 18.5t-4.5 30.5q0 119 48 220t126 181q43 45 95.5 83t105.5 69q8 4 14 9t6 15q0 23 -22.5 43.5t-44.5 20.5q-59 0 -128 -36t-124 -93q-47 -49 -86 -108.5t-66.5 -121t-43 -122t-15.5 -109.5zM143 907q0 -10 6.5 -20t22.5 -10t22.5 10t6.5 20q0 29 35.5 50.5 t87.5 21.5q31 0 50 -17.5t39.5 -39t50.5 -39t83 -17.5q63 0 107 39t44 115q0 33 -28 33q-31 0 -31 -29q0 -27 -28.5 -43t-63.5 -16q-37 0 -59.5 17t-43 37.5t-47 38t-73.5 17.5q-29 0 -61 -13t-58.5 -35.5t-44 -53.5t-17.5 -66z" />
<glyph unicode="&#xe4;" d="M0 215q0 -29 5 -65.5t18.5 -69.5t37 -55.5t62.5 -22.5q33 0 64.5 18.5t62.5 47.5q51 47 93 106t67 98q-2 -37 2 -91t20.5 -104t47 -86t81.5 -36q53 0 107.5 30.5t102.5 74.5t89 95.5t70 92.5q10 16 27.5 40.5t17.5 43.5q0 39 -33 39q-23 0 -35 -17.5t-22 -34.5 q-18 -29 -55 -75.5t-80 -90.5t-88.5 -77t-81.5 -33q-25 0 -38.5 25.5t-19.5 59.5t-7 67.5t-1 48.5q0 53 7 114.5t24 112.5l22 60q14 38 15 59q0 20 -15.5 26.5t-31.5 6.5q-29 0 -44.5 -19.5t-25.5 -42.5q-10 -25 -37 -78l-60 -115q-34 -62 -73 -123t-74 -95.5t-59 -34.5 q-18 0 -22.5 18.5t-4.5 30.5q0 119 48 220t126 181q43 45 95.5 83t105.5 69q8 4 14 9t6 15q0 23 -22.5 43.5t-44.5 20.5q-59 0 -128 -36t-124 -93q-47 -49 -86 -108.5t-66.5 -121t-43 -122t-15.5 -109.5zM205 975q0 -37 24.5 -59.5t59.5 -22.5q49 0 62.5 31.5t13.5 72.5 q0 35 -28 58.5t-61 23.5q-41 0 -56 -34.5t-15 -69.5zM492 975q0 -37 24.5 -59.5t58.5 -22.5q49 0 62.5 31.5t13.5 72.5q0 35 -27.5 58.5t-60.5 23.5q-41 0 -56 -34.5t-15 -69.5z" />
<glyph unicode="&#xe5;" d="M0 215q0 -29 5 -65.5t18.5 -69.5t37 -55.5t62.5 -22.5q33 0 64.5 18.5t62.5 47.5q51 47 93 106t67 98q-2 -37 2 -91t20.5 -104t47 -86t81.5 -36q53 0 107.5 30.5t102.5 74.5t89 95.5t70 92.5q10 16 27.5 40.5t17.5 43.5q0 39 -33 39q-23 0 -35 -17.5t-22 -34.5 q-18 -29 -55 -75.5t-80 -90.5t-88.5 -77t-81.5 -33q-25 0 -38.5 25.5t-19.5 59.5t-7 67.5t-1 48.5q0 53 7 114.5t24 112.5l22 60q14 38 15 59q0 20 -15.5 26.5t-31.5 6.5q-29 0 -44.5 -19.5t-25.5 -42.5q-10 -25 -37 -78l-60 -115q-34 -62 -73 -123t-74 -95.5t-59 -34.5 q-18 0 -22.5 18.5t-4.5 30.5q0 119 48 220t126 181q43 45 95.5 83t105.5 69q8 4 14 9t6 15q0 23 -22.5 43.5t-44.5 20.5q-59 0 -128 -36t-124 -93q-47 -49 -86 -108.5t-66.5 -121t-43 -122t-15.5 -109.5zM348 1018q0 -49 24.5 -95t82.5 -46q41 0 74.5 22.5t57 56t37 73.5 t13.5 77q0 25 -5 51.5t-17.5 48t-32 34.5t-50.5 13q-43 0 -76.5 -22.5t-57 -58t-37 -76.5t-13.5 -78zM428 999q0 20 7 51t20.5 61t34 50.5t45.5 20.5q23 0 31.5 -27t8.5 -43q0 -20 -9 -51t-24.5 -58.5t-38 -47t-46.5 -19.5q-23 0 -26 23.5t-3 39.5z" />
<glyph unicode="&#xe6;" horiz-adv-x="1046" d="M0 215q0 -29 5 -65.5t18.5 -69.5t38 -55.5t61.5 -22.5q41 0 83 29.5t80 72.5t69 90l53 76v-18q6 -55 19 -105.5t39 -89.5t69 -61.5t108 -22.5q84 0 160 29t142.5 77t121.5 111.5t94 133.5q10 16 14.5 28.5t4.5 32.5q0 10 -9.5 16.5t-19.5 6.5q-23 0 -37 -18.5t-24 -35.5 q-31 -51 -72 -102t-91 -92t-107.5 -66.5t-123.5 -25.5q-72 0 -101.5 43t-29.5 108q0 39 10 86q47 16 102.5 61.5t103.5 103.5t80 120.5t32 114.5q0 53 -29.5 87.5t-85.5 34.5q-45 0 -84 -19.5t-71.5 -49t-59 -66.5t-47.5 -71q-20 -6 -31.5 -23.5t-19.5 -36.5l-30 -62 q-19 -42 -46 -91l-56 -102q-30 -52 -60.5 -94t-59.5 -69.5t-51 -27.5q-18 0 -22.5 18.5t-4.5 30.5q0 117 47 218t127 183q45 47 95.5 83t105.5 69q8 4 14 9t6 15q0 23 -22.5 43.5t-44.5 20.5q-90 0 -173 -61.5t-147.5 -152.5t-103.5 -193.5t-39 -182.5zM582 383 q4 27 22.5 85t45 116.5t57 102.5t61.5 44q20 0 27.5 -15.5t7.5 -31.5q0 -41 -22.5 -85t-55.5 -86t-71.5 -76t-71.5 -54z" />
<glyph unicode="&#xe7;" horiz-adv-x="755" d="M43 303q0 -61 14.5 -122.5t47 -112t83 -82t119.5 -31.5q16 0 31.5 1t32.5 3q6 -20 10 -40.5t4 -43.5q0 -35 -34 -61.5t-66 -26.5q-10 0 -21.5 3t-21.5 3q-18 0 -29.5 -14.5t-11.5 -30.5q0 -29 27.5 -37t50.5 -8q80 0 140 44t60 132q0 27 -2 52.5t-8 50.5 q129 43 232.5 137t168.5 211q6 10 12.5 22.5t6.5 24.5q0 33 -33 33q-20 0 -35.5 -18.5t-25.5 -35.5q-33 -55 -77 -107t-96.5 -92t-114 -64.5t-128.5 -24.5q-45 0 -77 18t-51.5 49t-27.5 69t-8 77q0 45 15.5 120.5t46 149.5t75.5 127t105 53q35 0 42 -25.5t7 -54.5 q0 -45 -18.5 -80.5t-18.5 -58.5q0 -20 23 -20q31 0 51 18t30.5 45t14.5 56.5t4 54.5q0 82 -44 118.5t-122 36.5q-92 0 -164 -51t-121 -128t-73.5 -168t-24.5 -171z" />
<glyph unicode="&#xe8;" horiz-adv-x="657" d="M18 252q0 -78 26 -144.5t89 -107.5q25 -16 54.5 -21.5t58.5 -5.5q84 0 161.5 29t145.5 77t124 111.5t95 133.5q10 18 14.5 29.5t4.5 31.5q0 10 -9.5 16.5t-19.5 6.5q-20 0 -35.5 -18.5t-26.5 -35.5q-29 -51 -69.5 -101t-92 -91t-108.5 -66.5t-121 -25.5q-59 0 -92 28 q-23 23 -32 52.5t-9 62.5q0 55 10 92q49 18 104.5 64.5t103.5 104.5t79 119.5t31 111.5q0 53 -30 87.5t-85 34.5q-45 0 -86 -19.5t-76 -53.5q-49 -45 -87 -110.5t-65.5 -134.5t-42 -136.5t-14.5 -120.5zM102 1255q0 -20 15 -43q18 -29 41 -55l45 -53l69 -85q35 -42 74 -83 l22 -21q11 -10 25 -10q12 0 20.5 9.5t8.5 21.5q0 10 -5 20.5t-9 20.5l-60 104.5t-59 104.5l-28.5 53.5t-31.5 50.5q-25 31 -61 31q-29 0 -47.5 -18.5t-18.5 -47.5zM193 383q4 20 16 62t30.5 89.5t41 93.5t47.5 72q27 31 51 31q20 0 27.5 -15.5t7.5 -31.5q0 -41 -22.5 -86 t-56.5 -86t-72.5 -76t-69.5 -53z" />
<glyph unicode="&#xe9;" horiz-adv-x="657" d="M18 252q0 -78 26 -144.5t89 -107.5q25 -16 54.5 -21.5t58.5 -5.5q84 0 161.5 29t145.5 77t124 111.5t95 133.5q10 18 14.5 29.5t4.5 31.5q0 10 -9.5 16.5t-19.5 6.5q-20 0 -35.5 -18.5t-26.5 -35.5q-29 -51 -69.5 -101t-92 -91t-108.5 -66.5t-121 -25.5q-59 0 -92 28 q-23 23 -32 52.5t-9 62.5q0 55 10 92q49 18 104.5 64.5t103.5 104.5t79 119.5t31 111.5q0 53 -30 87.5t-85 34.5q-45 0 -86 -19.5t-76 -53.5q-49 -45 -87 -110.5t-65.5 -134.5t-42 -136.5t-14.5 -120.5zM193 383q4 20 16 62t30.5 89.5t41 93.5t47.5 72q27 31 51 31 q20 0 27.5 -15.5t7.5 -31.5q0 -41 -22.5 -86t-56.5 -86t-72.5 -76t-69.5 -53zM348 936q0 10 5 20.5t9 20.5l60 104.5t59 104.5l28.5 53.5t31.5 50.5q25 31 61 31q29 0 47.5 -18.5t18.5 -47.5q0 -20 -15 -43q-18 -29 -41 -55l-45 -53l-69 -85q-35 -42 -74 -83l-22 -21 q-11 -10 -25 -10q-12 0 -20.5 9.5t-8.5 21.5z" />
<glyph unicode="&#xea;" horiz-adv-x="657" d="M18 252q0 -78 26 -144.5t89 -107.5q25 -16 54.5 -21.5t58.5 -5.5q84 0 161.5 29t145.5 77t124 111.5t95 133.5q10 18 14.5 29.5t4.5 31.5q0 10 -9.5 16.5t-19.5 6.5q-20 0 -35.5 -18.5t-26.5 -35.5q-29 -51 -69.5 -101t-92 -91t-108.5 -66.5t-121 -25.5q-59 0 -92 28 q-23 23 -32 52.5t-9 62.5q0 55 10 92q49 18 104.5 64.5t103.5 104.5t79 119.5t31 111.5q0 53 -30 87.5t-85 34.5q-45 0 -86 -19.5t-76 -53.5q-49 -45 -87 -110.5t-65.5 -134.5t-42 -136.5t-14.5 -120.5zM76 866q0 -29 26 -28q16 0 29 12l229 188l215 -190q10 -12 29 -12 q20 0 21 26q0 20 -19 43l-221 256q-8 10 -25 10q-14 0 -22 -10l-244 -256q-6 -8 -12 -17.5t-6 -21.5zM193 383q4 20 16 62t30.5 89.5t41 93.5t47.5 72q27 31 51 31q20 0 27.5 -15.5t7.5 -31.5q0 -41 -22.5 -86t-56.5 -86t-72.5 -76t-69.5 -53z" />
<glyph unicode="&#xeb;" horiz-adv-x="657" d="M18 252q0 -78 26 -144.5t89 -107.5q25 -16 54.5 -21.5t58.5 -5.5q84 0 161.5 29t145.5 77t124 111.5t95 133.5q10 18 14.5 29.5t4.5 31.5q0 10 -9.5 16.5t-19.5 6.5q-20 0 -35.5 -18.5t-26.5 -35.5q-29 -51 -69.5 -101t-92 -91t-108.5 -66.5t-121 -25.5q-59 0 -92 28 q-23 23 -32 52.5t-9 62.5q0 55 10 92q49 18 104.5 64.5t103.5 104.5t79 119.5t31 111.5q0 53 -30 87.5t-85 34.5q-45 0 -86 -19.5t-76 -53.5q-49 -45 -87 -110.5t-65.5 -134.5t-42 -136.5t-14.5 -120.5zM184 995q0 -37 24.5 -59.5t59.5 -22.5q49 0 62.5 32t13.5 73 q0 35 -27.5 58.5t-60.5 23.5q-41 0 -56.5 -35t-15.5 -70zM193 383q4 20 16 62t30.5 89.5t41 93.5t47.5 72q27 31 51 31q20 0 27.5 -15.5t7.5 -31.5q0 -41 -22.5 -86t-56.5 -86t-72.5 -76t-69.5 -53zM471 995q0 -37 24.5 -59.5t59.5 -22.5q49 0 62.5 32t13.5 73 q0 35 -28 58.5t-60 23.5q-41 0 -56.5 -35t-15.5 -70z" />
<glyph unicode="&#xec;" horiz-adv-x="538" d="M-61 1133q0 -20 14 -43q18 -29 41 -56l45 -53l70 -85q35 -42 73 -83l22 -20q11 -10 25 -11q12 0 20.5 9.5t8.5 21.5q0 10 -5 20.5t-9 20.5l-59.5 104.5l-59.5 104.5l-28.5 53.5t-30.5 50.5q-25 31 -62 31q-29 0 -47 -18t-18 -47zM43 305q0 -45 6 -105.5t26.5 -114.5 t56.5 -92t97 -38q55 0 113.5 36t112 86t98.5 106.5t74 99.5l15 21q9 13 18.5 28.5t15.5 30t6 24.5q0 16 -3 30.5t-24 14.5q-20 0 -33 -18l-24 -33q-18 -33 -56 -87t-84 -106.5t-95.5 -91.5t-90.5 -39q-27 0 -41 22.5t-21 53.5t-8 61.5t-1 49.5q0 94 18 182q4 23 14 52l21 60 l18.5 57.5t8.5 47.5q0 41 -43 45q-66 2 -100 -35t-52 -96q-16 -53 -29.5 -124t-13.5 -128z" />
<glyph unicode="&#xed;" horiz-adv-x="538" d="M43 305q0 -45 6 -105.5t26.5 -114.5t56.5 -92t97 -38q55 0 113.5 36t112 86t98.5 106.5t74 99.5l15 21q9 13 18.5 28.5t15.5 30t6 24.5q0 16 -3 30.5t-24 14.5q-20 0 -33 -18l-24 -33q-18 -33 -56 -87t-84 -106.5t-95.5 -91.5t-90.5 -39q-27 0 -41 22.5t-21 53.5t-8 61.5 t-1 49.5q0 94 18 182q4 23 14 52l21 60l18.5 57.5t8.5 47.5q0 41 -43 45q-66 2 -100 -35t-52 -96q-16 -53 -29.5 -124t-13.5 -128zM143 813q0 10 5.5 20.5t9.5 20.5l59.5 104.5t58.5 104.5l28.5 53.5t31.5 50.5q25 31 61 31q29 0 47.5 -18.5t18.5 -46.5q0 -20 -14 -43 q-18 -29 -41 -56l-46 -53l-69 -85q-35 -42 -74 -83l-21 -20q-11 -10 -26 -11q-12 0 -20.5 9.5t-8.5 21.5z" />
<glyph unicode="&#xee;" horiz-adv-x="538" d="M-68 784q0 -29 27 -28q16 0 29 12l229 188l215 -190q10 -12 29 -12q20 0 20 26q0 20 -18 43l-221 256q-8 10 -25 11q-14 0 -22 -11l-244 -256l-12.5 -17.5t-6.5 -21.5zM43 305q0 -45 6 -105.5t26.5 -114.5t56.5 -92t97 -38q55 0 113.5 36t112 86t98.5 106.5t74 99.5 l15 21q9 13 18.5 28.5t15.5 30t6 24.5q0 16 -3 30.5t-24 14.5q-20 0 -33 -18l-24 -33q-18 -33 -56 -87t-84 -106.5t-95.5 -91.5t-90.5 -39q-27 0 -41 22.5t-21 53.5t-8 61.5t-1 49.5q0 94 18 182q4 23 14 52l21 60l18.5 57.5t8.5 47.5q0 41 -43 45q-66 2 -100 -35t-52 -96 q-16 -53 -29.5 -124t-13.5 -128z" />
<glyph unicode="&#xef;" horiz-adv-x="538" d="M12 872q0 -37 24.5 -59t59.5 -22q49 0 62.5 31.5t13.5 72.5q0 35 -27.5 58.5t-60.5 23.5q-41 0 -56.5 -35t-15.5 -70zM43 305q0 -45 6 -105.5t26.5 -114.5t56.5 -92t97 -38q55 0 113.5 36t112 86t98.5 106.5t74 99.5l15 21q9 13 18.5 28.5t15.5 30t6 24.5q0 16 -3 30.5 t-24 14.5q-20 0 -33 -18l-24 -33q-18 -33 -56 -87t-84 -106.5t-95.5 -91.5t-90.5 -39q-27 0 -41 22.5t-21 53.5t-8 61.5t-1 49.5q0 94 18 182q4 23 14 52l21 60l18.5 57.5t8.5 47.5q0 41 -43 45q-66 2 -100 -35t-52 -96q-16 -53 -29.5 -124t-13.5 -128zM299 872 q0 -37 24.5 -59t59.5 -22q49 0 62.5 31.5t13.5 72.5q0 35 -28 58.5t-60 23.5q-41 0 -56.5 -35t-15.5 -70z" />
<glyph unicode="&#xf1;" horiz-adv-x="923" d="M2 -23q0 -20 10.5 -35.5t32.5 -15.5q29 0 51.5 20.5t32.5 45.5q35 78 72 152.5t82 146.5l27 43q19 31 45 65l54 71q28 36 52 60q33 33 47 33q18 0 18 -41q0 -59 -4 -116.5t-4 -116.5q0 -39 3 -86t18.5 -88t45 -69t83.5 -28q57 0 117.5 37t114.5 90.5t97 113.5t64 108 q4 8 9 20t5 21q0 14 -9 27.5t-26 13.5q-18 0 -30.5 -18.5t-20.5 -33.5q-16 -33 -47 -80t-69.5 -91t-80.5 -75.5t-83 -31.5q-25 0 -38.5 14t-19.5 33.5t-7 43t-1 42.5q0 70 4 138.5t4 137.5q0 199 -90 199q-29 0 -62.5 -23.5t-70.5 -58.5q-35 -33 -68.5 -74l-63.5 -81 l-53 -73l-38 -55q8 59 20.5 120t34.5 116q16 47 34.5 108.5t18.5 110.5q0 33 -13 51.5t-48 18.5q-37 0 -75 -31t-44 -68q-10 -47 -18.5 -96t-18.5 -96q-23 -102 -42 -200.5t-34 -202.5l-12 -108q-6 -55 -6 -108zM184 1010q0 -10 6.5 -20.5t22.5 -10.5t22.5 10t6.5 21 q0 29 35.5 50t87.5 21q31 0 50 -17t39.5 -38.5t50.5 -39t83 -17.5q63 0 107 39t44 114q0 33 -28 33q-31 0 -31 -29q0 -27 -28.5 -43t-63.5 -16q-37 0 -59.5 17.5t-43 38t-47 38t-73.5 17.5q-29 0 -61 -13.5t-58.5 -36t-44 -53t-17.5 -65.5z" />
<glyph unicode="&#xf2;" horiz-adv-x="753" d="M51 233q0 -45 10.5 -94t33 -88t60.5 -64.5t93 -25.5q43 0 84 15.5t76 37.5q59 39 100 94.5t67.5 119t39 132t12.5 136.5q0 47 -9.5 96t-31 90t-58 67.5t-94.5 26.5q-92 0 -162.5 -56t-120 -138t-75 -176.5t-25.5 -172.5zM164 1194q0 -20 14 -43q18 -29 41 -55l45 -54 l70 -85q35 -42 74 -83l21 -20q11 -10 26 -10q12 0 20 9t8 21q0 10 -5 20.5t-9 20.5l-59.5 104.5l-59.5 104.5l-28.5 53.5t-30.5 51.5q-25 31 -62 31q-29 0 -47 -18.5t-18 -47.5zM199 229q0 45 15 115t45 136.5t74 113.5t101 47q33 0 53.5 -19.5t32.5 -47t16.5 -60.5t4.5 -57 q0 -47 -8.5 -97.5t-26 -97.5t-45 -89t-66.5 -73q-20 -16 -43.5 -27.5t-50.5 -11.5q-31 0 -51.5 17.5t-31.5 42t-15 54t-4 54.5z" />
<glyph unicode="&#xf3;" horiz-adv-x="753" d="M51 233q0 -45 10.5 -94t33 -88t60.5 -64.5t93 -25.5q43 0 84 15.5t76 37.5q59 39 100 94.5t67.5 119t39 132t12.5 136.5q0 47 -9.5 96t-31 90t-58 67.5t-94.5 26.5q-92 0 -162.5 -56t-120 -138t-75 -176.5t-25.5 -172.5zM199 229q0 45 15 115t45 136.5t74 113.5t101 47 q33 0 53.5 -19.5t32.5 -47t16.5 -60.5t4.5 -57q0 -47 -8.5 -97.5t-26 -97.5t-45 -89t-66.5 -73q-20 -16 -43.5 -27.5t-50.5 -11.5q-31 0 -51.5 17.5t-31.5 42t-15 54t-4 54.5zM410 874q0 10 5 20.5t9 20.5l59.5 104.5l59.5 104.5l28.5 53.5t30.5 51.5q25 31 62 31 q29 0 47 -18.5t18 -47.5q0 -20 -14 -43q-18 -29 -41 -55l-45 -54l-70 -85q-35 -42 -74 -83l-21 -20q-11 -10 -26 -10q-12 0 -20 9t-8 21z" />
<glyph unicode="&#xf4;" horiz-adv-x="753" d="M51 233q0 -45 10.5 -94t33 -88t60.5 -64.5t93 -25.5q43 0 84 15.5t76 37.5q59 39 100 94.5t67.5 119t39 132t12.5 136.5q0 47 -9.5 96t-31 90t-58 67.5t-94.5 26.5q-92 0 -162.5 -56t-120 -138t-75 -176.5t-25.5 -172.5zM158 846q0 -29 26 -29q16 0 29 12l229 189 l215 -191q10 -12 29 -12q20 0 21 27q0 20 -19 43l-221 256q-8 10 -25 10q-14 0 -22 -10l-244 -256q-6 -8 -12 -17.5t-6 -21.5zM199 229q0 45 15 115t45 136.5t74 113.5t101 47q33 0 53.5 -19.5t32.5 -47t16.5 -60.5t4.5 -57q0 -47 -8.5 -97.5t-26 -97.5t-45 -89t-66.5 -73 q-20 -16 -43.5 -27.5t-50.5 -11.5q-31 0 -51.5 17.5t-31.5 42t-15 54t-4 54.5z" />
<glyph unicode="&#xf5;" horiz-adv-x="753" d="M51 233q0 -45 10.5 -94t33 -88t60.5 -64.5t93 -25.5q43 0 84 15.5t76 37.5q59 39 100 94.5t67.5 119t39 132t12.5 136.5q0 47 -9.5 96t-31 90t-58 67.5t-94.5 26.5q-92 0 -162.5 -56t-120 -138t-75 -176.5t-25.5 -172.5zM164 887q0 -10 6 -20.5t23 -10.5q16 0 22 10.5 t6 20.5q0 29 36 50t87 21q31 0 50.5 -17t40 -38.5t50 -39t82.5 -17.5q63 0 107.5 39t44.5 114q0 33 -29 33q-31 0 -31 -28q0 -27 -28.5 -43.5t-63.5 -16.5q-37 0 -59.5 17.5t-43 38t-47 38t-73.5 17.5q-29 0 -60.5 -13.5t-58 -36t-44 -53t-17.5 -65.5zM199 229q0 45 15 115 t45 136.5t74 113.5t101 47q33 0 53.5 -19.5t32.5 -47t16.5 -60.5t4.5 -57q0 -47 -8.5 -97.5t-26 -97.5t-45 -89t-66.5 -73q-20 -16 -43.5 -27.5t-50.5 -11.5q-31 0 -51.5 17.5t-31.5 42t-15 54t-4 54.5z" />
<glyph unicode="&#xf6;" horiz-adv-x="753" d="M51 233q0 -45 10.5 -94t33 -88t60.5 -64.5t93 -25.5q43 0 84 15.5t76 37.5q59 39 100 94.5t67.5 119t39 132t12.5 136.5q0 47 -9.5 96t-31 90t-58 67.5t-94.5 26.5q-92 0 -162.5 -56t-120 -138t-75 -176.5t-25.5 -172.5zM199 229q0 45 15 115t45 136.5t74 113.5t101 47 q33 0 53.5 -19.5t32.5 -47t16.5 -60.5t4.5 -57q0 -47 -8.5 -97.5t-26 -97.5t-45 -89t-66.5 -73q-20 -16 -43.5 -27.5t-50.5 -11.5q-31 0 -51.5 17.5t-31.5 42t-15 54t-4 54.5zM238 975q0 -37 24.5 -59.5t59.5 -22.5q49 0 62 31.5t13 72.5q0 35 -27.5 58.5t-60.5 23.5 q-41 0 -56 -34.5t-15 -69.5zM524 975q0 -37 24.5 -59.5t59.5 -22.5q49 0 62.5 31.5t13.5 72.5q0 35 -27.5 58.5t-60.5 23.5q-41 0 -56.5 -34.5t-15.5 -69.5z" />
<glyph unicode="&#xf7;" horiz-adv-x="972" d="M123 303h727v68h-727v-68zM422 137q0 -27 18.5 -45t46.5 -18q29 0 46.5 18.5t17.5 44.5q0 29 -17.5 47.5t-46.5 18.5q-27 0 -46 -18.5t-19 -47.5zM422 535q0 -29 18.5 -46.5t46.5 -17.5q29 0 46.5 17.5t17.5 46.5q0 27 -18.5 47t-45.5 20t-46 -20t-19 -47z" />
<glyph unicode="&#xf9;" horiz-adv-x="1024" d="M39 266q0 -39 3 -89t16.5 -94t43 -75t84.5 -31q59 0 120 39t116 93q51 51 93 105t71 95q-4 -20 -4 -39v-39q0 -33 3 -82t17 -95t41 -78.5t74 -32.5q59 0 124.5 45t127 108.5t110.5 132t74 117.5q4 8 9 20.5t5 22.5q0 16 -5 27.5t-23 11.5t-37 -23.5t-27 -37.5 q-18 -29 -58 -84.5t-87 -110.5t-93 -97t-77 -42q-20 0 -32.5 17.5t-19 41t-8.5 48t-2 38.5q0 47 7.5 105.5t18.5 120t25.5 119t30.5 100.5l13.5 37.5t7.5 39.5q0 23 -13.5 29t-31.5 6q-27 0 -43.5 -13t-28.5 -32.5t-20.5 -43t-18.5 -42.5q-14 -31 -46 -88t-73 -122.5 t-88 -131t-94 -115.5q-37 -39 -71.5 -61.5t-63.5 -22.5t-34 30t-5 52q0 49 9 114t23.5 130.5t31.5 127.5l32 112q4 16 9.5 33.5t5.5 33.5q0 45 -48 45q-47 0 -85.5 -27.5t-53.5 -72.5q-27 -90 -41 -186.5t-14 -188.5zM225 1174q0 -20 15 -44q18 -29 41 -55l45 -53l69 -85 q35 -42 74 -83l21 -20q11 -10 26 -11q12 0 20.5 9.5t8.5 21.5q0 10 -5 20.5l-10 20.5l-59.5 104.5t-58.5 104.5l-28.5 53.5t-31.5 50.5q-25 31 -61 31q-29 0 -47.5 -18t-18.5 -47z" />
<glyph unicode="&#xfa;" horiz-adv-x="1024" d="M39 266q0 -39 3 -89t16.5 -94t43 -75t84.5 -31q59 0 120 39t116 93q51 51 93 105t71 95q-4 -20 -4 -39v-39q0 -33 3 -82t17 -95t41 -78.5t74 -32.5q59 0 124.5 45t127 108.5t110.5 132t74 117.5q4 8 9 20.5t5 22.5q0 16 -5 27.5t-23 11.5t-37 -23.5t-27 -37.5 q-18 -29 -58 -84.5t-87 -110.5t-93 -97t-77 -42q-20 0 -32.5 17.5t-19 41t-8.5 48t-2 38.5q0 47 7.5 105.5t18.5 120t25.5 119t30.5 100.5l13.5 37.5t7.5 39.5q0 23 -13.5 29t-31.5 6q-27 0 -43.5 -13t-28.5 -32.5t-20.5 -43t-18.5 -42.5q-14 -31 -46 -88t-73 -122.5 t-88 -131t-94 -115.5q-37 -39 -71.5 -61.5t-63.5 -22.5t-34 30t-5 52q0 49 9 114t23.5 130.5t31.5 127.5l32 112q4 16 9.5 33.5t5.5 33.5q0 45 -48 45q-47 0 -85.5 -27.5t-53.5 -72.5q-27 -90 -41 -186.5t-14 -188.5zM430 854q0 10 5 20.5t9 20.5l60 104.5t59 104.5 l28.5 53.5t31.5 50.5q25 31 61 31q29 0 47.5 -18.5t18.5 -46.5q0 -20 -15 -44q-18 -29 -41 -55l-45 -53l-69 -85q-35 -42 -74 -83l-22 -20q-11 -10 -25 -11q-12 0 -20.5 9.5t-8.5 21.5z" />
<glyph unicode="&#xfb;" horiz-adv-x="1024" d="M39 266q0 -39 3 -89t16.5 -94t43 -75t84.5 -31q59 0 120 39t116 93q51 51 93 105t71 95q-4 -20 -4 -39v-39q0 -33 3 -82t17 -95t41 -78.5t74 -32.5q59 0 124.5 45t127 108.5t110.5 132t74 117.5q4 8 9 20.5t5 22.5q0 16 -5 27.5t-23 11.5t-37 -23.5t-27 -37.5 q-18 -29 -58 -84.5t-87 -110.5t-93 -97t-77 -42q-20 0 -32.5 17.5t-19 41t-8.5 48t-2 38.5q0 47 7.5 105.5t18.5 120t25.5 119t30.5 100.5l13.5 37.5t7.5 39.5q0 23 -13.5 29t-31.5 6q-27 0 -43.5 -13t-28.5 -32.5t-20.5 -43t-18.5 -42.5q-14 -31 -46 -88t-73 -122.5 t-88 -131t-94 -115.5q-37 -39 -71.5 -61.5t-63.5 -22.5t-34 30t-5 52q0 49 9 114t23.5 130.5t31.5 127.5l32 112q4 16 9.5 33.5t5.5 33.5q0 45 -48 45q-47 0 -85.5 -27.5t-53.5 -72.5q-27 -90 -41 -186.5t-14 -188.5zM199 866q0 -29 26 -28q16 0 29 12l229 188l215 -190 q10 -12 29 -12q20 0 21 26q0 20 -19 43l-221 256q-8 10 -25 10q-14 0 -22 -10l-244 -256q-6 -8 -12 -17.5t-6 -21.5z" />
<glyph unicode="&#xfc;" horiz-adv-x="1024" d="M39 266q0 -39 3 -89t16.5 -94t43 -75t84.5 -31q59 0 120 39t116 93q51 51 93 105t71 95q-4 -20 -4 -39v-39q0 -33 3 -82t17 -95t41 -78.5t74 -32.5q59 0 124.5 45t127 108.5t110.5 132t74 117.5q4 8 9 20.5t5 22.5q0 16 -5 27.5t-23 11.5t-37 -23.5t-27 -37.5 q-18 -29 -58 -84.5t-87 -110.5t-93 -97t-77 -42q-20 0 -32.5 17.5t-19 41t-8.5 48t-2 38.5q0 47 7.5 105.5t18.5 120t25.5 119t30.5 100.5l13.5 37.5t7.5 39.5q0 23 -13.5 29t-31.5 6q-27 0 -43.5 -13t-28.5 -32.5t-20.5 -43t-18.5 -42.5q-14 -31 -46 -88t-73 -122.5 t-88 -131t-94 -115.5q-37 -39 -71.5 -61.5t-63.5 -22.5t-34 30t-5 52q0 49 9 114t23.5 130.5t31.5 127.5l32 112q4 16 9.5 33.5t5.5 33.5q0 45 -48 45q-47 0 -85.5 -27.5t-53.5 -72.5q-27 -90 -41 -186.5t-14 -188.5zM279 975q0 -37 24.5 -59.5t58.5 -22.5q49 0 62.5 31.5 t13.5 72.5q0 35 -27.5 58.5t-60.5 23.5q-41 0 -56 -34.5t-15 -69.5zM565 975q0 -37 24.5 -59.5t59.5 -22.5q49 0 62.5 31.5t13.5 72.5q0 35 -27.5 58.5t-60.5 23.5q-41 0 -56.5 -34.5t-15.5 -69.5z" />
<glyph unicode="&#xfd;" horiz-adv-x="931" d="M33 929q0 10 5 20.5t9 20.5l59.5 104.5l59.5 104.5l28.5 53.5t30.5 51.5q25 31 62 30q29 0 47 -18t18 -47q0 -20 -14 -43q-18 -29 -41 -55l-45 -54l-70 -85q-35 -42 -73 -83l-22 -20q-11 -10 -25 -10q-12 0 -20.5 9t-8.5 21zM16 233q0 -27 4.5 -56.5t16.5 -53t33.5 -38.5 t56.5 -15q51 0 121.5 50t140.5 118.5t128 139.5t83 114q6 -160 6 -318v-59q0 -29 -2 -58q-80 -51 -173 -126.5t-174 -165t-135 -189.5t-54 -203q0 -41 9 -81t29.5 -70.5t53.5 -50t80 -19.5q49 0 94 18.5t84 47t72.5 66.5t58.5 77q76 117 118 252t63.5 277.5t26.5 287 t5 279.5v51q0 35 -3 71.5t-10.5 69.5t-19.5 41q-20 14 -41 15q-25 0 -42 -21l-32 -37l-144 -189q-71 -95 -155 -182l-27 -26q-19 -18 -41 -36.5t-42.5 -33t-32.5 -14.5q-16 0 -18 16.5t-2 26.5q0 29 9 72t22.5 90t28.5 90l26 69q10 25 26.5 61t16.5 62q0 35 -27 59.5 t-61 24.5q-29 0 -47.5 -16t-30.5 -41q-10 -18 -15.5 -37.5l-11.5 -40.5q-29 -88 -50.5 -182.5t-21.5 -186.5zM158 -631q0 90 44 176t109.5 163t141.5 142l141 119q-6 -68 -22.5 -150.5t-40 -166.5t-55.5 -161t-73 -130q-14 -18 -32.5 -39.5t-40 -40t-45 -31t-47.5 -12.5 q-25 0 -40.5 13.5t-24.5 33t-12 43t-3 41.5z" />
<glyph unicode="&#xff;" horiz-adv-x="931" d="M16 233q0 -27 4.5 -56.5t16.5 -53t33.5 -38.5t56.5 -15q29 0 62.5 16t70.5 43t76 61.5t76 71.5q63 66 114.5 130.5t73.5 99.5q6 -160 6 -318v-59q0 -29 -2 -58q-78 -51 -172 -126.5t-175 -165t-135 -189.5t-54 -203q0 -41 9 -81t29.5 -70.5t53.5 -50t80 -19.5 q49 0 94 18.5t85 47t72.5 66.5t57.5 77q63 98 104 217t64.5 244t33 252t9.5 239q0 29 1 86.5t0 119t-8.5 110.5t-23.5 61q-20 14 -41 15q-23 0 -41 -21l-33 -37l-143 -187q-72 -97 -156 -184l-26 -26q-18 -18 -41 -36.5t-43.5 -33t-32.5 -14.5q-20 0 -20 43q0 29 9 72t23 90 l29 90q14 43 24.5 69.5t27 61.5t16.5 61q0 35 -27 59.5t-61 24.5q-29 0 -47.5 -16t-30.5 -41q-10 -16 -15.5 -37.5t-11.5 -40.5q-27 -82 -49.5 -182.5t-22.5 -186.5zM158 -631q0 90 44 176t109.5 163t142.5 142l140 119q-6 -66 -22.5 -148.5t-40 -166.5t-55.5 -162t-73 -131 q-12 -18 -30.5 -39.5t-40 -40t-46 -31t-48.5 -12.5q-25 0 -41.5 13.5t-24.5 33t-11 43t-3 41.5zM258 975q0 -37 24.5 -59.5t59.5 -22.5q49 0 62.5 31.5t13.5 72.5q0 35 -28 58.5t-60 23.5q-41 0 -56.5 -34.5t-15.5 -69.5zM545 975q0 -37 24.5 -59.5t59.5 -22.5 q49 0 62.5 31.5t13.5 72.5q0 35 -28 58.5t-61 23.5q-41 0 -56 -34.5t-15 -69.5z" />
<glyph unicode="&#x152;" horiz-adv-x="1873" d="M37 496q0 -98 19.5 -200.5t65.5 -186.5t126 -137.5t198 -53.5q88 0 164 26.5t141.5 72.5t120 108.5t97.5 132.5q18 -74 49 -138.5t79 -112.5t111.5 -75.5t145.5 -27.5q88 0 173 27.5t160.5 74.5t141 109.5t115.5 132.5q12 16 27.5 42.5t15.5 47.5q0 16 -9.5 26.5 t-25.5 10.5q-14 0 -21.5 -6.5t-15.5 -16.5q-18 -25 -33.5 -51.5t-36.5 -50.5q-35 -45 -79 -85t-93 -69.5t-103 -47t-114 -17.5q-92 0 -151.5 47t-93 118.5t-47 155.5t-13.5 158q0 35 6 72l184 44l185 42l84 19q49 11 82 11h6q27 6 47 26.5t20 49.5q0 4 -10 6t-23.5 3 t-25.5 1h-16q-39 0 -112 -2t-150.5 -7t-146.5 -12t-101 -18q12 47 32.5 116t51 144.5t68.5 150.5t84 134.5t100.5 96t113.5 36.5q61 0 90 -28.5t44.5 -63.5t24.5 -63.5t32 -28.5q31 0 36 23.5t5 46.5q0 104 -60.5 161.5t-165.5 57.5q-88 0 -164.5 -37t-140 -94.5t-116 -129 t-91.5 -143.5q-10 47 -28.5 109.5t-49 118t-75.5 93.5t-107 38q-23 0 -46 -3t-46 -3q-35 0 -65.5 10t-65.5 10q-86 0 -160.5 -40t-134.5 -99q-78 -80 -136 -183.5t-96 -218t-57.5 -232t-19.5 -228.5zM225 436q0 102 21.5 214t61.5 219.5t97.5 204.5t129.5 171q45 47 103 82 t126 35q74 0 123 -44t80.5 -108.5t48 -137.5t22.5 -130q-23 -59 -42 -119.5t-33 -122.5l-49 -9q-28 -5 -53 -15t-42.5 -27.5t-17.5 -46.5t15 -43t38 -20.5t47 -6.5h45q0 -14 -1 -27t-1 -28q0 -12 1 -25.5t1 -25.5q-29 -66 -70.5 -132.5t-96 -119.5t-122 -87t-147.5 -34 q-82 0 -137.5 34t-88 88t-46 122.5t-13.5 138.5z" />
<glyph unicode="&#x153;" horiz-adv-x="1169" d="M51 233q0 -45 10.5 -94t33 -88t60.5 -64.5t93 -25.5q47 0 90 16.5t81 44t68.5 63.5t53.5 73q20 -86 73.5 -135.5t143.5 -49.5q84 0 161.5 29t145.5 77t124 111.5t95 133.5q10 18 14.5 29.5t4.5 31.5q0 10 -9.5 16.5t-19.5 6.5q-23 0 -37 -18.5t-25 -35.5 q-31 -51 -71.5 -101t-90 -91t-106.5 -66.5t-123 -25.5q-72 0 -102.5 41t-30.5 108q0 39 10 86q47 16 102.5 61.5t103.5 103.5t80 120.5t32 114.5q0 53 -30 87.5t-85 34.5q-49 0 -92 -23.5t-78 -58t-62.5 -77.5t-47.5 -84q-14 76 -58.5 134t-128.5 58q-92 0 -162.5 -56 t-120 -138t-75 -176.5t-25.5 -172.5zM199 229q0 45 15 115t45 136.5t74 113.5t101 47q33 0 53.5 -19.5t32.5 -47t16.5 -60.5t4.5 -57q0 -47 -8.5 -97.5t-26 -97.5t-45 -89t-66.5 -73q-20 -16 -43.5 -27.5t-50.5 -11.5q-31 0 -51.5 17.5t-31.5 42t-15 54t-4 54.5zM705 383 q4 27 22 85t45 116.5t57.5 102.5t61.5 44q20 0 27.5 -15.5t7.5 -31.5q0 -41 -22.5 -85t-55.5 -86t-71.5 -76t-71.5 -54z" />
<glyph unicode="&#x178;" horiz-adv-x="1204" d="M25 498q0 -59 6 -140.5t29.5 -155t71.5 -124.5t130 -51q70 0 137.5 37.5t128 100t115.5 141.5t101.5 160t80.5 156l60 130q-6 -113 -27.5 -264.5t-59.5 -305t-90.5 -294t-119.5 -228.5q-35 -45 -83 -72.5t-108 -27.5q-49 0 -86 17t-65.5 37.5t-48 38t-35.5 17.5 t-25.5 -10t-7.5 -25q4 -23 24.5 -48t30.5 -33q43 -37 97.5 -59.5t111.5 -22.5q86 0 161 44t128 107q70 80 125 185.5t99 225.5t78 247t59.5 252.5t43 244.5t29.5 219l11.5 93.5t9.5 93.5l7 50q3 22 3 50q0 29 -8.5 49.5t-42.5 20.5q-16 0 -33 -4q-53 -18 -66.5 -47 t-17.5 -80q0 -6 -8 -28l-19 -46l-18 -46q-8 -22 -12 -28l-57 -130l-73 -158q-40 -83 -86.5 -166.5t-94.5 -159.5t-96 -137.5t-95 -96.5q-20 -16 -44 -28.5t-50 -12.5q-41 0 -62.5 36t-31 84t-10.5 97.5t-1 77.5q0 86 7.5 191.5t19.5 214t30.5 213t40.5 188.5q6 18 7 35 q0 33 -19.5 46t-50.5 13q-16 0 -31.5 -1t-29.5 -9q-20 -10 -38 -36.5t-31 -57.5t-23 -61l-15 -52q-20 -70 -32.5 -155.5t-19.5 -175t-9 -176t-2 -160.5zM451 1526q0 -35 24.5 -58.5t59.5 -23.5q49 0 62 31.5t13 72.5q0 35 -27.5 58.5t-60.5 23.5q-41 0 -56 -34.5t-15 -69.5z M737 1526q0 -35 24.5 -58.5t59.5 -23.5q49 0 62.5 31.5t13.5 72.5q0 35 -27.5 58.5t-60.5 23.5q-41 0 -56.5 -34.5t-15.5 -69.5z" />
<glyph unicode="&#x2c6;" horiz-adv-x="794" d="M123 907q0 -14 8 -21t19 -7q12 0 28 12l230 188l215 -190q16 -12 28 -12q20 0 21 26q0 12 -6.5 23.5t-12.5 19.5l-221 256q-10 10 -24 10q-12 0 -23 -10l-244 -256q-6 -8 -12 -17.5t-6 -21.5z" />
<glyph unicode="&#x2dc;" horiz-adv-x="800" d="M123 928q0 -10 6 -20.5t23 -10.5q16 0 22 10.5t6 20.5q0 29 36 50t87 21q31 0 50.5 -17t40 -38.5t50 -39t82.5 -17.5q63 0 107.5 39t44.5 114q0 33 -29 33q-31 0 -31 -29q0 -27 -28.5 -43t-63.5 -16q-37 0 -59.5 17.5t-43 38t-47 38t-73.5 17.5q-29 0 -60.5 -13.5 t-58 -36t-44 -53t-17.5 -65.5z" />
<glyph unicode="&#x2000;" horiz-adv-x="1017" />
<glyph unicode="&#x2001;" horiz-adv-x="2037" />
<glyph unicode="&#x2002;" horiz-adv-x="1017" />
<glyph unicode="&#x2003;" horiz-adv-x="2037" />
<glyph unicode="&#x2004;" horiz-adv-x="677" />
<glyph unicode="&#x2005;" horiz-adv-x="507" />
<glyph unicode="&#x2006;" horiz-adv-x="337" />
<glyph unicode="&#x2007;" horiz-adv-x="337" />
<glyph unicode="&#x2008;" horiz-adv-x="253" />
<glyph unicode="&#x2009;" horiz-adv-x="407" />
<glyph unicode="&#x200a;" horiz-adv-x="112" />
<glyph unicode="&#x2010;" horiz-adv-x="985" d="M205 422q0 -18 3 -27.5t21.5 -15.5t58.5 -7t60 -1q51 0 114.5 2t130 6t129 12t112.5 21q10 4 19 6t9 16q0 25 -17.5 30t-35.5 5q-68 0 -136.5 -3t-135.5 -3q-88 0 -179 6l-43 4q-20 2 -43 2t-45 -12t-22 -41z" />
<glyph unicode="&#x2011;" horiz-adv-x="985" d="M205 422q0 -18 3 -27.5t21.5 -15.5t58.5 -7t60 -1q51 0 114.5 2t130 6t129 12t112.5 21q10 4 19 6t9 16q0 25 -17.5 30t-35.5 5q-68 0 -136.5 -3t-135.5 -3q-88 0 -179 6l-43 4q-20 2 -43 2t-45 -12t-22 -41z" />
<glyph unicode="&#x2012;" horiz-adv-x="985" d="M205 422q0 -18 3 -27.5t21.5 -15.5t58.5 -7t60 -1q51 0 114.5 2t130 6t129 12t112.5 21q10 4 19 6t9 16q0 25 -17.5 30t-35.5 5q-68 0 -136.5 -3t-135.5 -3q-88 0 -179 6l-43 4q-20 2 -43 2t-45 -12t-22 -41z" />
<glyph unicode="&#x2013;" horiz-adv-x="1024" d="M205 371v104h696v-104h-696z" />
<glyph unicode="&#x2014;" horiz-adv-x="2048" d="M205 371v104h1720v-104h-1720z" />
<glyph unicode="&#x2018;" horiz-adv-x="403" d="M61 991q0 -66 70 -65q35 0 59.5 26.5t24.5 61.5q0 20 -5 41.5t-5 44.5q0 47 12 83t25.5 61.5t26 43t12.5 25.5q0 18 -19 18q-27 0 -60.5 -34.5t-62 -82t-49 -95.5t-24.5 -75q-2 -10 -3.5 -26.5t-1.5 -26.5z" />
<glyph unicode="&#x2019;" horiz-adv-x="485" d="M205 944q0 -18 18 -18q29 0 61.5 34.5t62.5 83t50.5 96.5t22.5 72q2 12 3 25.5t1 28.5q0 33 -19.5 49t-50.5 16q-35 0 -59.5 -26.5t-24.5 -61.5q0 -23 5.5 -43t5.5 -43q0 -43 -12.5 -79t-26 -63.5t-25.5 -46t-12 -24.5z" />
<glyph unicode="&#x201c;" horiz-adv-x="649" d="M61 991q0 -33 19.5 -49t50.5 -16q35 0 59.5 26.5t24.5 61.5q0 23 -5 43t-5 43q0 43 12 78.5t25.5 63.5t26 45.5t12.5 25.5q0 18 -19 18q-29 0 -61.5 -34.5t-62 -83t-49 -96.5t-23.5 -73q-2 -12 -3.5 -25.5t-1.5 -27.5zM307 991q0 -33 19.5 -49t50.5 -16q35 0 59.5 26.5 t24.5 61.5q0 23 -5 43t-5 43q0 43 12 78.5t25.5 63.5t25.5 45.5t12 25.5q0 18 -18 18q-29 0 -61.5 -34.5t-62.5 -83t-49.5 -96.5t-23.5 -73q-2 -12 -3 -25.5t-1 -27.5z" />
<glyph unicode="&#x201d;" horiz-adv-x="731" d="M205 944q0 -18 18 -18q29 0 61.5 34.5t61.5 82t50.5 95.5t23.5 74q2 10 3 26.5t1 27.5q0 66 -70 65q-35 0 -59.5 -26.5t-24.5 -61.5q0 -20 5.5 -41.5t5.5 -44.5q0 -47 -12.5 -83t-26 -61.5t-25.5 -42t-12 -26.5zM451 944q0 -18 18 -18q29 0 61.5 34.5t61.5 82t50.5 95.5 t23.5 74q2 10 3 26.5t1 27.5q0 66 -70 65q-35 0 -59.5 -26.5t-24.5 -61.5q0 -20 5 -41.5t5 -44.5q0 -47 -12 -83t-25.5 -61.5t-25.5 -42t-12 -26.5z" />
<glyph unicode="&#x2022;" horiz-adv-x="614" d="M168 440q0 -59 40 -98t99 -39q41 0 65.5 14.5t38 38t17.5 55t4 66.5q0 57 -45 96t-100 39q-35 0 -57.5 -16t-37 -42t-19.5 -55.5t-5 -58.5z" />
<glyph unicode="&#x2026;" horiz-adv-x="1716" d="M205 82q0 -37 24.5 -59.5t59.5 -22.5q49 0 62.5 31.5t13.5 72.5q0 35 -28 58.5t-61 23.5q-41 0 -56 -34.5t-15 -69.5zM819 82q0 -37 24.5 -59.5t59.5 -22.5q49 0 62.5 31.5t13.5 72.5q0 35 -27.5 58.5t-60.5 23.5q-41 0 -56.5 -34.5t-15.5 -69.5zM1434 82 q0 -37 24.5 -59.5t59.5 -22.5q49 0 62 31.5t13 72.5q0 35 -27.5 58.5t-60.5 23.5q-41 0 -56 -34.5t-15 -69.5z" />
<glyph unicode="&#x202f;" horiz-adv-x="407" />
<glyph unicode="&#x2039;" horiz-adv-x="780" d="M123 350q0 -14 16 -26l414 -295q31 -20 61 -21q14 0 25.5 8.5t11.5 24.5q0 10 -1 18.5t-9 14.5l-303 276l307 258q12 10 12 37q0 16 -11 19.5t-23 3.5q-18 0 -36 -6.5t-34 -16.5l-414 -266q-16 -11 -16 -29z" />
<glyph unicode="&#x203a;" horiz-adv-x="780" d="M123 645q0 16 11 19.5t24 3.5q18 0 35.5 -6.5t33.5 -16.5l414 -266q16 -10 16 -29q0 -14 -16 -26l-414 -295q-31 -20 -61 -21q-14 0 -25.5 8.5t-11.5 24.5q0 10 1 18.5t9 14.5l303 276l-307 258q-12 10 -12 37z" />
<glyph unicode="&#x205f;" horiz-adv-x="507" />
<glyph unicode="&#x2122;" horiz-adv-x="837" d="M100 1346h90v-232h72v232h90v59h-252v-59zM408 1114h69v217l84 -217h29l82 217v-217h65v291h-98l-61 -174l-70 174h-100v-291z" />
<glyph unicode="&#xe000;" horiz-adv-x="780" d="M0 780h780v-780h-780v780z" />
<glyph unicode="&#xfb01;" horiz-adv-x="1253" d="M758 305q0 -45 6 -105.5t26.5 -114.5t56.5 -92t97 -38q55 0 112.5 36t112 87t99.5 107.5t74 97.5l15 21q9 13 18.5 28.5t15.5 30t6 24.5q0 16 -3 30.5t-24 14.5q-20 0 -33 -18l-24 -33q-20 -33 -58 -88t-84 -107.5t-94.5 -90.5t-89.5 -38q-27 0 -41 22.5t-21 53.5 t-8 61.5t-1 49.5q0 94 18 182q6 23 17 52l20 60q10 30 17.5 57.5t7.5 47.5q0 45 -48 45q-66 0 -97.5 -38t-49.5 -93q-16 -53 -29.5 -124t-13.5 -128zM901 893q0 -31 18.5 -54.5t51.5 -23.5q41 0 69.5 34t28.5 75q0 31 -19.5 54t-51.5 23q-41 0 -69 -34.5t-28 -73.5zM31 -20 q0 -29 1 -79.5t6 -106.5t15 -114.5t29.5 -106.5t49.5 -78t73 -30q98 0 162.5 61.5t103.5 151t54.5 188.5t15.5 175q0 49 -6.5 108.5t-20.5 119t-38.5 112.5t-63.5 88q27 0 61 -1h10q29 0 56 5q31 6 52 24.5t21 57.5q0 16 -11 20.5t-23 4.5q-16 0 -32 -3.5t-32 -7.5 q-25 -4 -49.5 -6t-50.5 -2q-18 0 -46 1t-56.5 3t-55.5 6t-43 11q35 215 100.5 420.5t151.5 404.5q27 59 56.5 117.5t56.5 117.5q8 16 13 34t5 38q0 25 -11.5 43.5t-39.5 18.5q-18 0 -41 -6.5t-45.5 -16.5t-42 -23.5t-31.5 -25.5q-16 -18 -27 -41l-20 -45 q-154 -399 -230.5 -803.5t-76.5 -834.5zM127 -147q0 145 16.5 288.5t38.5 286.5q59 -31 99.5 -80t65 -108.5t35.5 -125t11 -126.5v-6q0 -41 -3 -81t-11 -81q-4 -27 -17.5 -74t-34 -92t-49 -78t-65.5 -33q-29 0 -46 40t-26.5 93.5t-11.5 103.5t-2 73z" />
<glyph unicode="&#xfb02;" horiz-adv-x="1327" d="M746 567q0 -39 3 -102.5t11 -136t24.5 -145t45 -131t68.5 -95.5t98 -37q63 0 126.5 40t121 97.5t103.5 123t77 114.5q10 16 20 34.5t10 39.5q0 14 -6 25.5t-22 11.5t-25.5 -8.5t-17.5 -20.5q-14 -20 -26.5 -42t-27.5 -42q-20 -29 -54 -72t-74 -83t-83 -67.5t-79 -27.5 q-43 0 -68 39t-39 92t-18 107.5t-4 85.5q0 18 1 45.5t7 44.5q4 14 15 30l20 29l50 79t48 79q47 84 92 190.5t82 219t59.5 225t22.5 209.5q0 29 -6 61.5t-19.5 60t-37 45t-60.5 17.5q-45 0 -89 -33t-82 -81t-66.5 -99t-45.5 -88q-86 -199 -120.5 -409t-34.5 -425zM903 674v31 q0 147 36 308t79 302l24 74q15 49 36.5 96t50 83t61.5 36q12 0 18.5 -9.5t9.5 -21.5t3 -27v-18q0 -98 -31 -217t-77 -239t-102 -231.5t-106 -195.5q-2 17 -2 29zM31 -20q0 -29 1 -79.5t6 -106.5t15 -114.5t29.5 -106.5t49.5 -78t73 -30q98 0 162.5 61.5t103.5 151 t54.5 188.5t15.5 175q0 49 -6.5 108.5t-20.5 119t-38.5 112.5t-63.5 88q27 0 61 -1h10q29 0 56 5q31 6 52 24.5t21 57.5q0 16 -11 20.5t-23 4.5q-16 0 -32 -3.5t-32 -7.5q-25 -4 -49.5 -6t-50.5 -2q-18 0 -46 1t-56.5 3t-55.5 6t-43 11q35 215 100.5 420.5t151.5 404.5 q27 59 56.5 117.5t56.5 117.5q8 16 13 34t5 38q0 25 -11.5 43.5t-39.5 18.5q-18 0 -41 -6.5t-45.5 -16.5t-42 -23.5t-31.5 -25.5q-16 -18 -27 -41l-20 -45q-154 -399 -230.5 -803.5t-76.5 -834.5zM127 -147q0 145 16.5 288.5t38.5 286.5q59 -31 99.5 -80t65 -108.5 t35.5 -125t11 -126.5v-6q0 -41 -3 -81t-11 -81q-4 -27 -17.5 -74t-34 -92t-49 -78t-65.5 -33q-29 0 -46 40t-26.5 93.5t-11.5 103.5t-2 73z" />
<glyph unicode="&#xfb03;" horiz-adv-x="1968" d="M1473 305q0 -45 6 -105.5t26.5 -114.5t56.5 -92t97 -38q55 0 112.5 36t112 87t99.5 107.5t74 97.5l15 21q9 13 18.5 28.5t15.5 30t6 24.5q0 16 -3 30.5t-24 14.5q-20 0 -33 -18l-24 -33q-20 -33 -58 -88t-84 -107.5t-94.5 -90.5t-89.5 -38q-27 0 -41 22.5t-21 53.5 t-8 61.5t-1 49.5q0 94 18 182q6 23 17 52l20 60q10 30 17.5 57.5t7.5 47.5q0 45 -48 45q-66 0 -97.5 -38t-49.5 -93q-16 -53 -29.5 -124t-13.5 -128zM1616 893q0 -31 18.5 -54.5t51.5 -23.5q41 0 69.5 34t28.5 75q0 31 -19.5 54t-51.5 23q-41 0 -69 -34.5t-28 -73.5z M746 -20q0 -29 1 -79.5t6 -106.5t15 -114.5t29.5 -106.5t49.5 -78t73 -30q98 0 162.5 61.5t103.5 151t54.5 188.5t15.5 175q0 49 -6.5 108.5t-20.5 119t-38.5 112.5t-63.5 88q27 0 61 -1h10q29 0 56 5q31 6 52 24.5t21 57.5q0 16 -11 20.5t-23 4.5q-16 0 -32 -3.5t-32 -7.5 q-25 -4 -49.5 -6t-50.5 -2q-18 0 -46 1t-56.5 3t-55.5 6t-43 11q35 215 100.5 420.5t151.5 404.5q27 59 56.5 117.5t56.5 117.5q8 16 13 34t5 38q0 25 -11.5 43.5t-39.5 18.5q-18 0 -41 -6.5t-45.5 -16.5t-42 -23.5t-31.5 -25.5q-16 -18 -27 -41l-20 -45 q-154 -399 -230.5 -803.5t-76.5 -834.5zM842 -147q0 145 16.5 288.5t38.5 286.5q59 -31 99.5 -80t65 -108.5t35.5 -125t11 -126.5v-6q0 -41 -3 -81t-11 -81q-4 -27 -17.5 -74t-34 -92t-49 -78t-65.5 -33q-29 0 -46 40t-26.5 93.5t-11.5 103.5t-2 73zM31 -20q0 -29 1 -79.5 t6 -106.5t15 -114.5t29.5 -106.5t49.5 -78t73 -30q98 0 162.5 61.5t103.5 151t54.5 188.5t15.5 175q0 49 -6.5 108.5t-20.5 119t-38.5 112.5t-63.5 88q27 0 61 -1h10q29 0 56 5q31 6 52 24.5t21 57.5q0 16 -11 20.5t-23 4.5q-16 0 -32 -3.5t-32 -7.5q-25 -4 -49.5 -6 t-50.5 -2q-18 0 -46 1t-56.5 3t-55.5 6t-43 11q35 215 100.5 420.5t151.5 404.5q27 59 56.5 117.5t56.5 117.5q8 16 13 34t5 38q0 25 -11.5 43.5t-39.5 18.5q-18 0 -41 -6.5t-45.5 -16.5t-42 -23.5t-31.5 -25.5q-16 -18 -27 -41l-20 -45q-154 -399 -230.5 -803.5 t-76.5 -834.5zM127 -147q0 145 16.5 288.5t38.5 286.5q59 -31 99.5 -80t65 -108.5t35.5 -125t11 -126.5v-6q0 -41 -3 -81t-11 -81q-4 -27 -17.5 -74t-34 -92t-49 -78t-65.5 -33q-29 0 -46 40t-26.5 93.5t-11.5 103.5t-2 73z" />
<glyph unicode="&#xfb04;" horiz-adv-x="2041" d="M1461 567q0 -39 3 -102.5t11 -136t24.5 -145t45 -131t68.5 -95.5t98 -37q63 0 126.5 40t121 97.5t103.5 123t77 114.5q10 16 20 34.5t10 39.5q0 14 -6 25.5t-22 11.5t-25.5 -8.5t-17.5 -20.5q-14 -20 -26.5 -42t-27.5 -42q-20 -29 -54 -72t-74 -83t-83 -67.5t-79 -27.5 q-43 0 -68 39t-39 92t-18 107.5t-4 85.5q0 18 1 45.5t7 44.5q4 14 15 30l20 29l50 79t48 79q47 84 92 190.5t82 219t59.5 225t22.5 209.5q0 29 -6 61.5t-19.5 60t-37 45t-60.5 17.5q-45 0 -89 -33t-82 -81t-66.5 -99t-45.5 -88q-86 -199 -120.5 -409t-34.5 -425zM1618 674 v31q0 147 36 308t79 302l24 74q15 49 36.5 96t50 83t61.5 36q12 0 18.5 -9.5t9.5 -21.5t3 -27v-18q0 -98 -31 -217t-77 -239t-102 -231.5t-106 -195.5q-2 17 -2 29zM746 -20q0 -29 1 -79.5t6 -106.5t15 -114.5t29.5 -106.5t49.5 -78t73 -30q98 0 162.5 61.5t103.5 151 t54.5 188.5t15.5 175q0 49 -6.5 108.5t-20.5 119t-38.5 112.5t-63.5 88q27 0 61 -1h10q29 0 56 5q31 6 52 24.5t21 57.5q0 16 -11 20.5t-23 4.5q-16 0 -32 -3.5t-32 -7.5q-25 -4 -49.5 -6t-50.5 -2q-18 0 -46 1t-56.5 3t-55.5 6t-43 11q35 215 100.5 420.5t151.5 404.5 q27 59 56.5 117.5t56.5 117.5q8 16 13 34t5 38q0 25 -11.5 43.5t-39.5 18.5q-18 0 -41 -6.5t-45.5 -16.5t-42 -23.5t-31.5 -25.5q-16 -18 -27 -41l-20 -45q-154 -399 -230.5 -803.5t-76.5 -834.5zM842 -147q0 145 16.5 288.5t38.5 286.5q59 -31 99.5 -80t65 -108.5 t35.5 -125t11 -126.5v-6q0 -41 -3 -81t-11 -81q-4 -27 -17.5 -74t-34 -92t-49 -78t-65.5 -33q-29 0 -46 40t-26.5 93.5t-11.5 103.5t-2 73zM31 -20q0 -29 1 -79.5t6 -106.5t15 -114.5t29.5 -106.5t49.5 -78t73 -30q98 0 162.5 61.5t103.5 151t54.5 188.5t15.5 175 q0 49 -6.5 108.5t-20.5 119t-38.5 112.5t-63.5 88q27 0 61 -1h10q29 0 56 5q31 6 52 24.5t21 57.5q0 16 -11 20.5t-23 4.5q-16 0 -32 -3.5t-32 -7.5q-25 -4 -49.5 -6t-50.5 -2q-18 0 -46 1t-56.5 3t-55.5 6t-43 11q35 215 100.5 420.5t151.5 404.5q27 59 56.5 117.5 t56.5 117.5q8 16 13 34t5 38q0 25 -11.5 43.5t-39.5 18.5q-18 0 -41 -6.5t-45.5 -16.5t-42 -23.5t-31.5 -25.5q-16 -18 -27 -41l-20 -45q-154 -399 -230.5 -803.5t-76.5 -834.5zM127 -147q0 145 16.5 288.5t38.5 286.5q59 -31 99.5 -80t65 -108.5t35.5 -125t11 -126.5v-6 q0 -41 -3 -81t-11 -81q-4 -27 -17.5 -74t-34 -92t-49 -78t-65.5 -33q-29 0 -46 40t-26.5 93.5t-11.5 103.5t-2 73z" />
</font>
</defs>
</svg>
