<?xml version="1.0" standalone="no"?>
<!DOCTYPE svg PUBLIC "-//W3C//DTD SVG 1.1//EN" "http://www.w3.org/Graphics/SVG/1.1/DTD/svg11.dtd" >
<svg xmlns="http://www.w3.org/2000/svg">
<metadata>
This is a custom SVG webfont generated by Font Squirrel.
Copyright   : Copyright c 2007 by vernon adams All rights reserved
</metadata>
<defs>
<font id="webfontPHzhAcVd" horiz-adv-x="1112" >
<font-face units-per-em="2048" ascent="1638" descent="-410" />
<missing-glyph horiz-adv-x="423" />
<glyph unicode=" "  horiz-adv-x="423" />
<glyph unicode="&#x09;" horiz-adv-x="423" />
<glyph unicode="&#xa0;" horiz-adv-x="423" />
<glyph unicode="!" horiz-adv-x="665" d="M131 133q8 66 66 113q53 45 118 45q63 0 107 -45q43 -47 35 -112.5t-66 -113.5q-53 -45 -121 -45q-63 0 -106 45t-33 113zM240 424l67 1151h389l-262 -1151h-194z" />
<glyph unicode="&#x22;" d="M231 766l37 811h373l-219 -811h-191zM735 766l37 811h375l-221 -811h-191z" />
<glyph unicode="#" horiz-adv-x="1087" d="M145 551l21 143h153l56 201h-156l23 145h172l65 269h178l-65 -269h176l63 267h181l-66 -267h133l-20 -145h-150l-55 -201h156l-21 -143h-172l-63 -256h-181l66 256h-172l-68 -256h-180l66 256h-140zM504 694h170l51 201h-170z" />
<glyph unicode="$" horiz-adv-x="1327" d="M129 86l16 -8q6 -4 23.5 -11.5t28.5 -11.5q31 -14 77 -30q8 -2 99 -27q66 -18 114 -23l-26 -122h104l25 110h4q172 0 317 70q139 68 224 196q82 127 82 289q0 84 -17 135q-18 58 -43 99q-20 33 -70 71q-43 34 -86 56q-84 43 -104 51l-27 12l-69 33l69 340q53 0 129 -29 q74 -29 121 -51q49 -25 49 -29l121 277l-10 6l-31 12l-43 23q-6 4 -59 22q-45 16 -68 23q-25 6 -73 14q-39 6 -76 6l33 152h-101l-33 -144q-2 0 -12 1t-18 1h-31q-92 0 -195 -32q-100 -33 -176 -88q-80 -57 -129 -152q-49 -92 -49 -207q0 -39 6 -71q10 -51 13 -60 q10 -31 24 -51q6 -10 16.5 -23.5t12.5 -17.5q10 -16 35 -37l21 -16t18 -13q2 -2 43 -24l45 -25q2 -2 45 -20q10 -4 24.5 -11.5l18.5 -9.5l98 -47l-94 -446q-45 0 -127 28q-68 23 -139 58l-60 28zM535 1171q0 37 12 64t34.5 43t53.5 25q47 12 63 14q41 4 72 4l-63 -305 l-74 31q-45 18 -70 43q-23 23 -26 40q-2 10 -2 41zM647 242l84 413l60 -26q66 -31 83 -76q20 -47 21 -117q0 -45 -22.5 -84t-61.5 -61.5t-78 -34.5q-35 -10 -86 -14z" />
<glyph unicode="%" horiz-adv-x="2080" d="M299 1051q0 43 6 79q14 104 51 195q37 88 76 131q45 49 96 76q59 31 99 39q41 8 96 8q88 0 158 -29q63 -27 102 -77q35 -47 51 -105q16 -59 17 -125q0 -40 -7 -86q-6 -53 -20 -98q-14 -49 -37 -101q-23 -49 -57 -94q-37 -46 -80 -80q-37 -29 -107 -53q-59 -20 -137 -20 q-72 0 -125 20.5t-88 55t-55 77.5q-22 46 -31 92q-8 42 -8 95zM516 -6l948 1679l183 -98l-942 -1681zM516 1067q0 -80 33 -117q31 -33 88 -32q70 0 117 53q45 51 63 180q6 46 6 80q0 78 -32 115q-31 33 -91 32q-70 0 -114 -51q-43 -47 -62 -176q-8 -61 -8 -84zM1135 315 q0 55 8 105q10 59 26 115q18 57 54 116q33 53 80 101q43 43 116 71q68 27 154 27q90 0 149 -27q61 -27 95 -75q34 -49 49 -105q14 -51 14 -123q0 -57 -14 -139q-12 -72 -43 -145q-27 -63 -78 -130q-47 -59 -114.5 -94t-155.5 -35q-94 0 -164 29q-68 27 -107 80 q-37 49 -53 107q-16 59 -16 122zM1366 334q0 -76 29 -111q27 -33 86 -33q152 0 180 195q10 74 10 121q0 70 -26 104q-27 37 -95 37q-74 0 -116 -53q-41 -49 -60 -176q-8 -61 -8 -84z" />
<glyph unicode="&#x26;" horiz-adv-x="1642" d="M119 354q0 37 6 80q14 92 37 144q29 68 63 110q39 47 88 86q55 43 101 68q59 33 110 55q-8 8 -14 16q0 2 -13.5 17.5t-23.5 30.5q-33 45 -47 69q-18 31 -35 88q-16 55 -16 103q0 115 67 204q70 92 176.5 139.5t243.5 47.5q180 0 284.5 -78t104.5 -213q0 -39 -8 -80 q-8 -43 -31 -106q-20 -59 -57 -119q-35 -55 -96 -109q-66 -57 -137 -82l260 -276l80 352l266 -6q-18 -137 -58 -266q-45 -154 -67 -203l-31 -70l215 -227l-162 -182l-194 200q-4 -6 -19 -20q-6 -6 -59 -45q-43 -31 -104 -57q-55 -23 -162 -45q-100 -20 -223 -21 q-115 0 -218 23q-94 20 -172 69q-76 47 -114 123q-41 78 -41 180zM414 416q0 -199 286 -199q57 0 125 10q51 8 101 27q45 16 71 31q25 12 45 24q14 8 15 13l-363 387q-280 -72 -280 -293zM651 1217q0 -20 6 -46q6 -20 17 -43q8 -16 20 -34q16 -25 23 -31l12 -11.5t10 -9.5 l17 -14l6 -4l61 20q14 6 62 33q41 25 59 45q27 31 41 60q16 33 16 82q0 63 -40 92q-43 31 -113 30q-49 0 -86 -12q-39 -12 -57 -28q-20 -16 -33 -43q-14 -29 -17 -43q-4 -29 -4 -43z" />
<glyph unicode="'" horiz-adv-x="722" d="M231 766l37 811h373l-219 -811h-191z" />
<glyph unicode="(" horiz-adv-x="774" d="M209 469q0 373 160 694q163 329 417 516l119 -211q-174 -152 -287 -417q-113 -264 -112 -564q0 -180 49 -331.5t133 -249.5l-176 -211q-138 126 -221 325q-82 197 -82 449z" />
<glyph unicode=")" horiz-adv-x="792" d="M53 -94l119 -211q255 187 418 516q162 326 162 694q0 252 -82 449q-83 200 -221 325l-179 -211q88 -102 136 -249q49 -150 49 -332q0 -293 -115 -563q-113 -266 -287 -418z" />
<glyph unicode="*" horiz-adv-x="1052" d="M158 1094l28 194h254l-96 240l197 110l75 -233l144 233l164 -110l-162 -240h254l-29 -194h-248l105 -240l-195 -109l-92 240l-158 -240l-163 109l172 240h-250z" />
<glyph unicode="+" horiz-adv-x="1046" d="M156 459l37 252h256l43 305h268l-43 -305h260l-37 -252h-258l-43 -305h-268l43 305h-258z" />
<glyph unicode="," horiz-adv-x="684" d="M111 0l59 426h408l-62 -426q-8 -57 -31 -111q-25 -57 -47 -86q-25 -31 -59 -61q-39 -35 -60 -45l-53 -27q-37 -14 -39 -14l-14 -4l-80 123q0 -3 39 32q29 27 80 93q41 51 47 100h-188z" />
<glyph unicode="-" d="M145 604l33 232h815l-32 -232h-816z" />
<glyph unicode="." horiz-adv-x="540" d="M82 170q12 80 68 129q59 53 126 53q70 0 113 -53q43 -52 31 -129q-9 -77 -68 -129q-59 -53 -127 -53q-70 0 -112 53q-43 52 -31 129z" />
<glyph unicode="/" horiz-adv-x="1056" d="M25 -27l954 1694l209 -117l-957 -1697z" />
<glyph unicode="0" horiz-adv-x="1304" d="M135 453q0 61 10 137q41 291 203 452q164 164 426 164q233 0 352 -125t119 -352q0 -61 -10 -139q-41 -289 -205 -453t-428 -164q-227 0 -348 127q-119 126 -119 353zM442 475q0 -242 197 -242q242 0 293 369q8 49 8 100q0 244 -203 244q-63 0 -116 -28q-52 -28 -86 -80 q-31 -47 -54 -113q-18 -53 -28 -133q-11 -72 -11 -117z" />
<glyph unicode="1" horiz-adv-x="800" d="M176 1092l248 92l303 -2l-166 -1182h-307l131 907l-156 -53z" />
<glyph unicode="2" horiz-adv-x="1030" d="M78 0l28 217l343 275q4 4 34 28l43 35l39 33q18 16 41 39l33 37q25 25 33 41l18 38q12 29 15 43q8 70 -21 109q-27 35 -102 35q-47 0 -138 -27q-72 -20 -139 -51l-53 -27l-51 240l10 2q12 8 22 12l37 17q4 2 21.5 9l27.5 11q41 18 56 23q8 2 29.5 9l33.5 11q49 14 66 17 q45 8 67 10l68 6q65 0 123 -12q68 -14 110 -37q57 -31 91 -66q33 -37 53 -102q18 -63 6 -141q-16 -119 -84 -216q-70 -98 -219 -223l-152 -127h346l-39 -268h-796z" />
<glyph unicode="3" horiz-adv-x="993" d="M33 -109l80 242q133 -51 256 -51q68 0 108 16q45 18 68 47q18 23 28 56q8 25 9 57q0 84 -59.5 125t-192.5 41l35 246q147 0 212.5 47t65.5 108q0 55 -31 86q-29 29 -108 29q-59 0 -127 -18q-92 -25 -109 -33l-39 -19l-73 230l18 10q6 4 25.5 12t29.5 13q37 16 76 30 q53 18 101 27q66 10 112 10q200 0 307 -74q109 -74 109 -237q0 -76 -23 -143q-20 -63 -59 -105q-31 -33 -76 -63q-35 -25 -71 -33q80 -20 129 -96q51 -78 51 -166q0 -47 -13 -101q-14 -57 -47 -118q-37 -68 -94 -119t-158 -88q-96 -35 -231 -35q-104 0 -172 16 q-80 18 -107 35z" />
<glyph unicode="4" horiz-adv-x="1138" d="M125 113v254l604 786l315 -2l-108 -780h160l-35 -258h-164l-27 -248h-290l34 248h-489zM446 369h205l84 403z" />
<glyph unicode="5" horiz-adv-x="1101" d="M78 -90l96 256l6 -2q2 -2 7.5 -5t7.5 -5q9 -6 24 -13l31 -14q6 -2 12 -5t13.5 -6t13.5 -5q14 -6 43 -15l45 -12q12 -4 49 -8q33 -4 51 -4q100 0 170 65.5t70 184.5q0 78 -47 120.5t-125 42.5h-2q-90 0 -244 -82l-115 125l101 641h747l-35 -245h-485l-43 -242q0 2 16 12 q27 18 52 27q33 12 71 12q176 0 289 -112.5t113 -284.5q0 -229 -158 -375q-156 -143 -403 -143q-178 0 -371 92z" />
<glyph unicode="6" horiz-adv-x="1220" d="M141 305q0 -201 115 -328q117 -129 328 -129q102 0 194 35q88 33 152 90q66 59 106 129q45 78 66 152q20 76 20 158q0 117 -39 206q-41 92 -125 148q-90 57 -204 57q-39 0 -74 -8q-47 -10 -62 -16q-25 -10 -24 -11q74 88 190.5 158t247.5 96l-37 265q-121 -33 -237 -86 q-109 -51 -215 -131q-104 -80 -182 -176.5t-136 -229.5q-53 -127 -75 -278q-9 -50 -9 -101zM446 319q0 131 35 205q10 6 29 13q43 14 74 22q39 10 88 10q76 0 119 -37q45 -39 45 -106q0 -10 -5 -43q-41 -274 -213 -274.5t-172 210.5z" />
<glyph unicode="7" horiz-adv-x="1007" d="M92 -78l547 989h-494l5 258h817l51 -180l-678 -1204z" />
<glyph unicode="8" horiz-adv-x="1189" d="M111 209q0 86 30.5 161.5t79.5 125.5q45 45 105 77q53 29 106 39q-90 20 -145 95q-57 76 -58 178q0 186 140 303q135 115 364 115q120 0 209 -31q92 -31 145 -101q57 -74 58 -174q0 -144 -86 -252q-86 -109 -209 -133q96 -16 160 -94q66 -82 65 -192q0 -66 -16 -117 q-20 -63 -58 -121q-39 -59 -100 -108q-55 -45 -153 -76q-96 -31 -211 -31q-80 0 -162 21q-76 18 -135.5 57t-94 104.5t-34.5 153.5zM416 258q0 -133 157 -133q41 0 72 8t66 33q31 22 49 67t18 113q0 80 -37 129q-39 51 -110 51q-58 0 -105 -30q-49 -33 -67 -74 q-27 -55 -33 -88q-10 -47 -10 -76zM520 879q0 -71 37 -117q37 -47 102 -47q53 0 95 24q37 23 57 66q20 45 29 76q8 33 8 71q0 117 -143 117q-51 0 -91 -16q-37 -16 -57 -45t-29 -60q-8 -26 -8 -69z" />
<glyph unicode="9" horiz-adv-x="1171" d="M131 612q0 86 21 162q23 80 65 156q41 72 105 131q59 57 149 92q88 35 188 35q219 0 340 -115q117 -111 117 -323q0 -150 -33 -283q-35 -141 -102 -262q-74 -133 -170 -225q-98 -94 -242 -164q-141 -68 -309 -86l-35 266q305 66 434 237q-65 -18 -135 -18 q-178 0 -286 109q-107 106 -107 288zM422 614q0 -70 35 -104q37 -37 100 -37q70 0 105 2q14 0 30.5 1t28.5 2t18 1l27 2q2 0 12 23q10 25 23 78q12 55 12 127q0 219 -170 219q-53 0 -92 -21q-41 -23 -64 -59q-25 -39 -38 -84q-15 -46 -25 -111q-2 -14 -2 -39z" />
<glyph unicode=":" horiz-adv-x="796" d="M160 0l59 432h389l-61 -432h-387zM244 735l59 432h389l-61 -432h-387z" />
<glyph unicode=";" horiz-adv-x="806" d="M154 0l59 426h395l-51 -363q-10 -68 -29 -114q-23 -57 -49 -96q-31 -45 -57 -74q-37 -39 -62 -58l-53 -38l-37 -25l-14 -6l-80 123q0 -3 39 32q29 27 80 93q41 51 47 100h-188zM258 735l61 432h390l-62 -432h-389z" />
<glyph unicode="&#x3c;" horiz-adv-x="1060" d="M147 453l33 243l821 504l-47 -338l-526 -282l444 -295l-47 -336z" />
<glyph unicode="=" horiz-adv-x="1245" d="M164 240l37 262h925l-36 -262h-926zM219 625l37 262h928l-37 -262h-928z" />
<glyph unicode="&#x3e;" horiz-adv-x="1050" d="M168 -29l47 336l481 293l-399 285l35 315l680 -504l-25 -221z" />
<glyph unicode="?" horiz-adv-x="1079" d="M190 111q0 68 58 125q55 55 129 55q59 0 100 -39t41 -96q0 -72 -55 -127q-53 -53 -129 -54q-59 0 -101 39q-43 40 -43 97zM242 1397q76 35 207 57q121 20 221 21q424 0 424 -312q0 -391 -492 -569l-33 -232h-325l47 347q18 10 96 45l109 49l102 51q53 29 88 61 q37 33 59 74q25 43 25 92q0 45 -16 68q-18 25 -52 37q-23 8 -65 12q-41 4 -80 4q-109 0 -293 -49z" />
<glyph unicode="@" horiz-adv-x="1845" d="M190 573q0 221 109 457q111 242 322 385q244 168 532 168q258 0 446 -162q90 -76 138 -196q51 -127 51 -277q0 -152 -66 -301q-63 -143 -178 -233q-113 -88 -256 -88q-133 0 -133 151q0 47 14 105q-72 -152 -137 -211.5t-180 -59.5q-139 0 -217 92q-63 76 -63.5 211.5 t44.5 245.5q47 117 119 182q80 72 168 113q96 43 187 43q92 0 165 -18q70 -18 123 -64q49 -43 49 -102q0 -20 -8 -49l-137 -445q137 31 199 139q59 104 59 263q0 221 -115 325q-117 106 -327 107q-123 0 -229.5 -49.5t-182.5 -130.5q-78 -84 -131 -177q-111 -193 -111 -399 q0 -212 129 -313q131 -102 357 -103q109 0 186 33l41 16l6 5l21 -201q-137 -72 -322 -72h-8q-307 0 -483 164q-181 167 -181 446zM784 664q0 -86 27 -123q25 -33 66 -33q40 0 67 6t51 25q16 12 45 36q18 16 39 50l35 55q10 14 33 63l27 68l20 51l43 139q0 6 -63 13 q-86 8 -111 8q-45 0 -98 -29q-55 -29 -84 -69q-14 -18 -27.5 -38t-20 -28t-6.5 -10q-43 -98 -43 -184z" />
<glyph unicode="A" horiz-adv-x="1347" d="M-10 0l723 1577h311l281 -1577h-324l-57 391h-418l-174 -391h-342zM563 551h328l-47 323l-33 267l-86 -215z" />
<glyph unicode="B" horiz-adv-x="1415" d="M121 0l221 1577h369q328 0 481.5 -92t153.5 -281q0 -293 -316 -350q139 -31 225 -109q90 -80 91 -198q0 -55 -9 -98q-10 -53 -32 -105q-25 -57 -60 -102q-35 -47 -98 -95q-61 -45 -139 -75q-90 -35 -189 -52q-123 -20 -246 -20h-452zM481 238h152q76 0 155 14 q63 12 121 45q55 33 82 90q27 55 27 143q0 102 -72 141.5t-231 39.5h-172zM575 940h138q94 0 161 18q70 18 103 52q34 34 49 67q16 37 16 76q0 31 -6 55q-8 33 -22 52q-20 29 -47 40q-43 23 -82 29q-57 10 -125 10h-131z" />
<glyph unicode="C" horiz-adv-x="1179" d="M127 557q0 180 27 326q29 154 88 282q63 139 149 230q88 94 223.5 149t300.5 55q27 0 80 -4q33 -2 72 -10q41 -8 61 -14q47 -14 54 -17q16 -6 45 -18q27 -12 35 -16q4 -4 14 -8.5t12 -6.5t7 -6t8 -6l6 -2l-111 -264q-2 0 -7 4t-9 6l-45 23q-29 12 -70 26q-45 14 -88 23 q-57 10 -102 10q-193 0 -306 -199q-115 -201 -114 -530q0 -350 268 -350q49 0 100 12q59 14 93 27q27 10 71 30q18 8 49 29l17 10l55 -254q-61 -53 -174 -92q-111 -39 -266 -39q-125 0 -217 33q-94 33 -170 102q-74 68 -115 186.5t-41 272.5z" />
<glyph unicode="D" horiz-adv-x="1482" d="M125 0l221 1579h561q127 0 223 -33q100 -35 173 -100q70 -63 110 -178q39 -109 39 -258q0 -479 -201 -746q-199 -264 -565 -264h-561zM487 236h218q86 0 155 38q74 41 119 105q47 63 82 164q33 94 49 207q14 102 14 239q0 164 -59 258q-57 92 -180 92h-238z" />
<glyph unicode="E" d="M92 0l211 1577h934l-35 -238h-608l-53 -397h544l-30 -231h-549l-66 -478h650l-48 -233h-950z" />
<glyph unicode="F" horiz-adv-x="1163" d="M106 0l222 1577h981l-37 -270h-660l-47 -363h606l-32 -233h-607l-104 -711h-322z" />
<glyph unicode="G" horiz-adv-x="1376" d="M125 555q0 219 41 383q43 172 117 295q72 119 176 205q100 82 219 123q115 39 246 38q74 0 159.5 -16t133.5 -35q55 -20 94 -41q49 -25 63 -34l23 -15l-111 -233q-2 0 -8 4t-10 6q-18 8 -54 22q-47 18 -84 29q-49 14 -108 23q-72 10 -131 10q-201 0 -320 -199 q-121 -201 -120 -538q0 -180 69 -263q68 -80 201 -79q45 0 123 22q88 25 125 41l51 23l47 307h-291l33 235h557l-125 -868h-209l-12 139q-45 -70 -143 -123q-96 -53 -205 -53q-547 0 -547 592z" />
<glyph unicode="H" horiz-adv-x="1503" d="M119 0l221 1577h324l-89 -637h547l90 637h320l-221 -1577h-320l101 707h-549l-101 -707h-323z" />
<glyph unicode="I" horiz-adv-x="880" d="M43 0l23 154h174l172 1261h-174l26 162h662l-27 -162h-174l-172 -1261h174l-25 -154h-659z" />
<glyph unicode="J" horiz-adv-x="884" d="M70 154q43 8 88 18q31 8 69 23q43 16 56 26q37 29 43 33q20 18 30 37l21 43q10 20 16 51q2 8 6 26.5t6.5 29t5.5 34t5 31.5l149 1071h320l-146 -1038q-2 -12 -14 -90q-4 -29 -18.5 -90.5t-26.5 -92.5q-10 -25 -41 -86q-18 -37 -57 -80t-76 -69q-53 -39 -100 -58 q-68 -27 -125 -39q-82 -18 -156 -20z" />
<glyph unicode="K" horiz-adv-x="1368" d="M106 0h322l94 676h60l372 -676h373l-389 688l-49 98l86 111l522 680h-362l-517 -668h-61l92 668h-321z" />
<glyph unicode="L" horiz-adv-x="1093" d="M106 0l224 1577h321l-188 -1344h594l-35 -233h-916z" />
<glyph unicode="M" horiz-adv-x="1898" d="M139 0l162 1151l72 426h387l65 -428l80 -602l23 -232l78 226l266 647l170 389h389l-57 -526l-152 -1051h-293l158 1108l-344 -875l-109 -233h-297l-47 295l-100 809l-160 -1104h-291z" />
<glyph unicode="N" horiz-adv-x="1554" d="M106 0l162 1157l70 420h338l147 -352l303 -750l146 1102h299l-162 -1157l-70 -420h-327l-156 360l-297 746l-153 -1106h-300z" />
<glyph unicode="O" horiz-adv-x="1429" d="M129 588q0 236 61 428q61 195 164 317q104 127 244 195q143 70 299 69q115 0 213 -41q102 -43 170 -116q70 -76 111 -203q39 -119 39 -285q0 -180 -41 -348q-39 -162 -111 -278q-68 -111 -168 -199q-96 -84 -207 -123q-117 -41 -235 -41q-250 0 -394 156 q-145 158 -145 469zM459 614q0 -375 248 -374q181 0 288 196q109 199 109 519q0 366 -246 366q-55 0 -119 -27q-51 -23 -108 -82q-51 -53 -88 -137q-43 -96 -62 -201q-22 -125 -22 -260z" />
<glyph unicode="P" horiz-adv-x="1277" d="M106 0l222 1577h403q324 0 473 -102q145 -100 146 -316q0 -66 -9 -112q-37 -254 -217 -359q-182 -104 -561 -104h-53l-82 -584h-322zM547 788h53q440 0 440 336q0 49 -16 88q-14 33 -55 68q-31 27 -107 43q-72 16 -166 16h-80z" />
<glyph unicode="Q" horiz-adv-x="1441" d="M127 569q0 74 10 172q6 68 37 191q27 109 64 194q43 100 100 181q59 82 141 151q74 61 187 103q109 39 237 38q94 0 170 -20t147.5 -69.5t118.5 -116.5q47 -70 76 -174q27 -100 27 -236q0 -61 -6 -129q-6 -76 -21 -152q-14 -78 -41 -165q-20 -68 -69 -162 q-45 -86 -99 -152q-49 -61 -137 -125q-80 -57 -176 -88l246 -274l-181 -156l-348 393q-115 16 -194 54q-84 39 -151.5 112.5t-100.5 177.5q-37 117 -37 252zM459 580q0 -176 63.5 -258t190.5 -82q158 0 254 127q100 133 137 401q14 100 14 195q0 356 -254 356 q-313 0 -391 -551q-14 -100 -14 -188z" />
<glyph unicode="R" horiz-adv-x="1351" d="M92 0l221 1577h367q270 0 393 -25q229 -45 283 -206q16 -53 16 -111q0 -51 -8 -102q-18 -125 -133 -220q-114 -92 -326 -104q71 -3 123 -12q51 -8 100 -29q41 -16 72 -47q29 -29 47 -72q20 -47 21 -98q0 -61 -8 -127l-62 -424h-317l59 469q6 49 6 86t-10 63.5t-24.5 41 t-39.5 24.5q-20 8 -53 12q-61 6 -65 6q-12 0 -39 -1t-41 -1h-56h-102l-102 -700h-322zM545 897h80q442 0 442 274q0 100 -70 134q-74 35 -272 34h-121z" />
<glyph unicode="S" horiz-adv-x="1269" d="M100 31l52 295q0 -3 67 -25q207 -61 340 -61q301 0 301 219q0 100 -104 151l-367 176q-88 43 -143 129q-53 82 -53 199q0 221 157 352q162 133 424 133q143 0 236 -16q100 -18 110 -20q6 -2 21.5 -5.5t23.5 -5.5l37 -10l35 -8l-43 -295q-33 16 -143 39q-195 41 -260 41 q-82 0 -105 -2q-35 -4 -72 -12q-39 -10 -59 -25q-49 -37 -49 -100.5t43 -94.5q55 -39 106 -61q29 -12 70 -33l184 -84q129 -59 199 -159.5t70 -231.5q0 -145 -78 -285q-109 -188 -346 -245q-96 -23 -164 -23q-82 0 -106.5 2t-69.5 6t-68 9q-10 2 -31.5 5t-31.5 5 q-41 8 -60 12l-88 21z" />
<glyph unicode="T" horiz-adv-x="1069" d="M127 1337l35 240h1095l-34 -240h-387l-187 -1337h-317l186 1337h-391z" />
<glyph unicode="U" horiz-adv-x="1525" d="M199 502q0 109 14 221l121 854h321l-120 -858q-18 -125 -19 -207q0 -158 51 -221q49 -61 172 -62q104 0 172 45q61 41 107 150q41 100 69 295l121 858h322l-119 -854q-25 -174 -74 -311q-47 -129 -114 -219q-61 -82 -150 -136q-86 -53 -174 -73q-84 -20 -197 -21 q-96 0 -165 14q-72 14 -140 54q-63 37 -106 98q-45 63 -68 154q-24 94 -24 219z" />
<glyph unicode="V" horiz-adv-x="1249" d="M182 1575l301 2l146 -1161l495 1161h314l-680 -1577h-373z" />
<glyph unicode="W" horiz-adv-x="1861" d="M217 1577h307l43 -1139l357 1127h360l33 -1127l383 1139h311l-536 -1577h-398l-28 1124l-375 -1124h-359z" />
<glyph unicode="X" horiz-adv-x="1325" d="M-8 0l563 788l-344 789h367l198 -498l340 498h369l-563 -789l340 -788h-365l-201 489l-342 -489h-362z" />
<glyph unicode="Y" horiz-adv-x="1187" d="M135 1577h342l182 -655l377 655h357l-627 -1059l-72 -518h-317l72 518z" />
<glyph unicode="Z" horiz-adv-x="1177" d="M43 0l35 248l809 1089h-651l28 240h1030l-32 -231l-811 -1108h653l-29 -238h-1032z" />
<glyph unicode="[" horiz-adv-x="1064" d="M209 0l215 1532h696l-37 -262h-387l-141 -1008h387l-37 -262h-696z" />
<glyph unicode="\" horiz-adv-x="1241" d="M440 1616l279 51l301 -1763l-285 -51z" />
<glyph unicode="]" horiz-adv-x="1095" d="M119 0l37 262h387l141 1008h-387l37 262h696l-215 -1532h-696z" />
<glyph unicode="^" horiz-adv-x="1880" d="M635 563l323 639h228l168 -639h-250l-66 314l-141 -314h-262z" />
<glyph unicode="_" horiz-adv-x="1142" d="M61 -98l37 262h926l-37 -262h-926z" />
<glyph unicode="`" horiz-adv-x="667" d="M154 1024h395v-709h-203z" />
<glyph unicode="a" horiz-adv-x="1155" d="M80 395q0 133 45 260q49 135 121 232q78 104 182 166q106 63 221 63q84 0 156 -14q90 -18 133 -35q66 -25 96 -41q49 -25 64 -35l20 -14l-137 -977h-221l-41 166q-33 -80 -107 -129q-76 -51 -182 -51q-178 0 -264 110.5t-86 298.5zM395 430q0 -213 135 -213q123 0 183 72 l80 583q-43 14 -113 15q-49 0 -100 -37q-52 -37 -93 -98q-43 -66 -65 -146q-27 -94 -27 -176z" />
<glyph unicode="b" horiz-adv-x="1183" d="M84 0l221 1589l320 47l-90 -643q109 127 288 127q154 0 238 -114q82 -113 82 -308q0 -68 -13 -149q-20 -131 -53 -219q-39 -100 -94 -178q-58 -80 -147 -123q-94 -45 -201 -45t-170 53q-61 53 -72 129l-92 -166h-217zM434 291q37 -72 164 -72q68 0 117 53.5t73 130.5 q20 66 35 158q10 63 11 148q0 178 -113 178q-117 0 -213 -90z" />
<glyph unicode="c" horiz-adv-x="976" d="M139 438q0 152 49 281q51 133 129 217q80 86 184.5 135t215.5 49q115 0 188 -24q70 -23 148 -72l-88 -221q-20 27 -86 53q-70 29 -138 29q-129 0 -192.5 -76t-87.5 -252q-6 -49 -6 -96q0 -240 215 -240q43 0 96 17q49 14 65 26l62 39l25 -219q-100 -53 -166 -74 q-80 -25 -197 -24q-184 0 -301 118q-115 117 -115 334z" />
<glyph unicode="d" horiz-adv-x="1218" d="M121 399q0 133 31 260q29 119 92 232q55 100 153 166q94 63 209 63q178 0 246 -139l84 602l319 53l-231 -1636h-223l-41 166q-33 -78 -109 -129q-78 -53 -182 -53q-184 0 -266 112.5t-82 302.5zM432 432q0 -213 137 -213q127 0 185 70l71 508q-72 90 -188 90 q-41 0 -70 -21q-35 -25 -51 -51q-20 -37 -35 -76l-22 -88q-2 -6 -17 -96q-10 -76 -10 -123z" />
<glyph unicode="e" horiz-adv-x="1001" d="M115 428q0 101 24 203q25 98 74 188q45 82 119 156q66 66 160 106q90 39 196 39q156 0 238 -79.5t82 -190.5q0 -203 -154 -307q-158 -106 -434 -113q0 -96 49 -157.5t141 -61.5q137 0 256 88l56 -205q-199 -109 -396 -108q-190 0 -301 118q-110 121 -110 324zM434 571 q2 0 8.5 1t10.5 1l49 9q29 4 67 16q41 12 72 27q43 20 68 39q29 23 47 55q20 37 20 69q0 47 -24.5 78t-77.5 31q-72 0 -125 -53q-57 -57 -84 -127q-29 -74 -31 -146z" />
<glyph unicode="f" horiz-adv-x="780" d="M135 -225l164 1169h-129l23 158h129q16 111 47 190q34 89 86 160t129 111q78 41 170 41q98 0 190 -29l-35 -254q-55 25 -125 25q-55 0 -96 -66q-37 -59 -53 -178h237l-22 -158h-240l-164 -1169h-311z" />
<glyph unicode="g" horiz-adv-x="1120" d="M-31 -293q0 -47 11 -76q12 -35 44.5 -67.5t86.5 -57.5q49 -23 141 -38q84 -14 207 -15q100 0 178 15q80 14 139 40q57 27 98 58q45 37 70 72q29 45 43 81q16 49 23 80q6 37 6 78q0 125 -98 201q-94 74 -330 123l-281 59l281 88q236 61 330 156q100 100 102 270 q0 23 -6 53q-2 6 -5 25.5t-5 28.5l-7 18l228 2l30 225l-104 -6q-139 0 -262 -57q-70 57 -264 57q-115 0 -207 -35q-90 -35 -139 -92q-55 -66 -76 -119q-25 -65 -25 -129q0 -31 10 -67q10 -35 25 -60q4 -6 9 -15t10.5 -17l11.5 -17q18 -25 35 -41q23 -23 32 -30 q4 -4 12.5 -11.5t10.5 -9.5l6 -8l-76 -20q-137 -37 -174 -99q-16 -27 -22 -108q0 -6 -1 -13.5t-1 -9.5q0 -20 2 -31q2 -12 14 -28l16 -23q6 -8 23 -18q20 -12 24 -15q2 0 10.5 -6l14.5 -10q6 -2 15 -7l8 -3l-127 -123q-52 -49 -74 -105q-23 -57 -23 -143zM219 -197 q0 33 41 86q43 55 76 86q33 29 43 35l172 -33q111 -22 154 -49t43 -73q0 -92 -62 -131q-59 -39 -182 -39q-285 -1 -285 118zM438 745q0 74 37 113q37 41 141 41q137 0 138 -119q0 -20 -4 -53q-2 -23 -17 -53q-12 -29 -35 -51q-29 -29 -59 -45q-49 -27 -94 -39l-25 36 q-27 41 -53 91q-29 52 -29 79z" />
<glyph unicode="h" horiz-adv-x="1216" d="M100 0l222 1589l317 60l-94 -668l3 6q3 6 7 10q10 12 35 35q25 20 57 41q27 16 84 33q49 14 109 14q154 0 231 -84q80 -86 80 -252q0 -57 -8 -112l-94 -672h-314l96 684q4 33 5 53q0 74 -35 113q-35 37 -94 37q-63 0 -103 -19q-37 -16 -82 -55l-110 -813h-312z" />
<glyph unicode="i" horiz-adv-x="622" d="M111 0l151 1104h311l-151 -1104h-311zM313 1464q12 80 68 129q59 53 127 54q70 0 113 -54q33 -41 33 -96q0 -16 -3 -33q-10 -80 -65 -129q-59 -53 -129 -53t-113 53q-33 41 -33 96q-1 16 2 33z" />
<glyph unicode="j" horiz-adv-x="694" d="M0 -113q96 59 154 131q55 70 73 205l127 881h310l-127 -901q-14 -104 -62 -201q-47 -98 -110 -164q-65 -68 -142 -117q-74 -47 -162 -69zM379 1464q12 80 67 129q59 53 127 54q70 0 113 -54q35 -43 35 -98q0 -15 -2 -31q-9 -77 -68 -129q-59 -53 -128.5 -53t-112.5 53 q-33 41 -34 96q0 16 3 33z" />
<glyph unicode="k" horiz-adv-x="1118" d="M92 0l219 1589l320 49l-131 -927l362 393h346l-446 -481l350 -623h-332l-254 461l-71 -68l-52 -393h-311z" />
<glyph unicode="l" horiz-adv-x="647" d="M133 0l225 1589l320 47l-232 -1636h-313z" />
<glyph unicode="m" horiz-adv-x="1703" d="M70 0l153 1104h223l46 -176q33 74 118 135q82 57 168 57q113 0 172 -37q66 -41 92 -137q66 90 140 131q76 43 188 43q137 0 203 -78q68 -80 67 -229q0 -53 -8 -111l-96 -702h-309l100 719l4 53q0 113 -86 113q-41 0 -80 -21q-29 -16 -92 -71l-110 -793h-312l103 727 q4 41 4 61q0 55 -20.5 76t-59.5 21q-12 0 -33 -4q-23 -4 -33 -11l-28 -16q-14 -8 -29 -18q-20 -16 -25 -21l-20 -18l-16 -15l-111 -782h-313z" />
<glyph unicode="n" horiz-adv-x="1157" d="M70 0l153 1104h238l39 -141q45 61 125 110q76 45 161 45q162 0 234 -78q74 -80 74 -239q0 -55 -11 -133l-92 -668h-313l96 682q6 43 6 78q0 63 -28 96q-27 29 -90 29q-98 0 -166 -74l-113 -811h-313z" />
<glyph unicode="o" horiz-adv-x="1138" d="M100 426q0 35 9 117q6 53 26 131q18 66 49 131q31 63 76 120.5t107 102.5q57 43 143 68q84 25 180 24q211 0 319.5 -114.5t108.5 -323.5q0 -39 -8 -121q-4 -49 -27 -129q-14 -51 -49 -133q-23 -55 -76 -121q-41 -53 -106 -100q-58 -43 -141 -68q-90 -27 -181 -26 q-209 0 -319.5 116.5t-110.5 325.5zM412 428q0 -211 151 -211q94 0 154 84q57 80 82 254q10 86 10 127q0 104 -37 153.5t-115 49.5q-96 0 -153 -80q-57 -78 -82 -250q-10 -76 -10 -127z" />
<glyph unicode="p" horiz-adv-x="1165" d="M23 -393l208 1497h240l39 -141q49 77 129 116q82 41 160 41q176 0 262 -114t86 -314q0 -201 -63.5 -358.5t-184.5 -253.5t-278 -96q-154 0 -215 127l-72 -504h-311zM432 305q70 -88 191 -88q37 0 69 23q31 23 53 53q20 31 37 78q18 57 27 92q10 53 16 96q10 76 11 119 q0 207 -140 207q-117 0 -192 -72z" />
<glyph unicode="q" horiz-adv-x="1196" d="M109 418q0 61 8 119q16 121 57 235q37 104 98 184q59 78 150 121q89 43 203 43q86 0 137 -41t69 -123l64 148h264l-211 -1497h-309l72 504q-96 -127 -250 -127q-88 0 -162 34q-70 33 -106 93q-84 137 -84 307zM412 395q0 -178 112 -178q121 0 215 88l68 486 q-14 39 -57 65q-45 29 -105 29q-174 0 -219 -326q-14 -88 -14 -164z" />
<glyph unicode="r" horiz-adv-x="794" d="M90 0l156 1104h266l16 -141q23 39 58 73.5t57 46.5q25 14 68 25q23 6 67 10q20 2 76 2l-41 -274q-35 16 -94 16q-104 0 -205 -74l-111 -788h-313z" />
<glyph unicode="s" horiz-adv-x="1001" d="M76 88l90 217l47 -22q33 -16 109 -37q84 -23 141 -23q74 0 117 24.5t43 96.5q0 29 -19 45q-16 14 -63 33l-129 55q-127 55 -184.5 118.5t-57.5 158.5q0 164 123 264q121 100 334 100q76 0 170 -22q86 -20 141 -45l49 -23l-90 -215q-8 4 -45 21q-16 6 -102 28 q-74 18 -127 19q-100 0 -135 -20.5t-35 -63.5q0 -27 14 -41.5t53 -30.5l119 -49q16 -6 88 -39q27 -12 74 -41q35 -20 59 -53q22 -28 37 -68q14 -37 14 -88q0 -180 -125 -291q-126 -111 -337 -110q-240 0 -373 102z" />
<glyph unicode="t" horiz-adv-x="780" d="M104 946l21 156h129l51 391l318 84l-68 -475h256l-23 -156h-253l-76 -573q-6 -37 -6 -64q0 -119 94 -119q23 0 67 11q18 4 62 20q25 9 24 12l52 -170q-16 -10 -45 -22q-31 -14 -113 -35q-86 -23 -160 -22q-135 0 -213 79q-78 82 -78 256q0 55 11 134l69 493h-119z" />
<glyph unicode="u" horiz-adv-x="1216" d="M104 324q0 57 11 135l88 643h313l-92 -670q-6 -43 -6 -78q0 -61 35 -96q39 -39 92 -41q106 8 170 78l110 807h314l-154 -1102h-221l-45 168q-29 -74 -96.5 -129t-169.5 -55q-164 0 -258 88q-91 84 -91 252z" />
<glyph unicode="v" horiz-adv-x="1007" d="M131 1102h287l80 -750l282 750h307l-452 -1102h-365z" />
<glyph unicode="w" horiz-adv-x="1351" d="M123 1102h276l25 -699l231 699h265l26 -696l246 696h260l-393 -1102h-301l-37 651l-217 -651h-297z" />
<glyph unicode="x" horiz-adv-x="1021" d="M0 0l399 555l-249 549h319l123 -303l205 303h313l-397 -549l237 -555h-309l-121 322l-207 -322h-313z" />
<glyph unicode="y" horiz-adv-x="1001" d="M6 -223l109 35q106 35 172 100q60 60 60 100q0 5 -1 11l-242 1079h293l146 -705l266 705h295l-455 -1135q-68 -168 -172 -258q-111 -94 -278 -145l-131 -39z" />
<glyph unicode="z" horiz-adv-x="1005" d="M94 0l33 233l512 633h-406l29 236h727l-31 -221l-505 -648h419l-28 -233h-750z" />
<glyph unicode="{" horiz-adv-x="815" d="M195 551l26 188q55 0 86 62q35 70 55 225q14 113 54 203q39 92 82 137q53 55 104 82q66 33 115 41q61 10 119 10l-25 -188q-41 0 -63.5 -18.5t-43 -88t-42.5 -223.5q-8 -68 -29 -127q-20 -61 -39 -90q-23 -37 -49 -59q-28 -25 -49 -37q-27 -14 -50 -23q160 -68 123 -338 q-18 -135 -20 -180q-4 -72 4 -98q8 -31 25 -41q14 -8 45 -8l-27 -191q-27 0 -72 4q-23 2 -71 14q-29 6 -64 27q-25 12 -57 43q-31 27 -45.5 59.5t-28.5 83.5q-12 45 -12 107q0 53 10 135q20 164 8 227q-12 62 -69 62z" />
<glyph unicode="|" horiz-adv-x="790" d="M297 -121v1802l287 -2v-1800h-287z" />
<glyph unicode="}" horiz-adv-x="833" d="M104 -211l29 191q39 0 57.5 16t40.5 90q18 63 45 221q43 270 213 338q-25 12 -35 18.5t-30 26.5q-18 18 -27 41q-10 29 -16 60q-6 33 -6 81q0 41 10 109q12 80 23 180q6 68 -2.5 98.5t-22.5 41t-41 10.5l29 188q41 0 78 -6q33 -6 71 -18q37 -12 65.5 -35t53.5 -60 q27 -39 35 -84q12 -63 14 -116q3 -68 -12 -154q-25 -172 -14 -227q12 -59 63 -60l-29 -188q-51 0 -82 -62q-33 -68 -57 -227q-18 -117 -55 -203q-39 -90 -80 -137q-43 -49 -100 -80q-61 -33 -109 -41q-70 -12 -109 -12z" />
<glyph unicode="~" horiz-adv-x="1146" d="M170 336q49 338 260 338q53 0 105 -23q53 -23 81 -49q33 -29 70 -49q41 -23 74 -23q35 0 47 21q14 25 22 84h203q-23 -152 -90 -238q-70 -88 -170 -88q-51 0 -106 25q-53 25 -91 51q-49 37 -75 53q-37 23 -64 23q-29 0 -47 -29q-16 -25 -27 -96h-192z" />
<glyph unicode="&#xa1;" horiz-adv-x="665" d="M111 0l262 1151h194l-67 -1151h-389zM350 1441.5q8 65.5 66 112.5q53 45 121 45q63 0 106 -45t33 -112q-8 -66 -66 -113q-53 -45 -118 -45q-63 0 -107 45q-43 47 -35 112.5z" />
<glyph unicode="&#xa2;" horiz-adv-x="978" d="M109 438q0 158 47 281q51 133 129 217q80 86 184 135t217 49h41l47 240l119 -21l-47 -235q90 -25 176 -80l-88 -221q-8 12 -49 35q-37 23 -86 34l-129 -651q33 2 80 21q27 10 59 26l53 35l25 -219q-141 -77 -264 -92l-37 -185l-119 21l33 158q-178 10 -285 127 q-106 118 -106 325zM424 461q0 -182 125 -228l131 652q-113 -10 -170 -86t-80 -242q-6 -49 -6 -96z" />
<glyph unicode="&#xa3;" horiz-adv-x="1120" d="M117 0l28 225l93 111l2 2q4 4 6 8q2 2 5 7t5 7l12 19l13 24q12 25 14 31l12 37q6 18 12 43q4 16 9 49h-117l14 105h94l-14 26q-51 104 -51 215q0 47 16 107q16 57 52 110q39 59 90 99q55 43 139 69q90 29 186 29q82 0 145.5 -14.5t110.5 -34.5q51 -23 76 -39 q33 -23 45 -33l12 -12l-153 -219l-10 10q-12 12 -26.5 22.5t-47.5 26.5q-20 10 -65.5 20.5t-84.5 10.5q-43 0 -73 -8q-41 -10 -66 -29q-29 -18 -47 -61q-18 -41 -18 -95q0 -37 10 -92q8 -43 22 -76l11 -28h391l-17 -109h-372q-8 -61 -31 -120.5t-45 -94.5q-27 -41 -49 -65 q-25 -27 -39 -39l-15 -13h560l-33 -231h-811z" />
<glyph unicode="&#xa4;" horiz-adv-x="1409" d="M174 539l209 192q-37 77 -37 172q0 166 113 314l-160 202l139 129l160 -200q117 78 246 77q119 0 207 -69l206 192l103 -129l-209 -194q33 -78 33 -160q0 -168 -115 -317l168 -209l-139 -131l-166 210q-121 -78 -246 -77q-115 0 -199 63l-208 -196zM524 938 q0 -88 55.5 -149.5t143.5 -61.5q109 0 197 94t88 207q0 86 -55.5 147.5t-143.5 61.5q-113 0 -197 -92q-88 -98 -88 -207z" />
<glyph unicode="&#xa5;" horiz-adv-x="1187" d="M182 1577h353l172 -766l387 766h356l-473 -807h186l-16 -119h-242l-76 -129h299l-16 -121h-301l-57 -401h-324l57 401h-301l17 121h299l-39 129h-242l17 119h188z" />
<glyph unicode="&#xa6;" horiz-adv-x="716" d="M170 -147l106 745h287l-104 -745h-289zM322 922l104 745h287l-105 -745h-286z" />
<glyph unicode="&#xa7;" horiz-adv-x="1038" d="M102 43l119 215l6 -6q2 -2 9.5 -8t11.5 -11q23 -23 29 -26.5l22 -13t20 -13.5q20 -14 52 -26q28 -12 61 -19q45 -8 68 -8q57 0 110 14q43 12 66 37q18 20 29 45q8 18 8 47q0 45 -27 66q-31 23 -92 47l-141 53q-141 53 -199 115q-53 55 -53 145q0 70 18 125q18 53 51 90 q37 41 70 60q41 25 76 35q-143 57 -144 208q0 162 119 263q121 102 326 102q55 0 121 -16q49 -12 102 -39q27 -14 80 -47q29 -18 51 -37l19 -17l-113 -202q-37 37 -129 79q-84 39 -154 39q-182 0 -182 -108q0 -16 20 -35q25 -20 80 -43l138 -55q166 -70 225 -131.5 t59 -155.5q0 -129 -59.5 -202.5t-149.5 -102.5q137 -68 138 -227q0 -47 -9 -82q-12 -51 -26 -88q-16 -41 -58 -82q-43 -43 -88 -70q-52 -31 -129 -49q-76 -18 -176 -19q-96 0 -198 39q-100 39 -152 90zM440 733q0 -86 158 -86q190 0 190 121q0 41 -34 63q-33 20 -127 21 q-90 0 -138 -27q-49 -27 -49 -92z" />
<glyph unicode="&#xa8;" horiz-adv-x="1347" d="M188 170q12 80 68 129q59 53 127 53q70 0 113 -53q43 -52 30 -129q-10 -80 -65 -129q-59 -53 -129 -53t-113 53q-43 52 -31 129zM799 170q12 80 67 129q59 53 127 53q70 0 113 -53q43 -52 31 -129q-9 -77 -68 -129q-59 -53 -127 -53q-70 0 -113 53q-42 52 -30 129z" />
<glyph unicode="&#xa9;" horiz-adv-x="1939" d="M166 795q27 184 121 354q90 162 223 276q123 104 283 172q152 63 307 64q117 0 215 -27q96 -27 172 -73q72 -45 131 -105q53 -53 96 -129q39 -68 64 -137q23 -63 32 -135q18 -131 -2 -287q-10 -68 -26 -121q-16 -55 -53 -135q-37 -78 -82 -147q-47 -70 -115 -142 q-66 -70 -156 -129q-84 -55 -196 -102q-154 -61 -320 -62q-164 0 -299 64q-137 63 -235.5 174t-141.5 275t-18 352zM391 795q-25 -176 29 -326q51 -143 180 -231q126 -86 301 -86q169 0 320 86q143 82 243 237q96 150 121 326q8 49 6 100q-4 70 -8 107q-6 51 -29 106 q-29 70 -47 103q-25 45 -71 88q-45 41 -97 71q-45 27 -122 47q-63 16 -152 17q-111 0 -219 -45q-115 -47 -205 -129q-98 -88 -162 -205q-65 -121 -88 -266zM549 676q-4 66 8 119q35 236 168 375t340 139q70 0 137.5 -20.5t102.5 -45.5l20 -14l-31 -211l-63 37q-23 14 -82 30 q-51 14 -119 15q-53 0 -88 -17q-39 -18 -68 -47q-20 -20 -47 -69q-20 -37 -32.5 -82t-18.5 -90q-16 -117 2 -183q18 -68 64 -96q41 -27 112 -27q98 0 213 58l74 37l-29 -219l-28 -15q-139 -70 -248 -69q-80 0 -152 22q-66 20 -110 59q-39 33 -72 87q-33 51 -41 108 q-10 60 -12 119z" />
<glyph unicode="&#xaa;" horiz-adv-x="1155" d="M272 1061q0 102 37 206.5t97 184.5q59 82 145 133q84 51 176 51q63 0 125 -12q72 -14 106 -27q27 -10 78 -32q31 -14 49 -29l19 -10l-111 -783h-178l-33 131q-25 -61 -84 -102t-145 -41q-145 0 -213 88q-68 90 -68 242zM524 1087q0 -170 109 -169q100 0 145 55l64 469 q-31 10 -90 10q-43 0 -80 -29q-45 -35 -74 -80q-33 -53 -53.5 -116.5t-20.5 -139.5z" />
<glyph unicode="&#xab;" horiz-adv-x="1878" d="M197 453l34 243l822 504l-49 -338l-486 -287l406 -290l-47 -336zM944 453l35 243l821 504l-49 -338l-483 -287l403 -290l-47 -336z" />
<glyph unicode="&#xac;" horiz-adv-x="1570" d="M152 299l32 242h967l92 633h297l-123 -875h-1265z" />
<glyph unicode="&#xad;" horiz-adv-x="1228" d="M166 584l37 262h925l-36 -262h-926z" />
<glyph unicode="&#xae;" horiz-adv-x="1312" d="M188 1108q16 109 68 207q47 90 131 170q70 68 182 114q102 43 211 43q139 0 252 -71q111 -70 162 -193q51 -119 29 -270q-23 -150 -107 -270.5t-215 -192.5t-270 -72q-147 0 -254 74q-113 78 -160 195q-49 125 -29 266zM301 1106q-25 -180 72 -299q98 -121 272 -121 q178 0 307 121q133 125 158 299q25 181 -74 301q-98 121 -272 121q-178 0 -307 -121q-131 -121 -156 -301zM492 817l83 596h111q61 0 105 -6q45 -6 81.5 -24.5t51.5 -51.5q16 -35 10 -82q-10 -70 -47 -106q-41 -41 -115 -62l123 -229l-115 -57l-114 266h-31l-35 -244h-108z M651 1159h41q61 0 92 18.5t37 67.5q6 41 -22 55q-33 16 -125 17z" />
<glyph unicode="&#xaf;" horiz-adv-x="960" d="M76 0l37 262h729l-37 -262h-729z" />
<glyph unicode="&#xb0;" horiz-adv-x="866" d="M70 86q0 109 59 195q63 90 154 139q92 49 190 49q131 0 219 -82t88 -207q0 -106 -57 -194q-59 -90 -152 -140q-96 -51 -192 -51q-125 0 -219 84q-90 82 -90 207zM238 109q0 -70 47 -113q49 -45 114 -45q78 0 148 59q66 57 65 148q0 70 -47 112q-49 45 -112 45 q-78 0 -148 -59q-67 -59 -67 -147z" />
<glyph unicode="&#xb1;" horiz-adv-x="1335" d="M242 10l30 232h815l-32 -232h-813zM383 639l37 252h256l43 305h268l-43 -305h260l-37 -252h-258l-43 -305h-268l43 305h-258z" />
<glyph unicode="&#xb2;" horiz-adv-x="1030" d="M236 686l22 174l272 219l5 3q4 3 11 9.5l13 12.5l35 26l31 25l32 33l27 29q16 16 27 32q4 6 8 16.5t6 16.5q6 12 10 33q8 55 -14 86q-23 29 -82 29q-49 0 -111 -21q-86 -29 -110 -41l-43 -22l-41 190l8 4q2 0 8 4t10 6l29 13q6 2 12.5 5l13.5 6t13 5t19.5 8t25.5 10 q18 8 51 15q8 2 24.5 7t26.5 7q37 8 55.5 10t51.5 2q59 0 100 -8q45 -8 88 -31q47 -23 72 -51q27 -29 43 -82q14 -45 4 -112q-12 -94 -65 -172q-51 -76 -176 -178l-121 -105h276l-31 -213h-636z" />
<glyph unicode="&#xb3;" horiz-adv-x="993" d="M223 592l66 192q111 -41 203 -41q45 0 88 15q33 10 53 35q18 20 24 45q6 23 7 47q0 63 -47.5 98t-153.5 35l26 196q120 0 173 37q51 37 51 88q0 43 -25 68q-23 23 -88 23q-49 0 -100 -15l-88 -26l-31 -15l-57 182l14 11q6 4 21.5 10t21.5 8l61 25q41 14 80 22q41 8 90 8 q158 0 246 -59q86 -58 86 -190q0 -63 -18 -115q-20 -57 -47 -84q-39 -39 -60 -51q-31 -18 -57 -25q63 -18 104 -78q39 -57 39 -133q0 -41 -8 -80q-10 -45 -39 -94q-33 -57 -76 -96q-43 -41 -127 -70q-82 -29 -184 -28q-66 0 -137 14q-63 12 -86 27z" />
<glyph unicode="&#xb4;" horiz-adv-x="901" d="M389 313l195 684h389l-383 -684h-201z" />
<glyph unicode="&#xb5;" horiz-adv-x="1234" d="M51 -428l209 1532h297l-115 -828l11 -4q2 -2 6 -5l8 -6t10 -5l37 -18q12 -6 41 -15q14 -4 41 -4q106 6 170 76l111 809h313l-154 -1104h-221l-45 166q-27 -68 -96 -125q-68 -55 -170 -55q-25 0 -51 6q-12 2 -41 14q-14 6 -15 10l-69 -485z" />
<glyph unicode="&#xb6;" horiz-adv-x="1378" d="M160 1067q0 43 6 88q14 98 43 156q35 72 82 114q49 47 102 76q57 31 125 47q76 16 131 23q63 6 135 6h99l467 2l-224 -1579h-237l201 1427h-125l-201 -1427h-242l101 711q-74 0 -146 10q-53 8 -127 37q-53 20 -100 65q-39 37 -66 103q-24 61 -24 141z" />
<glyph unicode="&#xb7;" horiz-adv-x="544" d="M137 704.5q0 73.5 56 129.5q53 53 129 53q74 0 127 -53q55 -55 55 -129t-55 -130q-53 -53 -127 -53q-76 0 -129 53q-56 56 -56 129.5z" />
<glyph unicode="&#xb8;" horiz-adv-x="374" d="M-106 -557l18 135l8 -4l21 -10l32 -13q23 -8 43 -10q6 0 15.5 -2t17.5 -3t17 -1q68 0 102.5 22.5t44.5 94.5q12 80 -45 121t-176 41l55 262h113l-43 -174q29 0 65 -6q41 -6 78 -23q41 -18 72 -45q31 -29 49 -70q16 -39 10 -100q-18 -135 -96 -201q-82 -70 -211 -69 q-25 0 -37 2t-33 6l-30 6l-14.5 5t-12.5 3l-12 6t-11 4q-4 2 -10 4.5t-8 4.5l-12 6q-4 2 -8 6z" />
<glyph unicode="&#xb9;" horiz-adv-x="800" d="M274 1565l197 73l246 -2l-133 -944h-246l104 725l-125 -43z" />
<glyph unicode="&#xba;" horiz-adv-x="1138" d="M283 1079q0 45 6 95q6 55 20 104q18 66 39 106q27 51 62 97q41 51 86 81.5t112 53.5q61 20 146 20q168 0 254 -92q88 -94 88 -260q0 -45 -6 -94q-6 -43 -23 -105q-12 -43 -39 -104q-23 -53 -59 -98q-33 -41 -86 -80q-43 -31 -115 -55q-61 -20 -143 -21q-170 0 -256 92 t-86 260zM530 1083q0 -170 121 -170q77 0 123 68q47 70 66 203q8 55 8 100q0 88 -29 125q-31 39 -92 39q-78 0 -123 -64q-47 -66 -65 -200q-9 -50 -9 -101z" />
<glyph unicode="&#xbb;" horiz-adv-x="1734" d="M88 -51l47 336l498 295l-416 282l47 330l680 -506l-35 -233zM838 -51l47 336l495 295l-415 282l49 330l678 -506l-35 -233z" />
<glyph unicode="&#xbc;" horiz-adv-x="1822" d="M152 1262l280 110l162 -39l-131 -921h-246l100 712l-122 -53zM332 -29l876 1569l201 -82l-885 -1564zM893 256l590 768l184 -53l-92 -668h129l-29 -207h-131l-31 -221h-225l31 221h-418zM1184 301h164l41 297z" />
<glyph unicode="&#xbd;" horiz-adv-x="1949" d="M207 1262l280 110l160 -39l-129 -921h-246l101 712l-123 -53zM387 -29l877 1569l198 -82l-882 -1564zM1151 0l25 174l274 219q113 92 162 148q45 51 45 118q0 86 -103 86q-47 0 -108 -20q-74 -25 -111 -43l-45 -20l-39 190l6 4q2 0 9.5 3t11.5 5l31 15l37 16l47 16 q27 12 49 17q18 4 51 12q29 8 55 10q37 4 54 4q61 0 112 -12q55 -12 98 -39q45 -27 70 -76q27 -53 27 -110q0 -63 -19 -119q-20 -59 -55 -106q-37 -49 -76 -89q-45 -45 -94 -86l-123 -102h279l-31 -215h-639z" />
<glyph unicode="&#xbe;" horiz-adv-x="2033" d="M133 463l90 203q109 -51 203 -52q72 0 117 29q43 27 51 94q10 72 -49 113q-59 43 -150 39l29 196q88 0 149 31q59 31 70 96q6 46 -25 68q-33 23 -83 23q-45 0 -97 -15q-70 -18 -90 -28l-35 -15l-57 185l14 8q8 6 43 20q28 12 62 25q27 10 80 20q41 8 90 8q174 0 262 -71 q86 -70 67 -232q-8 -74 -59 -139q-47 -61 -123 -82q76 -23 115 -90q41 -72 29 -156q-25 -168 -139.5 -249.5t-293.5 -81.5q-76 0 -143 12q-61 10 -96 29zM543 -29l876 1569l199 -82l-883 -1564zM1104 256l590 768l184 -53l-92 -668h129l-29 -207h-131l-31 -221h-227l33 221 h-418zM1395 301h164l40 297z" />
<glyph unicode="&#xbf;" horiz-adv-x="1079" d="M111 287q0 391 491 569l33 231h326l-48 -346q-8 -4 -98 -45l-106 -49l-103 -51q-57 -33 -90 -61q-31 -29 -57 -74q-25 -43 -25 -92q0 -45 17 -68q18 -25 51 -37q23 -8 65 -12q41 -4 80 -4q109 0 293 49l23 -244q-76 -35 -207 -57q-121 -20 -221 -21q-424 1 -424 312z M684 1294q0 70 57 127q53 53 129 54q59 0 101 -39q43 -39 43 -97q0 -68 -58 -125q-55 -55 -129 -55q-59 0 -100 39q-43 39 -43 96z" />
<glyph unicode="&#xc0;" horiz-adv-x="1347" d="M-10 0l723 1577h311l281 -1577h-324l-57 391h-418l-174 -391h-342zM563 551h328l-47 323l-33 267l-86 -215zM594 2427h395v-709h-203z" />
<glyph unicode="&#xc1;" horiz-adv-x="1347" d="M-10 0l723 1577h311l281 -1577h-324l-57 391h-418l-174 -391h-342zM563 551h328l-47 323l-33 267l-86 -215zM788 1718l195 684h389l-383 -684h-201z" />
<glyph unicode="&#xc2;" horiz-adv-x="1347" d="M-10 0l723 1577h311l281 -1577h-324l-57 391h-418l-174 -391h-342zM528 1718l326 639h225l168 -639h-250l-63 316l-143 -316h-263zM563 551h328l-47 323l-33 267l-86 -215z" />
<glyph unicode="&#xc3;" horiz-adv-x="1347" d="M-10 0l723 1577h311l281 -1577h-324l-57 391h-418l-174 -391h-342zM481 1745q49 338 262 338q53 0 105 -23q49 -22 80 -49q29 -27 71 -49q41 -23 72 -23q35 0 47 21q14 25 23 84h205q-23 -150 -92.5 -238t-170.5 -88q-51 0 -106 25q-53 25 -90 51q-49 37 -76 53 q-37 23 -63.5 23t-45.5 -29q-16 -25 -26 -96h-195zM563 551h328l-47 323l-33 267l-86 -215z" />
<glyph unicode="&#xc4;" horiz-adv-x="1347" d="M-10 0l723 1577h311l281 -1577h-324l-57 391h-418l-174 -391h-342zM438 1939q12 78 70 129q61 55 127 56q68 0 113 -56q43 -52 30 -129q-9 -77 -67 -129q-59 -53 -127 -53q-70 0 -113 53q-45 55 -33 129zM563 551h328l-47 323l-33 267l-86 -215zM1049 1939q12 80 67 129 q61 55 127 56q68 0 113 -55.5t33 -129.5q-9 -77 -68 -129q-59 -53 -127 -53q-70 0 -113 53q-44 55 -32 129z" />
<glyph unicode="&#xc5;" horiz-adv-x="1347" d="M-10 0l721 1573q-37 18 -72 47q-90 82 -90 209q0 109 59 194q63 90 154 140q92 49 190 49q131 0 219.5 -82t88.5 -209q0 -102 -59.5 -192.5t-149.5 -141.5q-6 -2 -13.5 -4t-13.5 -6l281 -1577h-324l-57 391h-418l-174 -391h-342zM563 551h328l-47 323l-33 267l-86 -215z M717 1851q0 -72 47 -114.5t115 -42.5q76 0 145 59q68 57 68 145q0 72 -48 115q-45 43 -112 43q-78 0 -148 -59q-67 -60 -67 -146z" />
<glyph unicode="&#xc6;" horiz-adv-x="1851" d="M-37 0l989 1577h930l-39 -266h-559l-49 -361h522l-35 -241h-520l-63 -441h581l-37 -268h-870l47 338h-342l-203 -338h-352zM653 569h238l78 496z" />
<glyph unicode="&#xc7;" horiz-adv-x="1179" d="M127 557q0 180 27 326q29 154 88 282q63 139 149 230q88 94 223.5 149t300.5 55q27 0 80 -4q33 -2 72 -10q41 -8 61 -14q47 -14 54 -17q16 -6 45 -18q27 -12 35 -16q4 -4 14 -8.5t12 -6.5t7 -6t8 -6l6 -2l-111 -264q-2 0 -7 4t-9 6l-45 23q-29 12 -70 26q-45 14 -88 23 q-57 10 -102 10q-193 0 -306 -199q-115 -201 -114 -530q0 -350 268 -350q49 0 100 12q59 14 93 27q27 10 71 30q18 8 49 29l17 10l55 -254q-61 -53 -174 -92q-111 -39 -266 -39h-37l-39 -151q29 0 65 -7q41 -6 78 -22q41 -18 72 -45q31 -29 49 -70q16 -39 10 -100 q-18 -135 -96 -201q-82 -70 -211 -69q-25 0 -37 2t-32 6l-31 6l-14.5 5t-12.5 3l-12 6t-10 4q-2 2 -8.5 4t-10.5 4l-12 7q-4 2 -8 6l-2 2l18 135l8 -2l7 -5q7 -5 14 -7l33 -13q23 -8 43 -10q6 0 15 -2t17.5 -3t16.5 -1q68 0 102 23q33 20 43 94q12 80 -43 121 q-57 41 -176 41l53 253l-67 19q-96 33 -172 102q-74 68 -115 186.5t-41 272.5z" />
<glyph unicode="&#xc8;" d="M92 0l211 1577h934l-35 -238h-608l-53 -397h544l-30 -231h-549l-66 -478h650l-48 -233h-950zM485 2427h396v-709h-203z" />
<glyph unicode="&#xc9;" d="M92 0l211 1577h934l-35 -238h-608l-53 -397h544l-30 -231h-549l-66 -478h650l-48 -233h-950zM680 1718l194 684h390l-383 -684h-201z" />
<glyph unicode="&#xca;" d="M92 0l211 1577h934l-35 -238h-608l-53 -397h544l-30 -231h-549l-66 -478h650l-48 -233h-950zM420 1718l323 639h228l168 -639h-250l-66 316l-141 -316h-262z" />
<glyph unicode="&#xcb;" d="M92 0l211 1577h934l-35 -238h-608l-53 -397h544l-30 -231h-549l-66 -478h650l-48 -233h-950zM330 1901q12 80 67 129q61 55 127 55q68 0 113 -55.5t33 -128.5q-9 -77 -68 -129q-59 -53 -129 -54q-68 0 -111 54q-44 55 -32 129zM940 1901q12 80 68 129q61 55 127 55 q68 0 112.5 -55.5t32.5 -128.5q-9 -77 -68 -129q-59 -53 -128.5 -53.5t-112.5 53.5q-43 52 -31 129z" />
<glyph unicode="&#xcc;" horiz-adv-x="880" d="M43 0l23 154h174l172 1261h-174l26 162h662l-27 -162h-174l-172 -1261h174l-25 -154h-659zM322 2427h395v-709h-203z" />
<glyph unicode="&#xcd;" horiz-adv-x="880" d="M43 0l23 154h174l172 1261h-174l26 162h662l-27 -162h-174l-172 -1261h174l-25 -154h-659zM514 1718l197 684h389l-383 -684h-203z" />
<glyph unicode="&#xce;" horiz-adv-x="880" d="M43 0l23 154h174l172 1261h-174l26 162h662l-27 -162h-174l-172 -1261h174l-25 -154h-659zM256 1718l324 639h227l168 -639h-250l-66 316l-141 -316h-262z" />
<glyph unicode="&#xcf;" horiz-adv-x="880" d="M43 0l23 154h174l172 1261h-174l26 162h662l-27 -162h-174l-172 -1261h174l-25 -154h-659zM166 1901q12 80 67 129q61 55 127 55q68 0 113 -55.5t33 -128.5q-9 -77 -68 -129q-59 -53 -128.5 -53.5t-112.5 53.5q-43 52 -31 129zM776 1901q12 80 68 129q61 55 127 55 q68 0 112 -55q43 -52 31 -129q-10 -80 -65 -129q-59 -53 -129 -53.5t-113 53.5q-43 52 -31 129z" />
<glyph unicode="&#xd0;" horiz-adv-x="1421" d="M106 0l103 723h-100l28 180h96l95 676h549q127 0 223 -33t170 -100q72 -66 112 -178q39 -109 39 -258q0 -481 -202.5 -745.5t-563.5 -264.5h-549zM469 236h205q86 0 155 38q74 41 119 105q47 63 82 164q31 86 47 207q16 119 17 239q0 164 -60 258q-59 92 -180 92h-225 l-64 -436h230l-29 -180h-225z" />
<glyph unicode="&#xd1;" horiz-adv-x="1554" d="M106 0l162 1157l70 420h338l147 -352l303 -750l146 1102h299l-162 -1157l-70 -420h-327l-156 360l-297 746l-153 -1106h-300zM567 1745q49 338 262 338q53 0 105 -23q53 -23 82 -49q33 -29 69 -49q41 -23 74 -23q35 0 47 21q14 25 23 84h203q-23 -152 -91 -238 q-70 -88 -170 -88q-51 0 -106 25q-59 27 -92 51q-59 43 -74 53q-37 23 -63 23q-29 0 -48 -29q-16 -25 -26 -96h-195z" />
<glyph unicode="&#xd2;" horiz-adv-x="1429" d="M129 588q0 236 61 428q61 195 164 317q104 127 244 195q143 70 299 69q115 0 213 -41q102 -43 170 -116q70 -76 111 -203q39 -119 39 -285q0 -180 -41 -348q-39 -162 -111 -278q-68 -111 -168 -199q-96 -84 -207 -123q-117 -41 -235 -41q-250 0 -394 156 q-145 158 -145 469zM459 614q0 -375 248 -374q181 0 288 196q109 199 109 510q3 375 -246 375q-55 0 -119 -27q-51 -23 -108 -82q-51 -53 -88 -137q-43 -96 -62 -201q-22 -125 -22 -260zM621 2427h395v-709h-203z" />
<glyph unicode="&#xd3;" horiz-adv-x="1429" d="M129 588q0 236 61 428q61 195 164 317q104 127 244 195q143 70 299 69q115 0 213 -41q102 -43 170 -116q70 -76 111 -203q39 -119 39 -285q0 -180 -41 -348q-39 -162 -111 -278q-68 -111 -168 -199q-96 -84 -207 -123q-117 -41 -235 -41q-250 0 -394 156 q-145 158 -145 469zM459 614q0 -375 248 -374q181 0 288 196q109 199 109 510q3 375 -246 375q-55 0 -119 -27q-51 -23 -108 -82q-51 -53 -88 -137q-43 -96 -62 -201q-22 -125 -22 -260zM813 1718l197 684h389l-383 -684h-203z" />
<glyph unicode="&#xd4;" horiz-adv-x="1429" d="M129 588q0 236 61 428q61 195 164 317q104 127 244 195q143 70 299 69q115 0 213 -41q102 -43 170 -116q70 -76 111 -203q39 -119 39 -285q0 -180 -41 -348q-39 -162 -111 -278q-68 -111 -168 -199q-96 -84 -207 -123q-117 -41 -235 -41q-250 0 -394 156 q-145 158 -145 469zM459 614q0 -375 248 -374q181 0 288 196q109 199 109 510q3 375 -246 375q-55 0 -119 -27q-51 -23 -108 -82q-51 -53 -88 -137q-43 -96 -62 -201q-22 -125 -22 -260zM555 1718l324 639h227l168 -639h-250l-66 316l-141 -316h-262z" />
<glyph unicode="&#xd5;" horiz-adv-x="1429" d="M129 588q0 236 61 428q61 195 164 317q104 127 244 195q143 70 299 69q115 0 213 -41q102 -43 170 -116q70 -76 111 -203q39 -119 39 -285q0 -180 -41 -348q-39 -162 -111 -278q-68 -111 -168 -199q-96 -84 -207 -123q-117 -41 -235 -41q-250 0 -394 156 q-145 158 -145 469zM459 614q0 -375 248 -374q181 0 288 196q109 199 109 510q3 375 -246 375q-55 0 -119 -27q-51 -23 -108 -82q-51 -53 -88 -137q-43 -96 -62 -201q-22 -125 -22 -260zM508 1745q49 338 260 338q53 0 104 -23q53 -23 82 -49q33 -29 70 -49q41 -23 74 -23 q35 0 47 21q14 25 22 84h203q-23 -152 -90 -238q-70 -88 -170 -88q-51 0 -106 25q-53 25 -91 51q-49 37 -75 53q-37 23 -64 23q-29 0 -47 -29q-16 -25 -27 -96h-192z" />
<glyph unicode="&#xd6;" horiz-adv-x="1429" d="M129 588q0 236 61 428q61 195 164 317q104 127 244 195q143 70 299 69q115 0 213 -41q102 -43 170 -116q70 -76 111 -203q39 -119 39 -285q0 -180 -41 -348q-39 -162 -111 -278q-68 -111 -168 -199q-96 -84 -207 -123q-117 -41 -235 -41q-250 0 -394 156 q-145 158 -145 469zM459 614q0 -375 248 -374q181 0 288 196q109 199 109 510q3 375 -246 375q-55 0 -119 -27q-51 -23 -108 -82q-51 -53 -88 -137q-43 -96 -62 -201q-22 -125 -22 -260zM467 1901q12 80 68 129q61 55 127 55q68 0 112 -55q43 -52 31 -129q-9 -77 -68 -129 q-59 -53 -127 -54q-70 0 -112 54q-43 52 -31 129zM1075 1901q12 78 70 129q61 55 127 55q68 0 112 -55q43 -52 31 -129q-9 -77 -67 -129q-59 -53 -127 -54q-70 0 -113 54q-45 55 -33 129z" />
<glyph unicode="&#xd7;" horiz-adv-x="1384" d="M158 188l194 -196l369 346l246 -358l231 167l-266 390l436 411l-194 199l-404 -379l-254 369l-229 -166l274 -402z" />
<glyph unicode="&#xd8;" horiz-adv-x="1427" d="M127 588q0 236 61 428q59 190 166 317q104 127 244 195q143 70 299 69q59 0 127 -14l63 156l146 -56l-64 -155q125 -72 193 -217q68 -143 68 -359q0 -180 -41 -348q-39 -162 -111 -278q-68 -111 -168 -199q-95 -83 -209 -123q-117 -41 -233 -41q-74 0 -125 10l-62 -151 l-149 55l59 150q-264 145 -264 561zM406 604q0 -221 94 -315l426 1048q-29 6 -58 6q-59 0 -127 -28q-63 -27 -125 -86q-66 -61 -108 -144q-47 -86 -74 -211q-28 -131 -28 -270zM643 221q29 -4 51 -4q139 0 246 96.5t158 259.5q53 170 53 383q0 219 -86 312z" />
<glyph unicode="&#xd9;" horiz-adv-x="1525" d="M199 502q0 109 14 221l121 854h321l-120 -858q-18 -125 -19 -207q0 -158 51 -221q49 -61 172 -62q104 0 172 45q61 41 107 150q41 100 69 295l121 858h322l-119 -854q-25 -174 -74 -311q-47 -129 -114 -219q-61 -82 -150 -136q-86 -53 -174 -73q-84 -20 -197 -21 q-96 0 -165 14q-72 14 -140 54q-63 37 -106 98q-45 63 -68 154q-24 94 -24 219zM623 2427h395v-709h-203z" />
<glyph unicode="&#xda;" horiz-adv-x="1525" d="M199 502q0 109 14 221l121 854h321l-120 -858q-18 -125 -19 -207q0 -158 51 -221q49 -61 172 -62q104 0 172 45q61 41 107 150q41 100 69 295l121 858h322l-119 -854q-25 -174 -74 -311q-47 -129 -114 -219q-61 -82 -150 -136q-86 -53 -174 -73q-84 -20 -197 -21 q-96 0 -165 14q-72 14 -140 54q-63 37 -106 98q-45 63 -68 154q-24 94 -24 219zM815 1718l195 684h389l-383 -684h-201z" />
<glyph unicode="&#xdb;" horiz-adv-x="1525" d="M199 502q0 109 14 221l121 854h321l-120 -858q-18 -125 -19 -207q0 -158 51 -221q49 -61 172 -62q104 0 172 45q61 41 107 150q41 100 69 295l121 858h322l-119 -854q-25 -174 -74 -311q-47 -129 -114 -219q-61 -82 -150 -136q-86 -53 -174 -73q-84 -20 -197 -21 q-96 0 -165 14q-72 14 -140 54q-63 37 -106 98q-45 63 -68 154q-24 94 -24 219zM586 1718l323 639h226l170 -639h-250l-66 316l-141 -316h-262z" />
<glyph unicode="&#xdc;" horiz-adv-x="1525" d="M199 502q0 109 14 221l121 854h321l-120 -858q-18 -125 -19 -207q0 -158 51 -221q49 -61 172 -62q104 0 172 45q61 41 107 150q41 100 69 295l121 858h322l-119 -854q-25 -174 -74 -311q-47 -129 -114 -219q-61 -82 -150 -136q-86 -53 -174 -73q-84 -20 -197 -21 q-96 0 -165 14q-72 14 -140 54q-63 37 -106 98q-45 63 -68 154q-24 94 -24 219zM477 1903q12 80 68 129q59 53 127 53q70 0 112 -53q43 -52 31 -129q-10 -80 -65 -129q-59 -53 -129 -53.5t-113 53.5q-43 52 -31 129zM1087 1903q12 80 68 129q59 53 127 53q70 0 113 -53 q43 -52 30 -129q-10 -80 -65 -129q-59 -53 -129 -53.5t-113 53.5q-43 52 -31 129z" />
<glyph unicode="&#xdd;" horiz-adv-x="1187" d="M135 1577h342l182 -655l377 655h357l-627 -1059l-72 -518h-317l72 518zM682 1718l197 684h389l-383 -684h-203z" />
<glyph unicode="&#xde;" horiz-adv-x="1204" d="M80 0l221 1579h324l-19 -123h90q252 0 387 -51q139 -53 189 -160q49 -108 24 -289q-37 -258 -219 -376.5t-553 -118.5h-57l-66 -461h-321zM504 729h57q156 0 244 24.5t127 69.5t51 133q8 57 2 105q-6 41 -43 72q-35 29 -100 41q-80 14 -176 14h-97z" />
<glyph unicode="&#xdf;" horiz-adv-x="1474" d="M96 0l142 995q43 297 206.5 448.5t436.5 151.5q227 0 354 -102q125 -100 125 -262q0 -12 -1 -34.5t-1 -31.5q0 -25 -10 -71q-10 -49 -23 -74q-18 -39 -41 -68q-23 -31 -65 -59q-35 -23 -99 -43q-49 -16 -131 -23q131 -12 219 -43q84 -29 135 -79q45 -45 68 -105 q20 -53 21 -129v-2q0 -119 -29 -221q-27 -96 -76 -168q-43 -63 -115 -119q-55 -43 -137 -80q-59 -27 -153 -47q-102 -23 -154 -27q-49 -4 -143 -8l-54 273q102 6 183 18q66 10 149 43q72 29 119 72q45 43 74 108q27 61 26 154q0 127 -116.5 182.5t-339.5 55.5l30 219 q371 0 371 270q0 156 -219 156q-126 0 -191 -86q-66 -88 -90 -269l-141 -995h-330z" />
<glyph unicode="&#xe0;" horiz-adv-x="1155" d="M80 395q0 133 45 260q49 135 121 232q78 104 182 166q106 63 221 63q84 0 156 -14q90 -18 133 -35q66 -25 96 -41q49 -25 64 -35l20 -14l-137 -977h-221l-41 166q-33 -80 -107 -129q-76 -51 -182 -51q-178 0 -264 110.5t-86 298.5zM373 1952h395v-709h-203zM395 430 q0 -213 135 -213q123 0 183 72l80 583q-43 14 -113 15q-49 0 -100 -37q-52 -37 -93 -98q-43 -66 -65 -146q-27 -94 -27 -176z" />
<glyph unicode="&#xe1;" horiz-adv-x="1155" d="M80 395q0 133 45 260q49 135 121 232q78 104 182 166q106 63 221 63q84 0 156 -14q90 -18 133 -35q66 -25 96 -41q49 -25 64 -35l20 -14l-137 -977h-221l-41 166q-33 -80 -107 -129q-76 -51 -182 -51q-178 0 -264 110.5t-86 298.5zM395 430q0 -213 135 -213q123 0 183 72 l80 583q-43 14 -113 15q-49 0 -100 -37q-52 -37 -93 -98q-43 -66 -65 -146q-27 -94 -27 -176zM567 1243l195 684h389l-383 -684h-201z" />
<glyph unicode="&#xe2;" horiz-adv-x="1155" d="M80 395q0 133 45 260q49 135 121 232q78 104 182 166q106 63 221 63q84 0 156 -14q90 -18 133 -35q66 -25 96 -41q49 -25 64 -35l20 -14l-137 -977h-221l-41 166q-33 -80 -107 -129q-76 -51 -182 -51q-178 0 -264 110.5t-86 298.5zM338 1303l324 639h227l168 -639h-250 l-66 315l-141 -315h-262zM395 430q0 -213 135 -213q123 0 183 72l80 583q-43 14 -113 15q-49 0 -100 -37q-52 -37 -93 -98q-43 -66 -65 -146q-27 -94 -27 -176z" />
<glyph unicode="&#xe3;" horiz-adv-x="1155" d="M80 395q0 133 45 260q49 135 121 232q78 104 182 166q106 63 221 63q84 0 156 -14q90 -18 133 -35q66 -25 96 -41q49 -25 64 -35l20 -14l-137 -977h-221l-41 166q-33 -80 -107 -129q-76 -51 -182 -51q-178 0 -264 110.5t-86 298.5zM291 1270q49 338 262 338q51 0 102 -23 q53 -23 82 -49.5t72 -48.5q41 -23 72 -23q35 0 47 21q14 25 22 84h203q-23 -152 -90 -238q-70 -88 -170 -88q-55 0 -107 23q-47 20 -90 53q-35 25 -75 51q-39 25 -64 25q-29 0 -47 -29q-16 -25 -27 -96h-192zM395 430q0 -213 135 -213q123 0 183 72l80 583q-43 14 -113 15 q-49 0 -100 -37q-52 -37 -93 -98q-43 -66 -65 -146q-27 -94 -27 -176z" />
<glyph unicode="&#xe4;" horiz-adv-x="1155" d="M80 395q0 133 45 260q49 135 121 232q78 104 182 166q106 63 221 63q84 0 156 -14q90 -18 133 -35q66 -25 96 -41q49 -25 64 -35l20 -14l-137 -977h-221l-41 166q-33 -80 -107 -129q-76 -51 -182 -51q-178 0 -264 110.5t-86 298.5zM238 1487q12 80 67 129q59 53 127 53 q70 0 113 -53q45 -55 33 -129q-9 -77 -68 -129q-59 -53 -127 -53q-70 0 -113 53q-44 55 -32 129zM395 430q0 -213 135 -213q123 0 183 72l80 583q-43 14 -113 15q-49 0 -100 -37q-52 -37 -93 -98q-43 -66 -65 -146q-27 -94 -27 -176zM848 1487q12 80 67 129q59 53 127 53 q70 0 113 -53q45 -55 33 -129q-9 -77 -68 -129q-59 -53 -128.5 -53t-112.5 53q-43 52 -31 129z" />
<glyph unicode="&#xe5;" horiz-adv-x="1155" d="M80 395q0 133 45 260q49 135 121 232q78 104 182 166q106 63 221 63q84 0 156 -14q90 -18 133 -35q66 -25 96 -41q49 -25 64 -35l20 -14l-137 -977h-221l-41 166q-33 -80 -107 -129q-76 -51 -182 -51q-178 0 -264 110.5t-86 298.5zM358 1534q0 109 60 195q63 90 153 139 q92 49 193 49q129 0 217 -82t88 -209q0 -104 -57 -192q-59 -90 -152 -140q-96 -51 -192 -51q-129 0 -219.5 82t-90.5 209zM395 430q0 -213 135 -213q123 0 183 72l80 583q-43 14 -113 15q-49 0 -100 -37q-52 -37 -93 -98q-43 -66 -65 -146q-27 -94 -27 -176zM526 1556 q0 -72 47 -114q45 -43 115 -43q78 0 148 59q66 57 65 146q0 72 -47 114.5t-113 42.5q-78 0 -147 -59q-68 -60 -68 -146z" />
<glyph unicode="&#xe6;" horiz-adv-x="1626" d="M86 270q0 102 27 174q29 78 73 123q49 49 115 76q72 29 141 41q61 10 160 10q78 0 133 -12q8 55 8 86q0 51 -26 82q-25 29 -92.5 29t-155.5 -19q-89 -18 -147 -37l-56 -16l-12 209q74 49 195 82q117 31 223 30q218 0 276 -147q51 72 139 111q83 37 179 36 q168 0 258 -106.5t90 -284.5q0 -55 -8 -110l-25 -158h-586v-2q-2 -16 -2 -41q0 -86 51 -147q49 -57 144 -58q145 0 262 80l27 -221q-180 -96 -373 -96q-131 0 -203 51t-108 166q-78 -119 -185 -168q-113 -51 -221 -51q-145 0 -223 73.5t-78 214.5zM383 338q0 -59 30.5 -90 t84.5 -31q84 0 184 82l29 207q-35 6 -95 6q-53 0 -90 -6q-39 -6 -71 -25q-37 -20 -54 -53q-18 -37 -18 -90zM1022 641h334q6 39 6 78q0 174 -135 174q-80 0 -133 -66q-51 -63 -70 -161z" />
<glyph unicode="&#xe7;" horiz-adv-x="976" d="M139 438q0 152 49 281q51 133 129 217q80 86 184.5 135t215.5 49q115 0 188 -24q70 -23 148 -72l-88 -221q-20 27 -86 53q-70 29 -138 29q-129 0 -192.5 -76t-87.5 -252q-6 -49 -6 -96q0 -240 215 -240q43 0 96 17q49 14 65 26l62 39l25 -219q-100 -53 -166 -74 q-80 -25 -197 -24h-18l-37 -152q29 0 65 -6q33 -6 78 -25q45 -20 72 -43q31 -27 49 -71q16 -39 10 -99q-18 -135 -96 -200q-82 -70 -211 -70q-25 0 -37 2q-6 0 -16.5 1t-16.5 3q-4 2 -14 4t-16.5 4t-14.5 5.5t-12 3.5q-12 2 -23 10q-16 6 -18 8l-12 6q0 2 -4 2t-4 2l-3 2 l19 138l8 -5l21 -10q20 -8 32 -12q33 -10 43 -12q33 -4 50 -4q68 0 102.5 22.5t44.5 93.5q12 80 -45 121t-176 41l53 254q-96 27 -174 104q-115 121 -115 334z" />
<glyph unicode="&#xe8;" horiz-adv-x="1001" d="M115 428q0 101 24 203q25 98 74 188q45 82 119 156q66 66 160 106q90 39 196 39q156 0 238 -79.5t82 -190.5q0 -203 -154 -307q-158 -106 -434 -113q0 -96 49 -157.5t141 -61.5q137 0 256 88l56 -205q-199 -109 -396 -108q-190 0 -301 118q-110 121 -110 324zM406 1952 h395v-709h-203zM434 571q2 0 8.5 1t10.5 1l49 9q29 4 67 16q41 12 72 27q43 20 68 39q29 23 47 55q20 37 20 69q0 47 -24.5 78t-77.5 31q-72 0 -125 -53q-57 -57 -84 -127q-29 -74 -31 -146z" />
<glyph unicode="&#xe9;" horiz-adv-x="1001" d="M115 428q0 101 24 203q25 98 74 188q45 82 119 156q66 66 160 106q90 39 196 39q156 0 238 -79.5t82 -190.5q0 -203 -154 -307q-158 -106 -434 -113q0 -96 49 -157.5t141 -61.5q137 0 256 88l56 -205q-199 -109 -396 -108q-190 0 -301 118q-110 121 -110 324zM434 571 q2 0 8.5 1t10.5 1l49 9q29 4 67 16q41 12 72 27q43 20 68 39q29 23 47 55q20 37 20 69q0 47 -24.5 78t-77.5 31q-72 0 -125 -53q-57 -57 -84 -127q-29 -74 -31 -146zM600 1243l195 684h389l-383 -684h-201z" />
<glyph unicode="&#xea;" horiz-adv-x="1001" d="M115 428q0 101 24 203q25 98 74 188q45 82 119 156q66 66 160 106q90 39 196 39q156 0 238 -79.5t82 -190.5q0 -203 -154 -307q-158 -106 -434 -113q0 -96 49 -157.5t141 -61.5q137 0 256 88l56 -205q-199 -109 -396 -108q-190 0 -301 118q-110 121 -110 324zM342 1243 l324 639h225l170 -639h-250l-66 313l-143 -313h-260zM434 571q2 0 8.5 1t10.5 1l49 9q29 4 67 16q41 12 72 27q43 20 68 39q29 23 47 55q20 37 20 69q0 47 -24.5 78t-77.5 31q-72 0 -125 -53q-57 -57 -84 -127q-29 -74 -31 -146z" />
<glyph unicode="&#xeb;" horiz-adv-x="1001" d="M115 428q0 101 24 203q25 98 74 188q45 82 119 156q66 66 160 106q90 39 196 39q156 0 238 -79.5t82 -190.5q0 -203 -154 -307q-158 -106 -434 -113q0 -96 49 -157.5t141 -61.5q137 0 256 88l56 -205q-199 -109 -396 -108q-190 0 -301 118q-110 121 -110 324zM252 1487 q12 80 67 129q59 53 127 53q70 0 113 -53q43 -52 31 -129q-9 -77 -68 -129q-59 -53 -127 -53q-70 0 -112 53q-43 52 -31 129zM434 571q2 0 8.5 1t10.5 1l49 9q29 4 67 16q41 12 72 27q43 20 68 39q29 23 47 55q20 37 20 69q0 47 -24.5 78t-77.5 31q-72 0 -125 -53 q-57 -57 -84 -127q-29 -74 -31 -146zM860 1487q12 78 70 129q59 53 127 53q70 0 112 -53q43 -52 31 -129q-9 -77 -67 -129q-59 -53 -127 -53q-70 0 -113 53q-45 55 -33 129z" />
<glyph unicode="&#xec;" horiz-adv-x="638" d="M129 0l158 1104h311l-158 -1104h-311zM150 1952h395v-709h-203z" />
<glyph unicode="&#xed;" horiz-adv-x="638" d="M129 0l158 1104h311l-158 -1104h-311zM334 1243l194 684h390l-383 -684h-201z" />
<glyph unicode="&#xee;" horiz-adv-x="638" d="M104 1243l324 639h225l170 -639h-250l-65 313l-141 -313h-263zM129 0l158 1104h311l-158 -1104h-311z" />
<glyph unicode="&#xef;" horiz-adv-x="638" d="M31 1487q12 80 67 129q59 53 127 53q70 0 113 -53q43 -52 31 -129q-9 -77 -68 -129q-59 -53 -127 -53q-70 0 -113 53q-42 52 -30 129zM129 0l158 1104h311l-158 -1104h-311zM639 1487q12 78 70 129q59 53 127 53q70 0 112 -53q43 -52 31 -129q-9 -77 -68 -129 q-59 -53 -127 -53q-70 0 -112 53q-45 55 -33 129z" />
<glyph unicode="&#xf0;" horiz-adv-x="1183" d="M106 418q0 78 13 160q10 68 39 161q23 74 65 150q40 71 92 123q59 59 121 86q72 31 150 30q180 0 250 -141q4 123 -105 311l-164 -61l-57 141l135 52q-68 88 -119 126l156 195q141 -111 229 -221l211 80l56 -144l-181 -67q117 -218 117 -522q0 -123 -20 -265 q-47 -326 -203 -475q-160 -154 -412 -153q-98 0 -170 32q-78 35 -116 93q-45 66 -66 137q-21 74 -21 172zM418 434q0 -215 135 -215q90 0 145 90q53 84 72 219l41 277q-72 90 -190 90q-37 0 -70 -23q-35 -25 -51 -51q-18 -29 -33 -78q-14 -47 -25 -90q-2 -6 -16 -96 q-8 -60 -8 -123z" />
<glyph unicode="&#xf1;" horiz-adv-x="1157" d="M70 0l153 1104h238l39 -141q45 61 125 110q76 45 161 45q162 0 234 -78q74 -80 74 -239q0 -55 -11 -133l-92 -668h-313l96 682q6 43 6 78q0 63 -28 96q-27 29 -90 29q-98 0 -166 -74l-113 -811h-313zM297 1270q49 338 262 338q53 0 105 -23q53 -23 81 -49q33 -29 70 -49 q41 -23 74 -23t45 21q14 25 22 84h205q-23 -150 -92.5 -238t-169.5 -88q-55 0 -106 23q-47 20 -91 53q-35 25 -75 51q-41 25 -64 25q-27 0 -45 -29q-16 -25 -26 -96h-195z" />
<glyph unicode="&#xf2;" horiz-adv-x="1138" d="M100 426q0 35 9 117q6 53 26 131q18 66 49 131q31 63 76 120.5t107 102.5q57 43 143 68q84 25 180 24q211 0 319.5 -114.5t108.5 -323.5q0 -39 -8 -121q-4 -49 -27 -129q-14 -51 -49 -133q-23 -55 -76 -121q-41 -53 -106 -100q-58 -43 -141 -68q-90 -27 -181 -26 q-209 0 -319.5 116.5t-110.5 325.5zM412 1952h395v-709h-203zM412 428q0 -211 151 -211q94 0 154 84q57 80 82 254q10 86 10 127q0 104 -37 153.5t-115 49.5q-96 0 -153 -80q-57 -78 -82 -250q-10 -76 -10 -127z" />
<glyph unicode="&#xf3;" horiz-adv-x="1138" d="M100 426q0 35 9 117q6 53 26 131q18 66 49 131q31 63 76 120.5t107 102.5q57 43 143 68q84 25 180 24q211 0 319.5 -114.5t108.5 -323.5q0 -39 -8 -121q-4 -49 -27 -129q-14 -51 -49 -133q-23 -55 -76 -121q-41 -53 -106 -100q-58 -43 -141 -68q-90 -27 -181 -26 q-209 0 -319.5 116.5t-110.5 325.5zM412 428q0 -211 151 -211q94 0 154 84q57 80 82 254q10 86 10 127q0 104 -37 153.5t-115 49.5q-96 0 -153 -80q-57 -78 -82 -250q-10 -76 -10 -127zM604 1243l195 684h389l-383 -684h-201z" />
<glyph unicode="&#xf4;" horiz-adv-x="1138" d="M100 426q0 35 9 117q6 53 26 131q18 66 49 131q31 63 76 120.5t107 102.5q57 43 143 68q84 25 180 24q211 0 319.5 -114.5t108.5 -323.5q0 -39 -8 -121q-4 -49 -27 -129q-14 -51 -49 -133q-23 -55 -76 -121q-41 -53 -106 -100q-58 -43 -141 -68q-90 -27 -181 -26 q-209 0 -319.5 116.5t-110.5 325.5zM344 1243l326 639h225l170 -639h-252l-63 313l-144 -313h-262zM412 428q0 -211 151 -211q94 0 154 84q57 80 82 254q10 86 10 127q0 104 -37 153.5t-115 49.5q-96 0 -153 -80q-57 -78 -82 -250q-10 -76 -10 -127z" />
<glyph unicode="&#xf5;" horiz-adv-x="1138" d="M100 426q0 35 9 117q6 53 26 131q18 66 49 131q31 63 76 120.5t107 102.5q57 43 143 68q84 25 180 24q211 0 319.5 -114.5t108.5 -323.5q0 -39 -8 -121q-4 -49 -27 -129q-14 -51 -49 -133q-23 -55 -76 -121q-41 -53 -106 -100q-58 -43 -141 -68q-90 -27 -181 -26 q-209 0 -319.5 116.5t-110.5 325.5zM299 1270q49 338 260 338q53 0 105 -23q53 -23 81 -49q33 -29 70 -49q41 -23 74 -23q35 0 47 21q14 25 22 84h203q-23 -152 -90 -238q-70 -88 -170 -88q-55 0 -106 23q-47 20 -90 53q-35 25 -76 51q-39 25 -64 25q-29 0 -47 -29 q-16 -25 -26 -96h-193zM412 428q0 -211 151 -211q94 0 154 84q57 80 82 254q10 86 10 127q0 104 -37 153.5t-115 49.5q-96 0 -153 -80q-57 -78 -82 -250q-10 -76 -10 -127z" />
<glyph unicode="&#xf6;" horiz-adv-x="1138" d="M100 426q0 35 9 117q6 53 26 131q18 66 49 131q31 63 76 120.5t107 102.5q57 43 143 68q84 25 180 24q211 0 319.5 -114.5t108.5 -323.5q0 -39 -8 -121q-4 -49 -27 -129q-14 -51 -49 -133q-23 -55 -76 -121q-41 -53 -106 -100q-58 -43 -141 -68q-90 -27 -181 -26 q-209 0 -319.5 116.5t-110.5 325.5zM256 1485q12 80 68 129q59 53 127 53q70 0 112 -53q45 -55 33 -129q-9 -77 -68 -129q-59 -53 -128.5 -53t-112.5 53q-43 52 -31 129zM412 428q0 -211 151 -211q94 0 154 84q57 80 82 254q10 86 10 127q0 104 -37 153.5t-115 49.5 q-96 0 -153 -80q-57 -78 -82 -250q-10 -76 -10 -127zM866 1485q12 80 68 129q59 53 127 53q70 0 113 -53q43 -52 30 -129q-10 -80 -65 -129q-59 -53 -129 -53t-113 53q-43 52 -31 129z" />
<glyph unicode="&#xf7;" horiz-adv-x="1251" d="M203 580l37 262h925l-37 -262h-925zM459 272q0 80 59 146q57 63 137 63q61 0 104.5 -43t43.5 -110q0 -82 -60 -148q-57 -63 -139 -63q-61 0 -104 45q-41 42 -41 110zM569 1096q0 80 60 145q57 63 137 64q59 0 104 -45q41 -41 41 -111q0 -80 -59 -145.5t-137 -65.5 q-61 0 -105 45q-41 43 -41 113z" />
<glyph unicode="&#xf8;" horiz-adv-x="1138" d="M98 426q0 35 8 117q6 53 27 131q18 66 49 131q31 63 76 120.5t107 102.5q57 43 143 68q82 25 180 24q53 0 84 -4l80 236l80 -27l-76 -227q129 -41 193 -148q66 -109 65 -268q0 -59 -6 -121q-4 -49 -27 -129q-14 -51 -49 -133q-23 -55 -76 -121q-41 -53 -106 -100 q-57 -43 -143 -68q-90 -27 -181 -26q-10 0 -24.5 1t-16.5 1l-53 -162l-86 24l49 150q-145 33 -221 143q-76 109 -76 285zM375 414q0 -168 88 -217l244 727q-37 4 -43 4q-113 0 -181 -92q-70 -94 -96 -281q-12 -76 -12 -141zM551 176h2q111 0 178 94q70 98 96 285 q12 83 13 141q0 133 -56 189z" />
<glyph unicode="&#xf9;" horiz-adv-x="1216" d="M104 324q0 57 11 135l88 643h313l-92 -670q-6 -43 -6 -78q0 -61 35 -96q39 -39 92 -41q106 8 170 78l110 807h314l-154 -1102h-221l-45 168q-29 -74 -96.5 -129t-169.5 -55q-164 0 -258 88q-91 84 -91 252zM383 1952h395v-709h-203z" />
<glyph unicode="&#xfa;" horiz-adv-x="1216" d="M104 324q0 57 11 135l88 643h313l-92 -670q-6 -43 -6 -78q0 -61 35 -96q39 -39 92 -41q106 8 170 78l110 807h314l-154 -1102h-221l-45 168q-29 -74 -96.5 -129t-169.5 -55q-164 0 -258 88q-91 84 -91 252zM575 1243l195 684h389l-383 -684h-201z" />
<glyph unicode="&#xfb;" horiz-adv-x="1216" d="M104 324q0 57 11 135l88 643h313l-92 -670q-6 -43 -6 -78q0 -61 35 -96q39 -39 92 -41q106 8 170 78l110 807h314l-154 -1102h-221l-45 168q-29 -74 -96.5 -129t-169.5 -55q-164 0 -258 88q-91 84 -91 252zM338 1243l324 639h225l170 -639h-250l-66 313l-143 -313h-260z " />
<glyph unicode="&#xfc;" horiz-adv-x="1216" d="M104 324q0 57 11 135l88 643h313l-92 -670q-6 -43 -6 -78q0 -61 35 -96q39 -39 92 -41q106 8 170 78l110 807h314l-154 -1102h-221l-45 168q-29 -74 -96.5 -129t-169.5 -55q-164 0 -258 88q-91 84 -91 252zM248 1487q12 80 67 129q59 53 127 53q70 0 113 -53 q45 -55 33 -129q-9 -77 -68 -129q-59 -53 -128.5 -53t-112.5 53q-43 52 -31 129zM858 1487q12 80 68 129q59 53 127 53q70 0 112 -53q43 -52 31 -129q-10 -80 -66 -129q-59 -53 -128.5 -53t-112.5 53q-43 52 -31 129z" />
<glyph unicode="&#xfd;" horiz-adv-x="1001" d="M6 -223l109 35q106 35 172 100q68 68 59 111l-242 1079h293l146 -705l266 705h295l-455 -1135q-68 -168 -172 -258q-111 -94 -278 -145l-131 -39zM522 1243l197 684h389l-383 -684h-203z" />
<glyph unicode="&#xfe;" horiz-adv-x="1153" d="M41 -438l274 1956h291l-61 -455q100 63 217 63q78 0 141.5 -24.5t102.5 -65.5q41 -45 67 -100q23 -47 37 -119q12 -61 12 -133q0 -90 -18 -186q-20 -104 -60 -189q-43 -92 -102 -164q-63 -76 -147 -116q-94 -45 -197 -45q-131 0 -201 39l-57 -429zM444 315 q84 -72 189 -71q53 0 96 49q41 47 64 123q22 74 30 141q8 59 8 123q0 186 -110 186q-37 0 -88 -24q-39 -18 -88 -51l-35 -25z" />
<glyph unicode="&#xff;" horiz-adv-x="1001" d="M6 -223l109 35q106 35 172 100q68 68 59 111l-242 1079h293l146 -705l266 705h295l-455 -1135q-68 -168 -172 -258q-111 -94 -278 -145l-131 -39zM174 1487q12 78 70 129q59 53 127 53q70 0 112 -53q43 -52 31 -129q-9 -77 -68 -129q-59 -53 -127 -53q-70 0 -112 53 q-45 55 -33 129zM784 1487q12 78 70 129q59 53 127 53t111 -53q45 -55 32 -129q-9 -77 -67 -129q-59 -53 -127 -53q-70 0 -113 53q-45 55 -33 129z" />
<glyph unicode="&#x152;" horiz-adv-x="2541" d="M129 588q0 236 61 428q61 195 164 317q104 127 244 195q143 70 299 69q115 0 213 -41q102 -43 170 -116q70 -76 111 -203q39 -119 39 -285q0 -180 -41 -348q-39 -162 -111 -278q-68 -111 -168 -199q-96 -84 -207 -123q-117 -41 -235 -41q-250 0 -394 156 q-145 158 -145 469zM459 614q0 -375 248 -374q181 0 288 196q109 199 109 510q3 375 -246 375q-55 0 -119 -27q-51 -23 -108 -82q-51 -53 -88 -137q-43 -96 -62 -201q-22 -125 -22 -260zM1522 0l213 1577h934l-35 -238h-611l-53 -397h547l-33 -231h-549l-65 -478h649 l-45 -233h-952z" />
<glyph unicode="&#x153;" horiz-adv-x="2142" d="M100 426q0 35 9 117q6 53 26 131q18 66 49 131q31 63 76 120.5t107 102.5q57 43 143 68q84 25 180 24q211 0 319.5 -114.5t108.5 -323.5q0 -39 -8 -121q-4 -49 -27 -129q-14 -51 -49 -133q-23 -55 -76 -121q-41 -53 -106 -100q-58 -43 -141 -68q-90 -27 -181 -26 q-209 0 -319.5 116.5t-110.5 325.5zM412 428q0 -211 151 -211q94 0 154 84q57 80 82 254q10 86 10 127q0 104 -37 153.5t-115 49.5q-96 0 -153 -80q-57 -78 -82 -250q-10 -76 -10 -127zM1253 428q0 92 27 203q25 98 74 188q45 82 119 156q66 66 159 106q90 39 197 39 q154 0 237 -80q82 -80 82 -190q0 -201 -155 -307q-158 -106 -432 -113q0 -96 49 -157.5t139 -61.5q139 0 258 88l55 -205q-199 -109 -397 -108q-188 0 -299 118q-113 123 -113 324zM1575 571q2 0 8 1t10 1l49 9q25 4 66 16t72 27q49 23 69 39q29 23 47 55q20 37 21 69 q0 47 -24.5 78t-80.5 31q-72 0 -124 -53q-55 -55 -82 -127q-29 -74 -31 -146z" />
<glyph unicode="&#x178;" horiz-adv-x="1187" d="M135 1577h342l182 -655l377 655h357l-627 -1059l-72 -518h-317l72 518zM334 1901q12 80 67 129q61 55 127 55q68 0 113 -55.5t33 -128.5q-9 -77 -68 -129q-59 -53 -128.5 -53.5t-112.5 53.5q-43 52 -31 129zM944 1901q12 80 68 129q61 55 127 55q68 0 112 -55 q43 -52 31 -129q-10 -80 -65 -129q-59 -53 -129 -53.5t-113 53.5q-43 52 -31 129z" />
<glyph unicode="&#x2c6;" horiz-adv-x="1880" d="M635 563l323 639h228l168 -639h-250l-66 314l-141 -314h-262z" />
<glyph unicode="&#x2dc;" horiz-adv-x="1105" d="M170 336q49 338 260 338q53 0 105 -23q53 -23 81 -49q33 -29 70 -49q41 -23 74 -23q35 0 47 21q14 25 22 84h203q-23 -152 -90 -238q-70 -88 -170 -88q-51 0 -106 25q-53 25 -91 51q-49 37 -75 53q-37 23 -64 23q-29 0 -47 -29q-16 -25 -27 -96h-192z" />
<glyph unicode="&#x2000;" horiz-adv-x="1212" />
<glyph unicode="&#x2001;" horiz-adv-x="2426" />
<glyph unicode="&#x2002;" horiz-adv-x="1212" />
<glyph unicode="&#x2003;" horiz-adv-x="2426" />
<glyph unicode="&#x2004;" horiz-adv-x="808" />
<glyph unicode="&#x2005;" horiz-adv-x="604" />
<glyph unicode="&#x2006;" horiz-adv-x="403" />
<glyph unicode="&#x2007;" horiz-adv-x="403" />
<glyph unicode="&#x2008;" horiz-adv-x="301" />
<glyph unicode="&#x2009;" horiz-adv-x="483" />
<glyph unicode="&#x200a;" horiz-adv-x="133" />
<glyph unicode="&#x2010;" d="M145 604l33 232h815l-32 -232h-816z" />
<glyph unicode="&#x2011;" d="M145 604l33 232h815l-32 -232h-816z" />
<glyph unicode="&#x2012;" d="M145 604l33 232h815l-32 -232h-816z" />
<glyph unicode="&#x2013;" horiz-adv-x="1024" d="M145 604v232h758v-232h-758z" />
<glyph unicode="&#x2014;" horiz-adv-x="2048" d="M145 604v232h1782v-232h-1782z" />
<glyph unicode="&#x2018;" horiz-adv-x="667" d="M123 846l59 424q8 57 31 110q22 52 49 86q37 45 57 64q37 33 62 45l53 27q6 2 18.5 7t18.5 7l14 4l80 -123q0 1 -37 -33q-23 -23 -79 -94q-43 -55 -50 -98h189l-60 -426h-405z" />
<glyph unicode="&#x2019;" horiz-adv-x="722" d="M8 1161l60 428h405l-59 -426q-8 -57 -31 -110q-22 -52 -49 -86q-37 -45 -58 -64q-31 -28 -61 -43l-53 -26q-6 -2 -18.5 -7.5t-18.5 -7.5l-14 -4l-80 123q0 -1 37 33q37 33 82 92q41 51 47 98h-189z" />
<glyph unicode="&#x201a;" horiz-adv-x="671" d="M88 0l62 426h405l-61 -426q-10 -63 -29 -111q-22 -52 -49 -86q-25 -31 -60 -61q-39 -35 -59 -45l-53 -27q-37 -14 -39 -14q-14 -4 -15 -4l-79 123q0 -3 39 32q29 27 79 93q41 51 47 100h-188z" />
<glyph unicode="&#x201c;" horiz-adv-x="1169" d="M102 846l62 424q10 63 29 110q22 52 49 86q37 45 57 64q37 33 61 45l54 27q37 14 39 14l14 4l80 -123q0 3 -39 -33q-23 -23 -80 -94q-41 -51 -47 -98h186l-59 -426h-406zM627 846l59 424q8 57 31 110q22 52 49 86q37 45 57 64q37 33 62 45l53 27q37 14 39 14l12 4 l80 -123q0 1 -37 -33q-23 -23 -80 -94q-43 -55 -49 -98h189l-60 -426h-405z" />
<glyph unicode="&#x201d;" horiz-adv-x="1001" d="M8 1161l60 428h405l-59 -426q-8 -57 -31 -110q-22 -52 -49 -86q-37 -45 -58 -64q-31 -28 -61 -43l-53 -26q-6 -2 -18.5 -7.5t-18.5 -7.5l-14 -4l-80 123q0 -1 37 33q37 33 82 92q41 51 47 98h-189zM532 1161l60 428h405l-59 -426q-8 -57 -31 -110q-22 -52 -49 -86 q-37 -45 -57 -64q-31 -28 -62 -43l-53 -26q-37 -14 -39 -15l-12 -4l-80 123q0 -1 37 33q29 27 80 92q43 55 49 98h-189z" />
<glyph unicode="&#x201e;" horiz-adv-x="1136" d="M76 0l59 426h408l-62 -426q-8 -57 -30 -111q-25 -57 -48 -86q-25 -31 -59 -61q-37 -33 -61 -45q-6 -4 -23.5 -13.5t-28.5 -13.5q-37 -14 -38 -14q-14 -4 -15 -4l-80 123q0 -3 39 32q29 27 80 93q41 51 47 100h-188zM600 0l59 426h408l-61 -426q-8 -57 -31 -111 q-22 -52 -49 -86q-31 -37 -58 -61q-37 -33 -61 -45l-53 -27q-6 -2 -18.5 -7t-18.5 -7q-14 -4 -15 -4l-79 123q0 -3 39 32q29 27 79 93q41 51 47 100h-188z" />
<glyph unicode="&#x2022;" horiz-adv-x="1120" d="M293 627q0 111 57 204q61 100 156 156q96 57 207 57q135 0 225 -90t90 -221q0 -111 -57.5 -205t-155.5 -153q-94 -57 -205 -58q-139 0 -227 89q-90 90 -90 221z" />
<glyph unicode="&#x2026;" horiz-adv-x="1337" d="M82 170q12 80 68 129q59 53 126 53q70 0 113 -53q43 -52 31 -129q-9 -77 -68 -129q-59 -53 -127 -53q-70 0 -112 53q-43 52 -31 129zM508 170q12 80 67 129q59 53 127 53q70 0 113 -53q43 -52 31 -129q-9 -77 -68 -129q-59 -53 -127 -53q-70 0 -112 53q-43 52 -31 129z M934 170q12 80 67 129q59 53 127 53q70 0 113 -53q43 -52 31 -129q-9 -77 -68 -129q-59 -53 -127 -53q-70 0 -112 53q-43 52 -31 129z" />
<glyph unicode="&#x202f;" horiz-adv-x="483" />
<glyph unicode="&#x2039;" horiz-adv-x="1060" d="M147 453l33 243l821 504l-47 -338l-526 -282l444 -295l-47 -336z" />
<glyph unicode="&#x203a;" horiz-adv-x="1050" d="M168 -29l47 336l481 293l-399 285l35 315l680 -504l-25 -221z" />
<glyph unicode="&#x205f;" horiz-adv-x="604" />
<glyph unicode="&#x20ac;" horiz-adv-x="1329" d="M115 555l28 188h136q0 10 3 26.5t6 41.5l5 43h-176l28 190h191q41 127 100 224q66 102 150 176q88 76 207 115q123 41 266 40q71 0 135 -12q78 -14 111 -26q57 -20 79 -31q31 -14 50 -29l16 -10l-109 -264q-2 0 -8 4t-10 6l-45 23q-29 12 -70 26q-45 14 -88 23 q-57 10 -100 10q-113 0 -203 -72q-84 -68 -141 -203h389l-29 -190h-415q-12 -63 -17 -111h369l-29 -188h-346q16 -315 268 -315q47 0 101 12q59 14 92 27q27 10 71 30q18 8 50 29l16 10l57 -254q-61 -51 -176 -92q-111 -39 -266 -39q-123 0 -215 33q-94 33 -170 102.5 t-115 184.5q-41 119 -41 272h-155z" />
<glyph unicode="&#x2122;" horiz-adv-x="2969" d="M127 1337l35 240h1095l-34 -240h-387l-187 -1337h-317l186 1337h-391zM1210 0l162 1151l72 426h387l65 -428l80 -602l23 -232l78 226l266 647l170 389h389l-57 -526l-152 -1051h-293l158 1108l-344 -875l-109 -233h-297l-47 295l-100 809l-160 -1104h-291z" />
<glyph unicode="&#xe000;" horiz-adv-x="1105" d="M0 1105h1105v-1105h-1105v1105z" />
<glyph unicode="&#xfb01;" horiz-adv-x="1404" d="M893 0l151 1104h311l-151 -1104h-311zM1095 1464q12 80 68 129q59 53 127 54q70 0 113 -54q33 -41 33 -96q0 -16 -3 -33q-10 -80 -65 -129q-59 -53 -129 -53t-113 53q-33 41 -33 96q-1 16 2 33zM135 -225l164 1169h-129l23 158h129q16 111 47 190q34 89 86 160t129 111 q78 41 170 41q98 0 190 -29l-35 -254q-55 25 -125 25q-55 0 -96 -66q-37 -59 -53 -178h237l-22 -158h-240l-164 -1169h-311z" />
<glyph unicode="&#xfb02;" horiz-adv-x="1429" d="M915 0l225 1589l320 47l-232 -1636h-313zM135 -225l164 1169h-129l23 158h129q16 111 47 190q34 89 86 160t129 111q78 41 170 41q98 0 190 -29l-35 -254q-55 25 -125 25q-55 0 -96 -66q-37 -59 -53 -178h237l-22 -158h-240l-164 -1169h-311z" />
<glyph unicode="&#xfb03;" horiz-adv-x="2185" d="M1676 0l151 1104h311l-151 -1104h-311zM1878 1464q12 80 68 129q59 53 127 54q70 0 113 -54q33 -41 33 -96q0 -16 -3 -33q-10 -80 -65 -129q-59 -53 -129 -53t-113 53q-33 41 -33 96q-1 16 2 33zM917 -225l164 1169h-129l23 158h129q16 111 47 190q34 89 86 160t129 111 q78 41 170 41q98 0 190 -29l-35 -254q-55 25 -125 25q-55 0 -96 -66q-37 -59 -53 -178h237l-22 -158h-240l-164 -1169h-311zM135 -225l164 1169h-129l23 158h129q16 111 47 190q34 89 86 160t129 111q78 41 170 41q98 0 190 -29l-35 -254q-55 25 -125 25q-55 0 -96 -66 q-37 -59 -53 -178h237l-22 -158h-240l-164 -1169h-311z" />
<glyph unicode="&#xfb04;" horiz-adv-x="2211" d="M1698 0l225 1589l320 47l-232 -1636h-313zM917 -225l164 1169h-129l23 158h129q16 111 47 190q34 89 86 160t129 111q78 41 170 41q98 0 190 -29l-35 -254q-55 25 -125 25q-55 0 -96 -66q-37 -59 -53 -178h237l-22 -158h-240l-164 -1169h-311zM135 -225l164 1169h-129 l23 158h129q16 111 47 190q34 89 86 160t129 111q78 41 170 41q98 0 190 -29l-35 -254q-55 25 -125 25q-55 0 -96 -66q-37 -59 -53 -178h237l-22 -158h-240l-164 -1169h-311z" />
</font>
</defs>
</svg>
