<?xml version="1.0" standalone="no"?>
<!DOCTYPE svg PUBLIC "-//W3C//DTD SVG 1.1//EN" "http://www.w3.org/Graphics/SVG/1.1/DTD/svg11.dtd" >
<svg xmlns="http://www.w3.org/2000/svg">
<metadata>
This is a custom SVG webfont generated by Font Squirrel.
Copyright   : Copyright  2009 ParaType Ltd All rights reserved
Designer    : AKorolkova OUmpeleva VYefimov
Foundry     : ParaType Ltd
Foundry URL : httpwwwparatypecom
</metadata>
<defs>
<font id="webfontO0AL69VA" horiz-adv-x="1161" >
<font-face units-per-em="2048" ascent="1536" descent="-512" />
<missing-glyph horiz-adv-x="518" />
<glyph unicode=" "  horiz-adv-x="518" />
<glyph unicode="&#x09;" horiz-adv-x="518" />
<glyph unicode="&#xa0;" horiz-adv-x="518" />
<glyph unicode="!" horiz-adv-x="602" d="M176 135q0 72 45 114t119 42q78 0 123 -42t45 -114t-45 -115t-123 -43q-74 0 -119 43t-45 115zM205 760v674h274v-674l-53 -334h-168z" />
<glyph unicode="&#x22;" horiz-adv-x="823" d="M184 991v443h234l-74 -443h-160zM487 991v443h234l-74 -443h-160z" />
<glyph unicode="#" d="M39 420l45 198h154l51 218h-148l45 198h150l72 295h217l-70 -295h182l72 295h217l-70 -295h148l-51 -198h-144l-51 -218h141l-49 -198h-139l-74 -316h-219l74 316h-182l-74 -316h-219l73 316h-151zM457 618h182l51 218h-182z" />
<glyph unicode="$" d="M141 1053q0 176 93.5 273t252.5 126v186h213v-178q90 -6 158 -24.5t125 -42.5l-74 -228q-35 16 -88 32.5t-121 25.5v-383q63 -29 128 -65t115 -85t82 -115.5t32 -158.5q0 -188 -95.5 -294t-261.5 -136v-191h-213v178q-117 4 -204.5 24.5t-137.5 47.5l80 231 q37 -23 103.5 -43t158.5 -28v420q-63 29 -125.5 63.5t-111.5 83.5t-79 118t-30 163zM408 1075q0 -61 48 -102t119 -76v332q-96 -4 -131.5 -47.5t-35.5 -106.5zM612 205q90 10 134.5 57t44.5 123q0 66 -52.5 108t-126.5 76v-364z" />
<glyph unicode="%" horiz-adv-x="1720" d="M105 1110q0 92 26.5 157.5t73.5 108.5t113.5 62.5t144.5 19.5t143.5 -18.5t113.5 -59.5t74.5 -107.5t28.5 -162.5q-2 -96 -28.5 -162.5t-74.5 -107.5t-113.5 -59.5t-143.5 -18.5t-144.5 18.5t-113.5 59.5t-73.5 107.5t-26.5 162.5zM342 1110q0 -176 121 -176q63 0 91 38 t30 138q-2 98 -29.5 137t-91.5 39q-63 0 -92 -39t-29 -137zM936 350q0 92 26.5 157.5t73.5 108.5t113.5 62.5t144.5 19.5t143.5 -18.5t113.5 -59.5t74.5 -107.5t28.5 -162.5q-2 -96 -28.5 -162.5t-74.5 -107.5t-113.5 -59.5t-143.5 -18.5t-144.5 18.5t-113.5 59.5 t-73.5 107.5t-26.5 162.5zM1173 350q0 -176 121 -176q63 0 91 38t30 138q-2 98 -29.5 137t-91.5 39q-63 0 -92 -39t-29 -137zM1386 1462l150 -135l-1180 -1356l-149 142z" />
<glyph unicode="&#x26;" horiz-adv-x="1667" d="M188 397q0 78 26 148.5t72 132t109.5 115t136.5 94.5q-51 68 -83.5 137.5t-32.5 146.5q0 51 19.5 103.5t61.5 94.5t109.5 67.5t163.5 25.5q94 0 160.5 -22.5t107.5 -59.5t59.5 -84t18.5 -96q0 -84 -59.5 -175t-202.5 -175q72 -111 143.5 -203t159.5 -182q47 51 85 128 t67 157l192 -103q-12 -37 -33.5 -81t-47 -89t-52.5 -85t-49 -68q66 -59 115 -93t100 -63l-141 -197q-57 27 -118 71t-120 101q-74 -68 -184.5 -120t-272.5 -52q-106 0 -199 29t-162 84t-109 134t-40 179zM455 420q0 -104 76.5 -163.5t201.5 -59.5q82 0 153.5 33.5 t108.5 74.5q-104 109 -190 216.5t-150 203.5q-98 -76 -149 -146.5t-51 -158.5zM682 1159q0 -86 74 -184q80 51 115.5 96t35.5 86q0 49 -27.5 78t-88.5 29q-55 0 -82 -29t-27 -76z" />
<glyph unicode="'" horiz-adv-x="520" d="M184 991v443h234l-74 -443h-160z" />
<glyph unicode="(" horiz-adv-x="669" d="M123 498q0 113 18.5 237.5t59.5 250.5t107.5 247t162.5 225l172 -110q-72 -96 -120 -201t-77.5 -214.5t-43 -220t-13.5 -214.5q0 -98 14.5 -209t45 -220.5t80 -214t118.5 -190.5l-182 -115q-94 98 -159.5 216t-105.5 242t-58.5 250t-18.5 241z" />
<glyph unicode=")" horiz-adv-x="667" d="M23 1341l180 117q94 -98 159.5 -216t105.5 -241.5t58.5 -249.5t18.5 -241q0 -113 -18.5 -238t-59.5 -250.5t-107.5 -246.5t-162.5 -226l-172 113q76 102 125 207.5t77.5 213t40 215.5t11.5 212q0 98 -15.5 207.5t-46.5 219.5t-78.5 213t-115.5 191z" />
<glyph unicode="*" horiz-adv-x="774" d="M82 1112v152h123l121 -35l-105 90l-57 102l131 76l57 -94l31 -121l31 113l57 100l131 -72l-61 -106l-99 -88l133 33h117v-150h-112l-125 33l102 -96l51 -86l-131 -76l-55 94l-41 131l-27 -119l-59 -100l-131 76l59 100l92 76l-112 -33h-121z" />
<glyph unicode="+" horiz-adv-x="1079" d="M88 578v229h332v346h239v-346h334v-229h-334v-351h-239v351h-332z" />
<glyph unicode="," horiz-adv-x="466" d="M76 -193q55 23 96 74t45 109q-47 -6 -89 28.5t-42 112.5q0 70 46 111t114 41q86 0 135 -57.5t49 -151.5q0 -92 -28.5 -159t-70.5 -111t-90 -69.5t-87 -37.5z" />
<glyph unicode="-" horiz-adv-x="737" d="M111 471v236h514v-236h-514z" />
<glyph unicode="." horiz-adv-x="503" d="M86 135q0 72 45 114t119 42q78 0 123 -42t45 -114t-45 -115t-123 -43q-74 0 -119 43t-45 115z" />
<glyph unicode="/" horiz-adv-x="835" d="M-49 -193l731 1651l201 -90l-731 -1655z" />
<glyph unicode="0" d="M82 719q0 377 129 560t371 183q258 0 378.5 -181t120.5 -562q0 -379 -130 -563.5t-371 -184.5q-256 0 -377 194t-121 554zM348 719q0 -250 54.5 -386t179.5 -136q121 0 177 124.5t56 397.5q0 248 -53 383t-182 135q-123 0 -177.5 -127t-54.5 -391z" />
<glyph unicode="1" d="M129 1081l467 377h149v-1233h279v-225h-817v225h285v809l30 140l-98 -121l-182 -125z" />
<glyph unicode="2" d="M141 0v137l111 120l124 145q62 77 121.5 159t106.5 165t75 161t28 147q0 84 -48.5 138.5t-152.5 54.5q-66 0 -134.5 -28t-115.5 -71l-106 189q80 66 181 105.5t238 39.5q88 0 162 -24.5t127 -71.5t84 -117.5t31 -165.5q0 -104 -38 -210.5t-96.5 -209t-129 -197.5 t-138.5 -175l-108 -84v-10l147 28h394v-225h-863z" />
<glyph unicode="3" d="M160 35l71 221q53 -27 118 -43t145 -16q127 0 193.5 67.5t66.5 163.5q0 117 -70 172t-219 55h-148v142l248 338l117 92l-162 -19h-344v226h782v-146l-288 -387l-90 -55v-10l86 12q72 -6 136 -33t112.5 -77t77 -123.5t28.5 -170.5q0 -121 -40 -209t-110.5 -147t-165 -88 t-202.5 -29q-90 0 -186.5 16.5t-155.5 47.5z" />
<glyph unicode="4" d="M39 399v152l649 893h219v-832h226v-213h-226v-399h-248v399h-620zM285 596l131 16h243v314l19 172h-8l-70 -148l-213 -276z" />
<glyph unicode="5" d="M139 29l72 221q47 -20 103.5 -31.5t136.5 -11.5q135 0 206.5 65.5t71.5 180.5q0 123 -84 180t-239 57l-162 -6v750h704v-250h-475v-277l84 8q100 -4 181 -36.5t138.5 -91t88 -141.5t30.5 -185q0 -121 -41 -213t-113.5 -153.5t-171 -92.5t-214.5 -31q-92 0 -175.5 15.5 t-140.5 42.5z" />
<glyph unicode="6" d="M106 514q0 203 58.5 366.5t158 285.5t231.5 197t280 99l59 -211q-102 -16 -188.5 -63t-153 -112.5t-112.5 -146.5t-64 -167q41 51 106.5 87t163.5 36q92 0 170 -29t133.5 -85t86 -138t30.5 -189q0 -100 -34 -186t-95.5 -149.5t-148.5 -100.5t-191 -37q-106 0 -195.5 34 t-155 101.5t-102.5 170t-37 237.5zM360 465q0 -49 14.5 -97.5t42 -86t70.5 -61t103 -23.5q96 0 156.5 65.5t60.5 167.5q0 229 -225 229q-82 0 -138.5 -36.5t-78.5 -85.5q-4 -23 -5 -39v-33z" />
<glyph unicode="7" d="M123 1184v250h924v-78l-574 -1356h-260l469 1104l90 100l-123 -20h-526z" />
<glyph unicode="8" d="M125 350q0 72 18.5 128.5t52 102.5t80 82.5t99.5 67.5q-100 63 -157.5 146.5t-57.5 205.5q0 80 29.5 150t86 121t136.5 79.5t180 28.5q92 0 168 -24.5t130 -69.5t84 -109.5t30 -142.5q0 -121 -54.5 -205t-158.5 -153q123 -72 185 -158t62 -221q0 -92 -33.5 -167t-95 -128 t-147.5 -83t-189 -30q-102 0 -185 28t-141.5 77t-90 118.5t-31.5 155.5zM367 395q0 -82 56 -140t157 -58q92 0 148 45t56 135q0 47 -22.5 86t-58 70.5t-79.5 58l-89 51.5q-96 -55 -132 -120t-36 -128zM414 1079q0 -49 18.5 -86t50 -64.5t71.5 -51t83 -43.5q123 104 123 229 q0 86 -50.5 130t-121.5 44q-90 0 -132 -47.5t-42 -110.5z" />
<glyph unicode="9" d="M92 985q0 104 32 192.5t92 151t147.5 98t199.5 35.5q231 0 363.5 -138t132.5 -402q0 -238 -60.5 -411t-162 -289t-234.5 -177t-280 -74l-58 209q113 14 201 55t151.5 101.5t103.5 137.5t56 165q-49 -53 -105.5 -73.5t-150.5 -20.5q-78 0 -154.5 26.5t-137 81t-98.5 137 t-38 195.5zM350 999q0 -117 65.5 -176t164.5 -59q84 0 137 26.5t82 65.5q6 43 6 82q0 57 -14.5 112.5t-44 98.5t-75.5 68.5t-110 25.5q-100 0 -155.5 -64.5t-55.5 -179.5z" />
<glyph unicode=":" horiz-adv-x="550" d="M190 876q0 72 45 114t119 42q78 0 123 -42t45 -114t-45 -115t-123 -43q-74 0 -119 43t-45 115zM190 135q0 72 45 114t119 42q78 0 123 -42t45 -114t-45 -115t-123 -43q-74 0 -119 43t-45 115z" />
<glyph unicode=";" horiz-adv-x="593" d="M158 -193q55 23 96 74t45 109q-47 -6 -89 28.5t-42 112.5q0 70 46 111t114 41q86 0 135 -57.5t49 -151.5q0 -92 -28.5 -159t-70.5 -111t-90 -69.5t-87 -37.5zM168 876q0 72 45 114t119 42q78 0 123 -42t45 -114t-45 -115t-123 -43q-74 0 -119 43t-45 115z" />
<glyph unicode="&#x3c;" horiz-adv-x="1079" d="M82 584v143l790 473l117 -184l-459 -285l-186 -72l184 -63l471 -281l-116 -184z" />
<glyph unicode="=" horiz-adv-x="1079" d="M88 1004h905v-229h-905v229zM88 612h905v-229h-905v229z" />
<glyph unicode="&#x3e;" horiz-adv-x="1079" d="M80 1018l117 182l800 -452v-144l-790 -473l-117 186l459 283l186 74l-184 61z" />
<glyph unicode="?" horiz-adv-x="929" d="M47 1339q78 53 179.5 88t244.5 35q193 0 301.5 -93t108.5 -251q0 -104 -28 -172.5t-69 -117t-90 -85t-90 -78.5t-69.5 -97.5t-28.5 -141.5h-227q-10 106 10 181t56 129.5t82 93.5l86 77q40 37 66.5 77t26.5 95q0 72 -40 115t-142 43q-33 0 -70 -7t-73.5 -20.5t-70.5 -31 t-60 -35.5zM238 135q0 72 45 114t118 42q78 0 123 -42t45 -114t-45 -115t-123 -43q-74 0 -118.5 43t-44.5 115z" />
<glyph unicode="@" horiz-adv-x="2168" d="M150 483q0 223 79.5 403.5t215 307.5t313.5 195.5t377 68.5q188 0 350 -54t280.5 -155.5t186 -248t67.5 -332.5q0 -131 -46 -246t-127 -199t-188.5 -133t-230.5 -49q-51 0 -95 11t-73.5 38t-44 70t-8.5 106h-8q-31 -43 -66.5 -84t-78.5 -72.5t-94.5 -50t-112.5 -18.5 q-49 0 -94 21.5t-78 60.5t-52.5 94t-19.5 123q0 127 41 247t111.5 212t164 148.5t197.5 56.5q72 0 121 -21.5t90 -56.5l64 65h143l-98 -555q-16 -96 -1 -139t68 -43t104.5 24.5t92.5 76t66.5 129t25.5 184.5q0 154 -51 262t-140.5 179t-210 103.5t-260.5 32.5 q-160 0 -297 -57.5t-238 -157.5t-158.5 -238.5t-57.5 -299.5q0 -160 48 -287t140 -216t228.5 -137.5t312.5 -48.5q59 0 135 14.5t137 43.5l64 -197q-84 -41 -171 -57.5t-200 -16.5q-199 0 -367.5 57.5t-292.5 170t-193.5 279.5t-69.5 386zM852 408q0 -68 27.5 -111t95.5 -43 q29 0 61.5 17.5t63 46t59.5 65.5t51 78l52 282q-27 23 -55.5 35.5t-71.5 12.5q-61 0 -113.5 -35t-90.5 -90.5t-58.5 -123.5t-20.5 -134z" />
<glyph unicode="A" horiz-adv-x="1239" d="M0 0l516 1444h207l516 -1444h-295l-115 317h-440l-108 -317h-281zM461 543h307l-106 319l-44 225h-10l-43 -227z" />
<glyph unicode="B" horiz-adv-x="1210" d="M123 10v1413q39 6 89 12.5t107.5 10.5t118 6t119.5 2q100 0 195.5 -15.5t170 -54t119.5 -108.5t45 -176q0 -53 -13 -106.5t-44 -97.5t-80 -78t-119 -50v-12q61 -10 117 -35t96.5 -68t64.5 -104.5t24 -145.5q0 -111 -47.5 -191.5t-126 -131.5t-179 -75.5t-207.5 -24.5h-89 q-54 0 -116.5 3t-127 9t-117.5 18zM393 223q10 -4 33 -6t48 -3l53 -2q28 -1 48 -1q51 0 99.5 12.5t85.5 38t59.5 64.5t22.5 92q0 68 -27 106.5t-70 60t-96 27.5t-106 6h-150v-395zM393 831h90q29 0 67 2.5t62 6.5q78 25 134.5 74t56.5 128q0 53 -20.5 88t-54.5 55.5t-77 29 t-90 8.5q-53 0 -98 -2t-70 -7v-383z" />
<glyph unicode="C" horiz-adv-x="1144" d="M78 717q0 211 58.5 353t151.5 229t207.5 125t229.5 38q123 0 208 -16t140 -39l-55 -238q-47 23 -111.5 33t-156.5 10q-170 0 -273.5 -120.5t-103.5 -374.5q0 -111 24.5 -202t74.5 -155.5t125 -100.5t173 -36q92 0 155.5 18.5t110.5 47.5l58 -230q-66 -47 -167.5 -67.5 t-207.5 -20.5q-129 0 -245 40t-204 129t-140 231.5t-52 345.5z" />
<glyph unicode="D" horiz-adv-x="1325" d="M123 -2v1436q43 6 97 10t111.5 6t112 3t97.5 1q190 0 325 -53t219 -149.5t123 -229.5t39 -293q0 -145 -36.5 -280.5t-123 -240t-226.5 -168t-347 -63.5q-33 0 -87 2.5l-113 5.5l-111 6q-53 3 -80 7zM403 236q8 -2 28 -3.5t42 -2.5l43 -2q20 -1 31 -1q119 0 197.5 42 t124.5 112t64.5 161t18.5 187q0 84 -16 169t-60.5 152.5t-120 110.5t-192.5 43q-45 0 -91 -2t-69 -6v-960z" />
<glyph unicode="E" horiz-adv-x="1069" d="M123 0v1434h850v-250h-570v-334h519v-250h-519v-350h580v-250h-860z" />
<glyph unicode="F" horiz-adv-x="1040" d="M123 0v1434h850v-250h-570v-355h525v-249h-525v-580h-280z" />
<glyph unicode="G" horiz-adv-x="1247" d="M78 717q0 203 58.5 345t153.5 231t214 129t241 40q123 0 216.5 -18.5t148.5 -38.5l-57 -236q-51 20 -115 31.5t-162 11.5q-88 0 -161.5 -26.5t-128 -87t-84 -154.5t-29.5 -229q0 -129 28.5 -222.5t79.5 -153.5t120 -89t147 -29q53 0 104 13.5t86 39.5v271l-309 33v170 h534v-639q-86 -72 -205.5 -105t-236.5 -33q-137 0 -255 43t-204 134.5t-135 232.5t-49 336z" />
<glyph unicode="H" horiz-adv-x="1333" d="M123 0v1434h280v-584h525v584h280v-1434h-280v600h-525v-600h-280z" />
<glyph unicode="I" horiz-adv-x="583" d="M152 0v1434h280v-1434h-280z" />
<glyph unicode="J" horiz-adv-x="684" d="M-47 23l61 229q53 -27 121 -27q86 0 109.5 63.5t23.5 168.5v977h281v-1049q0 -82 -18.5 -155.5t-60.5 -130t-107.5 -90.5t-159.5 -34q-59 0 -129 12.5t-121 35.5z" />
<glyph unicode="K" horiz-adv-x="1269" d="M123 0v1434h280v-635l66 28l395 607h320l-418 -603l-111 -77l115 -80l477 -674h-346l-424 612h-74v-612h-280z" />
<glyph unicode="L" horiz-adv-x="1052" d="M123 0v1434h280v-1184h627v-250h-907z" />
<glyph unicode="M" horiz-adv-x="1638" d="M123 0v1434h256l383 -656l67 -164h9l61 168l363 652h254v-1434h-281v743l31 285h-13l-88 -229l-305 -535h-90l-321 537l-91 227h-10l41 -283v-745h-266z" />
<glyph unicode="N" horiz-adv-x="1345" d="M123 0v1444h205l542 -764l109 -219h10l-33 219v754h267v-1444h-205l-539 758l-112 225h-11l33 -225v-748h-266z" />
<glyph unicode="O" horiz-adv-x="1372" d="M78 717q0 358 157.5 551.5t450.5 193.5q154 0 268.5 -53t190.5 -151.5t112.5 -235.5t36.5 -305q0 -358 -158.5 -552t-449.5 -194q-156 0 -270.5 53.5t-189 151.5t-111.5 235.5t-37 305.5zM373 717q0 -109 18.5 -200t56 -156.5t97 -102.5t141.5 -37q150 0 231.5 117 t81.5 379q0 104 -17 194t-54 158t-96.5 105.5t-145.5 37.5q-150 0 -231.5 -119.5t-81.5 -375.5z" />
<glyph unicode="P" horiz-adv-x="1171" d="M123 0v1419q86 16 189.5 25.5t205.5 9.5q106 0 214 -17.5t194 -69.5t140 -145.5t54 -242.5q0 -135 -47 -228.5t-125 -152.5t-177 -86t-206 -27h-33q-23 0 -47 1t-47.5 3.5t-34.5 4.5v-494h-280zM403 737q8 -2 24.5 -4t35 -3t36.5 -1h25q55 0 109.5 10.5t97.5 38 t68.5 76.5t25.5 129q0 68 -24.5 112t-64.5 70.5t-91 36.5t-104 10q-41 0 -78 -3t-60 -7v-465z" />
<glyph unicode="Q" horiz-adv-x="1372" d="M78 717q0 358 157.5 551.5t450.5 193.5q154 0 268.5 -53t190.5 -151.5t112.5 -235.5t36.5 -305q0 -358 -158.5 -552t-449.5 -194q-156 0 -270.5 53.5t-189 151.5t-111.5 235.5t-37 305.5zM373 717q0 -109 18.5 -200t56 -156.5t97 -102.5t141.5 -37q150 0 231.5 117 t81.5 379q0 104 -17 194t-54 158t-96.5 105.5t-145.5 37.5q-150 0 -231.5 -119.5t-81.5 -375.5zM412 -76q57 12 118 13q86 0 171 -20.5t173.5 -44.5t180.5 -44.5t194 -20.5q45 0 92.5 5.5t96.5 17.5v-244q-98 -27 -199 -26q-104 0 -202.5 21.5t-190.5 45.5l-178 46 q-86 22 -162 22q-49 0 -94 -12v241z" />
<glyph unicode="R" horiz-adv-x="1232" d="M123 0v1419q47 8 101.5 15.5t108.5 11.5t105 6t94 2q100 0 197.5 -18.5t174.5 -63.5t123 -124t46 -197q0 -176 -82 -287t-219 -154l100 -63l328 -547h-323l-326 561l-148 27v-588h-280zM403 778h119q117 0 186.5 53.5t69.5 176.5q0 92 -57 144t-168 52q-43 0 -85 -2 t-65 -8v-416z" />
<glyph unicode="S" horiz-adv-x="1085" d="M55 57l90 240q23 -12 59 -26.5t81 -27t95 -20.5t103 -8q125 0 191.5 42t66.5 128q0 66 -48 106.5t-120.5 74.5t-157.5 70t-158 88t-121 130t-48 199q0 104 35 181t99.5 128t152.5 75.5t196 24.5q125 0 236 -21.5t182 -62.5l-88 -235q-45 29 -135 52.5t-195 23.5 q-98 0 -150 -39t-52 -105q0 -61 48 -102t120.5 -76t157.5 -72t158 -89t121 -129t48 -191q0 -115 -38 -198t-106.5 -138t-166 -82t-213.5 -27q-154 0 -271 28.5t-172 57.5z" />
<glyph unicode="T" horiz-adv-x="1163" d="M23 1184v250h1118v-250h-418v-1184h-281v1184h-419z" />
<glyph unicode="U" horiz-adv-x="1284" d="M117 473v961h280v-906q0 -84 15.5 -142t48.5 -94t82 -51.5t114 -15.5q129 0 186.5 72t57.5 231v906h266v-926q0 -139 -36.5 -239.5t-102 -166t-160 -96.5t-206.5 -31q-545 0 -545 498z" />
<glyph unicode="V" horiz-adv-x="1232" d="M-18 1434h325l287 -842l37 -244h10l41 246l274 840h295l-532 -1444h-201z" />
<glyph unicode="W" horiz-adv-x="1765" d="M0 1434h305l191 -801l26 -254h8l29 258l250 797h184l246 -801l29 -254h8l31 258l174 797h284l-395 -1444h-188l-256 796l-35 220h-10l-35 -222l-254 -794h-199z" />
<glyph unicode="X" horiz-adv-x="1296" d="M20 0l441 729l-400 705h338l222 -414l49 -146l47 146l231 414h305l-413 -691l434 -743h-334l-252 442l-55 152l-53 -152l-254 -442h-306z" />
<glyph unicode="Y" horiz-adv-x="1212" d="M-4 1434h334l262 -539l29 -152h10l31 156l253 535h302l-469 -899v-535h-281v532z" />
<glyph unicode="Z" horiz-adv-x="1103" d="M55 0v250l607 848l106 86h-713v250h994v-250l-611 -856l-104 -78h715v-250h-994z" />
<glyph unicode="[" horiz-adv-x="663" d="M123 -471v1905h481v-226h-227v-1454h227v-225h-481z" />
<glyph unicode="\" horiz-adv-x="868" d="M-49 1368l209 88l737 -1651l-203 -92z" />
<glyph unicode="]" horiz-adv-x="663" d="M59 -246h228v1454h-228v226h482v-1905h-482v225z" />
<glyph unicode="^" horiz-adv-x="1024" d="M41 846l401 598h142l379 -598h-269l-145 250l-43 143l-51 -145l-160 -248h-254z" />
<glyph unicode="_" horiz-adv-x="909" d="M0 -240h909v-219h-909v219z" />
<glyph unicode="`" horiz-adv-x="647" d="M123 1413v62h278l123 -316h-147z" />
<glyph unicode="a" horiz-adv-x="1015" d="M47 283q0 94 42 158.5t121 104.5t188 55q78 11 170 11q37 0 75 -2q5 36 5 67q0 64 -21 98q-31 50 -138 50q-80 0 -169 -16t-146 -43l-63 199q82 37 194.5 58t235.5 21q106 0 178 -25.5t113.5 -72.5t59 -112.5t17.5 -147.5q0 -90 -6 -181t-7 -179v-25q0 -75 5 -146 q6 -83 31 -157h-217l-43 141h-10q-41 -63 -114 -109t-188 -46q-72 0 -129 21.5t-98 61t-63.5 94t-22.5 122.5zM322 324q0 -57 33.5 -89t93.5 -32q80 0 127 35.5t69 76.5v134q-38 4 -74 3q-24 0 -48 -1q-58 -4 -103 -18.5t-71.5 -41t-26.5 -67.5z" />
<glyph unicode="b" horiz-adv-x="1097" d="M117 45v1389h266v-492h8q43 49 110.5 78t149.5 29q184 0 281.5 -126t97.5 -384q0 -276 -136 -420t-374 -144q-131 0 -239.5 21.5t-163.5 48.5zM383 229q33 -16 71 -22t81 -6q109 0 165 78.5t56 250.5q0 293 -183 293q-74 0 -119.5 -37.5t-70.5 -109.5v-447z" />
<glyph unicode="c" horiz-adv-x="886" d="M68 512q0 260 116.5 400.5t339.5 140.5q113 0 181.5 -18.5t123.5 -47.5l-63 -217q-47 23 -93 35t-106 12q-111 0 -168 -72.5t-57 -232.5q0 -66 14.5 -121t43 -96t74.5 -64.5t108 -23.5q68 0 114.5 17.5t83.5 41.5l62 -203q-61 -45 -148.5 -68.5t-179.5 -23.5 q-123 0 -208 39t-138 109.5t-76.5 171t-23.5 221.5z" />
<glyph unicode="d" horiz-adv-x="1103" d="M68 496q0 262 118.5 407.5t348.5 145.5q63 0 104 -7.5t82 -23.5v416h266v-1074q0 -86 2 -172t19 -190h-191l-37 133h-8q-41 -72 -117.5 -116t-181.5 -44q-193 0 -299 127.5t-106 397.5zM342 487q0 -131 46 -210.5t147 -79.5q78 0 122.5 37.5t63.5 109.5v434 q-29 23 -63.5 34t-90.5 11q-113 0 -169 -76t-56 -260z" />
<glyph unicode="e" horiz-adv-x="1040" d="M68 512q0 270 129 405.5t362 135.5q78 0 151.5 -20.5t131 -67.5t92.5 -127t35 -199q0 -43 -5.5 -92t-15.5 -103h-614q6 -129 66.5 -194.5t195.5 -65.5q84 0 150.5 26t101.5 52l88 -174q-61 -49 -166.5 -83t-224.5 -34q-248 0 -362.5 144.5t-114.5 396.5zM340 610h381 q1 18 1 35q0 86 -35 135q-42 59 -132 60q-104 0 -154.5 -63t-60.5 -167z" />
<glyph unicode="f" horiz-adv-x="657" d="M23 799v225h141v57q0 195 82 282t237 87q164 0 273 -39l-51 -213q-47 16 -83 21.5t-75 5.5q-41 0 -64.5 -12.5t-35 -38t-14.5 -63.5t-3 -87h225v-225h-225v-799h-266v799h-141z" />
<glyph unicode="g" horiz-adv-x="1097" d="M68 492q0 274 131 415.5t381 141.5q131 0 234.5 -18.5t168.5 -43.5v-987q0 -223 -121 -328.5t-338 -105.5q-147 0 -232 20.5t-128 42.5l55 211q47 -18 109.5 -36.5t154.5 -18.5q139 0 189.5 60.5t50.5 168.5v66h-8q-72 -96 -254 -96q-199 0 -296 123t-97 385zM342 502 q0 -150 49 -227.5t141 -77.5q78 0 120 34.5t65 104.5v461q-63 27 -158 26q-102 0 -159.5 -76.5t-57.5 -244.5z" />
<glyph unicode="h" horiz-adv-x="1116" d="M117 0v1434h266v-525h8q49 66 121 105t182 39q78 0 137.5 -20.5t99.5 -67.5t59.5 -128t19.5 -200v-637h-267v582q0 125 -34.5 180t-126.5 55q-68 0 -124.5 -46t-74.5 -118v-653h-266z" />
<glyph unicode="i" horiz-adv-x="550" d="M139 1024h267v-1024h-267v1024zM100 1313q0 59 44 101t122 42t126 -42t48 -101t-48 -99t-126 -40t-122 40t-44 99z" />
<glyph unicode="j" horiz-adv-x="548" d="M141 1024h267v-1067q0 -186 -74 -284.5t-236 -98.5q-61 0 -131 14v224q8 0 14.5 -1t12.5 -1q92 0 119.5 59t27.5 164v991zM105 1313q0 59 44 101t122 42t126 -42t48 -101t-48 -99t-126 -40t-122 40t-44 99z" />
<glyph unicode="k" horiz-adv-x="1005" d="M117 0v1434h266v-846l61 28l234 408h293l-246 -389l-104 -78l112 -80l277 -477h-305l-250 424h-72v-424h-266z" />
<glyph unicode="l" horiz-adv-x="602" d="M125 205v1229h266v-1090q0 -72 18.5 -104.5t59.5 -32.5q25 0 48.5 4t57.5 18l29 -209q-33 -16 -100.5 -32.5t-138.5 -16.5q-117 0 -178.5 54.5t-61.5 179.5z" />
<glyph unicode="m" horiz-adv-x="1648" d="M117 0v1024h207l30 -135h8q47 66 120 115t188 49q98 0 160.5 -40t97.5 -134q47 80 120.5 127t178.5 47q86 0 146.5 -20.5t98 -71t56 -134.5t18.5 -213v-614h-266v575q0 121 -25.5 181.5t-113.5 60.5q-72 0 -114 -39t-62 -106v-672h-267v557q0 141 -26.5 200.5 t-110.5 59.5q-70 0 -112.5 -38t-65.5 -97v-682h-266z" />
<glyph unicode="n" horiz-adv-x="1116" d="M117 0v1024h211l30 -135h9q47 66 124.5 115t200.5 49q76 0 135.5 -20.5t100.5 -67.5t61.5 -128t20.5 -200v-637h-267v582q0 125 -35.5 180t-121.5 55q-76 0 -128 -44t-75 -109v-664h-266z" />
<glyph unicode="o" horiz-adv-x="1099" d="M68 512q0 260 127 400.5t356 140.5q123 0 213 -39t149.5 -109.5t89 -171t29.5 -221.5q0 -260 -126 -400.5t-355 -140.5q-123 0 -213 39t-150.5 109.5t-90 171t-29.5 221.5zM342 512q0 -68 12.5 -125t37 -100t64.5 -66.5t95 -23.5q104 0 155.5 75.5t51.5 239.5 q0 141 -47 228t-160 87q-98 0 -153.5 -73.5t-55.5 -241.5z" />
<glyph unicode="p" horiz-adv-x="1105" d="M117 -410v1434h194l31 -123h8q53 78 126 115t177 37q193 0 289 -122t96 -392q0 -131 -30.5 -236.5t-91 -179.5t-147.5 -113t-200 -39q-63 0 -104 9.5t-82 29.5v-420h-266zM383 246q29 -23 62.5 -36t89.5 -13q115 0 172 80.5t57 267.5q0 135 -45 208.5t-146 73.5 q-78 0 -121.5 -38.5t-68.5 -116.5v-426z" />
<glyph unicode="q" horiz-adv-x="1097" d="M68 492q0 274 138 415.5t396 141.5q55 0 110.5 -5.5t105.5 -14.5t93 -20.5t72 -21.5v-1397h-266v498h-8q-35 -53 -94.5 -85t-153.5 -32q-190 0 -291.5 129.5t-101.5 391.5zM342 502q0 -150 49 -227.5t141 -77.5q78 0 120 34.5t65 104.5v461q-31 16 -70 21t-88 5 q-109 0 -163 -81.5t-54 -239.5z" />
<glyph unicode="r" horiz-adv-x="718" d="M117 0v1024h207l30 -135h8q35 76 94.5 117t139.5 41q53 0 121 -23l-35 -250q-63 23 -115 23q-72 0 -120 -38t-64 -97v-662h-266z" />
<glyph unicode="s" horiz-adv-x="864" d="M51 63l74 199q47 -27 125 -52.5t160 -25.5q59 0 95 22.5t36 76.5q0 41 -35 65.5t-86 45t-112.5 42t-113 59t-86 96t-34.5 150.5q0 152 90 232t260 80q117 0 211 -24.5t147 -55.5l-59 -193q-47 18 -119 39t-145 21q-119 0 -119 -92q0 -37 35 -59.5t86 -42.5l112 -42 q61 -23 112.5 -58.5t86.5 -93t35 -147.5q0 -156 -99.5 -245t-297.5 -89q-109 0 -204.5 27.5t-154.5 64.5z" />
<glyph unicode="t" horiz-adv-x="714" d="M10 799v225h142v193l266 75v-268h250v-225h-250v-393q0 -106 21.5 -152.5t80.5 -46.5q41 0 71 8t66 25l48 -205q-55 -27 -129 -45.5t-150 -18.5q-141 0 -207.5 73t-66.5 239v516h-142z" />
<glyph unicode="u" horiz-adv-x="1101" d="M106 387v637h267v-582q0 -125 29.5 -180t115.5 -55q76 0 126 45t75 110v662h266v-713q0 -84 8 -164.5t25 -146.5h-201l-47 152h-8q-47 -78 -131 -129.5t-199 -51.5q-78 0 -139.5 20.5t-102 67.5t-62.5 127t-22 201z" />
<glyph unicode="v" horiz-adv-x="976" d="M-29 1024h310l190 -537l35 -157h10l29 162l174 532h287l-428 -1034h-162z" />
<glyph unicode="w" horiz-adv-x="1476" d="M-16 1024h288l150 -514l24 -182h11l35 184l170 512h196l186 -524l37 -170h9l28 172l131 522h244l-315 -1034h-197l-207 573l-26 129h-11l-24 -131l-197 -571h-203z" />
<glyph unicode="x" horiz-adv-x="1075" d="M16 0l332 524l-307 500h317l134 -219l57 -143l61 143l140 219h288l-309 -492l330 -532h-309l-158 246l-62 151l-65 -151l-158 -246h-291z" />
<glyph unicode="y" horiz-adv-x="978" d="M-18 1024h319l188 -575l37 -160h13l26 162l156 573h274l-311 -924q-39 -115 -75 -210t-79 -164.5t-95 -107.5t-124 -38q-106 0 -170 35l49 213q31 -12 62 -12q47 0 91 40t67 144z" />
<glyph unicode="z" horiz-adv-x="937" d="M63 0v225l404 486l104 88h-508v225h803v-225l-399 -494l-102 -80h501v-225h-803z" />
<glyph unicode="{" horiz-adv-x="759" d="M88 379v205q78 0 121 42t43 132v428q0 111 52 180.5t167 69.5h246v-226h-103q-55 0 -80.5 -28.5t-25.5 -94.5v-399q0 -90 -43 -136t-100 -56v-21q55 -8 99 -61.5t44 -139.5v-397q0 -66 24.5 -94.5t83.5 -28.5h101v-225h-246q-106 0 -162.5 64.5t-56.5 183.5v420 q0 104 -43 143t-121 39z" />
<glyph unicode="|" horiz-adv-x="464" d="M123 -266v1700h219v-1700h-219z" />
<glyph unicode="}" horiz-adv-x="759" d="M72 -246h102q55 0 81 28t26 95v399q0 90 43 136.5t100 56.5v20q-55 8 -99 61.5t-44 139.5v397q0 63 -25 93t-84 30h-100v226h243q109 0 164.5 -64.5t55.5 -183.5v-420q0 -104 43 -143t120 -39v-205q-78 0 -120.5 -42t-42.5 -132v-428q0 -111 -54.5 -180.5t-169.5 -69.5 h-239v225z" />
<glyph unicode="~" horiz-adv-x="1079" d="M57 774q96 78 173 107.5t143 29.5q59 0 110.5 -17t98.5 -37l93 -37q46 -17 93 -17q37 0 76 12t82 47l96 -211q-74 -55 -135.5 -77.5t-114.5 -22.5q-57 0 -106.5 18.5t-95.5 41t-93 41t-100 18.5q-49 0 -105.5 -21.5t-124.5 -79.5z" />
<glyph unicode="&#xa1;" horiz-adv-x="600" d="M90 891q0 72 45 114t119 42q78 0 123 -42t45 -114t-45 -115t-123 -43q-74 0 -119 43t-45 115zM117 264l53 332h168l53 -332v-674h-274v674z" />
<glyph unicode="&#xa2;" d="M172 512q0 229 98.5 365.5t284.5 166.5v185h248v-185q57 -8 102 -21t82 -32l-61 -217q-31 14 -66 22.5t-72 12.5v-596q47 6 85 20.5t67 30.5l61 -201q-35 -27 -87 -46t-111 -29v-193h-248v182q-104 14 -177 58.5t-119 113t-66.5 160.5t-20.5 203zM434 512q0 -104 39 -183 t131 -108v586q-86 -23 -128 -93.5t-42 -201.5z" />
<glyph unicode="&#xa3;" d="M104 0v236h5q63 2 111 22.5t80 54t48.5 78.5t16.5 94q0 55 -13 103h-248v219h140q-27 49 -46.5 110.5t-19.5 147.5q0 100 34 175t94.5 124t144.5 73.5t184 24.5q125 0 227.5 -23.5t175.5 -58.5l-86 -237q-41 23 -112.5 46t-171.5 23q-98 0 -153.5 -46t-55.5 -138 q0 -70 25.5 -120t56.5 -101h288v-219h-200q6 -35 6 -70q0 -61 -20.5 -128.5t-63.5 -110.5l-88 -64v-10l137 31h471v-236h-967z" />
<glyph unicode="&#xa4;" d="M10 307l158 160l74 35q-25 43 -39.5 93t-14.5 112q0 59 15.5 110t42.5 98l-78 35l-158 160l156 164l160 -158l39 -76q41 31 97 46.5t118 15.5q59 0 117.5 -15.5t97.5 -44.5l41 74l159 158l158 -164l-158 -160l-75 -32q29 -43 41 -97.5t12 -113.5q0 -61 -13.5 -115.5 t-39.5 -91.5l75 -33l158 -160l-158 -164l-159 158l-37 76q-39 -29 -99.5 -45.5t-119.5 -16.5q-61 0 -117.5 15.5t-97.5 44.5l-39 -74l-160 -158zM412 709q0 -78 47 -127.5t123 -49.5t122 49.5t46 127.5q0 74 -46.5 125t-121.5 51q-76 0 -123 -51t-47 -125z" />
<glyph unicode="&#xa5;" d="M-29 1434h334l262 -539l29 -152h10l31 156l254 535h301l-389 -744h184v-164h-264v-116h264v-164h-264v-246h-281v246h-270v164h270v116h-270v164h186z" />
<glyph unicode="&#xa6;" horiz-adv-x="464" d="M123 -266v702h217v-702h-217zM123 731v703h217v-703h-217z" />
<glyph unicode="&#xa7;" horiz-adv-x="1085" d="M100 723q0 63 31 123.5t84 107.5l84 29q-53 33 -88 83t-35 134q0 115 89 188.5t270 73.5q121 0 225 -20.5t160 -46.5l-66 -215q-47 23 -125 40t-149 17q-76 0 -107 -22.5t-31 -57.5q0 -37 40 -57.5t101 -36.5l131 -37q71 -20 131 -57t100 -98.5t40 -159.5 q0 -63 -29.5 -123t-83.5 -107l-92 -28q55 -33 92 -84.5t37 -135.5q0 -129 -100 -195.5t-266 -66.5q-139 0 -232.5 28t-152.5 60l69 205q47 -23 115 -45t158 -22q76 0 109.5 19.5t33.5 62.5q0 39 -40 60t-100 39l-131 38q-71 20 -131.5 56t-100.5 95.5t-40 155.5zM367 727 q0 -72 65.5 -106.5t179.5 -67.5q45 25 76 65.5t31 88.5q0 37 -17.5 61.5t-50.5 43.5t-80 35.5l-106 35.5q-41 -25 -69.5 -65t-28.5 -91z" />
<glyph unicode="&#xa8;" horiz-adv-x="980" d="M123 1333q0 66 40 105t105 39q66 0 104 -39t38 -105q0 -61 -38 -100t-104 -39t-105.5 39t-39.5 100zM571 1333q0 66 38 105t104 39t105.5 -39t39.5 -105q0 -61 -40 -100t-105 -39q-66 0 -104 39t-38 100z" />
<glyph unicode="&#xa9;" horiz-adv-x="1705" d="M113 594q0 170 57 306t156.5 232.5t234.5 148.5t291 52t290 -52t234.5 -148.5t157.5 -232.5t57 -306t-57 -306t-157.5 -232.5t-234.5 -148.5t-290 -52q-170 0 -307 52t-233.5 148.5t-147.5 232.5t-51 306zM313 594q0 -127 40 -229.5t113 -173t171 -108.5t215 -38t216 38 t172 108.5t113 173t40 229.5t-40 229.5t-113 173t-172 108.5t-216 38t-215 -38t-171 -108.5t-113 -173t-40 -229.5zM508 594q0 186 93 287.5t247 101.5q76 0 134 -17.5t112 -47.5l-66 -179q-37 18 -66.5 24.5t-58.5 6.5q-59 0 -94 -39t-35 -137q0 -176 144 -176q39 0 69.5 7 t61.5 24l59 -181q-45 -29 -113.5 -46t-146.5 -17q-166 0 -253 104.5t-87 284.5z" />
<glyph unicode="&#xaa;" horiz-adv-x="860" d="M86 973q0 68 36 112.5t96.5 71.5t141 36t170.5 5q4 53 -14 76.5t-90 23.5q-82 0 -148.5 -16t-107.5 -33l-45 131q53 29 150.5 49.5t218.5 20.5q156 0 213 -56.5t57 -172.5q0 -123 -6 -238t16 -205h-207l-26 94h-9q-27 -35 -75.5 -68.5t-137.5 -33.5q-106 0 -169.5 56.5 t-63.5 146.5zM322 999q0 -33 21.5 -51t53.5 -18q66 0 92.5 23.5t40.5 47.5v72q-88 10 -148 -4.5t-60 -69.5z" />
<glyph unicode="&#xab;" horiz-adv-x="999" d="M59 530l328 471l162 -127l-178 -258l-99 -84l99 -73l190 -254l-162 -127zM457 535l315 442l146 -115l-166 -250l-95 -80l95 -71l178 -248l-146 -115z" />
<glyph unicode="&#xac;" horiz-adv-x="1079" d="M92 614v230h905v-463h-245v233h-660z" />
<glyph unicode="&#xad;" horiz-adv-x="737" d="M111 471v236h514v-236h-514z" />
<glyph unicode="&#xae;" horiz-adv-x="1413" d="M127 924q0 137 46 244.5t126 181t185.5 112.5t222.5 39q121 0 226 -39t183 -112.5t123 -181t45 -244.5q0 -139 -46 -247t-125 -181.5t-184.5 -111.5t-221.5 -38q-121 0 -226.5 38t-184.5 111.5t-124 181.5t-45 247zM319 924q0 -98 32 -173t85 -124t123 -74t148 -25 q82 0 152.5 23.5t121.5 73t81 124t30 175.5q0 98 -31 171.5t-83 123t-123 74t-148 24.5q-86 0 -158 -26.5t-123 -78t-79 -124t-28 -164.5zM496 659v531q33 10 92 15t112 5q86 0 147.5 -35.5t61.5 -123.5q0 -66 -42 -101t-103 -39l57 -28l133 -224h-125l-129 213l-98 31v-244 h-106zM602 965h70q59 0 92 18t33 64q0 72 -119 71q-23 0 -43.5 -1t-32.5 -7v-145z" />
<glyph unicode="&#xaf;" horiz-adv-x="907" d="M123 1159v189h661v-189h-661z" />
<glyph unicode="&#xb0;" horiz-adv-x="894" d="M123 1122q0 76 26.5 138.5t72.5 107.5t106.5 69.5t130.5 24.5t132 -22.5t109.5 -66.5t74 -107.5t26.5 -143.5t-26.5 -142t-74 -105.5t-110 -66t-131.5 -22.5q-70 0 -130.5 22.5t-106.5 66t-72.5 105.5t-26.5 142zM328 1122q0 -66 39 -103.5t94 -37.5t96 38t41 103 q0 66 -41 106t-96 40t-94 -40t-39 -106z" />
<glyph unicode="&#xb1;" horiz-adv-x="1079" d="M88 289v229h905v-229h-905zM88 831v228h332v338h239v-338h334v-228h-334v-219h-239v219h-332z" />
<glyph unicode="&#xb2;" horiz-adv-x="843" d="M713 1393q0 -121 -61.5 -207t-147.5 -164l-96 -51v-8l120 22h217v-207h-641v146l119 86q66 49 122 105t94 115.5t38 112.5q0 100 -115 101q-55 0 -104 -17.5t-86 -40.5l-70 185q72 43 153 62.5t155 19.5q145 0 224 -66.5t79 -193.5z" />
<glyph unicode="&#xb3;" horiz-adv-x="843" d="M344 958q92 0 130 29t40 76q-2 47 -41 73.5t-143 26.5h-88v78l149 164l88 51l-119 -12h-235v194h582v-127l-181 -188l-69 -37v-10l61 6q109 -4 169.5 -64.5t62.5 -171.5q-2 -74 -32 -127t-80 -87.5t-117.5 -51t-141.5 -16.5q-78 0 -146.5 13t-117.5 36l47 184 q84 -39 182 -39z" />
<glyph unicode="&#xb4;" horiz-adv-x="624" d="M123 1159l108 316h271v-62l-228 -254h-151z" />
<glyph unicode="&#xb5;" horiz-adv-x="1165" d="M106 -410v1434h267v-559q0 -131 42 -197.5t146 -66.5q94 0 151.5 47t82.5 131v645h266v-690q0 -84 5 -169t26 -165h-197l-66 152h-8q-35 -72 -102.5 -124.5t-175.5 -52.5q-80 0 -123 29t-80 74h-10l43 -215v-273h-267z" />
<glyph unicode="&#x3bc;" horiz-adv-x="1165" d="M106 -410v1434h267v-559q0 -131 42 -197.5t146 -66.5q94 0 151.5 47t82.5 131v645h266v-690q0 -84 5 -169t26 -165h-197l-66 152h-8q-35 -72 -102.5 -124.5t-175.5 -52.5q-80 0 -123 29t-80 74h-10l43 -215v-273h-267z" />
<glyph unicode="&#xb6;" horiz-adv-x="1083" d="M53 1020q0 82 26.5 156.5t76 132t119 91.5t155.5 34h152v-1700h-217v868q-68 0 -125.5 34t-99.5 92t-64.5 133t-22.5 159zM741 -266v1700h220v-1700h-220z" />
<glyph unicode="&#xb7;" horiz-adv-x="518" d="M92 647q0 72 45 114t119 42q78 0 123 -42t45 -114t-45 -115t-123 -43q-74 0 -119 43t-45 115z" />
<glyph unicode="&#xb8;" horiz-adv-x="679" d="M123 -418l16 117q92 -14 133 -4t41 45q0 57 -176 65l117 195h172l-49 -88q84 -8 132 -44t48 -110q0 -59 -37 -99t-97.5 -62.5t-139 -26.5t-160.5 12z" />
<glyph unicode="&#xb9;" horiz-adv-x="843" d="M147 983h201v336l21 94l-64 -65l-121 -80l-100 157l324 228h176v-670h178v-205h-615v205z" />
<glyph unicode="&#xba;" horiz-adv-x="858" d="M70 1110q0 92 26.5 157.5t73.5 108.5t113.5 62.5t144.5 19.5t143.5 -18.5t113.5 -59.5t74.5 -107.5t28.5 -162.5q-2 -96 -28.5 -162.5t-74.5 -107.5t-113.5 -59.5t-143.5 -18.5t-144.5 18.5t-113.5 59.5t-73.5 107.5t-26.5 162.5zM307 1110q0 -176 121 -176q63 0 91 38 t30 138q-2 98 -29.5 137t-91.5 39q-63 0 -92 -39t-29 -137z" />
<glyph unicode="&#xbb;" horiz-adv-x="999" d="M70 866l143 115l328 -436l-314 -443l-147 115l168 250l92 80l-92 71zM438 874l162 127l340 -452l-328 -471l-161 127l178 258l98 84l-98 74z" />
<glyph unicode="&#xbc;" horiz-adv-x="1802" d="M1247 1464l174 -102l-881 -1391l-176 109zM1706 160h-153v-160h-209v160h-424v137l446 580h187v-535h153v-182zM1344 518l12 109h-10l-45 -100l-99 -136l-73 -65l106 16h109v176zM338 1114l23 94l-64 -65l-121 -80l-100 158l324 227h174v-875h-236v541z" />
<glyph unicode="&#xbd;" horiz-adv-x="1849" d="M1247 1464l174 -102l-881 -1391l-176 109zM1723 615q0 -121 -61.5 -207t-147.5 -164l-96 -51v-8l120 22h217v-207h-641v146l119 86q66 49 122 105t94 115.5t38 112.5q0 100 -115 101q-55 0 -104 -17.5t-86 -40.5l-70 185q72 43 153 62.5t155 19.5q145 0 224 -66.5 t79 -193.5zM338 1114l23 94l-64 -65l-121 -80l-100 158l324 227h174v-875h-236v541z" />
<glyph unicode="&#xbe;" horiz-adv-x="1853" d="M1299 1464l174 -102l-881 -1391l-176 109zM1757 160h-153v-160h-209v160h-424v137l446 580h187v-535h153v-182zM1395 518l12 109h-10l-45 -100l-99 -136l-73 -65l106 16h109v176zM328 753q92 0 130 29t40 76q-2 47 -41 73.5t-143 26.5h-88v78l149 164l88 51l-119 -12 h-235v194h582v-127l-181 -188l-69 -37v-10l61 6q109 -4 169.5 -64.5t62.5 -171.5q-2 -74 -32 -127t-80 -87.5t-117.5 -51t-141.5 -16.5q-78 0 -146.5 13t-117.5 36l47 184q84 -39 182 -39z" />
<glyph unicode="&#xbf;" horiz-adv-x="929" d="M47 -90q0 104 27.5 172t69.5 116t90.5 84.5t90.5 78.5t69.5 97.5t27.5 141.5h227q10 -106 -9 -181t-56 -129t-82 -93l-85 -76q-40 -37 -67.5 -77t-27.5 -95q0 -72 40.5 -116t143.5 -44q33 0 69.5 7t73.5 20.5t71 31t60 37.5l101 -196q-78 -53 -178.5 -88t-243.5 -35 q-193 0 -302.5 92t-109.5 252zM365 891q0 72 45 114t118 42q78 0 123 -42t45 -114t-45 -115t-123 -43q-74 0 -118.5 43t-44.5 115z" />
<glyph unicode="&#xc0;" horiz-adv-x="1239" d="M0 0l516 1444h207l516 -1444h-295l-115 317h-440l-108 -317h-281zM461 543h307l-106 319l-44 225h-10l-43 -227zM818 1540h-216l-323 180v62h326z" />
<glyph unicode="&#xc1;" horiz-adv-x="1239" d="M0 0l516 1444h207l516 -1444h-295l-115 317h-440l-108 -317h-281zM461 543h307l-106 319l-44 225h-10l-43 -227zM633 1782h326v-62l-328 -180h-211z" />
<glyph unicode="&#xc2;" horiz-adv-x="1239" d="M0 0l516 1444h207l516 -1444h-295l-115 317h-440l-108 -317h-281zM461 543h307l-106 319l-44 225h-10l-43 -227zM526 1782h197l260 -191v-80h-203l-117 84l-40 70l-43 -68l-127 -86h-199v82z" />
<glyph unicode="&#xc3;" horiz-adv-x="1239" d="M0 0l516 1444h207l516 -1444h-295l-115 317h-440l-108 -317h-281zM461 543h307l-106 319l-44 225h-10l-43 -227zM232 1638q66 72 126 98.5t120 26.5q45 0 90 -11t87 -24.5t83 -24.5t78 -11q33 0 63.5 10t58.5 39l52 -137q-57 -53 -111.5 -75t-105.5 -22q-47 0 -90.5 11.5 t-85.5 26t-82.5 25.5t-79.5 11t-77 -15.5t-77 -56.5z" />
<glyph unicode="&#xc4;" horiz-adv-x="1239" d="M0 0l516 1444h207l516 -1444h-295l-115 317h-440l-108 -317h-281zM461 543h307l-106 319l-44 225h-10l-43 -227zM254 1634q0 53 37 86t119 33q80 0 116.5 -32.5t36.5 -86.5q0 -53 -37 -84.5t-116 -31.5q-82 0 -119 31.5t-37 84.5zM692 1634q0 53 37 86t117 33 q82 0 118.5 -32.5t36.5 -86.5q0 -53 -36.5 -84.5t-118.5 -31.5q-80 0 -117 31.5t-37 84.5z" />
<glyph unicode="&#xc5;" horiz-adv-x="1239" d="M0 0l504 1411q-80 18 -113 63.5t-33 104.5q0 37 12.5 70.5t42 59.5t80 40t128.5 14q143 0 202.5 -49t59.5 -135q0 -59 -33 -103t-117 -65l506 -1411h-295l-115 317h-440l-108 -317h-281zM461 543h307l-106 319l-44 225h-10l-43 -227zM530 1579q0 -63 91 -63q51 0 71.5 16 t20.5 47q0 35 -21.5 51.5t-70.5 16.5q-91 0 -91 -68z" />
<glyph unicode="&#xc6;" horiz-adv-x="1765" d="M-59 0l868 1434h858v-250h-567v-334h516v-250h-516v-350h577v-250h-858v348h-381l-202 -348h-295zM561 575h258v515h-12l-74 -211z" />
<glyph unicode="&#xc7;" horiz-adv-x="1144" d="M78 717q0 211 58.5 353t151.5 229t207.5 125t229.5 38q123 0 208 -16t140 -39l-55 -238q-47 23 -111.5 33t-156.5 10q-170 0 -273.5 -120.5t-103.5 -374.5q0 -111 24.5 -202t74.5 -155.5t125 -100.5t173 -36q92 0 155.5 18.5t110.5 47.5l58 -230q-53 -39 -134 -59 t-172 -27l-32 -61q84 -8 132 -44t48 -110q0 -47 -23.5 -81.5t-64.5 -58.5t-96.5 -36t-118.5 -12t-131 12l18 99q14 -2 27 -3h22q78 0 100.5 18.5t22.5 43.5q0 57 -176 65l102 172q-113 14 -211 62.5t-171.5 138.5t-115.5 223.5t-42 315.5z" />
<glyph unicode="&#xc8;" horiz-adv-x="1069" d="M123 0v1434h850v-250h-570v-334h519v-250h-519v-350h580v-250h-860zM721 1540h-216l-323 180v62h326z" />
<glyph unicode="&#xc9;" horiz-adv-x="1069" d="M123 0v1434h850v-250h-570v-334h519v-250h-519v-350h580v-250h-860zM600 1782h326v-62l-328 -180h-211z" />
<glyph unicode="&#xca;" horiz-adv-x="1069" d="M123 0v1434h850v-250h-570v-334h519v-250h-519v-350h580v-250h-860zM448 1782h197l260 -191v-80h-203l-117 84l-40 70l-43 -68l-127 -86h-199v82z" />
<glyph unicode="&#xcb;" horiz-adv-x="1069" d="M123 0v1434h850v-250h-570v-334h519v-250h-519v-350h580v-250h-860zM172 1634q0 53 37 86t119 33q80 0 116.5 -32.5t36.5 -86.5q0 -53 -37 -84.5t-116 -31.5q-82 0 -119 31.5t-37 84.5zM610 1634q0 53 37 86t117 33q82 0 118.5 -32.5t36.5 -86.5q0 -53 -36.5 -84.5 t-118.5 -31.5q-80 0 -117 31.5t-37 84.5z" />
<glyph unicode="&#xcc;" horiz-adv-x="583" d="M152 0v1434h280v-1434h-280zM494 1540h-216l-323 180v62h326z" />
<glyph unicode="&#xcd;" horiz-adv-x="583" d="M152 0v1434h280v-1434h-280zM313 1782h326v-62l-328 -180h-211z" />
<glyph unicode="&#xce;" horiz-adv-x="583" d="M152 0v1434h280v-1434h-280zM198 1782h197l260 -191v-80h-203l-117 84l-40 70l-43 -68l-127 -86h-199v82z" />
<glyph unicode="&#xcf;" horiz-adv-x="583" d="M152 0v1434h280v-1434h-280zM-78 1634q0 53 37 86t119 33q80 0 116.5 -32.5t36.5 -86.5q0 -53 -37 -84.5t-116 -31.5q-82 0 -119 31.5t-37 84.5zM360 1634q0 53 37 86t117 33q82 0 118.5 -32.5t36.5 -86.5q0 -53 -36.5 -84.5t-118.5 -31.5q-80 0 -117 31.5t-37 84.5z" />
<glyph unicode="&#xd0;" horiz-adv-x="1370" d="M-12 657v164h180v613q43 6 97 10t111.5 6t112 3t97.5 1q190 0 325.5 -53t219 -149.5t122.5 -229.5t39 -293q0 -145 -36.5 -280.5t-122.5 -240t-226.5 -168t-347.5 -63.5q-33 0 -87 2.5l-113 5.5l-111 6q-53 3 -80 7v659h-180zM449 233q8 -2 27.5 -3t42 -2t42.5 -1h31 q119 0 197.5 42t125 112t64.5 161t18 187q0 84 -16 169t-60 152.5t-120 110.5t-193 43q-45 0 -91 -2t-68 -6v-375h286v-164h-286v-424z" />
<glyph unicode="&#xd1;" horiz-adv-x="1345" d="M123 0v1444h205l542 -764l109 -219h10l-33 219v754h267v-1444h-205l-539 758l-112 225h-11l33 -225v-748h-266zM283 1638q66 72 126 98.5t120 26.5q45 0 90 -11t87 -24.5t83 -24.5t78 -11q33 0 63.5 10t58.5 39l52 -137q-57 -53 -111.5 -75t-105.5 -22q-47 0 -90.5 11.5 t-85.5 26t-82.5 25.5t-79.5 11t-77 -15.5t-77 -56.5z" />
<glyph unicode="&#xd2;" horiz-adv-x="1372" d="M78 717q0 358 157.5 551.5t450.5 193.5q154 0 268.5 -53t190.5 -151.5t112.5 -235.5t36.5 -305q0 -358 -158.5 -552t-449.5 -194q-156 0 -270.5 53.5t-189 151.5t-111.5 235.5t-37 305.5zM373 717q0 -109 18.5 -200t56 -156.5t97 -102.5t141.5 -37q150 0 231.5 117 t81.5 379q0 104 -17 194t-54 158t-96.5 105.5t-145.5 37.5q-150 0 -231.5 -119.5t-81.5 -375.5zM844 1540h-216l-323 180v62h326z" />
<glyph unicode="&#xd3;" horiz-adv-x="1372" d="M78 717q0 358 157.5 551.5t450.5 193.5q154 0 268.5 -53t190.5 -151.5t112.5 -235.5t36.5 -305q0 -358 -158.5 -552t-449.5 -194q-156 0 -270.5 53.5t-189 151.5t-111.5 235.5t-37 305.5zM373 717q0 -109 18.5 -200t56 -156.5t97 -102.5t141.5 -37q150 0 231.5 117 t81.5 379q0 104 -17 194t-54 158t-96.5 105.5t-145.5 37.5q-150 0 -231.5 -119.5t-81.5 -375.5zM754 1782h326v-62l-328 -180h-211z" />
<glyph unicode="&#xd4;" horiz-adv-x="1372" d="M78 717q0 358 157.5 551.5t450.5 193.5q154 0 268.5 -53t190.5 -151.5t112.5 -235.5t36.5 -305q0 -358 -158.5 -552t-449.5 -194q-156 0 -270.5 53.5t-189 151.5t-111.5 235.5t-37 305.5zM373 717q0 -109 18.5 -200t56 -156.5t97 -102.5t141.5 -37q150 0 231.5 117 t81.5 379q0 104 -17 194t-54 158t-96.5 105.5t-145.5 37.5q-150 0 -231.5 -119.5t-81.5 -375.5zM588 1782h197l260 -191v-80h-203l-117 84l-40 70l-43 -68l-127 -86h-199v82z" />
<glyph unicode="&#xd5;" horiz-adv-x="1372" d="M78 717q0 358 157.5 551.5t450.5 193.5q154 0 268.5 -53t190.5 -151.5t112.5 -235.5t36.5 -305q0 -358 -158.5 -552t-449.5 -194q-156 0 -270.5 53.5t-189 151.5t-111.5 235.5t-37 305.5zM373 717q0 -109 18.5 -200t56 -156.5t97 -102.5t141.5 -37q150 0 231.5 117 t81.5 379q0 104 -17 194t-54 158t-96.5 105.5t-145.5 37.5q-150 0 -231.5 -119.5t-81.5 -375.5zM295 1638q66 72 126 98.5t120 26.5q45 0 90 -11t87 -24.5t83 -24.5t78 -11q33 0 63.5 10t58.5 39l52 -137q-57 -53 -111.5 -75t-105.5 -22q-47 0 -90.5 11.5t-85.5 26 t-82.5 25.5t-79.5 11t-77 -15.5t-77 -56.5z" />
<glyph unicode="&#xd6;" horiz-adv-x="1372" d="M78 717q0 358 157.5 551.5t450.5 193.5q154 0 268.5 -53t190.5 -151.5t112.5 -235.5t36.5 -305q0 -358 -158.5 -552t-449.5 -194q-156 0 -270.5 53.5t-189 151.5t-111.5 235.5t-37 305.5zM373 717q0 -109 18.5 -200t56 -156.5t97 -102.5t141.5 -37q150 0 231.5 117 t81.5 379q0 104 -17 194t-54 158t-96.5 105.5t-145.5 37.5q-150 0 -231.5 -119.5t-81.5 -375.5zM307 1634q0 53 37 86t119 33q80 0 116.5 -32.5t36.5 -86.5q0 -53 -37 -84.5t-116 -31.5q-82 0 -119 31.5t-37 84.5zM745 1634q0 53 37 86t117 33q82 0 118.5 -32.5t36.5 -86.5 q0 -53 -36.5 -84.5t-118.5 -31.5q-80 0 -117 31.5t-37 84.5z" />
<glyph unicode="&#xd7;" horiz-adv-x="1079" d="M111 426l268 268l-264 260l159 166l269 -266l266 266l162 -166l-266 -260l266 -264l-162 -168l-266 268l-271 -270z" />
<glyph unicode="&#xd8;" horiz-adv-x="1372" d="M78 717q0 358 157.5 551.5t450.5 193.5q92 0 170 -20.5t141 -57.5l52 80l174 -102l-72 -115q72 -98 107.5 -232t35.5 -298q0 -358 -158.5 -552t-449.5 -194q-90 0 -163.5 17.5t-137.5 50.5l-43 -68l-176 109l61 96q-76 98 -112.5 234.5t-36.5 306.5zM373 717 q0 -74 8 -139.5t25 -120.5l448 700q-72 55 -168 55q-150 0 -231.5 -119.5t-81.5 -375.5zM530 266q68 -45 156 -45q150 0 231.5 117t81.5 379q0 68 -6 130t-22 116z" />
<glyph unicode="&#xd9;" horiz-adv-x="1284" d="M117 473v961h280v-906q0 -84 15.5 -142t48.5 -94t82 -51.5t114 -15.5q129 0 186.5 72t57.5 231v906h266v-926q0 -139 -36.5 -239.5t-102 -166t-160 -96.5t-206.5 -31q-545 0 -545 498zM809 1540h-216l-323 180v62h326z" />
<glyph unicode="&#xda;" horiz-adv-x="1284" d="M117 473v961h280v-906q0 -84 15.5 -142t48.5 -94t82 -51.5t114 -15.5q129 0 186.5 72t57.5 231v906h266v-926q0 -139 -36.5 -239.5t-102 -166t-160 -96.5t-206.5 -31q-545 0 -545 498zM748 1782h326v-62l-328 -180h-211z" />
<glyph unicode="&#xdb;" horiz-adv-x="1284" d="M117 473v961h280v-906q0 -84 15.5 -142t48.5 -94t82 -51.5t114 -15.5q129 0 186.5 72t57.5 231v906h266v-926q0 -139 -36.5 -239.5t-102 -166t-160 -96.5t-206.5 -31q-545 0 -545 498zM559 1782h197l260 -191v-80h-203l-117 84l-40 70l-43 -68l-127 -86h-199v82z" />
<glyph unicode="&#xdc;" horiz-adv-x="1284" d="M117 473v961h280v-906q0 -84 15.5 -142t48.5 -94t82 -51.5t114 -15.5q129 0 186.5 72t57.5 231v906h266v-926q0 -139 -36.5 -239.5t-102 -166t-160 -96.5t-206.5 -31q-545 0 -545 498zM273 1634q0 53 37 86t119 33q80 0 116.5 -32.5t36.5 -86.5q0 -53 -37 -84.5 t-116 -31.5q-82 0 -119 31.5t-37 84.5zM711 1634q0 53 37 86t117 33q82 0 118.5 -32.5t36.5 -86.5q0 -53 -36.5 -84.5t-118.5 -31.5q-80 0 -117 31.5t-37 84.5z" />
<glyph unicode="&#xdd;" horiz-adv-x="1212" d="M-4 1434h334l262 -539l29 -152h10l31 156l253 535h302l-469 -899v-535h-281v532zM668 1782h326v-62l-328 -180h-211z" />
<glyph unicode="&#xde;" horiz-adv-x="1171" d="M123 0v1434h280v-148q29 2 57.5 3t57.5 1q106 0 214 -17.5t194 -69.5t140 -145t54 -243q0 -135 -47 -228t-125 -152.5t-177 -86t-206 -26.5h-33q-23 0 -47 1t-47.5 3t-34.5 4v-330h-280zM403 573q8 -2 24.5 -4t35 -3t36.5 -1h25q55 0 109.5 10.5t97.5 38t68.5 76.5 t25.5 129q0 68 -24.5 112t-64.5 70.5t-91 37t-104 10.5q-41 0 -78 -3.5t-60 -7.5v-465z" />
<glyph unicode="&#xdf;" horiz-adv-x="1290" d="M25 799v225h141q0 119 32.5 200t91 131t139.5 72.5t177 22.5q104 0 187.5 -23.5t141.5 -66.5t90 -103.5t32 -134.5q0 -80 -36 -129t-80 -84l-80 -65q-36 -31 -36 -76q0 -37 30 -59.5t76 -41.5l98 -41q52 -22 98.5 -56.5t76 -89t29.5 -138.5q0 -72 -22.5 -138.5 t-70.5 -118.5t-121 -83t-171 -31q-96 0 -177 23.5t-139 58.5l72 199q47 -27 94 -47.5t127 -20.5q61 0 101.5 42t40.5 102q0 43 -30 69.5t-76 48t-98 42t-98.5 52t-76 79t-29.5 120.5q0 88 36 137.5t80 82.5l80 63q36 29 36 78q0 27 -14.5 50.5t-39 39.5t-55.5 26.5t-61 10.5 q-98 0 -144.5 -48.5t-46.5 -179.5v-999h-264v799h-141z" />
<glyph unicode="&#xe0;" horiz-adv-x="1015" d="M47 283q0 94 42 158.5t121 104.5t188 55q78 11 170 11q37 0 75 -2q5 36 5 67q0 64 -21 98q-31 50 -138 50q-80 0 -169 -16t-146 -43l-63 199q82 37 194.5 58t235.5 21q106 0 178 -25.5t113.5 -72.5t59 -112.5t17.5 -147.5q0 -90 -6 -181t-7 -179v-25q0 -75 5 -146 q6 -83 31 -157h-217l-43 141h-10q-41 -63 -114 -109t-188 -46q-72 0 -129 21.5t-98 61t-63.5 94t-22.5 122.5zM322 324q0 -57 33.5 -89t93.5 -32q80 0 127 35.5t69 76.5v134q-38 4 -74 3q-24 0 -48 -1q-58 -4 -103 -18.5t-71.5 -41t-26.5 -67.5zM236 1413v62h278l123 -316 h-147z" />
<glyph unicode="&#xe1;" horiz-adv-x="1015" d="M47 283q0 94 42 158.5t121 104.5t188 55q78 11 170 11q37 0 75 -2q5 36 5 67q0 64 -21 98q-31 50 -138 50q-80 0 -169 -16t-146 -43l-63 199q82 37 194.5 58t235.5 21q106 0 178 -25.5t113.5 -72.5t59 -112.5t17.5 -147.5q0 -90 -6 -181t-7 -179v-25q0 -75 5 -146 q6 -83 31 -157h-217l-43 141h-10q-41 -63 -114 -109t-188 -46q-72 0 -129 21.5t-98 61t-63.5 94t-22.5 122.5zM322 324q0 -57 33.5 -89t93.5 -32q80 0 127 35.5t69 76.5v134q-38 4 -74 3q-24 0 -48 -1q-58 -4 -103 -18.5t-71.5 -41t-26.5 -67.5zM377 1159l108 316h271v-62 l-228 -254h-151z" />
<glyph unicode="&#xe2;" horiz-adv-x="1015" d="M47 283q0 94 42 158.5t121 104.5t188 55q78 11 170 11q37 0 75 -2q5 36 5 67q0 64 -21 98q-31 50 -138 50q-80 0 -169 -16t-146 -43l-63 199q82 37 194.5 58t235.5 21q106 0 178 -25.5t113.5 -72.5t59 -112.5t17.5 -147.5q0 -90 -6 -181t-7 -179v-25q0 -75 5 -146 q6 -83 31 -157h-217l-43 141h-10q-41 -63 -114 -109t-188 -46q-72 0 -129 21.5t-98 61t-63.5 94t-22.5 122.5zM322 324q0 -57 33.5 -89t93.5 -32q80 0 127 35.5t69 76.5v134q-38 4 -74 3q-24 0 -48 -1q-58 -4 -103 -18.5t-71.5 -41t-26.5 -67.5zM191 1126l252 373h176 l227 -373h-211l-80 136l-34 100l-35 -100l-92 -136h-203z" />
<glyph unicode="&#xe3;" horiz-adv-x="1015" d="M47 283q0 94 42 158.5t121 104.5t188 55q78 11 170 11q37 0 75 -2q5 36 5 67q0 64 -21 98q-31 50 -138 50q-80 0 -169 -16t-146 -43l-63 199q82 37 194.5 58t235.5 21q106 0 178 -25.5t113.5 -72.5t59 -112.5t17.5 -147.5q0 -90 -6 -181t-7 -179v-25q0 -75 5 -146 q6 -83 31 -157h-217l-43 141h-10q-41 -63 -114 -109t-188 -46q-72 0 -129 21.5t-98 61t-63.5 94t-22.5 122.5zM322 324q0 -57 33.5 -89t93.5 -32q80 0 127 35.5t69 76.5v134q-38 4 -74 3q-24 0 -48 -1q-58 -4 -103 -18.5t-71.5 -41t-26.5 -67.5zM176 1348q63 76 117.5 104.5 t103.5 28.5q41 0 79 -14.5t75 -30.5l71 -31q35 -14 72 -14q29 0 58.5 12t62.5 43l41 -143q-59 -66 -109.5 -90.5t-97.5 -24.5q-41 0 -80 13t-76 29.5t-73.5 30t-73.5 13.5q-31 0 -63.5 -13.5t-67.5 -46.5z" />
<glyph unicode="&#xe4;" horiz-adv-x="1015" d="M47 283q0 94 42 158.5t121 104.5t188 55q78 11 170 11q37 0 75 -2q5 36 5 67q0 64 -21 98q-31 50 -138 50q-80 0 -169 -16t-146 -43l-63 199q82 37 194.5 58t235.5 21q106 0 178 -25.5t113.5 -72.5t59 -112.5t17.5 -147.5q0 -90 -6 -181t-7 -179v-25q0 -75 5 -146 q6 -83 31 -157h-217l-43 141h-10q-41 -63 -114 -109t-188 -46q-72 0 -129 21.5t-98 61t-63.5 94t-22.5 122.5zM322 324q0 -57 33.5 -89t93.5 -32q80 0 127 35.5t69 76.5v134q-38 4 -74 3q-24 0 -48 -1q-58 -4 -103 -18.5t-71.5 -41t-26.5 -67.5zM154 1333q0 66 40 105 t105 39q66 0 104 -39t38 -105q0 -61 -38 -100t-104 -39t-105.5 39t-39.5 100zM602 1333q0 66 38 105t104 39t105.5 -39t39.5 -105q0 -61 -40 -100t-105 -39q-66 0 -104 39t-38 100z" />
<glyph unicode="&#xe5;" horiz-adv-x="1015" d="M47 283q0 94 42 158.5t121 104.5t188 55q78 11 170 11q37 0 75 -2q5 36 5 67q0 64 -21 98q-31 50 -138 50q-80 0 -169 -16t-146 -43l-63 199q82 37 194.5 58t235.5 21q106 0 178 -25.5t113.5 -72.5t59 -112.5t17.5 -147.5q0 -90 -6 -181t-7 -179v-25q0 -75 5 -146 q6 -83 31 -157h-217l-43 141h-10q-41 -63 -114 -109t-188 -46q-72 0 -129 21.5t-98 61t-63.5 94t-22.5 122.5zM322 324q0 -57 33.5 -89t93.5 -32q80 0 127 35.5t69 76.5v134q-38 4 -74 3q-24 0 -48 -1q-58 -4 -103 -18.5t-71.5 -41t-26.5 -67.5zM295 1325q0 86 58.5 141.5 t168.5 55.5q104 0 166 -50.5t62 -146.5q0 -80 -60.5 -136t-167.5 -56q-109 0 -168 52t-59 140zM442 1325q0 -33 24.5 -50.5t55.5 -17.5q35 0 57.5 16.5t22.5 51.5t-23.5 52.5t-56.5 17.5q-31 0 -55.5 -16.5t-24.5 -53.5z" />
<glyph unicode="&#xe6;" horiz-adv-x="1607" d="M47 283q0 94 42 158.5t120 104.5t187.5 55t244.5 9q14 115 -15.5 165t-136.5 50q-80 0 -162.5 -21.5t-146.5 -51.5l-69 192q78 41 192.5 70.5t237.5 29.5q106 0 169.5 -27.5t104.5 -82.5q51 57 133 88t178 31q78 0 152 -20.5t131 -67.5t92 -127t35 -199q0 -43 -5 -91 t-15 -104h-617q8 -129 68.5 -194.5t195.5 -65.5q84 0 150.5 26t101.5 52l88 -174q-61 -49 -166.5 -83t-224.5 -34q-131 0 -230.5 48.5t-154.5 136.5h-10q-55 -70 -136 -121t-221 -51q-72 0 -129 21.5t-98 61t-63.5 94t-22.5 122.5zM322 324q0 -57 33.5 -89t93.5 -32 q80 0 127 35.5t69 76.5v134q-63 6 -121.5 1.5t-103.5 -18.5t-71.5 -40.5t-26.5 -67.5zM907 610h383q6 111 -35 170.5t-133 59.5q-104 0 -154.5 -63t-60.5 -167z" />
<glyph unicode="&#xe7;" horiz-adv-x="886" d="M68 512q0 260 116.5 400.5t339.5 140.5q113 0 181.5 -18.5t123.5 -47.5l-63 -217q-47 23 -93 35t-106 12q-111 0 -168 -72.5t-57 -232.5q0 -66 14.5 -121t43 -96t74.5 -64.5t108 -23.5q68 0 114.5 17.5t83.5 41.5l62 -203q-47 -35 -107.5 -55t-128.5 -31l-37 -65 q84 -8 132.5 -44t48.5 -110q0 -47 -24 -81.5t-64.5 -58.5t-96 -36t-119.5 -12q-63 0 -131 12l19 99q14 -2 26 -3h23q78 0 100.5 18.5t22.5 43.5q0 57 -176 65l102 172q-100 12 -169.5 56.5t-113 113t-62.5 161.5t-19 204z" />
<glyph unicode="&#xe8;" horiz-adv-x="1040" d="M68 512q0 270 129 405.5t362 135.5q78 0 151.5 -20.5t131 -67.5t92.5 -127t35 -199q0 -43 -5.5 -92t-15.5 -103h-614q6 -129 66.5 -194.5t195.5 -65.5q84 0 150.5 26t101.5 52l88 -174q-61 -49 -166.5 -83t-224.5 -34q-248 0 -362.5 144.5t-114.5 396.5zM340 610h381 q1 18 1 35q0 86 -35 135q-42 59 -132 60q-104 0 -154.5 -63t-60.5 -167zM273 1413v62h278l123 -316h-147z" />
<glyph unicode="&#xe9;" horiz-adv-x="1040" d="M68 512q0 270 129 405.5t362 135.5q78 0 151.5 -20.5t131 -67.5t92.5 -127t35 -199q0 -43 -5.5 -92t-15.5 -103h-614q6 -129 66.5 -194.5t195.5 -65.5q84 0 150.5 26t101.5 52l88 -174q-61 -49 -166.5 -83t-224.5 -34q-248 0 -362.5 144.5t-114.5 396.5zM340 610h381 q1 18 1 35q0 86 -35 135q-42 59 -132 60q-104 0 -154.5 -63t-60.5 -167zM453 1159l108 316h271v-62l-228 -254h-151z" />
<glyph unicode="&#xea;" horiz-adv-x="1040" d="M68 512q0 270 129 405.5t362 135.5q78 0 151.5 -20.5t131 -67.5t92.5 -127t35 -199q0 -43 -5.5 -92t-15.5 -103h-614q6 -129 66.5 -194.5t195.5 -65.5q84 0 150.5 26t101.5 52l88 -174q-61 -49 -166.5 -83t-224.5 -34q-248 0 -362.5 144.5t-114.5 396.5zM340 610h381 q1 18 1 35q0 86 -35 135q-42 59 -132 60q-104 0 -154.5 -63t-60.5 -167zM201 1126l252 373h176l227 -373h-211l-80 136l-34 100l-35 -100l-92 -136h-203z" />
<glyph unicode="&#xeb;" horiz-adv-x="1040" d="M68 512q0 270 129 405.5t362 135.5q78 0 151.5 -20.5t131 -67.5t92.5 -127t35 -199q0 -43 -5.5 -92t-15.5 -103h-614q6 -129 66.5 -194.5t195.5 -65.5q84 0 150.5 26t101.5 52l88 -174q-61 -49 -166.5 -83t-224.5 -34q-248 0 -362.5 144.5t-114.5 396.5zM340 610h381 q1 18 1 35q0 86 -35 135q-42 59 -132 60q-104 0 -154.5 -63t-60.5 -167zM168 1333q0 66 40 105t105 39q66 0 104 -39t38 -105q0 -61 -38 -100t-104 -39t-105.5 39t-39.5 100zM616 1333q0 66 38 105t104 39t105.5 -39t39.5 -105q0 -61 -40 -100t-105 -39q-66 0 -104 39 t-38 100z" />
<glyph unicode="&#xec;" horiz-adv-x="550" d="M143 1024h267v-1024h-267v1024zM-4 1413v62h278l123 -316h-147z" />
<glyph unicode="&#xed;" horiz-adv-x="550" d="M143 1024h267v-1024h-267v1024zM146 1159l108 316h271v-62l-228 -254h-151z" />
<glyph unicode="&#xee;" horiz-adv-x="550" d="M143 1024h267v-1024h-267v1024zM-61 1126l252 373h176l227 -373h-211l-80 136l-34 100l-35 -100l-92 -136h-203z" />
<glyph unicode="&#xef;" horiz-adv-x="550" d="M143 1024h267v-1024h-267v1024zM-92 1333q0 66 40 105t105 39q66 0 104 -39t38 -105q0 -61 -38 -100t-104 -39t-105.5 39t-39.5 100zM356 1333q0 66 38 105t104 39t105.5 -39t39.5 -105q0 -61 -40 -100t-105 -39q-66 0 -104 39t-38 100z" />
<glyph unicode="&#xf0;" horiz-adv-x="1153" d="M76 502q0 111 34.5 205t97 164.5t150.5 110.5t193 40q78 0 144.5 -21.5t107.5 -62.5q-25 74 -70 135q-45 59 -102 105l-139 -95l-89 113l91 61q-70 31 -142 43l107 164q51 -14 116 -41q47 -18 97 -45l108 74l86 -113l-67 -47q25 -18 47 -41q66 -61 117 -150t82.5 -208 t31.5 -275q0 -166 -38 -287.5t-105.5 -201.5t-161.5 -119t-207 -39q-121 0 -213 39t-153.5 109.5t-92 168t-30.5 214.5zM334 498q0 -147 67.5 -223t180.5 -76q106 0 173.5 91t67.5 283q0 27 -3 70t-11 68q-33 47 -98.5 66.5t-126.5 19.5q-123 0 -186.5 -85t-63.5 -214z" />
<glyph unicode="&#xf1;" horiz-adv-x="1116" d="M117 0v1024h211l30 -135h9q47 66 124.5 115t200.5 49q76 0 135.5 -20.5t100.5 -67.5t61.5 -128t20.5 -200v-637h-267v582q0 125 -35.5 180t-121.5 55q-76 0 -128 -44t-75 -109v-664h-266zM219 1348q63 76 117.5 104.5t103.5 28.5q41 0 79 -14.5t75 -30.5l71 -31 q35 -14 72 -14q29 0 58.5 12t62.5 43l41 -143q-59 -66 -109.5 -90.5t-97.5 -24.5q-41 0 -80 13t-76 29.5t-73.5 30t-73.5 13.5q-31 0 -63.5 -13.5t-67.5 -46.5z" />
<glyph unicode="&#xf2;" horiz-adv-x="1099" d="M68 512q0 260 127 400.5t356 140.5q123 0 213 -39t149.5 -109.5t89 -171t29.5 -221.5q0 -260 -126 -400.5t-355 -140.5q-123 0 -213 39t-150.5 109.5t-90 171t-29.5 221.5zM342 512q0 -68 12.5 -125t37 -100t64.5 -66.5t95 -23.5q104 0 155.5 75.5t51.5 239.5 q0 141 -47 228t-160 87q-98 0 -153.5 -73.5t-55.5 -241.5zM277 1413v62h278l123 -316h-147z" />
<glyph unicode="&#xf3;" horiz-adv-x="1099" d="M68 512q0 260 127 400.5t356 140.5q123 0 213 -39t149.5 -109.5t89 -171t29.5 -221.5q0 -260 -126 -400.5t-355 -140.5q-123 0 -213 39t-150.5 109.5t-90 171t-29.5 221.5zM342 512q0 -68 12.5 -125t37 -100t64.5 -66.5t95 -23.5q104 0 155.5 75.5t51.5 239.5 q0 141 -47 228t-160 87q-98 0 -153.5 -73.5t-55.5 -241.5zM455 1159l108 316h271v-62l-228 -254h-151z" />
<glyph unicode="&#xf4;" horiz-adv-x="1099" d="M68 512q0 260 127 400.5t356 140.5q123 0 213 -39t149.5 -109.5t89 -171t29.5 -221.5q0 -260 -126 -400.5t-355 -140.5q-123 0 -213 39t-150.5 109.5t-90 171t-29.5 221.5zM342 512q0 -68 12.5 -125t37 -100t64.5 -66.5t95 -23.5q104 0 155.5 75.5t51.5 239.5 q0 141 -47 228t-160 87q-98 0 -153.5 -73.5t-55.5 -241.5zM221 1126l252 373h176l227 -373h-211l-80 136l-34 100l-35 -100l-92 -136h-203z" />
<glyph unicode="&#xf5;" horiz-adv-x="1099" d="M68 512q0 260 127 400.5t356 140.5q123 0 213 -39t149.5 -109.5t89 -171t29.5 -221.5q0 -260 -126 -400.5t-355 -140.5q-123 0 -213 39t-150.5 109.5t-90 171t-29.5 221.5zM342 512q0 -68 12.5 -125t37 -100t64.5 -66.5t95 -23.5q104 0 155.5 75.5t51.5 239.5 q0 141 -47 228t-160 87q-98 0 -153.5 -73.5t-55.5 -241.5zM213 1348q63 76 117.5 104.5t103.5 28.5q41 0 79 -14.5t75 -30.5l71 -31q35 -14 72 -14q29 0 58.5 12t62.5 43l41 -143q-59 -66 -109.5 -90.5t-97.5 -24.5q-41 0 -80 13t-76 29.5t-73.5 30t-73.5 13.5 q-31 0 -63.5 -13.5t-67.5 -46.5z" />
<glyph unicode="&#xf6;" horiz-adv-x="1099" d="M68 512q0 260 127 400.5t356 140.5q123 0 213 -39t149.5 -109.5t89 -171t29.5 -221.5q0 -260 -126 -400.5t-355 -140.5q-123 0 -213 39t-150.5 109.5t-90 171t-29.5 221.5zM342 512q0 -68 12.5 -125t37 -100t64.5 -66.5t95 -23.5q104 0 155.5 75.5t51.5 239.5 q0 141 -47 228t-160 87q-98 0 -153.5 -73.5t-55.5 -241.5zM184 1333q0 66 40 105t105 39q66 0 104 -39t38 -105q0 -61 -38 -100t-104 -39t-105.5 39t-39.5 100zM632 1333q0 66 38 105t104 39t105.5 -39t39.5 -105q0 -61 -40 -100t-105 -39q-66 0 -104 39t-38 100z" />
<glyph unicode="&#xf7;" horiz-adv-x="1079" d="M88 578v229h905v-229h-905zM377 297q0 72 45 114t119 42q78 0 123 -42t45 -114t-45.5 -115t-122.5 -43q-74 0 -119 43t-45 115zM377 1090q0 72 45 113.5t119 41.5q78 0 123 -42t45 -113q0 -72 -45.5 -115t-122.5 -43q-74 0 -119 43t-45 115z" />
<glyph unicode="&#xf8;" horiz-adv-x="1097" d="M68 512q0 260 125.5 400.5t355.5 140.5q66 0 121 -11.5t102 -33.5l49 69l164 -121l-55 -77q51 -70 75.5 -163t24.5 -204q0 -260 -126 -400.5t-355 -140.5q-70 0 -128.5 13.5t-107.5 35.5l-51 -69l-170 123l64 88q-45 68 -66.5 157t-21.5 193zM342 512q0 -72 12 -133 l301 418q-43 31 -106 30q-98 0 -152.5 -73.5t-54.5 -241.5zM434 233q45 -37 115 -36q104 0 155.5 75.5t51.5 239.5q0 76 -17 145z" />
<glyph unicode="&#xf9;" horiz-adv-x="1101" d="M106 387v637h267v-582q0 -125 29.5 -180t115.5 -55q76 0 126 45t75 110v662h266v-713q0 -84 8 -164.5t25 -146.5h-201l-47 152h-8q-47 -78 -131 -129.5t-199 -51.5q-78 0 -139.5 20.5t-102 67.5t-62.5 127t-22 201zM250 1413v62h278l123 -316h-147z" />
<glyph unicode="&#xfa;" horiz-adv-x="1101" d="M106 387v637h267v-582q0 -125 29.5 -180t115.5 -55q76 0 126 45t75 110v662h266v-713q0 -84 8 -164.5t25 -146.5h-201l-47 152h-8q-47 -78 -131 -129.5t-199 -51.5q-78 0 -139.5 20.5t-102 67.5t-62.5 127t-22 201zM426 1159l108 316h271v-62l-228 -254h-151z" />
<glyph unicode="&#xfb;" horiz-adv-x="1101" d="M106 387v637h267v-582q0 -125 29.5 -180t115.5 -55q76 0 126 45t75 110v662h266v-713q0 -84 8 -164.5t25 -146.5h-201l-47 152h-8q-47 -78 -131 -129.5t-199 -51.5q-78 0 -139.5 20.5t-102 67.5t-62.5 127t-22 201zM223 1126l252 373h176l227 -373h-211l-80 136l-34 100 l-35 -100l-92 -136h-203z" />
<glyph unicode="&#xfc;" horiz-adv-x="1101" d="M106 387v637h267v-582q0 -125 29.5 -180t115.5 -55q76 0 126 45t75 110v662h266v-713q0 -84 8 -164.5t25 -146.5h-201l-47 152h-8q-47 -78 -131 -129.5t-199 -51.5q-78 0 -139.5 20.5t-102 67.5t-62.5 127t-22 201zM180 1333q0 66 40 105t105 39q66 0 104 -39t38 -105 q0 -61 -38 -100t-104 -39t-105.5 39t-39.5 100zM628 1333q0 66 38 105t104 39t105.5 -39t39.5 -105q0 -61 -40 -100t-105 -39q-66 0 -104 39t-38 100z" />
<glyph unicode="&#xfd;" horiz-adv-x="978" d="M-18 1024h319l188 -575l37 -160h13l26 162l156 573h274l-311 -924q-39 -115 -75 -210t-79 -164.5t-95 -107.5t-124 -38q-106 0 -170 35l49 213q31 -12 62 -12q47 0 91 40t67 144zM412 1159l108 316h271v-62l-228 -254h-151z" />
<glyph unicode="&#xfe;" horiz-adv-x="1105" d="M117 -410v1844h266v-498h8q43 53 103.5 85t158.5 32q193 0 289 -122t96 -392q0 -131 -30.5 -236.5t-91 -179.5t-147.5 -113t-200 -39q-63 0 -104 9.5t-82 29.5v-420h-266zM383 246q29 -23 62.5 -36t89.5 -13q115 0 172 80.5t57 267.5q0 135 -45 208.5t-146 73.5 q-74 0 -119.5 -38.5t-70.5 -116.5v-426z" />
<glyph unicode="&#xff;" horiz-adv-x="978" d="M-18 1024h319l188 -575l37 -160h13l26 162l156 573h274l-311 -924q-39 -115 -75 -210t-79 -164.5t-95 -107.5t-124 -38q-106 0 -170 35l49 213q31 -12 62 -12q47 0 91 40t67 144zM135 1333q0 66 40 105t105 39q66 0 104 -39t38 -105q0 -61 -38 -100t-104 -39t-105.5 39 t-39.5 100zM583 1333q0 66 38 105t104 39t105.5 -39t39.5 -105q0 -61 -40 -100t-105 -39q-66 0 -104 39t-38 100z" />
<glyph unicode="&#x131;" horiz-adv-x="550" d="M143 1024h267v-1024h-267v1024z" />
<glyph unicode="&#x152;" horiz-adv-x="1873" d="M78 717q0 358 157.5 551.5t450.5 193.5q80 0 138.5 -9t103.5 -19h850v-250h-570v-334h518v-250h-518v-350h580v-250h-860q-39 -14 -107.5 -21.5t-134.5 -7.5q-156 0 -270.5 53.5t-189 151.5t-111.5 235.5t-37 305.5zM373 717q0 -109 18.5 -200t58 -156.5t101 -102.5 t149.5 -37q59 0 113.5 7.5t114.5 31.5v901q-43 23 -104.5 37t-137.5 14q-150 0 -231.5 -119.5t-81.5 -375.5z" />
<glyph unicode="&#x153;" horiz-adv-x="1722" d="M68 512q0 260 127 400.5t356 140.5q135 0 217 -46t129 -102q47 59 130 103.5t214 44.5q78 0 151.5 -20.5t131 -67.5t92.5 -127t35 -199q0 -43 -5.5 -92t-15.5 -103h-616q6 -129 67.5 -194.5t196.5 -65.5q84 0 150.5 26t101.5 52l88 -174q-61 -49 -166.5 -83t-224.5 -34 q-227 0 -344 152q-51 -68 -132 -110t-200 -42q-123 0 -213 39t-150.5 109.5t-90 171t-29.5 221.5zM342 512q0 -68 12.5 -125t37 -100t64.5 -66.5t95 -23.5q104 0 155.5 75.5t51.5 239.5q0 141 -47 228t-160 87q-98 0 -153.5 -73.5t-55.5 -241.5zM1022 610h381q0 8 1 16.5 t1 16.5q0 94 -42 145.5t-126 51.5q-104 0 -154.5 -63t-60.5 -167z" />
<glyph unicode="&#x178;" horiz-adv-x="1212" d="M-4 1434h334l262 -539l29 -152h10l31 156l253 535h302l-469 -899v-535h-281v532zM238 1634q0 53 37 86t119 33q80 0 116.5 -32.5t36.5 -86.5q0 -53 -37 -84.5t-116 -31.5q-82 0 -119 31.5t-37 84.5zM676 1634q0 53 37 86t117 33q82 0 118.5 -32.5t36.5 -86.5 q0 -53 -36.5 -84.5t-118.5 -31.5q-80 0 -117 31.5t-37 84.5z" />
<glyph unicode="&#x237;" horiz-adv-x="548" d="M141 1024h267v-1067q0 -186 -74 -284.5t-236 -98.5q-61 0 -131 14v224q8 0 14.5 -1t12.5 -1q92 0 119.5 59t27.5 164v991z" />
<glyph unicode="&#x2c6;" horiz-adv-x="901" d="M123 1126l252 373h176l227 -373h-211l-80 136l-34 100l-35 -100l-92 -136h-203z" />
<glyph unicode="&#x2d9;" horiz-adv-x="585" d="M123 1313q0 59 44 101t122 42t126 -42t48 -101t-48 -99t-126 -40t-122 40t-44 99z" />
<glyph unicode="&#x2da;" horiz-adv-x="700" d="M123 1325q0 86 58.5 141.5t168.5 55.5q104 0 166 -50.5t62 -146.5q0 -80 -60.5 -136t-167.5 -56q-109 0 -168 52t-59 140zM270 1325q0 -33 24.5 -50.5t55.5 -17.5q35 0 57.5 16.5t22.5 51.5t-23.5 52.5t-56.5 17.5q-31 0 -55.5 -16.5t-24.5 -53.5z" />
<glyph unicode="&#x2dc;" horiz-adv-x="925" d="M123 1348q63 76 117.5 104.5t103.5 28.5q41 0 79 -14.5t75 -30.5l71 -31q35 -14 72 -14q29 0 58.5 12t62.5 43l41 -143q-59 -66 -109.5 -90.5t-97.5 -24.5q-41 0 -80 13t-76 29.5t-73.5 30t-73.5 13.5q-31 0 -63.5 -13.5t-67.5 -46.5z" />
<glyph unicode="&#x2000;" horiz-adv-x="890" />
<glyph unicode="&#x2001;" horiz-adv-x="1781" />
<glyph unicode="&#x2002;" horiz-adv-x="890" />
<glyph unicode="&#x2003;" horiz-adv-x="1781" />
<glyph unicode="&#x2004;" horiz-adv-x="593" />
<glyph unicode="&#x2005;" horiz-adv-x="444" />
<glyph unicode="&#x2006;" horiz-adv-x="296" />
<glyph unicode="&#x2007;" horiz-adv-x="296" />
<glyph unicode="&#x2008;" horiz-adv-x="221" />
<glyph unicode="&#x2009;" horiz-adv-x="356" />
<glyph unicode="&#x200a;" horiz-adv-x="98" />
<glyph unicode="&#x2010;" horiz-adv-x="737" d="M111 471v236h514v-236h-514z" />
<glyph unicode="&#x2011;" horiz-adv-x="737" d="M111 471v236h514v-236h-514z" />
<glyph unicode="&#x2012;" horiz-adv-x="737" d="M111 471v236h514v-236h-514z" />
<glyph unicode="&#x2013;" horiz-adv-x="1351" d="M223 471v238h905v-238h-905z" />
<glyph unicode="&#x2014;" horiz-adv-x="1679" d="M223 471v238h1233v-238h-1233z" />
<glyph unicode="&#x2018;" horiz-adv-x="456" d="M78 1311q0 82 25.5 139t61.5 95t75 59.5t67 31.5l66 -110q-41 -16 -70 -52t-33 -77q41 0 75 -36t34 -95t-40 -95t-99 -36q-76 0 -119 48t-43 128z" />
<glyph unicode="&#x2019;" horiz-adv-x="456" d="M78 1319q0 59 40 96t101 37q74 0 117 -49t43 -129q0 -82 -25.5 -139.5t-61.5 -95.5t-76 -59.5t-66 -31.5l-68 113q41 18 72.5 49t35.5 78q-41 -2 -76.5 31.5t-35.5 99.5z" />
<glyph unicode="&#x201a;" horiz-adv-x="456" d="M78 127q0 59 40 96t101 37q74 0 117 -49t43 -129q0 -82 -25.5 -139.5t-61.5 -95.5t-76 -59.5t-66 -31.5l-68 113q41 18 72.5 49t35.5 78q-41 -2 -76.5 31.5t-35.5 99.5z" />
<glyph unicode="&#x201c;" horiz-adv-x="811" d="M432 1311q0 82 25.5 139t61.5 95t75 59.5t67 31.5l66 -110q-41 -16 -70 -52t-33 -77q41 0 75 -36t34 -95t-40 -95t-99 -36q-76 0 -119 48t-43 128zM78 1311q0 82 25.5 139t61.5 95t75 59.5t67 31.5l66 -110q-41 -16 -70 -52t-33 -77q41 0 75 -36t34 -95t-40 -95t-99 -36 q-76 0 -119 48t-43 128z" />
<glyph unicode="&#x201d;" horiz-adv-x="811" d="M432 1319q0 59 40 96t101 37q74 0 117 -49t43 -129q0 -82 -25.5 -139.5t-61.5 -95.5t-76 -59.5t-66 -31.5l-68 113q41 18 72.5 49t35.5 78q-41 -2 -76.5 31.5t-35.5 99.5zM78 1319q0 59 40 96t101 37q74 0 117 -49t43 -129q0 -82 -25.5 -139.5t-61.5 -95.5t-76 -59.5 t-66 -31.5l-68 113q41 18 72.5 49t35.5 78q-41 -2 -76.5 31.5t-35.5 99.5z" />
<glyph unicode="&#x201e;" horiz-adv-x="811" d="M432 127q0 59 40 96t101 37q74 0 117 -49t43 -129q0 -82 -25.5 -139.5t-61.5 -95.5t-76 -59.5t-66 -31.5l-68 113q41 18 72.5 49t35.5 78q-41 -2 -76.5 31.5t-35.5 99.5zM78 127q0 59 40 96t101 37q74 0 117 -49t43 -129q0 -82 -25.5 -139.5t-61.5 -95.5t-76 -59.5 t-66 -31.5l-68 113q41 18 72.5 49t35.5 78q-41 -2 -76.5 31.5t-35.5 99.5z" />
<glyph unicode="&#x2022;" horiz-adv-x="925" d="M150 637q0 70 24.5 127t67.5 98t99 64.5t120 23.5q66 0 123 -21.5t99 -61.5t66.5 -98t24.5 -132t-24.5 -131t-66.5 -97t-99.5 -61.5t-122.5 -21.5q-63 0 -119.5 21.5t-99.5 61.5t-67.5 97t-24.5 131z" />
<glyph unicode="&#x2026;" horiz-adv-x="1656" d="M109 135q0 72 45 114t119 42q78 0 123 -42t45 -114t-45 -115t-123 -43q-74 0 -119 43t-45 115zM666 135q0 72 45 114t119 42q78 0 123 -42t45 -114t-45 -115t-123 -43q-74 0 -119 43t-45 115zM1223 135q0 72 45 114t119 42q78 0 123 -42t45 -114t-45 -115t-123 -43 q-74 0 -119 43t-45 115z" />
<glyph unicode="&#x202f;" horiz-adv-x="356" />
<glyph unicode="&#x2039;" horiz-adv-x="628" d="M59 530l328 471l154 -127l-170 -258l-99 -84l99 -73l186 -250l-158 -131z" />
<glyph unicode="&#x203a;" horiz-adv-x="628" d="M70 872l159 129l340 -452l-327 -471l-156 125l172 260l98 84l-98 74z" />
<glyph unicode="&#x2044;" horiz-adv-x="376" d="M545 1464l174 -102l-881 -1391l-176 109z" />
<glyph unicode="&#x205f;" horiz-adv-x="444" />
<glyph unicode="&#x2081;" horiz-adv-x="843" d="M147 0h201v336l21 94l-64 -65l-121 -80l-100 157l324 228h176v-670h178v-205h-615v205z" />
<glyph unicode="&#x2082;" horiz-adv-x="843" d="M713 410q0 -121 -61.5 -207t-147.5 -164l-96 -51v-8l120 22h217v-207h-641v146l119 86q66 49 122 105t94 115.5t38 112.5q0 100 -115 101q-55 0 -104 -17.5t-86 -40.5l-70 185q72 43 153 62.5t155 19.5q145 0 224 -66.5t79 -193.5z" />
<glyph unicode="&#x2083;" horiz-adv-x="843" d="M344 -25q92 0 130 29t40 76q-2 47 -41 73.5t-143 26.5h-88v78l149 164l88 51l-119 -12h-235v194h582v-127l-181 -188l-69 -37v-10l61 6q109 -4 169.5 -64.5t62.5 -171.5q-2 -74 -32 -127t-80 -87.5t-117.5 -51t-141.5 -16.5q-78 0 -146.5 13t-117.5 36l47 184 q84 -39 182 -39z" />
<glyph unicode="&#x2084;" horiz-adv-x="843" d="M823 -45h-153v-160h-209v160h-424v137l446 580h187v-535h153v-182zM461 313l12 109h-10l-45 -100l-99 -136l-73 -65l106 16h109v176z" />
<glyph unicode="&#x20ac;" d="M4 473l66 191h100v53v33q0 16 2 32h-168l66 191h127q31 135 89 227t136 150.5t171 85t193 26.5q106 0 189.5 -16t138.5 -39l-72 -211q-45 18 -104 27.5t-139 9.5q-123 0 -211 -61.5t-133 -198.5h530l-53 -191h-510q-2 -16 -2 -31v-34v-53h471l-53 -191h-385 q41 -135 130 -203.5t236 -68.5q86 0 148.5 18.5t111.5 46.5l56 -207q-31 -23 -74 -40t-90 -27t-96.5 -15.5t-94.5 -5.5q-225 0 -379.5 120t-207.5 382h-189z" />
<glyph unicode="&#x2122;" horiz-adv-x="1941" d="M59 1208v226h750v-226h-242v-512h-266v512h-242zM879 696v738h266l186 -308l49 -129h2l52 133l172 304h264v-738h-232v295l35 211h-12l-74 -174l-139 -240h-160l-139 234l-80 180h-10l47 -209v-297h-227z" />
<glyph unicode="&#x2212;" horiz-adv-x="1079" d="M88 807h905v-229h-905v229z" />
<glyph unicode="&#xe000;" horiz-adv-x="1025" d="M0 1025h1025v-1025h-1025v1025z" />
<glyph unicode="&#xf408;" horiz-adv-x="974" d="M395 1782h197l260 -191v-80h-203l-117 84l-40 70l-43 -68l-127 -86h-199v82z" />
<glyph unicode="&#xf40d;" horiz-adv-x="1003" d="M123 1638q66 72 126 98.5t120 26.5q45 0 90 -11t87 -24.5t83 -24.5t78 -11q33 0 63.5 10t58.5 39l52 -137q-57 -53 -111.5 -75t-105.5 -22q-47 0 -90.5 11.5t-85.5 26t-82.5 25.5t-79.5 11t-77 -15.5t-77 -56.5z" />
<glyph unicode="&#xf662;" horiz-adv-x="843" d="M346 1114l23 94l-64 -65l-121 -80l-100 158l324 227h174v-875h-236v541z" />
<glyph unicode="&#xf6c9;" horiz-adv-x="784" d="M336 1782h326v-62l-328 -180h-211z" />
<glyph unicode="&#xf6cb;" horiz-adv-x="993" d="M123 1634q0 53 37 86t119 33q80 0 116.5 -32.5t36.5 -86.5q0 -53 -37 -84.5t-116 -31.5q-82 0 -119 31.5t-37 84.5zM561 1634q0 53 37 86t117 33q82 0 118.5 -32.5t36.5 -86.5q0 -53 -36.5 -84.5t-118.5 -31.5q-80 0 -117 31.5t-37 84.5z" />
<glyph unicode="&#xf6ce;" horiz-adv-x="784" d="M662 1540h-216l-323 180v62h326z" />
<glyph unicode="&#xfb01;" horiz-adv-x="1132" d="M25 799v225h141v57q0 195 100.5 284t290.5 89q141 0 251 -21.5t177 -60.5l-70 -207q-53 29 -128.5 46.5t-168.5 17.5q-59 0 -96 -13.5t-57.5 -39t-26.5 -64.5t-6 -88h576v-1024h-267v799h-309v-799h-266v799h-141z" />
<glyph unicode="&#xfb02;" horiz-adv-x="1214" d="M25 799v225h141v57q0 193 93 286t321 93q47 0 108.5 -4t121.5 -9t112.5 -11t81.5 -13v-1079q0 -72 18 -104.5t57 -32.5q25 0 48.5 4t58.5 18l31 -209q-33 -16 -101.5 -32.5t-140.5 -16.5q-117 0 -177.5 54.5t-60.5 179.5v1016q-27 6 -73 10t-89 4q-47 0 -75.5 -14.5 t-44 -41t-19.5 -66.5t-4 -89h154v-225h-154v-799h-266v799h-141z" />
<glyph unicode="&#xfb03;" horiz-adv-x="1865" d="M1454 1024h267v-1024h-267v1024zM1415 1313q0 59 44 101t122 42t126 -42t48 -101t-48 -99t-126 -40t-122 40t-44 99zM680 799v225h141v57q0 195 82 282t237 87q164 0 273 -39l-51 -213q-47 16 -83 21.5t-75 5.5q-41 0 -64.5 -12.5t-35 -38t-14.5 -63.5t-3 -87h225v-225 h-225v-799h-266v799h-141zM23 799v225h141v57q0 195 82 282t237 87q164 0 273 -39l-51 -213q-47 16 -83 21.5t-75 5.5q-41 0 -64.5 -12.5t-35 -38t-14.5 -63.5t-3 -87h225v-225h-225v-799h-266v799h-141z" />
<glyph unicode="&#xfb04;" horiz-adv-x="1916" d="M1440 205v1229h266v-1090q0 -72 18.5 -104.5t59.5 -32.5q25 0 48.5 4t57.5 18l29 -209q-33 -16 -100.5 -32.5t-138.5 -16.5q-117 0 -178.5 54.5t-61.5 179.5zM680 799v225h141v57q0 195 82 282t237 87q164 0 273 -39l-51 -213q-47 16 -83 21.5t-75 5.5q-41 0 -64.5 -12.5 t-35 -38t-14.5 -63.5t-3 -87h225v-225h-225v-799h-266v799h-141zM23 799v225h141v57q0 195 82 282t237 87q164 0 273 -39l-51 -213q-47 16 -83 21.5t-75 5.5q-41 0 -64.5 -12.5t-35 -38t-14.5 -63.5t-3 -87h225v-225h-225v-799h-266v799h-141z" />
<glyph horiz-adv-x="376" d="M700 1462l150 -135l-1180 -1356l-149 142z" />
</font>
</defs>
</svg>
