<?xml version="1.0" standalone="no"?>
<!DOCTYPE svg PUBLIC "-//W3C//DTD SVG 1.1//EN" "http://www.w3.org/Graphics/SVG/1.1/DTD/svg11.dtd" >
<svg xmlns="http://www.w3.org/2000/svg">
<metadata>
This is a custom SVG webfont generated by Font Squirrel.
Copyright   : c2005 Jakob Fischer at wwwpizzadudedk all rights reserved DO NOT DISTRIBUTE WITHOUT AUTHORS PERMISSION
</metadata>
<defs>
<font id="webfontK5MssfeB" horiz-adv-x="811" >
<font-face units-per-em="2048" ascent="1638" descent="-410" />
<missing-glyph horiz-adv-x="571" />
<glyph unicode=" "  horiz-adv-x="571" />
<glyph unicode="&#x09;" horiz-adv-x="571" />
<glyph unicode="&#xa0;" horiz-adv-x="571" />
<glyph unicode="!" horiz-adv-x="335" d="M94 90q0 43 31 70.5t74 27.5t43 -77q0 -90 -80 -91q-68 0 -68 70zM127 547l20 561q-8 18 -8 66q0 96 66 96q41 0 57 -105q0 -12 -15.5 -101t-15.5 -101v-435q10 -100 11 -112v-45q-14 -14 -37 -15q-61 0 -76 88q-2 17 -2 103z" />
<glyph unicode="&#x22;" horiz-adv-x="630" d="M84 1155q0 115 53 115q63 0 70 -68q-6 -88 -4 -262q0 -14 14 -53t12 -51v-78q-2 0 -11 -6.5t-23 -6.5q-51 0 -86 177q-25 133 -25 233zM367 1098q0 152 73 151q59 0 60 -37q0 -31 -13 -92q-12 -70 -14 -96q-4 -59 39 -143l66 -133h-46q-63 -2 -118 159q-47 130 -47 191z " />
<glyph unicode="#" horiz-adv-x="1320" d="M43 395q47 49 168 74q96 12 190 27q18 12 50 112q33 94 32 123v39q-6 6 -20 6q-49 0 -127 -47t-84 -47q-35 0 -57 37q-16 25 -17 37q0 47 154 94l164 45q35 20 69 231q33 197 86 197q18 0 41 -20.5t23 -36.5q0 -14 -53.5 -150.5t-53.5 -148.5q0 -37 5 -45.5t38 -8.5 q-8 0 69 4.5t230 6.5q57 2 64 57q0 47 2 96q6 84 10 168q10 113 37 172h70q6 -25 22 -67l-74 -383q10 -47 52 -47q8 0 25.5 2t26.5 2t46 5t51 5q61 0 61 -74q0 -25 -27.5 -59.5t-49.5 -34.5q2 0 -45 31.5t-86 31.5q-74 0 -93 -135l-4 -151l109 -29q72 -18 72 -47 q0 -31 -26 -49.5t-58 -18.5q-10 0 -35 5.5t-39 5.5q-51 0 -80 -187q-12 -111 -27 -223h-47q-57 49 -57 80l84 307q-37 43 -236 43q-258 0 -258 -192q0 -25 4.5 -70t4.5 -64q0 -61 -50 -61q-74 0 -73 68q0 12 31.5 115.5t31.5 115.5v39q-8 8 -27 8q-12 0 -112 -31.5 t-113 -31.5q-78 -1 -94 69zM524 567q0 -39 17 -53q31 14 391 12q45 154 45 219q0 59 -25 84h-231q-113 0 -158 -75q-39 -62 -39 -187z" />
<glyph unicode="$" horiz-adv-x="641" d="M53 295q0 16 21.5 41.5t36.5 30.5q59 -39 92 -52q12 18 30.5 94t18.5 121q0 31 -2 39l-103 88q-43 39 -43 88q0 43 84 127l93 91q20 41 20 145q0 319 82 319q20 0 38.5 -21.5t18.5 -39.5q0 -14 -25.5 -108.5t-27.5 -106.5v-113q70 -2 137 -2q82 -8 84 -110q-23 -4 -80 2 l-71 6q-111 0 -111 -219q0 -47 105.5 -102.5t105.5 -129.5q0 -117 -129 -207q-4 -4 -46 -14t-65 -39q-12 -12 -16 -250q-4 -215 -59 -215q-43 0 -74 90q0 10 18.5 59.5t20.5 67.5q2 72 14 220q-16 18 -102 36q-66 15 -66 64zM242 797l14 -62q27 51 27 62h-41zM319 397 q0 -37 11 -51q33 10 67 37q43 33 43 68q0 27 -32.5 57.5t-59.5 26.5q-29 -62 -29 -138z" />
<glyph unicode="%" horiz-adv-x="1136" d="M127 803q0 76 47 147q53 80 59 150q33 35 86 35q68 0 143 -82t75 -144q0 -63 -64 -174q-78 -137 -174 -137q-84 0 -133 70q-39 59 -39 135zM231 772q0 -23 16.5 -45t41.5 -22q51 0 100 79q41 72 41 113q0 14 -27.5 52t-42.5 48l-81 -86q-48 -53 -48 -139zM262 -68 q0 41 320 809l135 340q111 252 155 252q18 0 40 -21.5t22 -41.5q0 2 -64 -111q-72 -123 -102 -201l-205 -503q-127 -322 -168 -535q-10 -57 -59 -57q-74 -1 -74 69zM715 262q0 100 61 234q76 166 180 166q59 0 111 -87q47 -74 47 -124q0 -66 -96 -215q-104 -162 -182 -162 q-63 0 -99 86q-22 59 -22 102zM819 246q0 -14 6 -27.5t6 -17.5h48q55 53 92 129t37 133q0 51 -52 51q-55 0 -100 -117q-37 -96 -37 -151z" />
<glyph unicode="&#x26;" horiz-adv-x="958" d="M104 336q0 129 39 211q18 39 70 98q39 43 39 80q0 2 -37 88t-37 133q0 90 47 162q61 90 168 90q86 0 201 -53q141 -63 141 -152q0 -55 -119 -155l-159 -129q-37 -39 -37 -54q0 -35 115.5 -161.5t146.5 -126.5t55 71q18 55 19 76q0 14 -37 100t-37 101q0 23 17.5 42 t41.5 19q41 0 84 -127q35 -106 35 -139q0 -14 -29 -98q-35 -102 -45 -144l95 -67q76 -55 75 -74q0 -37 -34 -59q-27 -14 -45 -15q-12 0 -83 73t-85 73l-50 -33q-57 -37 -112 -60q-80 -33 -154 -32q-117 0 -203 76.5t-86 185.5zM211 342q0 -174 182 -174q215 37 215 111 q0 14 -104 129q-129 141 -158 180h-41q-94 -156 -94 -246zM295 946q0 -76 33 -158h47q246 158 246 199q0 47 -66 74q-51 20 -109 20q-84 0 -117.5 -30.5t-33.5 -104.5z" />
<glyph unicode="'" horiz-adv-x="286" d="M84 1155q0 115 53 115q63 0 70 -68q-6 -88 -4 -262q0 -14 14 -53t12 -51v-78q-2 0 -11 -6.5t-23 -6.5q-53 0 -86 177q-25 133 -25 233z" />
<glyph unicode="(" horiz-adv-x="460" d="M63 567q0 45 46 244q55 246 120 403q92 213 187 213q53 0 76 -22q2 -2 2 -6q0 -20 -70 -99q-84 -94 -107 -133q-80 -129 -147 -407q-12 -53 -12 -182q0 -172 84 -330t192 -191q59 -63 60 -94q0 -20 -23 -67h-80q-147 141 -237.5 324t-90.5 347z" />
<glyph unicode=")" horiz-adv-x="733" d="M104 1413q0 18 19.5 43t38.5 25q35 0 88 -66l78 -104q166 -190 256 -420q78 -205 78 -391q0 -90 -46 -285q-23 -90 -110 -246q-94 -168 -144 -168q-33 0 -53 27q-14 20 -14 41q0 47 45 94q76 74 109 129q119 193 118 469q0 195 -102 387q-37 72 -121 199q-23 35 -139 143 q-101 94 -101 123z" />
<glyph unicode="*" horiz-adv-x="1015" d="M115 977q0 41 73 41q14 0 122 -15.5t120 -15.5q16 0 29.5 26.5t13.5 47.5q0 12 -26.5 122.5t-26.5 123.5q0 18 15.5 38.5t33.5 18.5h66q12 -35 24 -195q10 -129 57 -192q174 -4 261 12q8 2 33.5 21.5t39.5 19.5q25 0 57.5 -22.5t32.5 -46.5q0 -20 -23.5 -54.5 t-39.5 -34.5q-14 0 -19.5 10.5t-19.5 10.5h-268l-29 -29q8 -51 104 -153q117 -125 136 -158v-49h-76q-47 0 -174 152.5t-131 152.5q-45 0 -152 -125q-96 -115 -108 -158h-70q0 4 -6 17.5t-6 27.5q0 33 96 150l135 156q-35 41 -121 47q-135 12 -138 14t-9 13.5t-6 25.5z" />
<glyph unicode="+" horiz-adv-x="983" d="M137 623q0 14 35 49h262q25 27 25 90q0 20 -3 60t-3 61q0 115 98 114q4 0 57 -22v-37q0 -14 -6 -16t-8 -4q-31 -61 -35 -89q-2 -8 -2 -63v-49q4 -23 29 -45h243q16 0 19.5 9t5.5 11h57q35 -68 35 -88q0 -16 -11 -29.5t-13 -14.5t-20.5 -7t-35.5 -6q-12 0 -109.5 20.5 t-111.5 20.5q-55 0 -78 -27q2 -4 25 -119q18 -90 47 -151v-37q-61 -23 -98 -23q-43 0 -47 93q-8 154 -13 172q-23 92 -108 92q-10 0 -65.5 -5t-71.5 -5q-66 0 -99 45z" />
<glyph unicode="," horiz-adv-x="286" d="M84 -188v-78q4 0 12 -6.5t25 -6.5q51 0 84 177q25 133 24 233q0 115 -51 115q-66 0 -69 -68q4 -88 4 -262q-2 -14 -15.5 -53t-13.5 -51z" />
<glyph unicode="-" d="M104 608q0 31 35 54q29 20 56 20q12 0 41.5 -10t42.5 -10q35 0 170 14q164 18 251 39q35 -37 35 -64q0 -29 -17.5 -51t-39.5 -22q-14 0 -71.5 5t-69.5 5q-14 0 -187.5 -15.5t-187.5 -15.5q-16 0 -37 17.5t-21 33.5z" />
<glyph unicode="." horiz-adv-x="333" d="M115 236q29 111 69 110q35 0 61.5 -32.5t26.5 -67.5q0 -27 -31.5 -63t-45.5 -36q-35 0 -57.5 27t-22.5 62z" />
<glyph unicode="/" horiz-adv-x="520" d="M84 131q0 -2 61 131q68 147 92.5 235.5t247.5 815.5h37q35 -18 35 -58q0 -41 -158 -561q-166 -551 -172 -585q-4 -16 -20 -39q-23 -27 -45 -27q-16 0 -47 34t-31 54z" />
<glyph unicode="0" horiz-adv-x="854" d="M84 373q0 201 84 458q115 354 305 355q156 0 252 -215q74 -164 74 -309q0 -211 -99 -386q-123 -223 -354 -223q-143 0 -211 107q-51 84 -51 213zM168 426q0 -106 37 -186q49 -102 141 -103q168 0 275 207q84 166 84 318q0 135 -52 231q-53 109 -196 221 q-104 -57 -199 -301q-90 -227 -90 -387z" />
<glyph unicode="1" horiz-adv-x="585" d="M74 940l125 109q133 119 166 168q39 57 92 96q20 -14 38.5 -50t18.5 -44q0 31 -20.5 -191.5t-20.5 -527.5q0 -176 12 -359q0 -2 14.5 -16t14.5 -31q0 -63 -68 -63q-72 0 -71 63q0 8 2 24.5t2 24.5v396q0 14 10 169.5t10 168.5q0 96 0 90q-4 53 -28 94q-25 -12 -113 -107 q-78 -82 -111 -82q-25 0 -49 24t-24 44z" />
<glyph unicode="2" horiz-adv-x="808" d="M106 926v80q94 129 183.5 181t204.5 52q168 0 168 -231q0 -227 -336 -813q45 -39 221 -56q199 -20 282 -57v-37q-39 -45 -84 -45q-8 0 -78.5 13.5t-105.5 13.5q-115 4 -344 18q-59 4 -59 76q90 135 207 328l124 268q78 180 78 254q0 164 -100 164q-84 0 -148 -60 q-33 -33 -83 -112q-37 -59 -58 -60q-25 0 -72 23z" />
<glyph unicode="3" horiz-adv-x="954" d="M63 76v53q0 27 48 55l63 37q55 -86 90 -86h21q14 2 24 2q127 0 279 66q201 90 200 233q0 94 -243 137q-147 14 -297 31l-6 88q307 125 463 352q-12 14 -84 33q-63 14 -84 15q-84 0 -188.5 -47.5t-106.5 -47.5q-14 0 -35 12l-39 21v60q33 39 162 69q117 27 207 27 q43 0 162.5 -20.5t129.5 -32.5q25 -150 -335 -424l233 -101q166 -78 166 -168q0 -180 -213 -301q-170 -96 -313 -96q-152 0 -304 33z" />
<glyph unicode="4" horiz-adv-x="878" d="M84 500q0 66 29.5 295t46.5 286h43q23 0 46 -31.5t23 -45.5q0 -12 -20 -58q-25 -51 -29 -69q-25 -111 -24 -304q147 -66 340 -59q29 18 36 78l9 86q18 133 34 268q37 209 97 209q49 0 51 -68q0 -12 -21 -61q-25 -55 -28 -78q-51 -225 -66 -405q16 -18 31 -19q27 0 78 54 q49 -20 49 -64q0 -47 -59 -78q-45 -20 -88 -43q-4 -82 39.5 -158.5t43.5 -93.5q0 -98 -73 -98q-57 0 -74 96q-8 92 -18 183q-16 98 -82 98h-281q-45 0 -84 18q-49 23 -49 62z" />
<glyph unicode="5" horiz-adv-x="1052" d="M84 188q0 43 70 105q8 -104 151 -150q90 -29 215 -28q139 0 250 67q133 82 133 221q0 121 -166 185q-113 43 -227 43q-12 0 -54 -5t-57 -5q-33 0 -63.5 20.5t-30.5 36.5q-2 37 12.5 133t14.5 143q0 113 -58 162l11 80l321 -20q141 -10 244 -54v-37q-29 -35 -145 -34 q-14 0 -90 10t-91 10q-82 0 -100 -139l-4 -158l239 -61q158 -47 240 -111q109 -84 109 -213q0 -184 -191 -289q-143 -80 -280 -80q-86 0 -248 46q-205 54 -205 122z" />
<glyph unicode="6" horiz-adv-x="724" d="M84 467q0 147 55 344q82 291 228 291q49 0 114 -43q4 -23 -47 -49l-80 -37q-84 -49 -141 -203q-20 -53 -33 -145q-18 -133 -22 -156q4 -6 12 -9t14 -9q154 127 262 127q115 0 191 -109q68 -92 68 -190q0 -92 -70 -181q-78 -98 -178 -98q-205 0 -299 160q-74 123 -74 307z M221 231q0 -53 98 -94q78 -33 121 -33q74 0 125 72q43 61 43 123q0 43 -22 92q-37 72 -103 72q-39 0 -116 -39q-98 -47 -103 -47q0 -53 -21.5 -97.5t-21.5 -48.5z" />
<glyph unicode="7" horiz-adv-x="907" d="M74 1055q0 82 256 141q193 43 291 43q72 0 71 -57q0 16 -61 -494q33 -33 114 -31q90 0 127 -20q-45 -47 -116 -62q-47 -8 -94 -18q-37 -16 -31 -80q0 -162 -4 -262q-2 -70 -5.5 -102.5t-3.5 -26.5q-4 0 -9 -6t-21 -6q-78 0 -78 131q0 55 16.5 163.5t16.5 139.5t-11 41 q-10 18 -106 18q-14 0 -71.5 -10t-71.5 -10q-31 0 -60 31q-25 25 -24 36q0 78 73 78q14 0 88 -10t86 -10q84 0 107 28q2 74 14 226q10 143 11 151q0 37 -29 45q-4 2 -39 2q-96 0 -184 -37q-55 -20 -121 -65q-53 -35 -64 -35q-18 0 -42.5 24t-24.5 44z" />
<glyph unicode="8" horiz-adv-x="696" d="M53 168q0 84 74 182q37 51 135 148q74 74 74 96q0 8 -72 100q-117 152 -117 267q0 104 119 165q94 49 191 50q106 0 187 -66t81 -160q0 -74 -121 -220t-121 -142q0 -6 52.5 -84t52.5 -148q0 -143 -158 -215q-106 -47 -225 -47q-152 0 -152 74zM190 201q4 0 17.5 -6.5 t28.5 -6.5q66 0 145 48q102 61 102 147q0 37 -22.5 79t-57.5 42q-33 0 -124 -116t-89 -142v-45zM262 913q0 -47 62 -129q49 -70 90 -102q55 31 131 128t76 140q0 45 -50 68q-25 -18 -92 -41q-27 18 -27.5 44t-2.5 50q-187 -43 -187 -158z" />
<glyph unicode="9" horiz-adv-x="837" d="M94 860q0 143 123 225q106 70 250 70q14 0 87 -20.5t87 -20.5q10 0 33.5 4t46.5 4q37 -37 37 -108q0 -25 -6 -43q-27 -106 -27 -350q0 -266 31 -545h-105v295q-2 27 -14 317q-2 57 -25 90l-120 -98q-55 -39 -140 -39q-100 0 -174 57q-84 64 -84 162zM199 860 q0 -115 137 -115q51 0 168 76q127 84 125 150v65q-94 4 -133 4q-88 0 -166 -28q-131 -46 -131 -152z" />
<glyph unicode=":" horiz-adv-x="333" d="M115 236q29 111 69 110q35 0 61.5 -32.5t26.5 -67.5q0 -27 -31.5 -63t-45.5 -36q-35 0 -57.5 27t-22.5 62zM115 645q29 111 69 111q35 0 61.5 -33t26.5 -68q0 -27 -31.5 -62.5t-45.5 -35.5q-35 0 -57.5 26.5t-22.5 61.5z" />
<glyph unicode=";" horiz-adv-x="333" d="M90 -88v-78q4 0 12.5 -6t24.5 -6q51 0 84 176q25 131 25 233q0 115 -52 115q-66 0 -69 -67q4 -90 4 -263q-2 -14 -15.5 -53t-13.5 -51zM115 645q29 111 69 111q35 0 61.5 -33t26.5 -68q0 -27 -31.5 -62.5t-45.5 -35.5q-35 0 -57.5 26.5t-22.5 61.5z" />
<glyph unicode="&#x3c;" horiz-adv-x="665" d="M63 604q0 14 209 214t242 200q39 0 84 -45q-8 -27 -199 -172q-178 -139 -178 -203q0 -45 220.5 -249t220.5 -228q0 -31 -23 -54.5t-45 -23.5q-4 0 -170 172l-279 280q-82 78 -82 109z" />
<glyph unicode="=" horiz-adv-x="757" d="M94 735q0 31 35 60l469 45q35 0 71 -34t36 -54q0 -18 -20.5 -32.5t-43.5 -14.5q-14 0 -76.5 10t-77.5 10q-102 0 -214.5 -31.5t-98.5 -31.5q-29 0 -54.5 25t-25.5 48zM137 487q0 45 221 78q164 23 240 23q68 0 94 -35q-8 -25 -33.5 -50.5t-44.5 -27.5q-133 -12 -231 -16 q-23 -2 -90.5 -25.5t-77.5 -23.5q-31 0 -54.5 25t-23.5 52z" />
<glyph unicode="&#x3e;" horiz-adv-x="714" d="M115 111l231 266q137 162 168 248q-281 182 -367 346l13 78h80q39 -68 129 -189l157 -104q145 -98 146 -121q0 -23 -226.5 -297.5t-257.5 -274.5q-26 1 -73 48z" />
<glyph unicode="?" horiz-adv-x="946" d="M74 987q0 174 207 285q160 82 303 82q117 0 217 -58q123 -74 123 -198q0 -135 -136 -275q-74 -76 -251 -200q-2 -14 -2 -82q0 -47 -25 -78q-27 8 -79 79.5t-52 102.5q0 47 76 86l127 49q76 33 156.5 141.5t80.5 176.5q0 86 -104 135q-76 37 -144 37q-113 0 -237 -74 q-145 -86 -146 -203q0 -23 37 -80q31 -49 47 -65v-49h-112l-76 108q-10 23 -10 80zM473 137q0 27 24.5 60.5t53.5 33.5q23 0 40 -31.5t17 -47.5q0 -29 -22.5 -53.5t-48.5 -24.5q-64 0 -64 63z" />
<glyph unicode="@" horiz-adv-x="1353" d="M74 473q0 166 24 258q39 150 263.5 319t390.5 169q215 0 391 -183q170 -176 170 -381q0 -111 -43 -221q-55 -152 -156 -151q-133 0 -291 241q-25 -12 -155 -116q-98 -82 -164 -82q-53 0 -89 43t-36 88q0 102 129 231q70 68 147 96q37 0 105 17q16 8 47 47q25 35 39 35 q51 0 67 -123q25 -197 35 -228q39 -123 150 -122q111 0 110 204q0 219 -143 364.5t-350 145.5q-12 0 -68 -24q-63 -27 -84 -33q-74 -20 -205 -139q-139 -127 -155 -209q-35 -158 -35 -215q0 -240 229 -342q150 -68 375 -68q106 0 158 43l37 -37q-20 -49 -101 -82 q-63 -29 -104 -28q-236 0 -426 94q-262 129 -262 389zM494 477q0 -12 24 -35q82 4 168 95q72 74 102 151l-12 35q-33 6 -151 -76q-131 -94 -131 -170z" />
<glyph unicode="A" horiz-adv-x="1372" d="M74 162q0 41 69 71q78 35 84 48q113 203 277 540q158 324 158 344q0 10 -20.5 52.5t-20.5 64.5q0 39 12 61h43q27 0 119 -198l114 -254q47 -96 158 -305l37 -70q25 -43 49 -63q10 -8 45 -14.5t45 -12.5q35 -23 35 -68q0 -29 -27 -51q8 -39 92 -158.5t84 -132.5 q0 -70 -57 -69q-53 0 -98 102l-82 187q-55 100 -135 100q-135 0 -432 -64.5t-330 -105.5q-16 -20 -47 -88q-39 -90 -49 -109h-33q-45 0 -90 193zM362 322l676 120v37l-319 561z" />
<glyph unicode="B" horiz-adv-x="1230" d="M74 1202q0 104 252 195q207 74 305 73q127 0 231 -34q156 -51 156 -160q0 -106 -146 -266q-121 -135 -243 -209q0 -8 18 -21q133 0 275 -32q264 -57 264 -197q0 -248 -344 -399q-252 -109 -453 -109q-115 0 -262 20q-12 61 -12 426v334q0 12 -20.5 189.5t-20.5 189.5z M178 1061q0 -18 15 -131q14 -133 18 -185h98q131 0 361 173q244 184 243 331q0 70 -129 113q-100 35 -176 35q-131 0 -264 -80q-166 -100 -166 -256zM201 598q16 -172 35 -342q31 -141 210 -141q147 0 369 114q266 141 266 318q0 76 -221 123q-158 35 -266 35 q-104 0 -205 -33z" />
<glyph unicode="C" horiz-adv-x="1103" d="M94 635q0 141 160 291q133 125 332 217q182 86 280 86q111 0 200 -65.5t89 -166.5q0 -47 -45 -114h-57q-2 53 -27 159q-16 37 -92 62q-61 20 -98 20q-74 0 -222 -63q-168 -74 -278 -170q-137 -121 -137 -246q0 -236 323 -340q193 -63 402 -63q63 0 145 8q0 -2 6 -13.5 t6 -25.5q0 -74 -120 -74q-250 0 -500 92q-367 138 -367 406z" />
<glyph unicode="D" horiz-adv-x="1220" d="M94 1108q0 92 193 152q137 43 217 43q184 0 407 -111q274 -137 275 -332q0 -238 -199 -471q-195 -225 -485 -340q-178 -70 -197 -69q-102 0 -102 124q0 8 4 60q2 58 2 161q0 172 -6 468q-4 109 -27 249q-16 12 -57 27q-25 8 -25 39zM285 1151q10 -29 10 -86l20 -903 q0 -23 16.5 -40.5t35.5 -17.5q211 0 462.5 244t251.5 471q0 174 -209 295q-182 104 -372 105q-76 0 -92 -7q-2 0 -123 -61z" />
<glyph unicode="E" horiz-adv-x="976" d="M104 561q0 51 33 60q57 12 84 36q0 127 -24 365q-6 31 -44 52.5t-38 64.5q0 33 47 53q37 16 74 16q10 0 52 -11t64 -11l410 53l94 -29q57 -23 57 -61q0 -47 -41 -47q-14 0 -58 21.5t-58 21.5q-117 0 -422 -55q-39 -41 -39 -144q0 -164 -2 -158q6 -96 41 -137l575 64 q6 0 56 -23v-61q-57 -53 -78 -53q-6 0 -93 21.5t-102 21.5q-39 0 -172 -27q-162 -31 -205 -64q29 -78 31 -196q0 -106 19 -135q31 -51 149 -52h201q12 0 124.5 20.5t127.5 20.5q18 0 40.5 -16t22.5 -35q0 -49 -45 -61q-10 -2 -65 -2q-57 0 -86 10l-492 -64q-27 4 -56.5 35 t-31.5 43v21q0 127 -23 377q-10 6 -30 2q-33 -4 -39 -4q-25 0 -41.5 21t-16.5 46z" />
<glyph unicode="F" horiz-adv-x="929" d="M74 655q0 16 5 26.5t9 20.5q23 14 98 52q12 86 13 139q0 68 -5.5 77t-89.5 70v60q33 23 89 86h43q6 0 34.5 -20.5t61.5 -20.5l598 53q18 0 37.5 -24.5t19.5 -45.5q0 -18 -19.5 -42.5t-37.5 -24.5q-6 0 -114.5 20.5t-133.5 20.5q-111 0 -223 -21q-119 -25 -166 -59v-268 q47 -39 170 -39q10 0 114.5 10t114.5 10q27 0 123 -20q90 -18 109 -25v-39q-31 -18 -103 -18q-43 0 -136 9t-128 9q-55 0 -235 -35q-27 0 -27 -129q-1 -40 -1 -77q0 -110 5 -184q5 -82 6 -82v3q0 -53 -26 -65q-33 -8 -64 -19q-35 23 -35 160q0 70 13 203q6 70 6 114 q0 26 -2 42q-8 10 -72 26q-51 14 -51 47z" />
<glyph unicode="G" horiz-adv-x="1212" d="M74 561q0 238 190 465q207 244 461 244q143 0 234.5 -78t91.5 -221q0 -68 -21 -125q-27 -80 -80 -80q-18 0 -37.5 19.5t-19.5 39.5l27 52q27 51 26 110q0 100 -78 154q-66 45 -159 45q-223 0 -385 -217q-145 -193 -146 -398q0 -176 127 -270q111 -80 289 -80q57 0 145 23 q111 27 144 65v41q-147 123 -164 123q-12 0 -128 -37t-128 -37t-64 23v70q12 12 35 28q115 12 414 53q264 35 276 35q37 0 72 -33v-38q-37 -33 -68 -33q-8 0 -53 4q-19 1 -36 1t-31 -1q-39 -2 -76 -12q-8 6 -8 -19q0 -12 42 -72.5t42 -72.5q0 -104 -187 -158 q-125 -37 -223 -37q-213 0 -354 92q-170 113 -170 332z" />
<glyph unicode="H" horiz-adv-x="1124" d="M94 635q0 14 19.5 49t23.5 47l-10 557q23 25 47 25q35 -27 47 -248l12 -352q145 -51 166 -51q-5 0 -4 0q0 1 70 5q88 5 274 5q49 12 95 12q16 0 36.5 -2t24.5 -2q19 0 19 40q0 7 -1 15l-41 320v276q37 45 74 45q61 0 62 -57q0 -14 -20.5 -111.5t-20.5 -109.5 q0 -70 22 -211q25 -164 53 -219q-27 -84 -26 -209q0 -84 16 -244q0 -8 14.5 -29.5t14.5 -33.5q0 -33 -25.5 -61t-48.5 -28q-20 0 -59 46q20 80 20 176v-2q-1 0 -14 215q-2 55 -37 65q-92 25 -246 25q-213 0 -401 -25q-33 -59 -33 -145q0 -41 11.5 -128t11.5 -130 q0 -86 -33 -148h-70q2 18 0 58v53v448q0 12 -21.5 32t-21.5 32z" />
<glyph unicode="I" horiz-adv-x="870" d="M104 1087q0 8 35 64q88 18 252 49q18 12 43 49q12 20 49 21q12 0 59.5 -10.5t61.5 -10.5q12 0 75.5 16.5t76.5 16.5q53 0 53 -80q0 -31 -25 -78h-32q-12 0 -39 20.5t-41 20.5q-59 0 -113 -28q-12 -98 -12 -324l10 -555q10 -59 47 -59q8 0 108.5 16t151.5 21l6 -89 q-53 -27 -149 -36q-139 -14 -168 -21q-43 -8 -158 -47q-104 -33 -116 -33q-37 0 -61 23q-19 18 -19 45q0 7 2 14q37 37 108.5 42t114.5 37t43 202q0 39 -2 105.5t-2 88.5q0 238 -2 264q-6 174 -39 283q-29 -8 -133 -49q-94 -35 -105 -35q-80 0 -80 57z" />
<glyph unicode="J" horiz-adv-x="1060" d="M53 1063v59q186 20 559 78q16 2 52 25.5t51 23.5q10 0 39.5 -10t44.5 -10q12 0 59 5t60.5 5t74 21.5t72.5 21.5q16 0 43 -18.5t27 -34.5q0 -23 -19.5 -53.5t-38.5 -30.5q-12 0 -38.5 10t-41.5 10q-68 0 -188 -37q23 -94 109 -315q49 -131 49 -272q0 -197 -84 -328 q-104 -160 -312 -160q-92 0 -254 68q-180 76 -180 147q0 49 15.5 67.5t113.5 84.5q6 0 19.5 -6t17.5 -6v-37q2 -8 -24.5 -43t-26.5 -49q0 -41 135 -97q115 -45 137 -45h84q141 0 213 164q51 115 51 236q0 145 -88 358q-84 207 -143 229l-514 -84h-4q-25 0 -70 23z" />
<glyph unicode="K" horiz-adv-x="1009" d="M117 741v506h102q-16 -51 -16 -117q0 -41 8 -118q8 -84 8 -123q4 -2 5 -9.5t18 -7.5q92 0 342 175q231 164 260 213q37 -12 100 -56q0 -4 -6 -25.5t-8 -31.5l-373 -217q-262 -152 -262 -164q0 -16 268 -229q379 -297 455 -361v-70q-47 -43 -68 -43q-16 0 -22 5.5t-10 9.5 q-8 59 -296 306t-354 247q-35 0 -39 -49q0 5 1 5t1 -73q0 -176 37 -300t37 -130q0 -33 -22.5 -58.5t-40.5 -25.5t-39 15.5t-23 31.5q-12 102 -33 621q0 8 -15 34.5t-15 38.5z" />
<glyph unicode="L" horiz-adv-x="862" d="M127 162q0 10 11.5 79.5t11.5 100.5q2 80 16 250q12 162 12 170q0 213 -20.5 314.5t-20.5 115.5q0 25 21.5 41t46.5 16q59 0 59 -362q0 -98 -8 -367q-4 -133 -4 -215q0 -55 2 -88q53 -39 82 -39q14 0 258 16.5t256 16.5q33 0 53.5 -25.5t20.5 -44.5q0 -57 -52 -57 q-14 0 -131.5 10t-132.5 10q-12 0 -188 -20.5t-189 -20.5q-104 1 -104 99z" />
<glyph unicode="M" horiz-adv-x="1353" d="M63 1102q0 35 26 70.5t48 35.5q45 0 70 -37q-1 -7 -1 -15q0 -43 36 -116q39 -74 86 -129q88 -102 225 -233t156 -131q37 0 147 192l150 267q59 98 79 196q33 16 39 17q25 0 58 -29q29 -158 75 -658q45 -473 46 -569q0 -78 -68 -78q-45 0 -57 76q-2 16 -2 98v385 q0 274 -60 523q-20 -25 -207 -320q-156 -248 -211 -248q-16 0 -231 222l-231 239q-14 14 -15 -10v-594q0 -12 10.5 -104.5t10.5 -104.5q0 -45 -80 -90q-45 33 -45 98q0 20 10 86l10 447q0 6 -7 141t-7 191q-2 86 -31 124t-29 58z" />
<glyph unicode="N" horiz-adv-x="1341" d="M74 1135q0 37 33.5 60.5t70.5 23.5q39 0 62 -17q68 -180 317 -444l477 -475q45 25 70 120l33 160q29 106 39 221q8 78 14 156q16 126 16 176q0 15 -2 23q-14 80 -14 84q0 59 55 59q29 0 53.5 -32.5t24.5 -63.5q0 -68 -86 -561q-94 -541 -139 -541q-14 0 -344 348 l-527 545l88 -893q0 -14 -34 -84q-102 16 -103 55q0 10 5 25.5t5 19.5v260q0 217 -57 510q-52 267 -57 267q0 1 0 -2z" />
<glyph unicode="O" horiz-adv-x="1247" d="M127 494q0 90 66 274q78 217 184 356q133 178 274 179q109 0 215 -80q8 -14 8 -47q0 -74 0 -56q158 -141 244 -348q68 -172 68 -326q0 -227 -152 -335q-125 -90 -342 -91q-225 0 -385 115q-180 132 -180 359zM221 547q0 -432 471 -432q145 0 262 73q147 92 148 263 q0 66 -45 217q-49 166 -96 223q-33 39 -152 143q-94 80 -129 152q-9 1 -18 1q-147 0 -297 -247q-144 -235 -144 -393z" />
<glyph unicode="P" horiz-adv-x="1007" d="M94 1077q0 76 137 119q98 33 172 33q129 0 336 -80q268 -104 269 -246q0 -164 -179 -299q-125 -96 -344 -180l-223 -86v-303q0 -16 12.5 -22.5t12.5 -10.5q0 -12 -70 -96q-27 10 -35 16q-18 12 -21 28.5t-3 37.5q0 31 8 100.5t8 95.5q0 37 -10 115t-10 117v524 q0 20 -30 73.5t-30 63.5zM252 850q0 -266 33 -387q66 2 202 55q170 63 277 148q139 111 139 231q0 104 -223 184q-174 63 -264 64q-127 0 -156 -96q-8 -31 -8 -199z" />
<glyph unicode="Q" horiz-adv-x="1179" d="M63 426q0 283 127 496q143 233 402 299q10 2 49 20.5t51 18.5q109 0 266 -193q129 -162 140 -211q37 -166 37 -201q0 -137 -74 -260q-49 -80 -137 -162q-74 -70 -74 -75q0 -57 61 -86q10 -4 76 -21v-69q-53 -55 -90 -56q-31 0 -72 84t-84 84q6 0 -84 -31.5t-194 -31.5 q-400 0 -400 395zM147 473q0 -369 299 -369q72 0 226 66v37l-103 155q-76 121 -75 168q0 23 18 58h29q55 -23 63 -35l29 -76q37 -92 127 -235q86 16 188.5 159.5t102.5 249.5q0 86 -80 246q-98 195 -209 195q-14 0 -27.5 -20.5t-25.5 -20.5t-62.5 36.5t-62.5 36.5 q-199 0 -332 -276q-105 -213 -105 -375z" />
<glyph unicode="R" horiz-adv-x="1085" d="M63 1055q0 119 267 188q184 49 305 49q137 0 246 -59q137 -76 137 -215q0 -162 -199 -307q-164 -117 -346 -160q53 -51 213 -147.5t234 -167.5l59 -59q31 -30 55 -30q23 0 33 11q25 -76 25 -95q0 -74 -62 -73q-137 131 -258 229q-295 240 -491 295q-18 -16 -19 -74 l51 -428q-2 0 -19.5 -6t-31.5 -6q-70 0 -88 477l-4 225q-4 141 -27 259q-4 18 -42 40.5t-38 53.5zM242 930q0 -160 8 -187q25 -92 139 -92q158 0 322 90q203 109 202 277q0 82 -86 139q-78 51 -159 51q-104 0 -217 -24q-141 -31 -185 -82q-24 -31 -24 -172z" />
<glyph unicode="S" horiz-adv-x="1155" d="M74 221q0 90 123 105q4 -7 3 -38q0 -20 -1 -50q160 -123 379 -123q123 0 253 57q176 76 177 207q0 88 -244 192q-61 25 -277 97q-166 55 -208 80q-111 61 -111 161q0 143 233 258q190 92 304 93q88 0 163 -48q88 -55 88 -141q0 -49 -16 -102q-20 -66 -53 -66 q-12 0 -28.5 6t-27.5 6q10 96 11 125q0 61 -32 88t-122 27q-80 0 -225 -63q-180 -80 -180 -172q0 -100 215 -170l401 -129q215 -98 215 -265q0 -150 -215 -254q-168 -82 -295 -82q-86 0 -280 52q-250 67 -250 149z" />
<glyph unicode="T" horiz-adv-x="901" d="M94 1106v47q23 23 36 27t368 26q344 23 399 23q27 0 48.5 -17.5t21.5 -40.5q0 -35 -27 -62.5t-47 -27.5q-16 0 -25 11l-14 18q-98 25 -192 25q-125 0 -125 -205q0 -215 57 -493.5t57 -284.5q0 -119 -47 -132q-61 14 -67.5 88t-8.5 148q-88 489 -88 791v59q-14 18 -78 18 q-12 0 -104 -21.5t-106 -21.5q-9 0 -58 25z" />
<glyph unicode="U" horiz-adv-x="1155" d="M127 731v399q25 55 72 56q63 0 63 -68q0 -12 -20.5 -161.5t-20.5 -163.5q0 -190 74 -381q106 -274 313 -275q213 0 320 307q70 207 69 422q0 12 -30.5 116.5t-30.5 115.5v45q47 23 61 22q39 0 66 -65q18 -49 18 -86v-264q0 -221 -110 -443q-139 -276 -363 -276 q-223 0 -368 280q-113 221 -113 420z" />
<glyph unicode="V" horiz-adv-x="1155" d="M137 1040q0 14 6.5 30.5t6.5 21.5q8 0 79 10l166 -467q94 -244 232 -436q78 39 209 379q121 311 157 522q23 37 64 55q66 -66 88 -111q-31 -23 -72 -75l-215 -553q-160 -395 -207 -396q-63 0 -196 259q-98 193 -217 485q-101 253 -101 276z" />
<glyph unicode="W" horiz-adv-x="1421" d="M74 1139q0 43 67 47q76 0 76 -55q0 -27 -2 -77t-2 -73q0 -477 139 -739q74 63 150 311l92 346q11 33 10 95v22v27q0 65 8 98q4 16 30 41.5t46 25.5q51 0 74 -67l141 -498q92 -291 238 -412q55 23 86 211q27 154 26 346q0 92 -8 152q-2 14 -10 49t-8 49q0 43 55 43 q18 0 51 -17t33 -40q0 -12 -14.5 -41t-14.5 -43l-4 -229q-8 -248 -41 -402q-49 -215 -141 -215q-35 0 -115 86q-90 98 -178 324l-141 389q-14 2 -23 -8q-63 -178 -114 -383q-43 -168 -72 -232q-45 -98 -154 -217h-3q-58 0 -128 213q-20 66 -82 391q-67 365 -67 482z" />
<glyph unicode="X" horiz-adv-x="1067" d="M74 1171q0 57 67 58q25 0 230 -246l213 -258q31 31 161 258q121 215 138 215q33 0 58.5 -25.5t25.5 -44.5q0 4 -152.5 -229t-152.5 -264q0 -47 142 -210t202 -177q45 -51 45 -107q0 -14 -17 -43q-20 -35 -41 -35q-14 0 -30.5 6.5t-24.5 8.5q-57 104 -324 446 q-98 -76 -288 -413q4 -8 22.5 -21.5t18.5 -26.5q0 -20 -30 -46.5t-50 -26.5h-107q0 4 -6 23.5t-6 33.5q0 27 184.5 275.5t184.5 285.5q0 23 -134 183q-33 39 -204 227q-125 137 -125 153z" />
<glyph unicode="Y" horiz-adv-x="1173" d="M94 1155q0 27 24.5 45.5t49.5 18.5q33 0 49 -25q31 -98 156 -305q164 -268 268 -268q55 0 239.5 299t206.5 299q23 0 40.5 -33t17.5 -58q0 -4 -113 -165q-125 -180 -166 -256q-2 -6 -38.5 -43t-47.5 -72q-35 -106 -35 -303q0 -86 21.5 -149.5t21.5 -55.5q0 -63 -69 -64 q-59 0 -74 201l-8 244l-180 172q-104 106 -170 194q-53 74 -123 190t-70 134z" />
<glyph unicode="Z" horiz-adv-x="950" d="M104 78q0 4 129 174l216 280q119 162 206 349q113 229 144 278q-27 25 -58 29q6 -2 -63 -2q-33 0 -218.5 -36t-180.5 -36q-29 0 -54.5 16.5t-25.5 40.5q0 12 16 31q20 29 51 33q82 14 340 41q252 27 287 27q18 0 35.5 -24t17.5 -44q0 -86 -309 -563q-233 -358 -354 -520 q29 -35 219 -60q150 -18 243 -18q10 0 93.5 5t95.5 5q74 0 74 -57q0 -70 -68 -70l-678 53q-12 0 -40.5 -10t-43.5 -10q-20 0 -49 43q-25 37 -25 45z" />
<glyph unicode="[" horiz-adv-x="499" d="M84 -74l31 1424q-6 29 28 51q27 16 45 16q53 0 185 -26q125 -27 141 -39q-20 -68 -106 -68q-14 0 -44 2t-45 2q-37 0 -59 -10q-29 -12 -47 -74q-14 -49 -14 -94v-307q0 -14 -10.5 -162.5t-10.5 -163.5q0 -365 35 -481q8 -27 133 -27q14 0 48 5.5t46 5.5q47 0 95 -35v-47 q-119 -49 -318 -39q-12 2 -34.5 -7.5t-35.5 -9.5q-37 0 -53 41q-10 23 -10 43z" />
<glyph unicode="]" horiz-adv-x="630" d="M0 1448v65q37 27 233 84q188 55 228 56q23 0 55.5 -44t32.5 -73q0 -18 -26.5 -259t-26.5 -257q0 -27 20 -377q27 -387 51 -633q2 -33 26.5 -126t24.5 -107q0 -41 -210 -111q-190 -61 -236 -61q-35 0 -68.5 31.5t-33.5 56.5q0 41 43 72.5t86 31.5q18 0 24 -7t25 -7 q100 0 155 61q49 55 50 146l-68 940v397q0 8 8 45t8 58q0 57 -57 57q-18 0 -128 -48t-126 -48q-29 0 -90 57z" />
<glyph unicode="a" horiz-adv-x="874" d="M84 279q0 100 295 413q31 31 70 41q53 12 59 15.5t25.5 27t33.5 23.5t68 -35q0 -35 8 -96q25 -92 84 -252q12 -33 59 -105q43 -63 43 -75q0 -25 -20 -50q-25 -31 -59 -39q-41 55 -93 181l-75 176l-176 -223q-88 -92 -201 -93q-37 0 -76 25q-45 29 -45 66zM221 305h55 q61 0 156 150q82 137 82 176q0 20 -37 20q-49 -35 -145 -141q-111 -125 -111 -170v-35z" />
<glyph unicode="b" horiz-adv-x="839" d="M115 319q0 14 16 81t16 79v662q25 25 52 24q61 0 61 -73q0 -29 -10 -70q-4 -18 -8 -39v-428q-8 -8 16 -8l103 67q103 68 176 68q229 0 229 -199q0 -166 -143 -282q-131 -106 -291 -107q-82 0 -185 35q0 2 -5 10t-5 23q0 23 33 43q27 16 41 16q12 0 62.5 -11t62.5 -11 q131 0 223 71q102 80 103 213q0 104 -111 105q-94 0 -180 -84q-45 -47 -117 -158q-53 -84 -76 -84q-63 0 -63 57z" />
<glyph unicode="c" horiz-adv-x="741" d="M74 477q0 104 174 217q158 104 252 105q41 0 108 -29q84 -35 84 -82q0 -23 -32.5 -45t-55.5 -22q-2 0 -65.5 35.5t-65.5 35.5q-59 0 -168 -78q-117 -84 -117 -147q0 -131 244 -203q156 -45 250 -45v-49q-37 -23 -78 -23q-123 0 -289 66q-241 96 -241 264z" />
<glyph unicode="d" horiz-adv-x="770" d="M94 305q0 94 77 183.5t175 89.5q90 0 152 -31q27 18 26 55q0 12 -5 39t-5 37v264q25 25 43 25q49 0 70 -47q-7 -101 -7 -182q0 -111 13 -185q8 -43 43 -125q29 -68 29 -129q0 -131 -74 -131q-43 0 -53 80q-14 111 -35 145q-45 80 -176 80q-86 0 -129 -76 q-27 -51 -27 -118q0 -100 86 -150q61 -35 201 -55q7 7 51 6h24q70 -2 78 -10v-35q-20 -12 -71.5 -28.5t-69.5 -16.5q-14 0 -53 5t-54 5q-115 0 -208 86q-101 92 -101 219z" />
<glyph unicode="e" horiz-adv-x="636" d="M63 430q0 27 19 45q31 31 41 47l53 125q20 45 96 45q86 0 172 -96q80 -90 80 -160q0 -27 -23.5 -63.5t-47.5 -36.5q-6 0 -50.5 21.5t-150.5 21.5q-53 0 -62 -19q-2 -2 -2 -45q0 -72 33 -135q43 -86 125 -86q63 0 156 31l92 31h45q-2 -72 -127 -115q-92 -31 -170 -31 q-70 0 -137 39q-94 57 -109 166q1 18 1 39q0 53 -7 127q-2 12 -14.5 23.5t-12.5 25.5zM221 510q0 -25 12 -27q35 -7 71 -7q43 0 85 11q-61 90 -94 91q-20 0 -47 -28t-27 -40z" />
<glyph unicode="f" horiz-adv-x="774" d="M63 436q0 71 173 71q37 0 81 -3q6 23 7 96v62v69q0 467 196 467q76 0 165 -59.5t124 -145.5v-35l-37 -34l-123 116q-43 41 -102 41q-100 0 -127 -155q-10 -53 -10 -197q0 -23 -2 -59v-52q0 -78 32 -104q41 -31 168 -31q80 0 82 -4t15 -22q-23 -37 -111 -37q-14 0 -43 5 t-41 5q-23 0 -46.5 -11t-23.5 -26q0 -45 53.5 -227t53.5 -176q0 -23 -24.5 -48.5t-45.5 -25.5q-47 0 -84 252t-78 252q-10 0 -90 -26.5t-94 -26.5q-29 0 -49 26q-19 20 -19 43z" />
<glyph unicode="g" horiz-adv-x="673" d="M63 303q0 119 130 236q123 113 233 112q27 0 98.5 -31.5t83.5 -48.5q-35 -37 -57 -36q-12 0 -37 10t-37 10q-84 0 -188 -68q-121 -78 -121 -174q0 -72 68 -71q84 0 126 71q12 20 52 138q27 74 63 73q49 0 78 -166q23 -125 23 -223q0 -154 -91 -334q-113 -221 -282 -221 q-33 0 -74 27q-47 33 -47 67q0 25 45 95q16 -6 45 -45t41 -39q125 0 207 200q61 150 61 250q0 12 -5 52t-5 57q8 8 -16 8q2 0 -74 -58.5t-152 -58.5q-74 0 -121 53.5t-47 114.5z" />
<glyph unicode="h" horiz-adv-x="743" d="M137 473q0 180 56 367q29 -12 79 -43q-6 -72 -30 -238q-20 -152 -21 -160q0 -18 31 -202q-8 -8 16 -9q6 0 111.5 84t171.5 84q78 0 137 -116q25 -49 53.5 -159t55.5 -163q-2 0 -19.5 -11t-32.5 -11q-59 0 -92 86l-45 161q-27 88 -78 88q-31 0 -157.5 -105.5 t-167.5 -105.5q-29 0 -58 89z" />
<glyph unicode="i" horiz-adv-x="387" d="M43 940q0 31 43 51q37 16 76 17q16 0 42 -20l48 -36q-12 -18 -66.5 -49t-64.5 -31q-18 0 -48 26t-30 42zM168 403q0 133 68 134q70 0 69 -91q0 -12 -9 -40.5t-9 -43.5q-2 -52 -2 -100t2 -92q8 -102 8 -96q0 -39 -35 -74q-14 0 -34.5 20.5t-22.5 36.5q-35 231 -35 346z " />
<glyph unicode="j" horiz-adv-x="346" d="M-2 -440q10 4 25 14q6 -2 38.5 -27.5t47.5 -25.5q88 0 122 145q18 76 19 170q0 174 -39 340q-20 92 -70 232q-39 109 -39 143q0 18 15.5 39.5t32.5 21.5q18 0 44.5 -20.5t30.5 -34.5q10 -92 37 -264q72 -342 72 -488q0 -147 -49 -254q-61 -135 -183 -135q-55 0 -74.5 27 t-29.5 117zM72 944q0 47 63 47q25 0 49 -12q33 -16 33 -45v-68q-2 0 -21.5 -6t-35.5 -6q-88 0 -88 90z" />
<glyph unicode="k" horiz-adv-x="686" d="M63 752q0 121 64 120q45 0 68 -36q-14 -78 -15 -160q0 -47 8.5 -150.5t10.5 -169.5q8 0 26 -20q43 53 148 145q131 117 178 117t47 -74q0 -10 -72.5 -126.5t-72.5 -145.5q0 -41 63.5 -115t120.5 -92q35 -4 98 -25v-28q-47 -45 -67 -45q-111 0 -224 123q-109 117 -106 215 q-45 -6 -68 -86q-39 -133 -51 -156h-72q-23 94 -36 285q-18 279 -20.5 296t-15 65.5t-12.5 62.5z" />
<glyph unicode="l" horiz-adv-x="342" d="M94 846q0 121 58 121q27 0 53 -22.5t26 -35.5q0 -6 -14 -45q-29 -45 -29 -155q0 -154 29 -299q16 -96 49 -201q29 -88 29 -98q0 -20 -37 -58l-76 33q-35 150 -61 387q-27 228 -27 373z" />
<glyph unicode="m" horiz-adv-x="1083" d="M94 670q47 45 68 45q55 0 55 -97q0 -37 -9 -96t-9 -63l16 -19l86 160q76 135 119 135q47 0 84 -123l49 -161q16 12 123 147q88 111 162 115q35 -43 114 -281q78 -225 76 -258v-45q-12 -14 -41 -14q-57 0 -92 118l-27 138q-12 57 -57 176h-27q-31 0 -110 -133l-99 -162 h-69q-35 109 -103 295q-29 -18 -118 -191q-82 -158 -117 -157q-74 0 -74 471z" />
<glyph unicode="n" horiz-adv-x="741" d="M74 514q0 33 22 50l45 34q55 -25 56 -98v-35q-2 -23 -2 -35q0 -39 12 -63q8 8 121 141q86 98 151 100q49 -47 150 -266q96 -205 96 -231v-56q-25 -25 -43 -24q-39 0 -115 180q-90 213 -121 252q-78 -51 -147 -172q-92 -160 -104 -176q-29 12 -76 37q-2 68 -23.5 213 t-21.5 149z" />
<glyph unicode="o" horiz-adv-x="647" d="M63 362q0 115 76 234q88 139 207 139q109 0 166 -96q45 -76 45 -162q0 -133 -92 -226t-223 -93q-179 -1 -179 204zM158 305q49 -43 90 -43q92 0 151 86q53 76 54 166q0 94 -101 94q-90 0 -153 -125q-44 -88 -44 -148q0 -16 3 -30z" />
<glyph unicode="p" horiz-adv-x="743" d="M53 94q0 18 28 57q24 33 24 80q0 7 -1 15q-8 170 -8 350q53 10 195 51q123 35 135 35q225 0 225 -238q0 -178 -202 -325q-18 -14 -103 -47q-94 -37 -135 -60q-1 -13 -1 -30q0 -51 9 -134q12 -131 12 -170q0 -51 -12 -77h-49q-29 8 -43 163q-6 123 -14 248q-60 64 -60 82z M199 276q0 -113 26 -141q127 35 229.5 136.5t102.5 199.5q0 35 -36 64.5t-91 29.5q-231 0 -231 -289z" />
<glyph unicode="q" horiz-adv-x="757" d="M53 297q0 123 117 215q102 80 197 80q12 0 141 -23q10 31 24.5 64t55.5 33q35 0 57 -35q16 -25 17 -39q0 -14 -20.5 -71.5t-23.5 -69.5v-336q14 -18 64 -23q61 -4 78 -10q39 -16 39 -68q0 -18 -18.5 -35.5t-35.5 -17.5q-12 0 -33.5 10.5t-33.5 10.5q-57 0 -57 -37 q0 12 5 -54.5t5 -207.5l31 -125q0 -59 -64 -60q-70 0 -70 68q0 14 4 35l5 20v301q-23 29 -43 29q-12 0 -136.5 -47t-136.5 -47q-35 0 -54.5 21.5t-19.5 45.5q0 33 172 88q209 66 218 72v131q-2 84 -19 125q-18 -14 -135 -143q-80 -88 -147 -88q-84 0 -138 65q-45 55 -45 123 zM158 281q0 -23 22.5 -40.5t44.5 -17.5q66 0 156 111l113 158q-10 10 -13 24q-74 -4 -178 -55q-145 -74 -145 -180z" />
<glyph unicode="r" horiz-adv-x="581" d="M53 551q0 23 58 80q57 -39 65 -62q2 -8 2 -69l8 -17q18 10 127 119q92 90 144 90q23 0 67 -45v-37q-74 -18 -162 -103t-108 -167q-16 -66 -27 -158q-4 -35 -43 -35q-66 0 -104 181q-27 129 -27 223z" />
<glyph unicode="s" horiz-adv-x="585" d="M94 88q18 43 45 70q10 0 29.5 -10.5t36.5 -10.5q37 0 90 37q61 43 61 94q0 35 -114 115q-125 88 -133 102q-14 25 -15 52q0 49 160 120q145 68 192 68q31 0 91 -59q-49 -27 -143.5 -69t-141.5 -69q16 -27 135 -127q96 -84 96 -133q0 -111 -104 -174q-84 -51 -168 -51 q-78 0 -117 45z" />
<glyph unicode="t" horiz-adv-x="690" d="M53 467q0 20 21.5 45t40.5 25q14 0 56 -11.5t54 -11.5q72 0 86.5 12.5t14.5 77.5v303q0 63 14 142q23 127 70 127q45 0 63 -89q0 -14 -31.5 -142t-31.5 -140v-262q39 -16 106 -25l113 -16v-39q-78 -16 -219 -60q-1 -42 -1 -79q0 -148 13 -213q2 -6 16 -45q14 -31 15 -50 q0 -70 -60 -69q-76 0 -76 293q0 63 5 139q-18 31 -50 31q-12 0 -67 -10.5t-68 -10.5q-33 0 -58.5 23.5t-25.5 54.5z" />
<glyph unicode="u" horiz-adv-x="780" d="M74 487q0 72 2 88q12 76 65 76q18 0 44 -32.5t26 -40.5q0 -12 -21.5 -60.5t-21.5 -60.5q0 -47 31 -111q37 -74 80 -74q66 0 143 168l76 195q33 16 53 16q47 0 65 -57q6 -25 17 -121q8 -104 19.5 -148t64.5 -139q49 -84 49 -96v-57q-4 0 -17.5 -6.5t-29.5 -6.5 q-66 0 -125 179q-31 96 -45 190q-6 0 -18.5 5t-18.5 5q-139 -262 -217 -262q-111 0 -174 148q-47 108 -47 202z" />
<glyph unicode="v" horiz-adv-x="663" d="M63 594q0 31 27 39q47 14 53 18q29 -41 50.5 -149.5t74.5 -175.5h31q25 37 127 239q76 156 125 180q47 -20 47 -63q0 -45 -131 -281q-137 -244 -184 -243q-61 0 -146 207q-74 180 -74 229z" />
<glyph unicode="w" horiz-adv-x="966" d="M53 520q0 225 94 225q18 0 41 -16t23 -37q0 -12 -26.5 -96t-26.5 -96q0 -53 16 -97q20 -57 62 -57q63 0 129 174q49 132 49 197q0 13 -2 24q27 47 65 47q18 0 46 -25.5t30 -41.5t-9 -61q-8 -32 -9 -53q0 -8 2 -13q14 -117 22 -150q27 -96 86 -139q106 92 107 260v33v35 q0 133 82 186q49 0 49 -37q0 -12 -14.5 -26.5t-14.5 -26.5q0 -18 8 -84q7 -46 7 -72q0 -7 -1 -12q-27 -180 -86 -317q-33 -76 -110 -76q-88 0 -140 92l-77 170q-8 -6 -86 -129q-66 -102 -121 -102q-98 0 -154 141q-41 100 -41 180z" />
<glyph unicode="x" horiz-adv-x="655" d="M74 709q0 33 20.5 56t46.5 23q27 0 90 -96l80 -125h29l98 150q78 102 137 102q2 -4 21 -31q12 -16 12 -32q0 -12 -99 -146.5t-99 -146.5q0 -10 63 -86q80 -96 105 -129v-45q-25 -25 -37 -25q-14 0 -78 62q-88 86 -101 96q-25 -10 -47 -52t-22 -79q0 -35 22 -53 q-4 -2 -36 -21q-23 -16 -37 -16q-74 0 -74 63q0 14 47 135t47 133t-94 131.5t-94 131.5z" />
<glyph unicode="y" horiz-adv-x="720" d="M41 -459q0 -4 104 203q115 223 148 401q-78 61 -154 166q-88 121 -88 197q0 63 53 63q20 0 48 -16l65 -156q45 -98 113 -153q16 20 116 237q80 172 136 172q68 0 67 -57q0 -8 -57 -100q-66 -100 -82 -154q-4 -6 -29 -59q-20 -41 -20 -60q0 -8 2 -14q29 -51 24 -70 q-53 -4 -137 -174q-2 -6 -139 -311q-74 -166 -102 -166q-12 0 -29 6t-27 6q0 2 -6 13.5t-6 25.5z" />
<glyph unicode="z" horiz-adv-x="665" d="M43 586q37 37 117 92q53 25 157 53q96 25 119 25h119q23 -70 23 -101q0 -72 -119 -206l-154 -170q31 -37 141 -66q143 -39 205 -70q-23 -49 -57 -49q-215 0 -467 96v91q76 43 166 151l149 195v26q-4 0 -8 4.5t-18 4.5q-39 0 -165 -69t-122 -69l-80 6z" />
<glyph unicode="{" horiz-adv-x="606" d="M53 590v33q0 18 20.5 42.5t45.5 32.5q47 8 135 39q51 25 80 99q23 59 22 114q0 39 -45 144l-78 170q-12 33 -12 79q0 61 88 109q72 39 121 39q39 0 97.5 -36t60.5 -71q-14 -6 -49 -6h-28h-30q-135 0 -135 -86q0 12 53.5 -142.5t53.5 -229.5q0 -172 -138 -287 q0 -4 32 -61.5t32 -120.5q0 -12 -32 -170t-32 -170q0 -84 46.5 -134.5t121.5 -50.5q59 0 119 43l43 -8l6 -76q-104 -74 -151 -73q-141 0 -213 86q-66 80 -66 213q0 12 25.5 162.5t25.5 162.5q0 53 -28 76q-16 14 -76 33q-70 20 -115 45z" />
<glyph unicode="|" horiz-adv-x="309" d="M115 825l35 445q2 0 24.5 -5t34.5 -5q0 -49 -5 -149.5t-5 -106.5v-369q0 -106 34 -440q2 -25 20.5 -82.5t18.5 -69.5q0 -31 -30.5 -52.5t-53.5 -21.5q-16 0 -37.5 24.5t-17.5 45.5q12 51 12 154q0 96 -15 320t-15 312z" />
<glyph unicode="}" horiz-adv-x="681" d="M63 1395q16 18 97 43q72 23 92 22q102 0 166 -76q55 -68 55 -149q0 -80 -68.5 -194.5t-68.5 -163.5q0 -72 80 -111l148.5 -49.5t76.5 -75.5q0 -20 -43 -57q-59 -49 -82 -80q-43 -59 -43 -131q0 -12 32 -151.5t32 -153.5q0 -86 -94.5 -187.5t-180.5 -101.5q-39 0 -82 45 v47q4 2 62 2q80 0 137 113q41 84 41 129q0 12 -32 152.5t-32 152.5q0 41 28 106.5t56 87.5q-6 14 -59 48q-61 37 -82 57q-27 27 -53 84q-25 51 -25 74q0 78 133 297q25 39 25 75q0 53 -51 84q-39 20 -80 21q-12 0 -38 -10.5t-37 -10.5t-44 -5t-43 -5q-23 43 -23 72z" />
<glyph unicode="&#xa3;" horiz-adv-x="1212" d="M104 356q0 92 62 183q70 102 166 102q53 0 131 -30.5t131 -73.5q33 20 43 98q6 55 14 110q-16 31 -100 31q-90 0 -177 -30.5t-91 -30.5q-33 0 -58.5 24.5t-25.5 42.5q0 57 202 78q8 2 242 12q25 45 52.5 182.5t62.5 192.5q55 86 166 86q78 0 147 -43q84 -53 84 -141 q0 -47 -21.5 -89t-52.5 -42q-14 0 -25.5 6t-15.5 6q0 96 -4 117q-16 82 -86 82q-88 0 -147 -142q-47 -106 -47 -176q4 -10 10 -19t22 -9q12 0 118 5t118 5q31 0 49.5 -26.5t18.5 -53.5q0 -68 -52 -68q-14 0 -42.5 18.5t-36.5 20.5q-20 4 -101 4q-86 0 -112.5 -18t-26.5 -63 q0 -10 2 -35v-43q0 -74 -21 -140q258 -160 504 -280q0 -20 -22 -92h-90q-20 49 -170 139q-129 78 -256 133l-111 -164q-98 -131 -174 -131q-92 0 -185.5 87t-93.5 175zM211 367q0 -25 43 -91q49 -78 88 -77q12 0 10 6t10 6q68 0 140 90q66 84 65 139q-35 29 -92 58 q-78 39 -133 39q-45 0 -88 -64.5t-43 -105.5z" />
<glyph unicode="&#xa4;" horiz-adv-x="1206" d="M20 352q0 51 113 68l121 12q29 43 31 184v50q-8 6 -23 6q-12 0 -50 -20.5t-50 -20.5q-33 0 -55.5 24.5t-22.5 53.5q0 35 96 55q113 25 127 35q33 31 74 106q51 94 74 123q76 96 194 152q102 49 197 49q121 0 223 -74q117 -84 117 -215q0 -51 -12 -88h-48 q-53 141 -106 201q-66 72 -174 71q-121 0 -231.5 -81.5t-163.5 -206.5q23 -10 69 -11q45 0 135 12.5t111 12.5q31 0 49 -33q14 -25 14 -41q0 -61 -73 -61q-12 0 -78 10t-80 10q-154 0 -192 -33q-49 -39 -50 -182v-49q6 -20 47 -20q43 0 266.5 36.5t217.5 36.5q25 0 80 -75 q0 -18 -25 -37l-291 -21q-188 -18 -252 -61q59 -121 203 -189q123 -57 258 -57q41 0 137 27q115 31 123 63q16 68 41 68q57 0 58 -74q0 -109 -172 -154q-98 -25 -211 -24q-186 0 -324 86q-90 57 -166 162q-63 88 -74 88q-12 0 -83.5 -21.5t-84.5 -21.5q-29 0 -56.5 24.5 t-27.5 44.5z" />
<glyph unicode="&#xa9;" horiz-adv-x="1570" d="M84 463q0 291 203 522q213 244 512 244q211 0 364 -131q96 -80 219 -310q129 -240 129 -358q0 -174 -170 -334q-162 -150 -307 -149h-147q-283 0 -496 94q-307 133 -307 422zM168 467q0 -225 283 -338q190 -76 380 -76h87q154 0 307 82q193 104 192 268q0 104 -82 275 q-88 182 -209 303q-143 143 -280 143q-260 0 -465 -192q-213 -199 -213 -465zM483 541q0 61 98.5 169.5t170.5 108.5q31 0 90 -23.5t71 -43.5v-47q-293 0 -292 -185q0 -49 92 -78q66 -23 112 -22q10 0 83 21.5t85 21.5q14 0 28.5 -12.5t16.5 -12.5q-18 -33 -98 -61 q-92 -31 -211 -31q-92 0 -166 55q-80 60 -80 140z" />
<glyph unicode="&#xaa;" horiz-adv-x="874" d="M84 279q0 100 295 413q31 31 70 41q53 12 59 15.5t25.5 27t33.5 23.5t68 -35q0 -35 8 -96q25 -92 84 -252q12 -33 59 -105q43 -63 43 -75q0 -25 -20 -50q-25 -31 -59 -39q-41 55 -93 181l-75 176l-176 -223q-88 -92 -201 -93q-37 0 -76 25q-45 29 -45 66zM221 305h55 q61 0 156 150q82 137 82 176q0 20 -37 20q-49 -35 -145 -141q-111 -125 -111 -170v-35z" />
<glyph unicode="&#xad;" d="M104 608q0 31 35 54q29 20 56 20q12 0 41.5 -10t42.5 -10q35 0 170 14q164 18 251 39q35 -37 35 -64q0 -29 -17.5 -51t-39.5 -22q-14 0 -71.5 5t-69.5 5q-14 0 -187.5 -15.5t-187.5 -15.5q-16 0 -37 17.5t-21 33.5z" />
<glyph unicode="&#xae;" horiz-adv-x="1570" d="M84 463q0 291 203 522q213 244 512 244q211 0 364 -131q96 -80 219 -310q129 -240 129 -358q0 -174 -170 -334q-162 -150 -307 -149h-147q-283 0 -496 94q-307 133 -307 422zM168 467q0 -225 283 -338q190 -76 380 -76h87q154 0 307 82q193 104 192 268q0 104 -82 275 q-88 182 -209 303q-143 143 -280 143q-260 0 -465 -192q-213 -199 -213 -465zM514 494q0 199 35 286q55 143 217 144q59 0 98 -42t39 -89q0 -55 -57.5 -131t-57.5 -74q0 -12 95 -92q117 -96 157 -144q-23 -47 -47 -47q-100 0 -368 283q-16 -14 -17 -111q0 -66 54 -274 q-25 -25 -41 -25q-107 1 -107 316zM631 641q47 16 96 62.5t59 80.5l-57 15l-61 -45q-37 -29 -37 -68v-45z" />
<glyph unicode="&#xb2;" horiz-adv-x="808" d="M106 926v80q94 129 183.5 181t204.5 52q168 0 168 -231q0 -227 -336 -813q45 -39 221 -56q199 -20 282 -57v-37q-39 -45 -84 -45q-8 0 -78.5 13.5t-105.5 13.5q-115 4 -344 18q-59 4 -59 76q90 135 207 328l124 268q78 180 78 254q0 164 -100 164q-84 0 -148 -60 q-33 -33 -83 -112q-37 -59 -58 -60q-25 0 -72 23z" />
<glyph unicode="&#xb3;" horiz-adv-x="954" d="M63 76v53q0 27 48 55l63 37q55 -86 90 -86h21q14 2 24 2q127 0 279 66q201 90 200 233q0 94 -243 137q-147 14 -297 31l-6 88q307 125 463 352q-12 14 -84 33q-63 14 -84 15q-84 0 -188.5 -47.5t-106.5 -47.5q-14 0 -35 12l-39 21v60q33 39 162 69q117 27 207 27 q43 0 162.5 -20.5t129.5 -32.5q25 -150 -335 -424l233 -101q166 -78 166 -168q0 -180 -213 -301q-170 -96 -313 -96q-152 0 -304 33z" />
<glyph unicode="&#xb5;" horiz-adv-x="1171" d="M96 -250q0 111 29 402.5t29 396.5q0 119 -25 149q27 39 61 109q27 0 49 -5l21 -5l45 -330q45 -256 105 -256q92 0 174 276l80 342h88q31 -55 28 -90q-25 -242 -24 -276q0 -285 141 -285q84 0 133 107l66 166q49 -27 49 -95q0 -106 -74 -200q-80 -102 -194 -103 q-76 0 -148 100.5t-76 192.5q-33 -20 -67 -94q-43 -88 -64 -113q-45 -55 -112 -55q-76 0 -121 104l-51 138q-18 -113 -27 -295q-10 -246 -12 -281h-103z" />
<glyph unicode="&#x3bc;" horiz-adv-x="1171" d="M96 -250q0 111 29 402.5t29 396.5q0 119 -25 149q27 39 61 109q27 0 49 -5l21 -5l45 -330q45 -256 105 -256q92 0 174 276l80 342h88q31 -55 28 -90q-25 -242 -24 -276q0 -285 141 -285q84 0 133 107l66 166q49 -27 49 -95q0 -106 -74 -200q-80 -102 -194 -103 q-76 0 -148 100.5t-76 192.5q-33 -20 -67 -94q-43 -88 -64 -113q-45 -55 -112 -55q-76 0 -121 104l-51 138q-18 -113 -27 -295q-10 -246 -12 -281h-103z" />
<glyph unicode="&#xb6;" horiz-adv-x="1224" d="M31 846q0 96 137 203q125 96 205 96q10 0 69.5 -5t71.5 -5q27 0 332 62l305 63q70 0 82 -5q20 -8 80 -61q2 -39 -170 -64q-59 -68 -70 -129q-33 -225 -33 -491v-432q0 -8 2 -29.5t2 -34.5q0 -57 -47 -57q-20 0 -52 35t-32 55q0 -4 11 47q14 61 20 139q12 109 12 246v291 q0 4 10.5 132t10.5 183l-13 19q-7 10 -24 10q-55 0 -215 -43q-141 -35 -193 -55q-39 -16 -38 -86l-11 -830q31 -94 31 -106q0 -35 -30.5 -56.5t-53.5 -21.5q-39 0 -39 184q0 72 10 258q8 166 5 222l-207 82q-168 73 -168 184zM158 829q0 -49 92 -96q80 -41 129 -41 q14 0 20.5 6.5t8.5 6.5v313h-86q-41 0 -102.5 -78t-61.5 -111z" />
<glyph unicode="&#xb9;" horiz-adv-x="585" d="M74 940l125 109q133 119 166 168q39 57 92 96q20 -14 38.5 -50t18.5 -44q0 31 -20.5 -191.5t-20.5 -527.5q0 -176 12 -359q0 -2 14.5 -16t14.5 -31q0 -63 -68 -63q-72 0 -71 63q0 8 2 24.5t2 24.5v396q0 14 10 169.5t10 168.5q0 96 0 90q-4 53 -28 94q-25 -12 -113 -107 q-78 -82 -111 -82q-25 0 -49 24t-24 44z" />
<glyph unicode="&#xba;" horiz-adv-x="647" d="M63 362q0 115 76 234q88 139 207 139q109 0 166 -96q45 -76 45 -162q0 -133 -92 -226t-223 -93q-179 -1 -179 204zM158 305q49 -43 90 -43q92 0 151 86q53 76 54 166q0 94 -101 94q-90 0 -153 -125q-44 -88 -44 -148q0 -16 3 -30z" />
<glyph unicode="&#xc5;" horiz-adv-x="1374" d="M74 162q0 41 69 71q78 35 84 48q113 203 277 540q158 324 158 344q0 10 -20.5 52.5t-20.5 64.5q0 39 12 61h43q27 0 119 -198l114 -254q47 -96 158 -305l37 -70q25 -43 49 -63q10 -8 45 -14.5t45 -12.5q35 -23 35 -68q0 -29 -27 -51q8 -39 92 -158.5t84 -132.5 q0 -70 -57 -69q-53 0 -98 102l-82 187q-55 100 -135 100q-135 0 -432 -64.5t-330 -105.5q-16 -20 -47 -88q-39 -90 -49 -109h-33q-45 0 -90 193zM362 322l676 120v37l-319 561zM887 1648q0 -96 -107 -176q-92 -70 -168 -69q-88 0 -151 69q-57 63 -58 146q0 115 82 196.5 t207 81.5q57 0 129 -108q66 -97 66 -140zM770 1644q0 33 -33 80q-41 55 -88 56q-51 0 -96 -48.5t-45 -97.5q0 -39 22 -80q29 -57 82 -57q35 0 93 45q65 51 65 102z" />
<glyph unicode="&#xc6;" horiz-adv-x="1474" d="M20 152q0 18 31 94t62 129q39 72 73 147q-4 23 7 64q86 121 198 397q20 45 43 88q27 61 27 98q0 23 -15.5 66t-15.5 65q0 23 20.5 28t86.5 5l682 -10q31 0 69 20q45 -45 45 -73q0 -72 -63 -72q-12 0 -41 18.5t-37 18.5q-90 14 -279 14h-149q-98 -6 -146 -39 q76 -236 199 -508q37 4 160 25q115 18 125 18q27 0 50.5 -17t23.5 -40q0 -31 -27 -55.5t-51 -24.5q-12 0 -42 11.5t-42 11.5q-70 0 -185 -49q33 -123 84 -275q74 -213 105 -213q14 0 210.5 52.5t211.5 52.5q61 0 61 -78q0 -51 -35 -55q-205 -23 -356 -60q-20 -4 -91 -42 t-85 -38q-31 0 -80 58q8 37 8 82q0 117 -61 292l-94 242q-86 -12 -172 -22q-98 -16 -224 -56q-20 -8 -49 -61q-16 -41 -35 -80q-94 -188 -94 -272q-6 -10 -11 -22.5t-22 -12.5q-29 0 -54.5 24.5t-25.5 53.5zM356 674q0 -18 15 -33q168 29 311 43q0 4 5 12.5t5 22.5 q0 31 -67 188q-66 147 -84 174z" />
<glyph unicode="&#xd8;" horiz-adv-x="1144" d="M63 451q0 324 349 553q33 23 98 28q57 6 113 10q70 49 82 50q12 0 17 -5.5t19 -5.5q33 0 89.5 131t115.5 131q14 0 62 -22v-35q0 4 -74 -100.5t-74 -145.5q0 -10 53 -79q55 -76 70 -113q109 -299 109 -475q0 -219 -195 -328q-150 -82 -360 -82q-29 0 -58 2 q-47 -39 -57 -190l-35 -111h-35q-29 0 -54.5 23.5t-25.5 50.5q0 12 41 106q43 104 56 150q-176 109 -246 219q-60 99 -60 238zM147 467q0 -92 54 -199q72 -145 196 -162l295 793q-51 35 -88 35q-172 0 -317 -158q-140 -149 -140 -309zM494 88q53 -35 90 -35q168 0 284 97 q129 109 129 286q0 106 -57 275q-66 193 -139 202z" />
<glyph unicode="&#xdf;" horiz-adv-x="978" d="M94 682q0 205 72 391q106 270 317 270q57 0 185 -69q141 -80 141 -146t-147 -208q-100 -98 -168 -150q16 -37 102 -55q127 -25 158 -37q72 -31 133 -90q70 -70 69 -131q0 -133 -155 -230q-131 -80 -250 -80q-47 0 -139 25q-117 33 -117 74q0 25 16.5 47t34.5 22l96 -36 q96 -37 109 -37q92 0 182 55q106 68 107 160q0 49 -62 96q-49 39 -270 86q-182 39 -182 96q0 23 36 51q25 16 50 35q80 63 161 146q109 109 109 147q0 61 -102 98q-70 27 -107 27q-178 0 -252 -276q-43 -156 -43 -322q0 -176 51 -477q47 -279 86 -381l-34 -35h-68 q-29 84 -72 381q-47 340 -47 553z" />
<glyph unicode="&#xe5;" horiz-adv-x="724" d="M53 283q0 160 201 249q150 70 278 66q37 -20 41 -117q4 -80 7 -159q6 -33 30.5 -102.5t30.5 -100.5q-25 -25 -47 -25q-47 0 -85 116t-52 116q-6 0 -47 -41q-49 -49 -88 -76q-63 -41 -127 -41q-57 0 -99.5 35t-42.5 80zM178 299q0 -25 12 -25h48q29 12 104 76 q88 78 88 117q0 25 -12 27q-35 0 -131 -64q-109 -72 -109 -131zM379 1065q0 53 66.5 124t125.5 71q63 0 138 -82q68 -78 67 -127q0 -61 -55 -126t-117 -65q-59 0 -139 66q-86 71 -86 139zM504 1055q0 -23 24 -47q29 -31 66 -31q18 0 43 21.5t25 45.5q0 70 -115 70 q-16 0 -29.5 -20.5t-13.5 -38.5z" />
<glyph unicode="&#xe6;" horiz-adv-x="899" d="M84 403q0 162 130 299.5t296 137.5q78 0 178 -120t100 -190q0 -33 -32 -84q-35 -59 -84 -86v-26q57 -29 73 -29q29 0 93 21q12 -2 12 -27q0 -39 -36 -58.5t-79 -19.5q-74 0 -123 20.5t-61 20.5q-16 0 -101 -42t-151 -42q-80 0 -149 78q-66 71 -66 147zM188 410 q0 -57 48 -91q41 -25 96 -24q72 0 129 33v37q-53 66 -80 157q-25 80 -21 140q-63 -23 -117.5 -108t-54.5 -144zM473 578q0 -43 27 -93q33 -55 84 -86q98 98 98 158q0 20 -46 84t-79 64t-58.5 -39t-25.5 -88z" />
<glyph unicode="&#xf8;" horiz-adv-x="751" d="M104 330q0 98 75 173t157 75q14 0 24.5 -6.5t22.5 -6.5q78 0 123 64l67 121q43 70 105 77q27 -20 27 -57q0 -31 -58.5 -113t-58.5 -92q0 4 31.5 -71.5t31.5 -106.5q0 -102 -133 -194q-72 -51 -153 -82q-70 -27 -132 -287q2 -23 -4 -76q-4 0 -17 -6t-28 -6q-47 0 -47 57 q0 59 105 326q-138 86 -138 211zM211 324q0 -74 80 -95q109 164 108 205q0 25 -12 27h-76q-29 0 -64.5 -54t-35.5 -83zM410 242q41 8 84 59l53 80l-15 59q-61 -75 -122 -198z" />
<glyph unicode="&#x152;" horiz-adv-x="2224" d="M1351 561q0 51 33 60q57 12 84 36q0 127 -24 365q-6 31 -44 52.5t-38 64.5q0 33 47 53q37 16 74 16q10 0 52 -11t64 -11l410 53l94 -29q57 -23 57 -61q0 -47 -41 -47q-14 0 -58 21.5t-58 21.5q-117 0 -422 -55q-39 -41 -39 -144q0 -164 -2 -158q6 -96 41 -137l575 64 q6 0 56 -23v-61q-57 -53 -78 -53q-6 0 -93 21.5t-102 21.5q-39 0 -172 -27q-162 -31 -205 -64q29 -78 31 -196q0 -106 19 -135q31 -51 149 -52h201q12 0 124.5 20.5t127.5 20.5q18 0 40.5 -16t22.5 -35q0 -49 -45 -61q-10 -2 -65 -2q-57 0 -86 10l-492 -64q-27 4 -56.5 35 t-31.5 43v21q0 127 -23 377q-10 6 -30 2q-33 -4 -39 -4q-25 0 -41.5 21t-16.5 46zM127 494q0 90 66 274q78 217 184 356q133 178 274 179q109 0 215 -80q8 -14 8 -47q0 -74 0 -56q158 -141 244 -348q68 -172 68 -326q0 -227 -152 -335q-125 -90 -342 -91q-225 0 -385 115 q-180 132 -180 359zM221 547q0 -432 471 -432q145 0 262 73q147 92 148 263q0 66 -45 217q-49 166 -96 223q-33 39 -152 143q-94 80 -129 152q-9 1 -18 1q-147 0 -297 -247q-144 -235 -144 -393z" />
<glyph unicode="&#x153;" horiz-adv-x="1284" d="M710 430q0 27 19 45q31 31 41 47l53 125q20 45 96 45q86 0 172 -96q80 -90 80 -160q0 -27 -23.5 -63.5t-47.5 -36.5q-6 0 -50.5 21.5t-150.5 21.5q-53 0 -62 -19q-2 -2 -2 -45q0 -72 33 -135q43 -86 125 -86q63 0 156 31l92 31h45q-2 -72 -127 -115q-92 -31 -170 -31 q-70 0 -137 39q-94 57 -109 166q1 18 1 39q0 53 -7 127q-2 12 -14.5 23.5t-12.5 25.5zM868 510q0 -25 12 -27q35 -7 71 -7q43 0 85 11q-61 90 -94 91q-20 0 -47 -28t-27 -40zM63 362q0 115 76 234q88 139 207 139q109 0 166 -96q45 -76 45 -162q0 -133 -92 -226t-223 -93 q-179 -1 -179 204zM158 305q49 -43 90 -43q92 0 151 86q53 76 54 166q0 94 -101 94q-90 0 -153 -125q-44 -88 -44 -148q0 -16 3 -30z" />
<glyph unicode="&#x2da;" horiz-adv-x="702" d="M631 1044q0 -96 -107 -176q-92 -70 -168 -69q-88 0 -151 69q-57 63 -58 146q0 115 82 196.5t207 81.5q57 0 129 -108q66 -97 66 -140zM514 1040q0 33 -33 80q-41 55 -88 56q-51 0 -96 -48.5t-45 -97.5q0 -39 22 -80q29 -57 82 -57q35 0 93 45q65 51 65 102z" />
<glyph unicode="&#x2000;" horiz-adv-x="948" />
<glyph unicode="&#x2001;" horiz-adv-x="1896" />
<glyph unicode="&#x2002;" horiz-adv-x="948" />
<glyph unicode="&#x2003;" horiz-adv-x="1896" />
<glyph unicode="&#x2004;" horiz-adv-x="630" />
<glyph unicode="&#x2005;" horiz-adv-x="473" />
<glyph unicode="&#x2006;" horiz-adv-x="315" />
<glyph unicode="&#x2007;" horiz-adv-x="315" />
<glyph unicode="&#x2008;" horiz-adv-x="235" />
<glyph unicode="&#x2009;" horiz-adv-x="378" />
<glyph unicode="&#x200a;" horiz-adv-x="104" />
<glyph unicode="&#x2010;" d="M104 608q0 31 35 54q29 20 56 20q12 0 41.5 -10t42.5 -10q35 0 170 14q164 18 251 39q35 -37 35 -64q0 -29 -17.5 -51t-39.5 -22q-14 0 -71.5 5t-69.5 5q-14 0 -187.5 -15.5t-187.5 -15.5q-16 0 -37 17.5t-21 33.5z" />
<glyph unicode="&#x2011;" d="M104 608q0 31 35 54q29 20 56 20q12 0 41.5 -10t42.5 -10q35 0 170 14q164 18 251 39q35 -37 35 -64q0 -29 -17.5 -51t-39.5 -22q-14 0 -71.5 5t-69.5 5q-14 0 -187.5 -15.5t-187.5 -15.5q-16 0 -37 17.5t-21 33.5z" />
<glyph unicode="&#x2012;" d="M104 608q0 31 35 54q29 20 56 20q12 0 41.5 -10t42.5 -10q35 0 170 14q164 18 251 39q35 -37 35 -64q0 -29 -17.5 -51t-39.5 -22q-14 0 -71.5 5t-69.5 5q-14 0 -187.5 -15.5t-187.5 -15.5q-16 0 -37 17.5t-21 33.5z" />
<glyph unicode="&#x2013;" horiz-adv-x="1024" d="M205 512v205h614v-205h-614z" />
<glyph unicode="&#x2014;" horiz-adv-x="2048" d="M205 512v205h1638v-205h-1638z" />
<glyph unicode="&#x2018;" horiz-adv-x="286" d="M84 1155q0 115 53 115q63 0 70 -68q-6 -88 -4 -262q0 -14 14 -53t12 -51v-78q-2 0 -11 -6.5t-23 -6.5q-53 0 -86 177q-25 133 -25 233z" />
<glyph unicode="&#x2019;" horiz-adv-x="286" d="M84 1155q0 115 53 115q63 0 70 -68q-6 -88 -4 -262q0 -14 14 -53t12 -51v-78q-2 0 -11 -6.5t-23 -6.5q-53 0 -86 177q-25 133 -25 233z" />
<glyph unicode="&#x201a;" horiz-adv-x="286" d="M84 1155q0 115 53 115q63 0 70 -68q-6 -88 -4 -262q0 -14 14 -53t12 -51v-78q-2 0 -11 -6.5t-23 -6.5q-53 0 -86 177q-25 133 -25 233z" />
<glyph unicode="&#x201c;" horiz-adv-x="630" d="M84 1155q0 115 53 115q63 0 70 -68q-6 -88 -4 -262q0 -14 14 -53t12 -51v-78q-2 0 -11 -6.5t-23 -6.5q-53 0 -86 177q-25 133 -25 233zM367 1098q0 152 73 151q59 0 60 -37q0 -31 -13 -92q-12 -70 -14 -96q-4 -59 39 -143l66 -133h-46q-63 -2 -118 159q-47 130 -47 191z " />
<glyph unicode="&#x201d;" horiz-adv-x="661" d="M84 748h45q61 -2 119 159q45 129 45 191q0 152 -74 151q-59 0 -59 -37q0 -31 12 -92q14 -70 16 -96q4 -59 -38 -143q-62 -119 -66 -133zM430 758q4 0 12.5 -6.5t24.5 -6.5q51 0 84 177q27 133 27 233q0 115 -54 115q-63 0 -69 -68q6 -88 4 -262q-2 -14 -15.5 -53 t-13.5 -51v-78z" />
<glyph unicode="&#x2026;" horiz-adv-x="1001" d="M783 236q29 111 69 110q35 0 61.5 -32.5t26.5 -67.5q0 -27 -31.5 -63t-45.5 -36q-35 0 -57.5 27t-22.5 62zM449 236q29 111 69 110q35 0 61.5 -32.5t26.5 -67.5q0 -27 -31.5 -63t-45.5 -36q-35 0 -57.5 27t-22.5 62zM115 236q29 111 69 110q35 0 61.5 -32.5t26.5 -67.5 q0 -27 -31.5 -63t-45.5 -36q-35 0 -57.5 27t-22.5 62z" />
<glyph unicode="&#x202f;" horiz-adv-x="378" />
<glyph unicode="&#x2039;" horiz-adv-x="665" d="M63 604q0 14 209 214t242 200q39 0 84 -45q-8 -27 -199 -172q-178 -139 -178 -203q0 -45 220.5 -249t220.5 -228q0 -31 -23 -54.5t-45 -23.5q-4 0 -170 172l-279 280q-82 78 -82 109z" />
<glyph unicode="&#x203a;" horiz-adv-x="714" d="M115 111l231 266q137 162 168 248q-281 182 -367 346l13 78h80q39 -68 129 -189l157 -104q145 -98 146 -121q0 -23 -226.5 -297.5t-257.5 -274.5q-26 1 -73 48z" />
<glyph unicode="&#x205f;" horiz-adv-x="473" />
<glyph unicode="&#x2122;" horiz-adv-x="2254" d="M964 1102q0 35 26 70.5t48 35.5q45 0 70 -37q-1 -7 -1 -15q0 -43 36 -116q39 -74 86 -129q88 -102 225 -233t156 -131q37 0 147 192l150 267q59 98 79 196q33 16 39 17q25 0 58 -29q29 -158 75 -658q45 -473 46 -569q0 -78 -68 -78q-45 0 -57 76q-2 16 -2 98v385 q0 274 -60 523q-20 -25 -207 -320q-156 -248 -211 -248q-16 0 -231 222l-231 239q-14 14 -15 -10v-594q0 -12 10.5 -104.5t10.5 -104.5q0 -45 -80 -90q-45 33 -45 98q0 20 10 86l10 447q0 6 -7 141t-7 191q-2 86 -31 124t-29 58zM94 1106v47q23 23 36 27t368 26 q344 23 399 23q27 0 48.5 -17.5t21.5 -40.5q0 -35 -27 -62.5t-47 -27.5q-16 0 -25 11l-14 18q-98 25 -192 25q-125 0 -125 -205q0 -215 57 -493.5t57 -284.5q0 -119 -47 -132q-61 14 -67.5 88t-8.5 148q-88 489 -88 791v59q-14 18 -78 18q-12 0 -104 -21.5t-106 -21.5 q-9 0 -58 25z" />
<glyph unicode="&#xe000;" horiz-adv-x="820" d="M0 820h820v-820h-820v820z" />
<glyph unicode="&#xfb01;" horiz-adv-x="1161" d="M817 940q0 31 43 51q37 16 76 17q16 0 42 -20l48 -36q-12 -18 -66.5 -49t-64.5 -31q-18 0 -48 26t-30 42zM942 403q0 133 68 134q70 0 69 -91q0 -12 -9 -40.5t-9 -43.5q-2 -52 -2 -100t2 -92q8 -102 8 -96q0 -39 -35 -74q-14 0 -34.5 20.5t-22.5 36.5q-35 231 -35 346z M63 436q0 71 173 71q37 0 81 -3q6 23 7 96v62v69q0 467 196 467q76 0 165 -59.5t124 -145.5v-35l-37 -34l-123 116q-43 41 -102 41q-100 0 -127 -155q-10 -53 -10 -197q0 -23 -2 -59v-52q0 -78 32 -104q41 -31 168 -31q80 0 82 -4t15 -22q-23 -37 -111 -37q-14 0 -43 5 t-41 5q-23 0 -46.5 -11t-23.5 -26q0 -45 53.5 -227t53.5 -176q0 -23 -24.5 -48.5t-45.5 -25.5q-47 0 -84 252t-78 252q-10 0 -90 -26.5t-94 -26.5q-29 0 -49 26q-19 20 -19 43z" />
<glyph unicode="&#xfb02;" horiz-adv-x="1116" d="M868 846q0 121 58 121q27 0 53 -22.5t26 -35.5q0 -6 -14 -45q-29 -45 -29 -155q0 -154 29 -299q16 -96 49 -201q29 -88 29 -98q0 -20 -37 -58l-76 33q-35 150 -61 387q-27 228 -27 373zM63 436q0 71 173 71q37 0 81 -3q6 23 7 96v62v69q0 467 196 467q76 0 165 -59.5 t124 -145.5v-35l-37 -34l-123 116q-43 41 -102 41q-100 0 -127 -155q-10 -53 -10 -197q0 -23 -2 -59v-52q0 -78 32 -104q41 -31 168 -31q80 0 82 -4t15 -22q-23 -37 -111 -37q-14 0 -43 5t-41 5q-23 0 -46.5 -11t-23.5 -26q0 -45 53.5 -227t53.5 -176q0 -23 -24.5 -48.5 t-45.5 -25.5q-47 0 -84 252t-78 252q-10 0 -90 -26.5t-94 -26.5q-29 0 -49 26q-19 20 -19 43z" />
<glyph unicode="&#xfb03;" horiz-adv-x="1935" d="M1591 940q0 31 43 51q37 16 76 17q16 0 42 -20l48 -36q-12 -18 -66.5 -49t-64.5 -31q-18 0 -48 26t-30 42zM1716 403q0 133 68 134q70 0 69 -91q0 -12 -9 -40.5t-9 -43.5q-2 -52 -2 -100t2 -92q8 -102 8 -96q0 -39 -35 -74q-14 0 -34.5 20.5t-22.5 36.5q-35 231 -35 346z M837 436q0 71 173 71q37 0 81 -3q6 23 7 96v62v69q0 467 196 467q76 0 165 -59.5t124 -145.5v-35l-37 -34l-123 116q-43 41 -102 41q-100 0 -127 -155q-10 -53 -10 -197q0 -23 -2 -59v-52q0 -78 32 -104q41 -31 168 -31q80 0 82 -4t15 -22q-23 -37 -111 -37q-14 0 -43 5 t-41 5q-23 0 -46.5 -11t-23.5 -26q0 -45 53.5 -227t53.5 -176q0 -23 -24.5 -48.5t-45.5 -25.5q-47 0 -84 252t-78 252q-10 0 -90 -26.5t-94 -26.5q-29 0 -49 26q-19 20 -19 43zM63 436q0 71 173 71q37 0 81 -3q6 23 7 96v62v69q0 467 196 467q76 0 165 -59.5t124 -145.5v-35 l-37 -34l-123 116q-43 41 -102 41q-100 0 -127 -155q-10 -53 -10 -197q0 -23 -2 -59v-52q0 -78 32 -104q41 -31 168 -31q80 0 82 -4t15 -22q-23 -37 -111 -37q-14 0 -43 5t-41 5q-23 0 -46.5 -11t-23.5 -26q0 -45 53.5 -227t53.5 -176q0 -23 -24.5 -48.5t-45.5 -25.5 q-47 0 -84 252t-78 252q-10 0 -90 -26.5t-94 -26.5q-29 0 -49 26q-19 20 -19 43z" />
<glyph unicode="&#xfb04;" horiz-adv-x="1890" d="M1642 846q0 121 58 121q27 0 53 -22.5t26 -35.5q0 -6 -14 -45q-29 -45 -29 -155q0 -154 29 -299q16 -96 49 -201q29 -88 29 -98q0 -20 -37 -58l-76 33q-35 150 -61 387q-27 228 -27 373zM837 436q0 71 173 71q37 0 81 -3q6 23 7 96v62v69q0 467 196 467q76 0 165 -59.5 t124 -145.5v-35l-37 -34l-123 116q-43 41 -102 41q-100 0 -127 -155q-10 -53 -10 -197q0 -23 -2 -59v-52q0 -78 32 -104q41 -31 168 -31q80 0 82 -4t15 -22q-23 -37 -111 -37q-14 0 -43 5t-41 5q-23 0 -46.5 -11t-23.5 -26q0 -45 53.5 -227t53.5 -176q0 -23 -24.5 -48.5 t-45.5 -25.5q-47 0 -84 252t-78 252q-10 0 -90 -26.5t-94 -26.5q-29 0 -49 26q-19 20 -19 43zM63 436q0 71 173 71q37 0 81 -3q6 23 7 96v62v69q0 467 196 467q76 0 165 -59.5t124 -145.5v-35l-37 -34l-123 116q-43 41 -102 41q-100 0 -127 -155q-10 -53 -10 -197 q0 -23 -2 -59v-52q0 -78 32 -104q41 -31 168 -31q80 0 82 -4t15 -22q-23 -37 -111 -37q-14 0 -43 5t-41 5q-23 0 -46.5 -11t-23.5 -26q0 -45 53.5 -227t53.5 -176q0 -23 -24.5 -48.5t-45.5 -25.5q-47 0 -84 252t-78 252q-10 0 -90 -26.5t-94 -26.5q-29 0 -49 26 q-19 20 -19 43z" />
</font>
</defs>
</svg>
