<?xml version="1.0" standalone="no"?>
<!DOCTYPE svg PUBLIC "-//W3C//DTD SVG 1.1//EN" "http://www.w3.org/Graphics/SVG/1.1/DTD/svg11.dtd" >
<svg xmlns="http://www.w3.org/2000/svg">
<metadata>
This is a custom SVG webfont generated by Font Squirrel.
Copyright   :  2008 Bernd Montag  feel free to distribute  feel free to use personal and commercial  read attached textfile for restrictions
</metadata>
<defs>
<font id="webfontfyQmQF30" horiz-adv-x="403" >
<font-face units-per-em="2048" ascent="1638" descent="-410" />
<missing-glyph horiz-adv-x="483" />
<glyph unicode=" "  horiz-adv-x="483" />
<glyph unicode="&#x09;" horiz-adv-x="483" />
<glyph unicode="&#xa0;" horiz-adv-x="483" />
<glyph unicode="!" d="M150 0v104h106v-104h-106zM150 371v1059h106v-1059h-106z" />
<glyph unicode="&#x22;" horiz-adv-x="604" d="M100 1430h115l-31 -435h-55zM389 1430h117l-31 -435h-55z" />
<glyph unicode="#" horiz-adv-x="1882" d="M100 375l21 94h391l109 436h-402l21 94h401l111 426h100l-111 -426h459l113 431h98l-111 -431h484l-21 -94h-483l-109 -436h492l-21 -94h-491l-100 -379h-101l101 379h-457l-100 -379h-101l99 379h-392zM612 469h457l111 436h-457z" />
<glyph unicode="$" horiz-adv-x="1048" d="M100 940q0 279 389 299v191h97v-191q186 -8 313 -49v-100q-174 61 -342 61q-352 0 -352 -211q0 -170 246 -170h149q350 0 350 -281q0 -279 -364 -299v-190h-97v190q-213 8 -339 50v100q170 -59 364 -59q311 0 311 208q0 170 -225 170h-149q-351 0 -351 281z" />
<glyph unicode="%" horiz-adv-x="1341" d="M100 0l1016 1430h125l-1016 -1430h-125zM100 1180q0 260 279 260q272 0 272 -260q0 -258 -272 -258q-279 0 -279 258zM201 1182q0 -176 178 -176q174 0 174 176q0 174 -174 174q-178 0 -178 -174zM690 250q0 260 279 260q272 0 272 -260t-272 -260q-279 0 -279 260z M791 252q0 -178 178 -178q174 0 174 178q0 174 -174 174q-178 0 -178 -174z" />
<glyph unicode="&#x26;" horiz-adv-x="1273" d="M100 393q0 248 224 334q-223 63 -224 317q0 385 510 386q184 0 361 -50v-90q-184 49 -359 49q-408 0 -407 -288q0 -281 336 -281h467v172h73l23 -172h172v-90h-164v-191q0 -492 -516 -491q-496 0 -496 395zM205 399q0 -309 381 -309q422 0 422 402v188h-465 q-338 0 -338 -281z" />
<glyph unicode="'" horiz-adv-x="313" d="M100 1430h115l-31 -435h-55z" />
<glyph unicode="(" horiz-adv-x="479" d="M100 524q0 457 199 906h107q-201 -455 -201 -905.5t201 -905.5h-107q-199 448 -199 905z" />
<glyph unicode=")" horiz-adv-x="479" d="M76 -381q199 449 198.5 905.5t-198.5 905.5h104q201 -455 201 -905.5t-201 -905.5h-104z" />
<glyph unicode="*" horiz-adv-x="808" d="M100 1151l47 149l211 -104l-30 234h155l-28 -232l209 100l47 -147l-228 -41l158 -172l-123 -90l-112 205l-113 -205l-123 90l160 170z" />
<glyph unicode="+" horiz-adv-x="948" d="M100 479v90h330v330h100v-330h320v-90h-320v-329h-100v329h-330z" />
<glyph unicode="," horiz-adv-x="454" d="M100 -250l150 434h104l-149 -434h-105z" />
<glyph unicode="-" horiz-adv-x="698" d="M100 479v90h500v-90h-500z" />
<glyph unicode="." horiz-adv-x="333" d="M100 0v125h136v-125h-136z" />
<glyph unicode="/" horiz-adv-x="964" d="M25 0l725 1430h114l-725 -1430h-114z" />
<glyph unicode="0" horiz-adv-x="1374" d="M76 713q0 727 616 727q608 0 608 -727q0 -723 -608 -723q-585 0 -616 723zM190 719q0 -639 502 -639q494 0 494 639q0 631 -494 631q-502 0 -502 -631z" />
<glyph unicode="1" horiz-adv-x="583" d="M100 1300v60l254 70v-1430h-104v1300h-150z" />
<glyph unicode="2" horiz-adv-x="1179" d="M100 0v90q874 608 875 930q0 330 -420 330q-223 0 -416 -111v100q193 100 416 101q524 0 524 -420q0 -371 -823 -930h823v-90h-979z" />
<glyph unicode="3" horiz-adv-x="1114" d="M100 49v101q197 -70 400 -70q410 0 409 319q0 281 -331 281h-328v90h325q334 0 334 281q0 299 -409 299q-203 0 -400 -70v100q193 59 400 60q516 0 516 -389q0 -258 -240 -326q240 -66 240 -326q0 -410 -516 -409q-207 0 -400 59z" />
<glyph unicode="4" horiz-adv-x="1124" d="M76 420v90l393 920h104l-385 -920h609v588h104v-588l150 -45v-45h-150v-420h-104v420h-721z" />
<glyph unicode="5" horiz-adv-x="1173" d="M100 729l50 701h854v-80h-766l-43 -512q207 23 335 22q569 0 570 -399q0 -471 -549 -471q-238 0 -430 59v101q197 -70 430 -70q444 0 444 381q0 319 -465 319q-229 0 -430 -51z" />
<glyph unicode="6" horiz-adv-x="1239" d="M100 530q0 465 508 943l66 -76q-292 -246 -424 -590q188 63 366 63q524 0 525 -401q0 -479 -553 -479q-488 -1 -488 540zM195 547q0 -467 401 -467q442 0 442 389q0 311 -432 311q-201 0 -383 -67q-28 -105 -28 -166z" />
<glyph unicode="7" horiz-adv-x="1124" d="M100 1339v91h951v-91l-574 -1339h-131l592 1339h-838z" />
<glyph unicode="8" horiz-adv-x="1239" d="M100 424q0 244 252 321q-213 86 -213 332q0 367 482 367q479 0 479 -367q0 -246 -217 -332q258 -78 258 -321q0 -434 -520.5 -434t-520.5 434zM205 418q0 -338 420 -338q410 0 409 338q0 283 -422 282q-407 1 -407 -282zM246 1059q0 -268 379 -268q371 0 370 268 q0 291 -383 291q-366 0 -366 -291z" />
<glyph unicode="9" horiz-adv-x="1189" d="M100 965q0 479 533 479q508 0 508 -541q0 -465 -508 -942l-68 78q315 279 416 577q-203 -92 -387 -92q-494 1 -494 441zM201 965q0 -340 393 -340q266 0 424 118q16 72 16 146q0 465 -409 465q-424 0 -424 -389z" />
<glyph unicode=":" horiz-adv-x="382" d="M100 0v125h136v-125h-136zM100 926v125h136v-125h-136z" />
<glyph unicode=";" horiz-adv-x="524" d="M100 -250l150 434h104l-149 -434h-105zM240 926v125h135v-125h-135z" />
<glyph unicode="&#x3c;" horiz-adv-x="1099" d="M100 469v111l899 419v-108l-813 -371l813 -360v-111z" />
<glyph unicode="=" horiz-adv-x="948" d="M100 330v90h750v-90h-750zM100 631v90h750v-90h-750z" />
<glyph unicode="&#x3e;" horiz-adv-x="1099" d="M100 49v111l813 360l-813 371v108l899 -419v-111z" />
<glyph unicode="?" horiz-adv-x="1114" d="M100 1290v90q209 49 400 50q516 0 516 -390q0 -391 -498 -391h-123v-278h-104v368h223q395 0 395 301q0 299 -409 299q-191 0 -400 -49zM291 0h104v104h-104v-104z" />
<glyph unicode="@" horiz-adv-x="2148" d="M150 541q0 899 923 899q928 0 928 -899q0 -690 -428 -691q-162 0 -162 224q-207 -74 -391 -74q-395 0 -395 328q0 293 426 293q168 0 354 -21v129q0 231 -363 232q-156 0 -331 -52v90q176 51 331 52q467 0 467 -336v-627q0 -147 101 -147q285 0 284 600q0 809 -804 809 q-834 0 -834 -809q0 -831 764 -832v-90q-870 0 -870 922zM729 330q0 -240 291 -240q195 0 385 82v338q-182 20 -354 20q-322 1 -322 -200z" />
<glyph unicode="A" horiz-adv-x="1470" d="M25 0l647 1430h125l651 -1430h-125l-211 479h-608l31 90h536l-344 779l-590 -1348h-112z" />
<glyph unicode="B" horiz-adv-x="1308" d="M150 0v1430h610q408 0 407 -332q0 -246 -295 -350q313 -51 314 -334q0 -414 -447 -414h-589zM256 90h471q346 0 346 320q0 283 -432 282h-80v72q500 45 500 326q0 250 -307 249h-498v-1249z" />
<glyph unicode="C" horiz-adv-x="1384" d="M100 735q0 705 750 705q213 0 399 -60v-90q-186 59 -379 60q-666 0 -665 -615q0 -655 665 -655q193 0 379 59v-90q-186 -59 -399 -59q-750 0 -750 745z" />
<glyph unicode="D" horiz-adv-x="1499" d="M150 0v1430h579q672 0 672 -676q0 -754 -672 -754h-579zM256 90h465q563 0 563 664q0 586 -563 585h-465v-1249z" />
<glyph unicode="E" horiz-adv-x="1226" d="M150 0v1430h940v-91h-834v-569h799v-90h-799v-590h848v-90h-954z" />
<glyph unicode="F" horiz-adv-x="1236" d="M150 0v1430h940v-91h-834v-569h799v-90h-799v-680h-106z" />
<glyph unicode="G" horiz-adv-x="1384" d="M100 735q0 705 750 705q213 0 399 -60v-90q-186 59 -379 60q-666 0 -665 -615q0 -655 647 -655q123 0 293 45v524h104v-594q-186 -66 -383 -65q-766 0 -766 745z" />
<glyph unicode="H" horiz-adv-x="1484" d="M150 0v1430h106v-660h975v660h104v-1430h-104v680h-975v-680h-106z" />
<glyph unicode="I" d="M150 0v1430h106v-1430h-106z" />
<glyph unicode="J" horiz-adv-x="628" d="M25 0v90q350 0 350 322v1018h104v-1018q1 -412 -454 -412z" />
<glyph unicode="K" horiz-adv-x="1261" d="M150 0v1430h106v-1430h-106zM350 698v113l623 619h133l-662 -666l746 -764h-176z" />
<glyph unicode="L" horiz-adv-x="1181" d="M150 0v1430h106v-1340h827v-90h-933z" />
<glyph unicode="M" horiz-adv-x="1748" d="M150 0v1430h106l643 -1307l606 1307h94v-1430h-94v1237l-567 -1237h-86l-606 1247v-1247h-96z" />
<glyph unicode="N" horiz-adv-x="1484" d="M150 0v1430h135l954 -1242v1242h96v-1430h-86l-1003 1313v-1313h-96z" />
<glyph unicode="O" horiz-adv-x="1624" d="M100 713q0 727 717 727q709 0 709 -727q0 -723 -709 -723q-717 0 -717 723zM215 719q0 -639 602 -639q592 0 592 639q0 631 -592 631q-602 0 -602 -631z" />
<glyph unicode="P" horiz-adv-x="1241" d="M150 0v1430h610q408 0 407 -343q0 -387 -569 -479l-27 86q479 74 480 385q0 258 -308 258h-487v-1337h-106z" />
<glyph unicode="Q" horiz-adv-x="1624" d="M100 713q0 727 717 727q709 0 709 -727q0 -598 -537 -715l262 -301l-94 -68l-309 361q-748 0 -748 723zM215 719q0 -629 602 -629q592 0 592 629q0 631 -592 631q-602 0 -602 -631z" />
<glyph unicode="R" horiz-adv-x="1214" d="M150 0v1430h589q389 0 389 -343q0 -299 -421 -421l483 -666h-143l-476 664v69q440 66 441 346q0 258 -289 258h-467v-1337h-106z" />
<glyph unicode="S" horiz-adv-x="1308" d="M70 1020q0 420 575 420q248 0 465 -60v-90q-217 59 -465 60q-471 0 -471 -330q0 -250 295 -250h313q397 0 398 -340q0 -440 -543 -440q-281 0 -498 59v101q221 -70 498 -70q438 0 438 350q0 240 -293 240h-313q-399 0 -399 350z" />
<glyph unicode="T" horiz-adv-x="1073" d="M0 1339v91h1075v-91h-489v-1339h-107v1339h-479z" />
<glyph unicode="U" horiz-adv-x="1449" d="M150 553v877h106v-877q0 -473 469 -473t469 473v877h106v-877q0 -563 -575 -563t-575 563z" />
<glyph unicode="V" horiz-adv-x="1470" d="M25 1430h114l602 -1348l594 1348h113l-629 -1430h-164z" />
<glyph unicode="W" horiz-adv-x="1847" d="M25 1430h100l242 -1330l462 1330h105l475 -1342l274 1342h93l-289 -1430h-154l-450 1307l-455 -1307h-147z" />
<glyph unicode="X" horiz-adv-x="1298" d="M25 0l1126 1430h125l-1126 -1430h-125zM25 1430h125l1126 -1430h-125z" />
<glyph unicode="Y" horiz-adv-x="1228" d="M25 1430h125l462 -830l478 830h114l-534 -930v-500h-107v500z" />
<glyph unicode="Z" horiz-adv-x="1249" d="M125 0v80l895 1259h-875v91h979v-91l-866 -1249h848v-90h-981z" />
<glyph unicode="[" horiz-adv-x="544" d="M150 -381v1811h370v-91h-274v-1630h274v-90h-370z" />
<glyph unicode="\" horiz-adv-x="964" d="M25 1430h114l725 -1430h-114z" />
<glyph unicode="]" horiz-adv-x="544" d="M25 -291h274v1630h-274v91h370v-1811h-370v90z" />
<glyph unicode="^" horiz-adv-x="1048" d="M49 700l402 730h149l399 -730h-108l-371 672l-360 -672h-111z" />
<glyph unicode="_" horiz-adv-x="1048" d="M25 0h999v-90h-999v90z" />
<glyph unicode="`" horiz-adv-x="399" d="M0 1356v149l399 -149v-152z" />
<glyph unicode="a" horiz-adv-x="1134" d="M100 317q0 303 447 304q164 0 334 -21v129q0 231 -365 232q-156 0 -332 -52v90q176 51 332 52q469 0 469 -336v-715h-63l-35 74q-207 -74 -391 -74q-396 0 -396 317zM205 319q0 -229 291 -229q195 0 385 82v338q-162 20 -334 20q-342 0 -342 -211z" />
<glyph unicode="b" horiz-adv-x="1187" d="M150 43v1387h106v-431q209 51 334 52q498 0 497 -504q0 -547 -522 -547q-225 0 -415 43zM256 123q178 -29 299 -29q430 0 430 459q0 397 -395 397q-150 0 -334 -53v-774z" />
<glyph unicode="c" horiz-adv-x="1024" d="M100 545q0 506 570 506q152 0 280 -31v-90q-129 31 -260 31q-475 0 -475 -416q0 -455 475 -455q131 0 260 31v-90q-129 -31 -280 -31q-570 0 -570 545z" />
<glyph unicode="d" horiz-adv-x="1189" d="M100 547q0 504 498 504q129 0 338 -52v431h104v-1367q-188 -63 -471 -63q-469 0 -469 547zM213 553q0 -459 385 -459q152 0 338 39v764q-184 53 -338 53q-385 0 -385 -397z" />
<glyph unicode="e" horiz-adv-x="1124" d="M100 537q0 514 502 514q399 0 399 -410q0 -65 -10 -139h-786q0 -412 485 -412q141 0 279 31v-90q-138 -31 -338 -31q-531 0 -531 537zM205 596h688q2 24 2 47q0 319 -322 320q-350 0 -368 -367z" />
<glyph unicode="f" horiz-adv-x="720" d="M150 -4v1106q0 381 393 381q127 0 233 -41v-90q-100 41 -235 41q-285 0 -285 -234v-108h393v-90h-393v-961z" />
<glyph unicode="g" horiz-adv-x="1185" d="M100 530q0 520 525 521q212 0 411 -43v-1008q0 -381 -481 -381q-186 0 -344 51v90q160 -51 344 -51q377 0 377 291v49q-197 -49 -334 -49q-498 0 -498 530zM203 532q0 -432 395 -432q150 0 334 54v778q-174 25 -316 24q-413 0 -413 -424z" />
<glyph unicode="h" horiz-adv-x="1183" d="M150 0v1430h106v-494q246 115 436 115q342 0 342 -392v-659h-104v702q0 254 -293 254q-156 0 -381 -133v-823h-106z" />
<glyph unicode="i" d="M150 0v1051h106v-1051h-106zM150 1329v101h106v-101h-106z" />
<glyph unicode="j" d="M25 -303q125 86 125 383v971h106v-971q0 -317 -156 -449zM150 1329v101h106v-101h-106z" />
<glyph unicode="k" horiz-adv-x="1099" d="M150 0v1430h106v-461q190 82 412 82q373 0 372 -303q0 -231 -329 -316l356 -432h-156l-333 434v64q358 41 358 250q0 213 -291 213q-195 0 -389 -95v-866h-106z" />
<glyph unicode="l" d="M150 0v1430h106v-1430h-106z" />
<glyph unicode="m" horiz-adv-x="1804" d="M150 0v1051h75l11 -133q213 133 409 133q186 0 260 -146q193 145 387 146q332 0 332 -351v-700h-104v700q0 256 -248 256q-186 0 -328 -137v-819h-104v719q0 238 -226 237q-193 0 -358 -137v-819h-106z" />
<glyph unicode="n" horiz-adv-x="1183" d="M150 0v1051h75l13 -136q261 135 454 136q342 0 342 -332v-719h-104v723q0 233 -262 233q-186 0 -412 -133v-823h-106z" />
<glyph unicode="o" horiz-adv-x="1198" d="M100 524q0 526 500 526.5t500 -526.5q0 -524 -500 -524q-498 0 -500 524zM205 528q0 -438 395 -438t395 438q0 432 -395 432t-395 -432z" />
<glyph unicode="p" horiz-adv-x="1185" d="M150 -381v1389q209 43 432 43q506 0 505 -500q0 -551 -507 -551q-127 0 -324 49v-430h-106zM256 154q184 -53 322 -54q408 0 407 453q0 403 -405 403q-139 0 -324 -24v-778z" />
<glyph unicode="q" horiz-adv-x="1185" d="M100 530q0 520 525 521q212 0 411 -43v-1389h-104v430q-197 -49 -334 -49q-498 0 -498 530zM203 532q0 -432 395 -432q150 0 334 54v778q-174 25 -316 24q-413 0 -413 -424z" />
<glyph unicode="r" horiz-adv-x="559" d="M150 0v1051h75l13 -136q89 135 282 136v-84q-186 0 -264 -133v-834h-106z" />
<glyph unicode="s" horiz-adv-x="1048" d="M100 750q0 301 437 301q180 0 362 -52v-100q-175 61 -362 62q-332 0 -332 -211q0 -180 225 -181h170q350 0 350 -270q0 -299 -436 -299q-190 0 -364 49v101q170 -59 364 -60q332 0 332 209q0 170 -246 170h-170q-330 0 -330 281z" />
<glyph unicode="t" horiz-adv-x="548" d="M150 283v938h65l21 -170h264v-90h-244v-664q0 -207 156 -207h88v-90h-86q-264 0 -264 283z" />
<glyph unicode="u" horiz-adv-x="1183" d="M150 391v660h106v-664q0 -293 291 -293q158 0 383 133v824h104v-1051h-76l-12 133q-258 -133 -454 -133q-342 0 -342 391z" />
<glyph unicode="v" horiz-adv-x="1009" d="M0 1051h121l383 -961l387 961h119l-447 -1051h-123z" />
<glyph unicode="w" horiz-adv-x="1517" d="M49 1051h109l225 -924l334 924h76l342 -904l231 904h102l-274 -1051h-109l-329 895l-328 -895h-113z" />
<glyph unicode="x" horiz-adv-x="989" d="M25 0l815 1051h125l-815 -1051h-125zM25 1051h125l815 -1051h-125z" />
<glyph unicode="y" horiz-adv-x="1060" d="M25 1051h120l392 -949l383 949h116l-456 -1082q-117 -287 -349 -356l-30 84q182 66 278 287z" />
<glyph unicode="z" horiz-adv-x="989" d="M100 0v90l666 871h-645v90h770v-90l-658 -871h637v-90h-770z" />
<glyph unicode="{" horiz-adv-x="569" d="M100 479v90q209 0 209 383q0 299 131 478h105q-129 -176 -129 -478q0 -354 -191 -428q190 -74 191 -426q0 -303 129 -479h-105q-131 178 -131 479q0 381 -209 381z" />
<glyph unicode="|" d="M150 -381v1811h106v-1811h-106z" />
<glyph unicode="}" horiz-adv-x="569" d="M25 -381q131 178 131 479q0 352 188 426q-188 74 -188 428q0 299 -131 478h104q131 -178 131 -478q0 -383 209 -383v-90q-209 0 -209 -381q0 -301 -131 -479h-104z" />
<glyph unicode="~" horiz-adv-x="948" d="M100 461v90q102 109 365 18q260 -88 385 21v-90q-104 -109 -365 -21q-262 91 -385 -18z" />
<glyph unicode="&#xa1;" d="M150 -381v1061h106v-1061h-106zM150 944v107h106v-107h-106z" />
<glyph unicode="&#xa2;" horiz-adv-x="1048" d="M100 735q0 449 510 504v191h95v-191q104 0 245 -49v-90q-135 51 -260 51q-485 0 -485 -416q0 -455 485 -454q131 0 260 49v-90q-141 -49 -245 -50v-190h-95v190q-510 43 -510 545z" />
<glyph unicode="&#xa3;" horiz-adv-x="1216" d="M100 -31v92q186 74 187 353q0 113 -78 291t-78 321q0 414 559 414q270 0 426 -101v-118q-158 129 -434 129q-432 0 -432 -322q0 -150 53 -258h447v-90h-414q59 -166 59 -264q0 -139 -63 -297q174 18 381 -39q209 -59 403 80v-111q-184 -129 -485 -55q-298 73 -531 -25z " />
<glyph unicode="&#xa4;" horiz-adv-x="1138" d="M100 172l115 121q-55 98 -55 231q0 141 55 232l-115 121l109 110l125 -121q111 70 241 70q121 0 226 -70l129 121l108 -110l-116 -121q57 -82 57 -232q0 -139 -68 -231l127 -121l-108 -111l-129 123q-104 -59 -234 -59q-125 0 -241 59l-117 -123zM322 528 q0 -246 245 -245q244 0 244 245q0 244 -244 244q-245 0 -245 -244z" />
<glyph unicode="&#xa5;" horiz-adv-x="1249" d="M49 1430h125l442 -662l449 662h135l-493 -701h372v-90h-415v-170h415v-90h-415v-379h-105v379h-389v90h389v170h-389v90h346z" />
<glyph unicode="&#xa6;" horiz-adv-x="200" />
<glyph unicode="&#xa7;" horiz-adv-x="1048" d="M100 721q0 147 162 205q-162 49 -162 225q0 289 457 289q168 0 342 -49v-101q-170 59 -342 60q-352 0 -352 -199q0 -170 256 -170h108q381 0 381 -268q0 -158 -166 -213q166 -61 166 -219q0 -291 -436 -291q-182 0 -364 51v98q170 -59 364 -59q332 0 332 201 q0 170 -277 170h-108q-361 0 -361 270zM205 717q0 -178 264 -178h111q266 0 266 166q0 186 -266 186h-111q-264 0 -264 -174z" />
<glyph unicode="&#xa8;" horiz-adv-x="552" d="M0 1280v150h184v-150h-184zM371 1280v150h184v-150h-184z" />
<glyph unicode="&#xa9;" horiz-adv-x="1161" d="M150 1024q0 426 430 426q434 0 434 -426q0 -416 -434 -416q-418 0 -430 416zM223 1024q0 -360 357 -360q360 0 360 360q0 371 -360 371q-357 0 -357 -371zM322 1032q0 -287 288 -287q82 0 156 23v61q-68 -27 -148 -26q-225 0 -225 229q0 213 225 213q80 0 148 -26v61 q-74 23 -156 23q-288 -1 -288 -271z" />
<glyph unicode="&#xaa;" horiz-adv-x="401" />
<glyph unicode="&#xab;" horiz-adv-x="847" d="M100 524l258 375h121l-258 -375l258 -374h-121zM420 524l258 375h121l-258 -375l258 -374h-121z" />
<glyph unicode="&#xac;" horiz-adv-x="1394" />
<glyph unicode="&#xad;" horiz-adv-x="634" />
<glyph unicode="&#x2212;" horiz-adv-x="634" />
<glyph unicode="&#xae;" horiz-adv-x="1161" d="M150 1024q0 426 430 426q434 0 434 -426q0 -416 -434 -416q-418 0 -430 416zM223 1024q0 -360 357 -360q360 0 360 360q0 371 -360 371q-357 0 -357 -371zM403 756v536h230q154 0 153 -129q0 -104 -149 -153l182 -254h-90l-172 241v45q156 25 156 119q0 74 -86 74h-154 v-479h-70z" />
<glyph unicode="&#xaf;" horiz-adv-x="358" />
<glyph unicode="&#x2c9;" horiz-adv-x="358" />
<glyph unicode="&#xb0;" horiz-adv-x="751" d="M100 1169q0 260 279 261q272 0 272 -261q0 -258 -272 -258q-279 0 -279 258zM190 1171q0 -186 189 -186q182 0 182 186q0 184 -182 185q-189 -1 -189 -185z" />
<glyph unicode="&#xb1;" horiz-adv-x="634" />
<glyph unicode="&#xb2;" horiz-adv-x="299" />
<glyph unicode="&#xb3;" horiz-adv-x="299" />
<glyph unicode="&#xb4;" horiz-adv-x="399" d="M0 1235v90l399 150v-91z" />
<glyph unicode="&#xb5;" horiz-adv-x="1183" d="M150 -381v1432h106v-672q0 -285 311 -285q158 0 363 133v824h104v-1051h-76l-12 133q-236 -133 -414 -133q-184 0 -276 121v-502h-106z" />
<glyph unicode="&#x3bc;" horiz-adv-x="1183" d="M150 -381v1432h106v-672q0 -285 311 -285q158 0 363 133v824h104v-1051h-76l-12 133q-236 -133 -414 -133q-184 0 -276 121v-502h-106z" />
<glyph unicode="&#xb6;" horiz-adv-x="952" d="M0 985q0 444 442 445h510v-91h-149v-1773h-101v1773h-159v-1773h-101v973q-442 0 -442 446z" />
<glyph unicode="&#xb7;" horiz-adv-x="448" d="M100 524q0 125 125 125t125 -125t-125 -125t-125 125z" />
<glyph unicode="&#x2219;" horiz-adv-x="448" d="M100 524q0 125 125 125t125 -125t-125 -125t-125 125z" />
<glyph unicode="&#xb8;" horiz-adv-x="456" d="M0 -285q104 -59 215 -59q150 0 150 94t-123 94h-154l131 232h94l-80 -154q223 0 223.5 -172t-241.5 -172q-108 0 -215 49v88z" />
<glyph unicode="&#xb9;" horiz-adv-x="299" />
<glyph unicode="&#xba;" horiz-adv-x="401" />
<glyph unicode="&#xbb;" horiz-adv-x="847" d="M49 150l258 374l-258 375h123l258 -375l-258 -374h-123zM369 150l258 374l-258 375h123l258 -375l-258 -374h-123z" />
<glyph unicode="&#xbc;" horiz-adv-x="784" />
<glyph unicode="&#xbd;" horiz-adv-x="784" />
<glyph unicode="&#xbe;" horiz-adv-x="784" />
<glyph unicode="&#xbf;" horiz-adv-x="1114" d="M100 -240v-90q217 -51 400 -51q516 0 516 391q0 389 -498 389h-123v281h-104v-371h223q395 0 395 -299q0 -301 -409 -301q-183 0 -400 51zM291 944v107h104v-107h-104z" />
<glyph unicode="&#xc0;" horiz-adv-x="1470" d="M25 0l647 1430h125l651 -1430h-125l-211 479h-608l31 90h536l-344 779l-590 -1348h-112zM524 1718v90l402 -149v-90z" />
<glyph unicode="&#xc1;" horiz-adv-x="1470" d="M25 0l647 1430h125l651 -1430h-125l-211 479h-608l31 90h536l-344 779l-590 -1348h-112zM524 1569v90l402 149v-90z" />
<glyph unicode="&#xc2;" horiz-adv-x="1470" d="M25 0l647 1430h125l651 -1430h-125l-211 479h-608l31 90h536l-344 779l-590 -1348h-112zM483 1575l195 260h110l195 -260h-100l-152 192l-147 -192h-101z" />
<glyph unicode="&#xc3;" horiz-adv-x="1470" d="M25 0l647 1430h125l651 -1430h-125l-211 479h-608l31 90h536l-344 779l-590 -1348h-112zM487 1649v90q106 82 240 20q133 -59 260 21v-90q-106 -82 -239 -21q-134 60 -261 -20z" />
<glyph unicode="&#xc4;" horiz-adv-x="1470" d="M25 0l647 1430h125l651 -1430h-125l-211 479h-608l31 90h536l-344 779l-590 -1348h-112zM514 1649v110h115v-110h-115zM834 1649v110h114v-110h-114z" />
<glyph unicode="&#xc5;" horiz-adv-x="1470" d="M25 0l647 1430h125l651 -1430h-125l-211 479h-608l31 90h536l-344 779l-590 -1348h-112zM504 1577q0 209 227 209q225 0 225 -209q0 -211 -225 -211q-227 0 -227 211zM584 1579q0 -147 147 -147q145 0 146 147q0 143 -146 143q-147 0 -147 -143z" />
<glyph unicode="&#xc6;" horiz-adv-x="1873" d="M25 0l608 1430h1098v-91h-920l242 -569h643v-90h-604l256 -590h401v-90h-498l-557 1354l-303 -785h512l37 -90h-598l-195 -479h-122z" />
<glyph unicode="&#xc7;" horiz-adv-x="1384" d="M100 735q0 705 750 705q213 0 399 -60v-90q-186 59 -379 60q-666 0 -665 -615q0 -655 665 -655q193 0 379 59v-90q-186 -59 -399 -59q-750 0 -750 745zM584 -285q104 -59 215 -59q147 0 147 94t-123 94h-151l131 232h94l-82 -154q225 0 225 -172t-241 -172 q-108 0 -215 49v88z" />
<glyph unicode="&#xc8;" horiz-adv-x="1226" d="M150 0h954v90h-848v590h799v90h-799v569h834v91h-940v-1430zM436 1718v90l400 -149v-90z" />
<glyph unicode="&#xc9;" horiz-adv-x="1226" d="M150 0h954v90h-848v590h799v90h-799v569h834v91h-940v-1430zM436 1569v90l400 149v-90z" />
<glyph unicode="&#xca;" horiz-adv-x="1226" d="M150 0h954v90h-848v590h799v90h-799v569h834v91h-940v-1430zM379 1575l194 260h111l195 -260h-101l-151 192l-148 -192h-100z" />
<glyph unicode="&#xcb;" horiz-adv-x="1226" d="M150 0h954v90h-848v590h799v90h-799v569h834v91h-940v-1430zM403 1649v110h115v-110h-115zM723 1649v110h115v-110h-115z" />
<glyph unicode="&#xcc;" d="M0 1708v100l406 -149v-100zM150 0v1430h106v-1430h-106z" />
<glyph unicode="&#xcd;" d="M0 1569v90l406 149v-90zM150 0v1430h106v-1430h-106z" />
<glyph unicode="&#xce;" d="M-49 1575l194 260h111l195 -260h-101l-151 192l-150 -192h-98zM150 0v1430h106v-1430h-106z" />
<glyph unicode="&#xcf;" d="M-14 1649v110h114v-110h-114zM150 0v1430h106v-1430h-106zM305 1649v110h115v-110h-115z" />
<glyph unicode="&#xd0;" horiz-adv-x="661" />
<glyph unicode="&#xd1;" horiz-adv-x="1484" d="M150 0v1430h135l954 -1242v1242h96v-1430h-86l-1003 1313v-1313h-96zM514 1649v90q106 82 242 20q133 -59 260 21v-90q-106 -82 -242 -21q-133 60 -260 -20z" />
<glyph unicode="&#xd2;" horiz-adv-x="1624" d="M100 713q0 727 717 727q709 0 709 -727q0 -723 -709 -723q-717 0 -717 723zM215 719q0 -639 602 -639q592 0 592 639q0 631 -592 631q-602 0 -602 -631zM590 1718v90l399 -149v-90z" />
<glyph unicode="&#xd3;" horiz-adv-x="1624" d="M100 713q0 727 717 727q709 0 709 -727q0 -723 -709 -723q-717 0 -717 723zM215 719q0 -639 602 -639q592 0 592 639q0 631 -592 631q-602 0 -602 -631zM590 1569v90l399 149v-90z" />
<glyph unicode="&#xd4;" horiz-adv-x="1624" d="M100 713q0 727 717 727q709 0 709 -727q0 -723 -709 -723q-717 0 -717 723zM215 719q0 -639 602 -639q592 0 592 639q0 631 -592 631q-602 0 -602 -631zM557 1575l197 260h108l197 -260h-101l-151 192l-150 -192h-100z" />
<glyph unicode="&#xd5;" horiz-adv-x="1624" d="M100 713q0 727 717 727q709 0 709 -727q0 -723 -709 -723q-717 0 -717 723zM215 719q0 -639 602 -639q592 0 592 639q0 631 -592 631q-602 0 -602 -631zM563 1649v90q106 82 240 20q133 -59 260 21v-90q-106 -82 -240 -21q-133 60 -260 -20z" />
<glyph unicode="&#xd6;" horiz-adv-x="1624" d="M100 713q0 727 717 727q709 0 709 -727q0 -723 -709 -723q-717 0 -717 723zM215 719q0 -639 602 -639q592 0 592 639q0 631 -592 631q-602 0 -602 -631zM598 1649v110h117v-110h-117zM920 1649v110h114v-110h-114z" />
<glyph unicode="&#xd7;" horiz-adv-x="634" />
<glyph unicode="&#xd8;" horiz-adv-x="1624" d="M100 713q0 727 717 727q709 0 709 -727q0 -723 -709 -723q-717 0 -717 723zM199 0l1081 1430h139l-1083 -1430h-137zM215 719q0 -639 602 -639q592 0 592 639q0 631 -592 631q-602 0 -602 -631z" />
<glyph unicode="&#xd9;" horiz-adv-x="1449" d="M150 553v877h106v-877q0 -473 469 -473t469 473v877h106v-877q0 -563 -575 -563t-575 563zM549 1718v90l399 -149v-90z" />
<glyph unicode="&#xda;" horiz-adv-x="1449" d="M150 553v877h106v-877q0 -473 469 -473t469 473v877h106v-877q0 -563 -575 -563t-575 563zM549 1569v90l399 149v-90z" />
<glyph unicode="&#xdb;" horiz-adv-x="1449" d="M150 553v877h106v-877q0 -473 469 -473t469 473v877h106v-877q0 -563 -575 -563t-575 563zM479 1575l197 260h108l197 -260h-100l-154 192l-147 -192h-101z" />
<glyph unicode="&#xdc;" horiz-adv-x="1449" d="M150 553v877h106v-877q0 -473 469 -473t469 473v877h106v-877q0 -563 -575 -563t-575 563zM500 1649v110h114v-110h-114zM819 1649v110h117v-110h-117z" />
<glyph unicode="&#xdd;" horiz-adv-x="524" />
<glyph unicode="&#xde;" horiz-adv-x="575" />
<glyph unicode="&#xdf;" horiz-adv-x="1179" d="M150 0v958q0 469 464 469q399 0 400 -397v-55q-324 -104 -324 -258q0 -113 195 -182q197 -72 196 -234q0 -301 -395 -301h-131v90h133q279 0 279 211q0 111 -190.5 178.5t-190.5 235.5q0 209 317 315q0 307 -297 307q-350 0 -350 -381v-956h-106z" />
<glyph unicode="&#xe0;" horiz-adv-x="1134" d="M100 317q0 303 447 304q164 0 334 -21v129q0 231 -365 232q-156 0 -332 -52v90q176 51 332 52q469 0 469 -336v-715h-63l-35 74q-207 -74 -391 -74q-396 0 -396 317zM205 319q0 -229 291 -229q195 0 385 82v338q-162 20 -334 20q-342 0 -342 -211zM358 1384v91l400 -150 v-90z" />
<glyph unicode="&#xe1;" horiz-adv-x="1134" d="M100 317q0 303 447 304q164 0 334 -21v129q0 231 -365 232q-156 0 -332 -52v90q176 51 332 52q469 0 469 -336v-715h-63l-35 74q-207 -74 -391 -74q-396 0 -396 317zM205 319q0 -229 291 -229q195 0 385 82v338q-162 20 -334 20q-342 0 -342 -211zM358 1235v90l400 150 v-91z" />
<glyph unicode="&#xe2;" horiz-adv-x="1134" d="M100 317q0 303 447 304q164 0 334 -21v129q0 231 -365 232q-156 0 -332 -52v90q176 51 332 52q469 0 469 -336v-715h-63l-35 74q-207 -74 -391 -74q-396 0 -396 317zM205 319q0 -229 291 -229q195 0 385 82v338q-162 20 -334 20q-342 0 -342 -211zM315 1280l195 260h111 l194 -260h-100l-152 195l-147 -195h-101z" />
<glyph unicode="&#xe3;" horiz-adv-x="1134" d="M100 317q0 303 447 304q164 0 334 -21v129q0 231 -365 232q-156 0 -332 -52v90q176 51 332 52q469 0 469 -336v-715h-63l-35 74q-207 -74 -391 -74q-396 0 -396 317zM205 319q0 -229 291 -229q195 0 385 82v338q-162 20 -334 20q-342 0 -342 -211zM303 1288v90 q106 82 240 21q133 -59 260 20v-90q-106 -82 -240 -20q-133 59 -260 -21z" />
<glyph unicode="&#xe4;" horiz-adv-x="1134" d="M100 317q0 303 447 304q164 0 334 -21v129q0 231 -365 232q-156 0 -332 -52v90q176 51 332 52q469 0 469 -336v-715h-63l-35 74q-207 -74 -391 -74q-396 0 -396 317zM205 319q0 -229 291 -229q195 0 385 82v338q-162 20 -334 20q-342 0 -342 -211zM350 1290v111h117v-111 h-117zM672 1290v111h114v-111h-114z" />
<glyph unicode="&#xe5;" horiz-adv-x="1134" d="M100 317q0 303 447 304q164 0 334 -21v129q0 231 -365 232q-156 0 -332 -52v90q176 51 332 52q469 0 469 -336v-715h-63l-35 74q-207 -74 -391 -74q-396 0 -396 317zM205 319q0 -229 291 -229q195 0 385 82v338q-162 20 -334 20q-342 0 -342 -211zM328 1538 q0 221 237 221q233 0 234 -221q0 -217 -234 -217q-237 0 -237 217zM418 1540.5q0 -145.5 147 -145.5q143 0 143.5 145.5t-143.5 145.5q-147 0 -147 -145.5z" />
<glyph unicode="&#xe6;" horiz-adv-x="1828" d="M100 330q0 291 426 291q147 0 318 -23v133q0 229 -324 230q-169 0 -332 -50v86q172 53 334 54q330 0 398 -181q117 180 391 181q459 0 385 -549h-748q0 -412 441 -412q141 0 284 29v-88q-147 -31 -342 -31q-254 0 -411 176q-195 -176 -435 -176q-385 0 -385 330zM205 330 q0 -240 280 -240q201 0 355 172v248q-143 20 -314 20q-321 1 -321 -200zM946 596h637q35 365 -309 365q-310 0 -328 -365z" />
<glyph unicode="&#xe7;" horiz-adv-x="1024" d="M100 545q0 506 570 506q152 0 280 -31v-90q-129 31 -260 31q-475 0 -475 -416q0 -455 475 -455q131 0 260 31v-90q-129 -31 -280 -31q-570 0 -570 545zM397 -285q104 -59 217 -59q147 0 147.5 94t-122.5 94h-154l131 232h97l-82 -154q223 0 223 -172t-240 -172 q-111 0 -217 49v88z" />
<glyph unicode="&#xe8;" horiz-adv-x="1124" d="M100 537q0 514 502 514q463 0 389 -549h-786q0 -412 485 -412q141 0 279 31v-90q-138 -31 -338 -31q-531 0 -531 537zM205 596h688q25 367 -320 367q-350 0 -368 -367zM369 1384v91l399 -150v-90z" />
<glyph unicode="&#xe9;" horiz-adv-x="1124" d="M100 537q0 514 502 514q463 0 389 -549h-786q0 -412 485 -412q141 0 279 31v-90q-138 -31 -338 -31q-531 0 -531 537zM205 596h688q25 367 -320 367q-350 0 -368 -367zM369 1235v90l399 150v-91z" />
<glyph unicode="&#xea;" horiz-adv-x="1124" d="M100 537q0 514 502 514q463 0 389 -549h-786q0 -412 485 -412q141 0 279 31v-90q-138 -31 -338 -31q-531 0 -531 537zM205 596h688q25 367 -320 367q-350 0 -368 -367zM315 1280l195 260h111l194 -260h-100l-152 195l-147 -195h-101z" />
<glyph unicode="&#xeb;" horiz-adv-x="1124" d="M100 537q0 514 502 514q463 0 389 -549h-786q0 -412 485 -412q141 0 279 31v-90q-138 -31 -338 -31q-531 0 -531 537zM205 596h688q25 367 -320 367q-350 0 -368 -367zM350 1290v111h117v-111h-117zM672 1290v111h114v-111h-114z" />
<glyph unicode="&#xec;" d="M0 1374v101l406 -150v-100zM150 0v1051h106v-1051h-106z" />
<glyph unicode="&#xed;" d="M0 1235v90l406 150v-91zM150 0v1051h106v-1051h-106z" />
<glyph unicode="&#xee;" d="M-49 1280l194 260h111l195 -260h-101l-151 195l-150 -195h-98zM150 0v1051h106v-1051h-106z" />
<glyph unicode="&#xef;" d="M-14 1290v111h114v-111h-114zM150 0v1051h106v-1051h-106zM305 1290v111h115v-111h-115z" />
<glyph unicode="&#xf0;" horiz-adv-x="481" />
<glyph unicode="&#xf1;" horiz-adv-x="1183" d="M150 0v1051h75l13 -136q261 135 454 136q342 0 342 -332v-719h-104v723q0 233 -262 233q-186 0 -412 -133v-823h-106zM352 1288v90q106 82 242 21q133 -59 260 20v-90q-106 -82 -242 -20q-133 59 -260 -21z" />
<glyph unicode="&#xf2;" horiz-adv-x="1198" d="M100 524q0 526 500 526.5t500 -526.5q0 -524 -500 -524q-498 0 -500 524zM205 528q0 -438 395 -438t395 438q0 432 -395 432t-395 -432zM385 1384v91l399 -150v-90z" />
<glyph unicode="&#xf3;" horiz-adv-x="1198" d="M100 524q0 526 500 526.5t500 -526.5q0 -524 -500 -524q-498 0 -500 524zM205 528q0 -438 395 -438t395 438q0 432 -395 432t-395 -432zM391 1235v90l402 150v-91z" />
<glyph unicode="&#xf4;" horiz-adv-x="1198" d="M100 524q0 526 500 526.5t500 -526.5q0 -524 -500 -524q-498 0 -500 524zM205 528q0 -438 395 -438t395 438q0 432 -395 432t-395 -432zM336 1280l194 260h109l197 -260h-101l-151 195l-150 -195h-98z" />
<glyph unicode="&#xf5;" horiz-adv-x="1198" d="M100 524q0 526 500 526.5t500 -526.5q0 -524 -500 -524q-498 0 -500 524zM205 528q0 -438 395 -438t395 438q0 432 -395 432t-395 -432zM346 1288v90q106 82 240 21q133 -59 260 20v-90q-106 -82 -240 -20q-133 59 -260 -21z" />
<glyph unicode="&#xf6;" horiz-adv-x="1198" d="M100 524q0 526 500 526.5t500 -526.5q0 -524 -500 -524q-498 0 -500 524zM205 528q0 -438 395 -438t395 438q0 432 -395 432t-395 -432zM381 1290v111h115v-111h-115zM700 1290v111h115v-111h-115z" />
<glyph unicode="&#xf7;" horiz-adv-x="983" d="M100 479h785v90h-785v-90zM420 150v131h145v-131h-145zM420 770v129h145v-129h-145z" />
<glyph unicode="&#xf8;" horiz-adv-x="1198" d="M100 524q0 526 500 526.5t500 -526.5q0 -524 -500 -524q-498 0 -500 524zM145 0l799 1051h139l-800 -1051h-138zM205 528q0 -438 395 -438t395 438q0 432 -395 432t-395 -432z" />
<glyph unicode="&#xf9;" horiz-adv-x="1183" d="M150 391v660h106v-664q0 -293 291 -293q158 0 383 133v824h104v-1051h-76l-12 133q-258 -133 -454 -133q-342 0 -342 391zM408 1384v91l401 -150v-90z" />
<glyph unicode="&#xfa;" horiz-adv-x="1183" d="M150 391v660h106v-664q0 -293 291 -293q158 0 383 133v824h104v-1051h-76l-12 133q-258 -133 -454 -133q-342 0 -342 391zM408 1235v90l401 150v-91z" />
<glyph unicode="&#xfb;" horiz-adv-x="1183" d="M150 391v660h106v-664q0 -293 291 -293q158 0 383 133v824h104v-1051h-76l-12 133q-258 -133 -454 -133q-342 0 -342 391zM354 1280l197 260h108l195 -260h-98l-154 195l-147 -195h-101z" />
<glyph unicode="&#xfc;" horiz-adv-x="1183" d="M150 391v660h106v-664q0 -293 291 -293q158 0 383 133v824h104v-1051h-76l-12 133q-258 -133 -454 -133q-342 0 -342 391zM379 1290v111h115v-111h-115zM698 1290v111h115v-111h-115z" />
<glyph unicode="&#xfd;" horiz-adv-x="391" />
<glyph unicode="&#xfe;" horiz-adv-x="346" />
<glyph unicode="&#xff;" horiz-adv-x="391" />
<glyph unicode="&#x152;" horiz-adv-x="2213" d="M100 713q0 717 717 717h1258v-91h-854q274 -137 305 -569h514v-90h-514q-31 -444 -318 -590h883v-90h-1274q-717 0 -717 713zM215 719q0 -629 602 -629q592 0 592 629q0 621 -592 620q-602 1 -602 -620z" />
<glyph unicode="&#x153;" horiz-adv-x="1943" d="M100 522q0 528 504 529q285 0 406 -220q98 219 405 220q477 0 391 -549h-743q0 -412 442 -412q145 0 279 37v-94q-147 -33 -334 -33q-313 0 -440 225q-113 -225 -406 -225q-504 0 -504 522zM205 528q0 -438 395 -438q354 0 354 438q0 432 -354 433q-395 -1 -395 -433z M1061 596h637q35 367 -309 367q-310 0 -328 -367z" />
<glyph unicode="&#x178;" horiz-adv-x="524" />
<glyph unicode="&#x2c6;" horiz-adv-x="548" d="M25 1280l194 260h111l194 -260h-98l-154 195l-147 -195h-100z" />
<glyph unicode="&#x2dc;" horiz-adv-x="698" d="M100 461v90q104 80 240 18q133 -59 260 21v-90q-106 -82 -240 -21q-135 62 -260 -18z" />
<glyph unicode="&#x2000;" horiz-adv-x="915" />
<glyph unicode="&#x2001;" horiz-adv-x="1832" />
<glyph unicode="&#x2002;" horiz-adv-x="915" />
<glyph unicode="&#x2003;" horiz-adv-x="1832" />
<glyph unicode="&#x2004;" horiz-adv-x="610" />
<glyph unicode="&#x2005;" horiz-adv-x="456" />
<glyph unicode="&#x2006;" horiz-adv-x="303" />
<glyph unicode="&#x2007;" horiz-adv-x="303" />
<glyph unicode="&#x2008;" horiz-adv-x="227" />
<glyph unicode="&#x2009;" horiz-adv-x="364" />
<glyph unicode="&#x200a;" horiz-adv-x="100" />
<glyph unicode="&#x2010;" horiz-adv-x="698" d="M100 479v90h500v-90h-500z" />
<glyph unicode="&#x2011;" horiz-adv-x="698" d="M100 479v90h500v-90h-500z" />
<glyph unicode="&#x2012;" horiz-adv-x="698" d="M100 479v90h500v-90h-500z" />
<glyph unicode="&#x2013;" horiz-adv-x="681" />
<glyph unicode="&#x2014;" horiz-adv-x="892" />
<glyph unicode="&#x2018;" horiz-adv-x="473" d="M100 1430h125l150 -435h-125z" />
<glyph unicode="&#x2019;" horiz-adv-x="473" d="M100 995l150 435h125l-150 -435h-125z" />
<glyph unicode="&#x201a;" horiz-adv-x="233" />
<glyph unicode="&#x201c;" horiz-adv-x="784" d="M100 995l150 435h125l-150 -435h-125zM410 995l149 435h125l-149 -435h-125z" />
<glyph unicode="&#x201d;" horiz-adv-x="903" d="M100 1430h125l150 -435h-125zM410 1430h125l149 -435h-125z" />
<glyph unicode="&#x201e;" horiz-adv-x="784" d="M100 -250l150 434h125l-150 -434h-125zM410 -250l149 434h125l-149 -434h-125z" />
<glyph unicode="&#x2022;" horiz-adv-x="628" d="M100 725q0 215 215 215t215 -215t-215 -215t-215 215z" />
<glyph unicode="&#x2026;" horiz-adv-x="790" />
<glyph unicode="&#x202f;" horiz-adv-x="364" />
<glyph unicode="&#x2039;" horiz-adv-x="528" d="M100 524l258 375h121l-258 -375l258 -374h-121z" />
<glyph unicode="&#x203a;" horiz-adv-x="528" d="M49 150l258 374l-258 375h123l258 -375l-258 -374h-123z" />
<glyph unicode="&#x205f;" horiz-adv-x="456" />
<glyph unicode="&#x20ac;" horiz-adv-x="1384" d="M100 735q0 705 750 705q221 0 399 -60v-100q-182 70 -379 70q-569 0 -645 -439h834v-90h-844v-170h844v-90h-834q76 -481 645 -481q197 0 379 70v-101q-178 -59 -399 -59q-750 0 -750 745z" />
<glyph unicode="&#x2122;" horiz-adv-x="1605" d="M150 1360v70h512v-70h-213v-602h-87v602h-212zM750 758v672h110l248 -562l242 562h106v-672h-78v542l-239 -542h-70l-242 542v-542h-77z" />
<glyph unicode="&#xe000;" horiz-adv-x="1050" d="M0 1050h1050v-1050h-1050v1050z" />
<glyph unicode="&#xfb01;" horiz-adv-x="1124" d="M871 0v1051h106v-1051h-106zM871 1329v101h106v-101h-106zM150 -4v1106q0 381 393 381q127 0 233 -41v-90q-100 41 -235 41q-285 0 -285 -234v-108h393v-90h-393v-961z" />
<glyph unicode="&#xfb02;" horiz-adv-x="1124" d="M871 0v1430h106v-1430h-106zM150 -4v1106q0 381 393 381q127 0 233 -41v-90q-100 41 -235 41q-285 0 -285 -234v-108h393v-90h-393v-961z" />
<glyph unicode="&#xfb03;" horiz-adv-x="1845" d="M1592 0v1051h106v-1051h-106zM1592 1329v101h106v-101h-106zM871 -4v1106q0 381 393 381q127 0 233 -41v-90q-100 41 -235 41q-285 0 -285 -234v-108h393v-90h-393v-961zM150 -4v1106q0 381 393 381q127 0 233 -41v-90q-100 41 -235 41q-285 0 -285 -234v-108h393v-90 h-393v-961z" />
<glyph unicode="&#xfb04;" horiz-adv-x="1845" d="M1592 0v1430h106v-1430h-106zM871 -4v1106q0 381 393 381q127 0 233 -41v-90q-100 41 -235 41q-285 0 -285 -234v-108h393v-90h-393v-961zM150 -4v1106q0 381 393 381q127 0 233 -41v-90q-100 41 -235 41q-285 0 -285 -234v-108h393v-90h-393v-961z" />
</font>
</defs>
</svg>
