<?xml version="1.0" standalone="no"?>
<!DOCTYPE svg PUBLIC "-//W3C//DTD SVG 1.1//EN" "http://www.w3.org/Graphics/SVG/1.1/DTD/svg11.dtd" >
<svg xmlns="http://www.w3.org/2000/svg">
<metadata>
This is a custom SVG webfont generated by Font Squirrel.
Copyright   : GM
</metadata>
<defs>
<font id="webfontfWwX1UpJ" horiz-adv-x="1075" >
<font-face units-per-em="2048" ascent="1638" descent="-410" />
<missing-glyph horiz-adv-x="724" />
<glyph unicode=" "  horiz-adv-x="724" />
<glyph unicode="&#x09;" horiz-adv-x="724" />
<glyph unicode="&#xa0;" horiz-adv-x="724" />
<glyph unicode="!" horiz-adv-x="397" d="M145 51v127q0 49 54 49q51 0 51 -49v-127q0 -51 -51 -51q-54 0 -54 51zM147 340v1049h105v-1049h-105z" />
<glyph unicode="&#x22;" horiz-adv-x="598" d="M127 1165v168q0 43 51 43q53 0 53 -43v-168q0 -45 -53 -45q-51 0 -51 45zM362 1165v168q0 43 54 43q51 0 51 -43v-168q0 -45 -51 -45q-54 0 -54 45z" />
<glyph unicode="#" horiz-adv-x="1087" d="M123 479l22 92h183l39 146h-187l29 92h180l39 149h107l-39 -149h182l37 149h106l-37 -149h183l-23 -92h-184l-37 -146h182l-22 -92h-183l-38 -149h-107l39 149h-182l-39 -149h-107l39 149h-182zM434 571h182l37 146h-180z" />
<glyph unicode="$" horiz-adv-x="1314" d="M43 449v49h104v-43q0 -293 297 -369v621q-356 88 -356 344q0 291 356 360v131h105v-119q41 2 88 2q57 0 108 -4v121h105v-135q362 -82 367 -449h-103q-18 283 -264 349v-582q193 -47 274 -107q121 -88 121 -268q0 -152 -125 -254q-109 -88 -270 -116v-123h-105v108 q-35 -2 -69 -2q-66 0 -127 8v-114h-105v129q-401 94 -401 463zM193 1051q0 -172 251 -240v498q-251 -59 -251 -258zM549 68q59 -6 129 -7q35 0 67 2v582l-196 39v-616zM549 786l196 -36v573q-51 6 -108 6q-47 0 -88 -4v-539zM850 78q125 27 203 92q88 74 88 186 q0 104 -43 150q-61 63 -248 117v-545z" />
<glyph unicode="%" horiz-adv-x="1536" d="M86 971q0 377 305 377t305 -377q0 -369 -307 -369q-303 0 -303 369zM193 971q0 -272 198 -273q199 0 199 273q0 281 -201 280q-196 1 -196 -280zM213 -2l1020 1391h125l-1018 -1391h-127zM842 330q0 379 307 379q303 0 303 -379q0 -369 -305 -369t-305 369zM948 330 q0 -272 201 -273q197 0 197 273q0 283 -199 282q-199 1 -199 -282z" />
<glyph unicode="&#x26;" horiz-adv-x="1234" d="M63 322q0 156 142 284q92 82 278 176q-236 125 -235 332q0 131 110 207q96 68 234 68q145 0 239 -66q106 -74 107 -213q0 -197 -391 -403q-195 -102 -260 -160q-119 -106 -119 -225t119 -193q109 -66 248 -66q266 0 391 222q70 125 69 288h105v-612h-105v242 q-174 -236 -448 -236q-182 0 -320 84q-164 99 -164 271zM352 1112q0 -176 234 -276q248 137 248 276q0 86 -76 137q-66 43 -162 43q-98 0 -168 -45q-76 -49 -76 -135z" />
<glyph unicode="'" horiz-adv-x="358" d="M127 1165v168q0 43 51 43q53 0 53 -43v-168q0 -45 -53 -45q-51 0 -51 45z" />
<glyph unicode="(" horiz-adv-x="477" d="M115 580q0 518 266 923h117q-279 -416 -279 -923q0 -508 279 -924h-117q-266 408 -266 924z" />
<glyph unicode=")" horiz-adv-x="477" d="M-31 -344q287 416 287 924t-287 923h117q274 -399 274 -923q0 -522 -274 -924h-117z" />
<glyph unicode="*" horiz-adv-x="696" d="M70 1235q0 12 13 28.5t38 16.5q10 0 20 -2h4l131 -61v112q0 47 54 47q51 0 51 -47v-112l127 57q14 6 27 6q27 0 45 -18q6 -14 6 -27q0 -29 -29 -41l-117 -51l117 -56q31 -14 31 -40q0 -45 -51 -46q-16 0 -31 7l-125 59v-113q0 -47 -51 -47q-53 0 -54 47v113l-124 -59 q-14 -6 -29 -7q-51 0 -51 46q0 27 30 40l117 56l-119 53q-30 12 -30 39z" />
<glyph unicode="+" horiz-adv-x="1146" d="M129 467v94h391v326h105v-326h393v-94h-393v-330h-105v330h-391z" />
<glyph unicode="," horiz-adv-x="536" d="M172 -143q0 6 4 16l88 270q12 43 62 33q41 -10 41 -43q0 -6 -5 -14l-86 -271q-10 -35 -51 -34q-53 0 -53 43z" />
<glyph unicode="-" horiz-adv-x="716" d="M74 520v41h588v-41h-588z" />
<glyph unicode="." horiz-adv-x="428" d="M162 37v96q0 41 53 41q51 0 51 -41v-96q0 -41 -51 -41q-53 0 -53 41z" />
<glyph unicode="/" horiz-adv-x="716" d="M-45 0l715 1421h110l-714 -1421h-111z" />
<glyph unicode="0" horiz-adv-x="1196" d="M68 506v336q0 242 145 387t387 145q248 0 387 -147.5t139 -384.5v-336q0 -238 -139 -384.5t-387 -146.5q-246 0 -391 150q-141 143 -141 381zM172 506q0 -197 115.5 -315.5t310.5 -118.5q201 0 313 123q111 117 111 311v336q0 195 -111 313q-117 123 -313 123 q-197 0 -311.5 -119t-114.5 -317v-336z" />
<glyph unicode="1" horiz-adv-x="845" d="M127 956l455 367h84v-1323h-105v1174l-274 -218h-160z" />
<glyph unicode="2" horiz-adv-x="1196" d="M88 0q2 385 420 631l287 164q174 100 174 213q0 127 -111 190q-90 51 -237 51q-207 0 -305.5 -96t-98.5 -303h-104q0 254 131 375t364 121q195 0 316 -72q147 -88 147 -270q0 -176 -338 -361q-168 -94 -246 -143q-268 -199 -286 -404h934v-96h-1047z" />
<glyph unicode="3" horiz-adv-x="1196" d="M53 436v49h105v-75q0 -168 137 -256q119 -80 305 -80q174 0 293 67q143 82 143 232q0 289 -397 289h-125v96h127q367 0 367 250q0 127 -127 190q-102 51 -254 51q-221 0 -324.5 -91t-103.5 -286h-105q0 256 154 371q135 102 373 103q199 0 325 -68q166 -86 166 -270 q0 -219 -213 -295q240 -84 240 -340q0 -199 -174 -305q-145 -90 -357 -91q-242 0 -389 109q-166 121 -166 350z" />
<glyph unicode="4" horiz-adv-x="1196" d="M18 440l457 885h111l-408 -788h606v790l105 -6v-784h264v-97h-264v-440h-105v440h-766z" />
<glyph unicode="5" horiz-adv-x="1196" d="M49 463h105q0 -211 122 -303q115 -86 316 -86q193 0 310.5 96t117.5 276q0 178 -129 279q-121 94 -316 94q-254 0 -380 -194h-103l33 698h938v-96h-836l-18 -443q139 131 375 131q233 0 381 -118q160 -127 159 -348q0 -227 -157 -355q-145 -117 -377 -117 q-244 0 -383 107q-158 119 -158 379z" />
<glyph unicode="6" horiz-adv-x="1196" d="M96 418v22q2 6 2 17v450q0 207 152 324q139 106 354 106q213 0 350 -110q145 -119 146 -355h-103q0 188 -111.5 281.5t-283.5 93.5q-176 0 -284.5 -90t-110.5 -254l-2 -196q133 147 391 147q215 0 350 -111q145 -119 146 -325q0 -205 -148 -322q-137 -109 -352 -108 q-215 0 -350 108q-146 117 -146 322zM199 418q0 -162 110.5 -252t284.5 -90t284.5 90t110.5 252q0 164 -109.5 255t-285.5 91t-283 -88q-112 -94 -112 -258z" />
<glyph unicode="7" horiz-adv-x="1196" d="M104 1227v96h1024l-675 -1323h-111l627 1227h-865z" />
<glyph unicode="8" horiz-adv-x="1230" d="M55 385q0 262 277 344q-205 84 -205 264q0 190 158 281q127 72 331 72q203 0 330 -72q160 -92 160 -281q0 -180 -209 -264q279 -84 279 -348q0 -217 -183 -322q-145 -82 -377 -82q-233 0 -378 86q-183 105 -183 322zM160 383q0 -166 145 -246q119 -63 311 -63 q193 0 310 63q145 80 145 246q0 291 -453 291q-458 0 -458 -291zM231 991q0 -113 138 -172q111 -49 249 -49q143 0 252 51q131 61 131 174q0 254 -385 254t-385 -258z" />
<glyph unicode="9" horiz-adv-x="1196" d="M96 430h103q0 -190 110.5 -281.5t284.5 -91.5t280 90q115 92 115 254l2 236q-133 -145 -391 -145q-215 0 -350 108q-145 117 -146 322q0 205 148 323q137 111 352 111t350 -111q145 -119 146 -323v-23q-2 -8 -2 -12v-490q0 -205 -152 -321q-139 -106 -354 -107 q-215 0 -350 109q-146 119 -146 352zM207 922q0 -162 110.5 -252t284.5 -90t284.5 90t110.5 252q0 164 -109.5 255t-285.5 91t-283 -88q-112 -94 -112 -258z" />
<glyph unicode=":" horiz-adv-x="499" d="M199 47v125q0 49 53 49q47 0 51 -49v-125q0 -51 -51 -51q-53 0 -53 51zM199 776v125q0 51 53 51q47 0 51 -49v-127q0 -49 -51 -49q-53 0 -53 49z" />
<glyph unicode=";" horiz-adv-x="514" d="M160 -139q0 6 4 18l88 301q12 47 61 35q41 -10 41 -45q0 -8 -4 -16l-86 -301q-10 -39 -49 -39q-55 0 -55 47zM240 776v125q0 51 53 51q51 0 51 -51v-125q0 -51 -51 -51q-53 0 -53 51z" />
<glyph unicode="&#x3c;" horiz-adv-x="1095" d="M68 451v84l942 362v-100l-791 -305l791 -306v-100z" />
<glyph unicode="=" horiz-adv-x="1290" d="M72 342v86h1147v-86h-1147zM72 555v86h1147v-86h-1147z" />
<glyph unicode="&#x3e;" horiz-adv-x="1095" d="M68 86v100l790 306l-790 305v100l942 -362v-84z" />
<glyph unicode="?" d="M49 1022q29 209 166 307q129 92 328 92q178 0 303 -78q147 -92 147 -262q0 -180 -209 -346t-209 -319v-76h-106v66q0 203 211 372q121 96 162 152q47 66 47 151q0 125 -111 191q-92 53 -237 53q-182 0 -277.5 -84t-118.5 -272zM469 51v127q0 49 51 49q53 0 53 -49v-127 q0 -51 -53 -51q-51 0 -51 51z" />
<glyph unicode="@" horiz-adv-x="1720" d="M90 707q0 324 244 526q229 190 559 190q295 0 504 -153q229 -170 229 -455q0 -201 -135 -375q-47 -59 -119 -106q-84 -51 -155 -51q-106 0 -91 133q-141 -160 -374 -162q-211 -2 -316 143q-72 96 -71 232q0 227 133 375q139 156 376 157q240 4 332 -153l23 153h98 l-104 -762q2 -6 0 -14h8q41 0 100 45q53 41 82 84q106 162 107 305q0 231 -189 375q-178 135 -430 135q-295 0 -491 -168q-209 -176 -209 -465q0 -285 211 -458q199 -166 487 -166q170 0 338 73q180 80 266 224h121q-111 -201 -326 -299q-195 -92 -389 -93q-336 0 -569 193 q-250 207 -250 537zM461 633q0 -135 76.5 -213t218.5 -76q160 0 274.5 106.5t136.5 264.5q4 25 4 69q0 141 -80.5 215t-228.5 72q-182 -2 -295 -133q-106 -123 -106 -305z" />
<glyph unicode="A" horiz-adv-x="1302" d="M-37 0l651 1389h97l628 -1389h-114l-199 436h-741l-203 -436h-119zM330 535h653l-319 702z" />
<glyph unicode="B" horiz-adv-x="1314" d="M70 0v1389h692q195 0 319 -84q143 -96 144 -281q0 -199 -226 -295q270 -78 271 -342q0 -205 -174 -305q-141 -82 -361 -82h-665zM174 96h586q170 0 278 66q129 76 129 223q0 158 -137 231q-106 57 -278 58h-578v-578zM174 770h582q152 0 250 59q115 70 114 205 q0 135 -119 203q-96 55 -243 55h-584v-522z" />
<glyph unicode="C" horiz-adv-x="1472" d="M74 684q0 330 202.5 524.5t546.5 194.5q399 0 588 -266l-88 -56q-156 225 -500 226q-295 0 -470 -166t-175 -449q0 -279 167 -444.5t456 -165.5q330 0 504 229l90 -57q-207 -268 -592 -268q-336 0 -532.5 188t-196.5 510z" />
<glyph unicode="D" horiz-adv-x="1392" d="M86 0v1389h559q342 0 520 -187q170 -180 170 -510q0 -340 -217 -522q-203 -170 -551 -170h-481zM190 96h383q311 0 484.5 151.5t173.5 444.5q0 291 -141 441q-150 160 -447 159h-453v-1196z" />
<glyph unicode="E" horiz-adv-x="1155" d="M86 0v1389h1057v-97h-955v-522h846v-94h-846v-580h965v-96h-1067z" />
<glyph unicode="F" horiz-adv-x="1034" d="M86 0v1389h983v-97h-881v-522h754v-94h-754v-676h-102z" />
<glyph unicode="G" horiz-adv-x="1552" d="M39 690q0 330 201.5 521.5t545.5 191.5q256 0 426 -103q193 -117 250 -387h-106q-90 393 -568 394q-299 0 -472 -164t-173 -451q0 -293 175.5 -451.5t482.5 -158.5q236 0 399 121q176 129 176 342v37h-596v96h697q6 -68 6 -109q0 -297 -230 -454q-188 -129 -452 -129 q-348 0 -551 180q-211 186 -211 524z" />
<glyph unicode="H" horiz-adv-x="1392" d="M86 0v1389h104v-619h1012v619h105v-1389h-105v676h-1012v-676h-104z" />
<glyph unicode="I" horiz-adv-x="274" d="M86 0v1389h104v-1389h-104z" />
<glyph unicode="J" horiz-adv-x="995" d="M6 344h107q23 -262 336 -262q190 0 268 74.5t78 257.5v975h104v-988q0 -416 -442 -415q-414 0 -451 358z" />
<glyph unicode="K" horiz-adv-x="1372" d="M86 0v1389h104v-760l1022 760h166l-807 -598l836 -791h-145l-775 731l-297 -225v-506h-104z" />
<glyph unicode="L" horiz-adv-x="1034" d="M86 0v1389h104v-1293h877v-96h-981z" />
<glyph unicode="M" horiz-adv-x="1677" d="M86 0v1389h119l633 -1248l635 1248h116v-1389h-104v1192l-604 -1192h-84l-607 1192v-1192h-104z" />
<glyph unicode="N" horiz-adv-x="1392" d="M86 0v1389h109l503 -617l504 -610v1227h105v-1389h-109l-1008 1233v-1233h-104z" />
<glyph unicode="O" horiz-adv-x="1550" d="M41 694q0 328 196.5 508t538.5 180t539.5 -180t197.5 -508t-197.5 -518t-539.5 -190q-344 0 -539.5 188t-195.5 520zM145 694q0 -283 168 -447.5t463 -164.5q299 0 466 163t167 449q0 283 -167 437.5t-466 154.5q-297 0 -464 -154.5t-167 -437.5z" />
<glyph unicode="P" horiz-adv-x="1271" d="M86 0v1389h645q506 0 506 -398q0 -201 -172 -301q-141 -84 -356 -84h-519v-606h-104zM190 702h555q158 0 265 70q121 78 120 219q0 301 -387 301h-553v-590z" />
<glyph unicode="Q" horiz-adv-x="1550" d="M41 692q0 328 196.5 509t538.5 181t539.5 -181t197.5 -509q0 -254 -122 -430q-129 -182 -367 -248q63 -53 162 -53h219v-96h-219q-174 0 -277 125q-63 -8 -133 -8q-344 0 -539.5 189t-195.5 521zM145 692q0 -264 150 -426q37 90 124 142.5t191 52.5q137 0 237.5 -84 t100.5 -217q0 -31 13 -62q219 51 337 213q111 154 111 381q0 283 -167 438.5t-466 155.5q-297 0 -464 -155.5t-167 -438.5zM377 195q162 -117 399 -117q45 0 86 4q-14 39 -14 80q0 92 -68.5 148.5t-169.5 56.5q-86 0 -154.5 -47t-78.5 -125z" />
<glyph unicode="R" horiz-adv-x="1314" d="M86 0v1389h670q487 0 487 -365q0 -254 -235 -346q215 -84 215 -326v-352h-105v348q0 272 -381 273h-547v-621h-104zM190 721h537q176 0 283 65q129 78 129 232q0 274 -379 274h-570v-571z" />
<glyph unicode="S" horiz-adv-x="1314" d="M43 449v49h104v-41q0 -375 531 -375q182 0 305 55q158 72 158 221q0 104 -58 160q-47 45 -161 80q-61 16 -291 66q-264 55 -357 102q-186 94 -186 281q0 356 549 356q573 0 580 -447h-103q-12 215 -147 289q-111 61 -330 62q-444 0 -444 -260q0 -127 120 -191 q84 -43 285 -80q373 -66 498 -141q150 -90 149 -283q0 -193 -198 -291q-154 -76 -371 -75q-268 0 -430 96q-203 117 -203 367z" />
<glyph unicode="T" horiz-adv-x="1116" d="M-25 1292v97h1166v-97h-531v-1292h-104v1292h-531z" />
<glyph unicode="U" horiz-adv-x="1359" d="M86 524v865h104v-865q0 -442 490 -442q487 0 487 436v871h105v-869q0 -281 -154 -411q-145 -123 -438 -123q-297 0 -440 125q-154 130 -154 413z" />
<glyph unicode="V" horiz-adv-x="1286" d="M-20 1389h110l563 -1242l545 1242h111l-613 -1389h-88z" />
<glyph unicode="W" horiz-adv-x="1986" d="M-14 1389h110l541 -1237l303 722l-223 515h110l541 -1239l522 1239h109l-588 -1389h-88l-326 745l-317 -745h-88z" />
<glyph unicode="X" horiz-adv-x="1236" d="M-61 0l614 715l-584 674h137l517 -598l520 598h135l-584 -676l606 -713h-133l-544 637l-551 -637h-133z" />
<glyph unicode="Y" horiz-adv-x="1282" d="M-68 1389h136l573 -623l576 623h133l-656 -717v-672h-104v672z" />
<glyph unicode="Z" horiz-adv-x="1282" d="M45 0v92l1038 1200h-979v97h1119v-91l-1039 -1202h1055v-96h-1194z" />
<glyph unicode="[" horiz-adv-x="477" d="M176 -344v1847h303v-98h-198v-1651h198v-98h-303z" />
<glyph unicode="\" horiz-adv-x="716" d="M-66 1421h111l721 -1421h-111z" />
<glyph unicode="]" horiz-adv-x="477" d="M-2 -246h197l2 66l-2 1585h-197v98h303l-2 -1847h-301v98z" />
<glyph unicode="^" horiz-adv-x="610" d="M72 1047l188 276h78l201 -276h-123l-115 167l-115 -167h-114z" />
<glyph unicode="_" d="M-31 -145h1137v-99h-1137v99z" />
<glyph unicode="`" horiz-adv-x="395" d="M27 1337q0 16 22 29q37 27 74 -6l231 -205q14 -12 15 -29q0 -20 -21 -34q-33 -18 -72 6l-176 147q-73 63 -73 92z" />
<glyph unicode="a" horiz-adv-x="1155" d="M29 498q0 231 131 374q137 152 381 152q274 0 407 -195v191h105v-1022h-105v180q-137 -201 -416 -201q-238 0 -374 152q-129 144 -129 369zM131 498q0 -186 100 -301q106 -123 299 -123q190 0 304 120.5t114 303.5q0 197 -104 311q-111 119 -314 119q-188 0 -299 -127 q-100 -119 -100 -303z" />
<glyph unicode="b" horiz-adv-x="1155" d="M88 0v1389h105v-543q133 195 407 194q246 0 381 -155q127 -143 127 -381q0 -236 -129 -375q-137 -150 -381 -149q-264 0 -405 200v-180h-105zM193 500q0 -188 114.5 -306t302.5 -118q190 0 297 125q98 117 99 305q0 195 -99 311q-104 125 -299 125q-209 0 -315 -123 q-100 -114 -100 -319z" />
<glyph unicode="c" d="M37 483q0 242 144.5 391.5t402.5 149.5q156 0 270 -70q127 -78 172 -241l-96 -47q-70 262 -350 262q-209 0 -324 -123t-115 -322q0 -188 110.5 -298.5t307.5 -110.5q139 0 240 61q109 68 139 225l98 -43q-43 -178 -180 -264q-123 -76 -295 -76q-242 0 -383 138.5 t-141 367.5z" />
<glyph unicode="d" horiz-adv-x="1155" d="M29 506q0 233 131 379q137 154 381 153q274 0 407 -194v545h105v-1389h-105v180q-137 -203 -416 -203q-238 0 -374 154q-129 146 -129 375zM131 506q0 -188 100 -305q106 -127 299 -127q190 0 306 127q113 121 112 305q0 201 -104 315q-111 121 -314 121 q-188 0 -297 -129q-102 -121 -102 -307z" />
<glyph unicode="e" d="M23 498q0 236 142 381t378 145t377 -132t141 -355v-72l-936 -2q20 -389 412 -389q297 0 391 243h106q-59 -193 -203 -270q-125 -70 -299 -70q-252 0 -385 146q-124 135 -124 375zM127 559h819q-10 172 -119.5 270.5t-283.5 98.5t-286 -98.5t-130 -270.5z" />
<glyph unicode="f" horiz-adv-x="546" d="M31 813v98h147v66q0 387 520 387v-94q-416 0 -415 -293v-66h227v-98h-227v-815h-105v815h-147z" />
<glyph unicode="g" horiz-adv-x="1116" d="M31 508q0 229 136 372.5t374 143.5q258 0 387 -184v161h104v-954q0 -414 -487 -414q-184 0 -301 72q-143 86 -154 289h105q23 -264 352 -264q381 0 381 319v131q-139 -180 -402 -180q-229 0 -362 141.5t-133 366.5zM135 510q0 -182 98 -293q104 -121 289 -121 q188 0 297 113t109 295q0 180 -106.5 302t-284.5 122q-184 0 -295 -123q-107 -115 -107 -295z" />
<glyph unicode="h" d="M88 0v1389h105v-510q119 162 368 161q182 0 297 -88q125 -96 125 -270v-682h-104v664q0 135 -85 206.5t-231 71.5q-172 0 -271 -103.5t-99 -269.5v-569h-105z" />
<glyph unicode="i" horiz-adv-x="278" d="M88 0v1016h105v-1016h-105zM88 1223v143q18 41 49 41q25 0 56 -37v-151q-29 -37 -56 -37q-33 0 -49 41z" />
<glyph unicode="j" horiz-adv-x="278" d="M-334 -270q416 0 416 323v961h104v-963q0 -418 -520 -418v97zM88 1221v145q18 41 49 41q25 0 56 -37v-153q-29 -35 -56 -35q-33 0 -49 39z" />
<glyph unicode="k" horiz-adv-x="1089" d="M88 0v1389h105v-873l702 502l184 -4l-573 -398l586 -616h-142l-528 557l-229 -162v-395h-105z" />
<glyph unicode="l" horiz-adv-x="278" d="M88 0v1389h105v-1389h-105z" />
<glyph unicode="m" horiz-adv-x="1673" d="M88 0v1001h105v-131q115 154 339 154q231 0 322 -176q102 176 354 176q375 0 375 -352v-672h-104v653q0 274 -267 275q-147 0 -235 -82t-88 -219v-627h-105v653q0 274 -272 275q-154 0 -242 -113q-78 -102 -77 -254v-561h-105z" />
<glyph unicode="n" d="M88 0v1001h105v-137q119 160 368 160q182 0 297 -86q125 -94 125 -266v-672h-104v653q0 133 -86 207q-84 68 -230 68q-172 0 -271 -101.5t-99 -265.5v-561h-105z" />
<glyph unicode="o" horiz-adv-x="1116" d="M29 500q0 240 146.5 382t385.5 142q240 0 384.5 -142.5t144.5 -381.5q0 -240 -146.5 -381.5t-386.5 -141.5q-244 0 -386 146t-142 377zM133 500q0 -195 116 -310.5t310 -115.5q195 0 310.5 115.5t115.5 310.5q0 193 -112.5 310.5t-313.5 117.5q-197 0 -311.5 -115.5 t-114.5 -312.5z" />
<glyph unicode="p" horiz-adv-x="1155" d="M88 -344v1345h105v-174q135 197 405 197q244 0 381 -150q129 -143 129 -376q0 -244 -133 -389.5t-375 -145.5q-272 0 -407 197v-504h-105zM193 500q0 -205 100 -318q106 -123 315 -123q193 0 299 127q98 119 99 310q0 186 -101 305q-106 127 -295 127 q-190 0 -303.5 -117.5t-113.5 -310.5z" />
<glyph unicode="q" horiz-adv-x="1155" d="M29 498q0 225 136 375.5t372 150.5q276 0 409 -197v174h105v-1345h-105v496q-127 -188 -418 -189q-229 0 -368 158q-131 148 -131 377zM133 496q0 -186 100 -306q106 -131 295 -131q207 0 316 121q104 113 104 316q0 190 -112.5 311t-309.5 121q-188 0 -295 -129 q-98 -117 -98 -303z" />
<glyph unicode="r" horiz-adv-x="651" d="M88 0v1001h105v-170q31 45 77 84q135 109 359 109v-96q-240 0 -346 -164q-90 -141 -90 -363v-401h-105z" />
<glyph unicode="s" horiz-adv-x="995" d="M53 383h109q0 -162 84 -235.5t266 -73.5q123 0 203 39q98 51 98 151q0 123 -205 170q-14 4 -205 33q-307 47 -307 266q0 143 123 223q104 70 256 70q440 0 440 -364h-110q0 139 -76 201.5t-244 62.5q-113 0 -190 -45q-90 -53 -90 -148q0 -123 201 -158q53 -10 217 -38 q299 -51 299 -273q0 -156 -136 -231q-109 -59 -276 -60q-457 0 -457 410z" />
<glyph unicode="t" horiz-adv-x="538" d="M12 860v96h203v301h104v-301h207v-96h-207v-860h-100l-4 860h-203z" />
<glyph unicode="u" d="M88 350v649h105v-647q0 -279 319 -278q184 0 279 106q88 100 88 279v540h104v-1001h-104v139q-121 -160 -367 -160q-193 0 -305 93q-119 100 -119 280z" />
<glyph unicode="v" horiz-adv-x="964" d="M-29 999h121l408 -866l381 866h114l-446 -999h-94z" />
<glyph unicode="w" horiz-adv-x="1579" d="M10 999h119l387 -862l225 539l-151 323h121l385 -862l360 862h113l-422 -999h-96l-252 547l-234 -547h-94z" />
<glyph unicode="x" horiz-adv-x="956" d="M-59 0l471 518l-428 481h135l358 -409l367 409h131l-428 -481l469 -518h-135l-404 442l-401 -442h-135z" />
<glyph unicode="y" d="M41 -6h104q23 -264 353 -264q381 0 381 319v76q-121 -162 -367 -162q-193 0 -305 94q-119 100 -119 283v659h105v-657q0 -283 319 -283q184 0 279 109q88 102 88 283v548h104v-952q0 -414 -489 -414q-182 0 -299 72q-144 86 -154 289z" />
<glyph unicode="z" horiz-adv-x="968" d="M27 0v86l737 817h-678v96h821v-84l-737 -819h772v-96h-915z" />
<glyph unicode="{" horiz-adv-x="716" d="M152 545v71q53 23 124 66q31 37 31 149v453q0 219 191 219h53v-98h-51q-59 0 -78 -51q-10 -31 -10 -119v-408q0 -135 -45 -194q-20 -27 -70 -53q51 -27 70 -52q45 -57 45 -196v-406q0 -90 10 -121q18 -51 78 -51h51v-98h-53q-190 0 -191 219v453q0 113 -31 149 q-20 23 -124 68z" />
<glyph unicode="|" horiz-adv-x="477" d="M186 -66v1512h105v-1512h-105z" />
<glyph unicode="}" horiz-adv-x="716" d="M152 -246h51q59 0 78 51q10 31 10 121v406q0 139 45 196q18 25 70 52q-49 27 -70 53q-45 59 -45 194v408q0 88 -10 119q-18 51 -78 51h-51v98h53q190 0 190 -219v-453q0 -125 39 -155q27 -23 117 -60v-71q-53 -23 -125 -68q-31 -37 -31 -149v-453q0 -219 -190 -219h-53 v98z" />
<glyph unicode="~" horiz-adv-x="1122" d="M82 717q18 106 92 159.5t174 53.5q61 0 230 -62q156 -59 200 -59q115 0 137 125h127q-18 -109 -91.5 -162t-172.5 -53q-66 0 -235 61q-156 57 -199 58q-111 0 -135 -121h-127z" />
<glyph unicode="&#xa0;" />
<glyph unicode="&#xa1;" horiz-adv-x="397" d="M145 -195v1049h105v-1049h-105zM147 1016v127q0 51 54 51q51 0 51 -51v-127q0 -49 -51 -49q-54 0 -54 49z" />
<glyph unicode="&#xa2;" d="M37 483q0 246 144.5 396.5t402.5 150.5q72 0 137 -16l59 114h111l-76 -147q158 -76 211 -266l-96 -47q-45 166 -158 225l-397 -789q80 -33 184 -32q139 0 240 63q109 68 139 225l98 -43q-43 -180 -180 -266q-123 -76 -295 -76q-129 0 -231 41l-47 -90h-111l72 137 q-207 141 -207 420zM141 483q0 -217 146 -329l389 770q-45 10 -96 10q-209 0 -324 -124t-115 -327z" />
<glyph unicode="&#xa3;" horiz-adv-x="1196" d="M39 496l16 96h142v151h-111l23 99h88q0 242 145 387t387 145q236 0 404 -170l-76 -67q-137 141 -330 141q-197 0 -311.5 -119t-114.5 -317h610l-22 -99h-588v-151h557l-16 -96h-541q4 -193 119 -308.5t307 -115.5q193 0 330 139l78 -64q-170 -172 -406 -172 q-244 0 -386 143.5t-146 377.5h-158z" />
<glyph unicode="&#xa4;" horiz-adv-x="1196" d="M92 453l211 176q-63 72 -63 164q0 96 65 168l-213 178l76 61l211 -176q86 53 196 53q113 0 199 -53l211 176l76 -61l-211 -176q66 -74 65 -168q0 -94 -63 -168l209 -174l-76 -62l-207 172q-88 -55 -200 -55q-115 0 -201 57l-209 -174zM342 795q0 -86 69.5 -140.5 t166.5 -54.5q98 0 167.5 53.5t69.5 139.5q0 92 -76 145q-66 47 -161 47q-96 0 -166 -52t-70 -138z" />
<glyph unicode="&#xa5;" horiz-adv-x="1320" d="M-47 1389h135l574 -623l575 623h133l-655 -717v-74h434v-96h-434v-152h434v-98h-434v-252h-105v252h-434v98h434v152h-434v96h434v74z" />
<glyph unicode="&#xa6;" horiz-adv-x="477" d="M186 -47v680h105v-680h-105zM186 745v680h105v-680h-105z" />
<glyph unicode="&#xa7;" horiz-adv-x="1196" d="M172 575q14 176 193 238q-162 72 -162 225q0 141 123 224q104 72 254 71q438 0 438 -366h-105q0 141 -76.5 205.5t-244.5 64.5q-115 0 -193 -47q-92 -53 -92 -152q0 -94 109 -137q43 -16 260 -59q111 -10 182 -47q166 -72 166 -236q0 -195 -197 -262q162 -72 162 -223 q0 -141 -123 -224q-104 -72 -254 -71q-436 0 -436 364h105q0 -139 76.5 -203.5t244.5 -64.5q119 0 193 45q90 53 90 154q0 125 -162 157l-317 62q-100 31 -166 102q-76 82 -68 180zM281 582q0 -109 112 -168q96 -51 223 -52q123 0 203 41q98 49 101 152q-47 195 -345 195 q-246 0 -292 -142q-2 -12 -2 -26z" />
<glyph unicode="&#xa8;" horiz-adv-x="438" d="M49 1161v78q0 39 53 39q51 0 52 -39v-78q0 -41 -52 -41q-53 0 -53 41zM287 1161v78q0 39 51 39q53 0 53 -39v-78q0 -41 -53 -41q-51 0 -51 41z" />
<glyph unicode="&#xa9;" horiz-adv-x="1146" d="M57 928q0 203 164 329q152 119 359 119q209 0 360 -116q166 -127 166 -330t-164 -330q-150 -117 -358 -117q-215 0 -363 113q-164 125 -164 332zM166 930q0 -160 131 -258q119 -92 283 -92q166 0 284 90q133 98 133 258t-131 258q-119 92 -282 92q-166 0 -285 -90 q-133 -98 -133 -258zM270 924q0 133 90.5 208.5t231.5 75.5q248 0 289 -241h-111q-31 143 -180 143q-96 0 -153.5 -50t-57.5 -136q0 -90 60.5 -142.5t160.5 -52.5q125 0 172 150h115q-78 -248 -287 -248q-145 0 -237.5 79t-92.5 214z" />
<glyph unicode="&#xaa;" horiz-adv-x="774" d="M57 1024q0 143 87 233.5t243 90.5q139 0 221 -74v72h109v-633h-109v65q-86 -78 -225 -78q-154 0 -240 92.5t-86 231.5zM166 1024q0 -100 55 -163.5t162 -63.5q104 0 166 67q59 61 59 160q0 104 -57 165.5t-168 61.5q-104 0 -160.5 -63.5t-56.5 -163.5z" />
<glyph unicode="&#xab;" horiz-adv-x="800" d="M115 528v64l366 237v-108l-241 -160l241 -162v-102zM352 528v64l367 237v-108l-242 -160l242 -162v-102z" />
<glyph unicode="&#xac;" horiz-adv-x="1232" d="M70 532v86h1067v-344h-105v258h-962z" />
<glyph unicode="&#xad;" horiz-adv-x="1212" d="M72 473v39h1038v-39h-1038z" />
<glyph unicode="&#x2212;" horiz-adv-x="1212" d="M72 473v39h1038v-39h-1038z" />
<glyph unicode="&#xae;" horiz-adv-x="1112" d="M37 928q0 203 164 329q152 119 358 119q209 0 361 -116q164 -125 163 -330q0 -207 -161 -332q-147 -115 -361 -115q-211 0 -360 115q-164 125 -164 330zM145 930q0 -158 123 -256q117 -94 291 -94q166 0 285 90q131 96 131 258q0 109 -57 188q-39 55 -105 94 q-106 68 -252 68q-166 0 -285 -90q-131 -96 -131 -258zM350 647v553h264q203 0 203 -162q0 -78 -51 -123q45 -39 45 -110v-158h-111v156q0 63 -92 63h-149v-219h-109zM459 967h145q104 0 105 69q0 63 -95 64h-155v-133z" />
<glyph unicode="&#xaf;" horiz-adv-x="641" d="M41 1223v39h561v-39h-561z" />
<glyph unicode="&#x2c9;" horiz-adv-x="641" d="M41 1223v39h561v-39h-561z" />
<glyph unicode="&#xb0;" horiz-adv-x="860" d="M92 1065q0 121 105 201q96 76 231 75q137 0 234 -73q104 -78 104 -201q0 -127 -109 -207q-96 -72 -227 -72q-135 0 -233 74q-105 80 -105 203zM195 1067q0 -84 69.5 -136t165.5 -52q98 0 167 51t69 135q0 90 -76 141q-66 45 -160 45q-96 0 -165.5 -51t-69.5 -133z" />
<glyph unicode="&#xb1;" horiz-adv-x="1290" d="M201 463v94h391v330h104v-330h394v-94h-394v-336h-104v336h-391zM203 -6v96h889v-96h-889z" />
<glyph unicode="&#xb2;" horiz-adv-x="802" d="M43 524q0 143 78 246q59 76 186 150l221 124q82 49 82 93q0 121 -204 120q-125 0 -181.5 -55t-56.5 -178h-111q0 332 340 332q322 0 322 -223q0 -104 -156 -189l-178 -94q-197 -106 -225 -229h600v-97h-717z" />
<glyph unicode="&#xb3;" horiz-adv-x="872" d="M61 805v49h113v-68q0 -86 86 -133q72 -39 178 -39q104 0 174 33q88 41 88 121q0 147 -235 147h-105v99h107q217 0 217 125q0 119 -227 118q-135 0 -195.5 -52t-60.5 -169h-111q0 319 365 320q129 0 219 -43q121 -57 121 -174q0 -119 -105 -174q121 -59 121 -197 q0 -129 -123 -197q-100 -55 -242 -55q-162 0 -264 64q-121 75 -121 225z" />
<glyph unicode="&#xb4;" horiz-adv-x="434" d="M45 1124q0 16 16 31l232 207q18 16 43 16q53 0 53 -43q0 -18 -16 -32l-232 -205q-18 -14 -41 -15q-55 0 -55 41z" />
<glyph unicode="&#xb5;" d="M88 -350v1349h105v-548q0 -180 88 -281q94 -111 278 -111q319 0 320 285v655h104v-657q0 -233 -182 -326q-27 -14 -27 -39q0 -68 166 -67v-105q-115 0 -186 35q-96 47 -97 129q-47 -6 -98 -6q-248 0 -366 160v-473h-105z" />
<glyph unicode="&#xb6;" horiz-adv-x="1015" d="M96 938q0 207 166 334q152 119 363 119q8 0 16 -2h279v-1661h-105v1564h-115v-1564h-104v759q-205 -2 -348 121q-152 129 -152 330z" />
<glyph unicode="&#xb7;" horiz-adv-x="428" d="M190 616v95q0 41 54 41q51 0 51 -41v-95q0 -43 -51 -43q-54 0 -54 43z" />
<glyph unicode="&#x2219;" horiz-adv-x="428" d="M190 616v95q0 41 54 41q51 0 51 -41v-95q0 -43 -51 -43q-54 0 -54 43z" />
<glyph unicode="&#xb8;" horiz-adv-x="530" d="M23 -317l49 81q111 -33 174 -32q135 0 135 61q0 37 -94 43q-55 4 -109 -18v53l19 147h102l-4 -94q199 0 199 -137q0 -143 -242 -143q-79 0 -229 39z" />
<glyph unicode="&#xb9;" horiz-adv-x="587" d="M-35 1083l410 254h84v-805h-115v662l-186 -111h-193z" />
<glyph unicode="&#xba;" horiz-adv-x="845" d="M63 1030q0 145 105 232q98 82 258 81q158 0 258 -84.5t100 -228.5q0 -150 -110 -235q-100 -78 -254 -78q-158 0 -257.5 85t-99.5 228zM164 1030q0 -104 70.5 -165.5t187.5 -61.5q119 0 190.5 60.5t71.5 166.5q0 111 -74.5 169t-187.5 58q-115 0 -186.5 -62.5 t-71.5 -164.5z" />
<glyph unicode="&#xbb;" horiz-adv-x="780" d="M115 297v102l241 162l-241 160v108l366 -237v-64zM352 297v102l242 162l-242 160v108l367 -237v-64z" />
<glyph unicode="&#xbc;" horiz-adv-x="1671" d="M23 1085l391 252h82v-821h-105v688l-192 -119h-176zM362 0l713 1421h111l-713 -1421h-111zM727 268l346 572h115l-291 -480h391v482l103 -4v-478h188v-92h-188v-268h-103v268h-561z" />
<glyph unicode="&#xbd;" horiz-adv-x="1644" d="M0 1085l391 252h82v-821h-104v688l-191 -119h-178zM340 0l715 1421h110l-714 -1421h-111zM866 0q4 264 281 414l180 98q106 70 107 115q0 131 -209 131q-125 0 -183.5 -57.5t-58.5 -186.5h-100q2 334 334 334q315 0 315 -225q0 -104 -141 -181l-183 -104 q-209 -121 -233 -248h598v-90h-707z" />
<glyph unicode="&#xbe;" horiz-adv-x="1855" d="M90 791v47h100v-64q0 -94 89 -141q74 -41 184 -41q104 0 178 35q90 43 90 127q0 160 -244 159h-98v91h100q223 0 224 131q0 129 -234 129q-135 0 -197.5 -54.5t-62.5 -173.5h-100q4 317 358 318q131 0 217 -41q119 -57 119 -178t-117 -179q135 -63 135 -202 q0 -129 -122 -197q-100 -57 -240 -57q-379 0 -379 291zM549 0l715 1421h110l-715 -1421h-110zM913 268l349 572h114l-293 -480h392v482l102 -4v-478h188v-92h-188v-268h-102v268h-562z" />
<glyph unicode="&#xbf;" d="M51 147q0 129 109 248l202 191q109 113 109 227v76h107v-68q0 -203 -213 -372q-121 -96 -162 -152q-47 -66 -47 -150q0 -127 110 -190q94 -55 240 -55q182 0 277.5 85t113.5 275l98 -59q-29 -205 -166 -305q-127 -92 -325 -93q-180 0 -305 78q-148 92 -148 264zM473 1049 v127q0 51 51 51q53 0 54 -51v-127q0 -49 -54 -50q-51 1 -51 50z" />
<glyph unicode="&#xc0;" horiz-adv-x="1384" d="M4 0l651 1401h97l628 -1401h-114l-199 440h-741l-203 -440h-119zM371 539h653l-319 710zM524 1710q0 23 23 37q14 12 31 12q23 0 40 -20l234 -242q16 -16 16 -37q0 -23 -24 -37q-35 -23 -70 9l-233 243q-17 17 -17 35z" />
<glyph unicode="&#xc1;" horiz-adv-x="1384" d="M4 0l651 1401h97l628 -1401h-114l-199 440h-741l-203 -440h-119zM371 539h653l-319 710zM526 1466q0 18 15 35l233 242q18 20 41 20q51 0 51 -49q0 -18 -14 -35l-231 -243q-18 -18 -41 -19q-54 0 -54 49z" />
<glyph unicode="&#xc2;" horiz-adv-x="1384" d="M4 0l651 1401h97l628 -1401h-114l-199 440h-741l-203 -440h-119zM371 539h653l-319 708zM416 1407l241 328h76l248 -328h-127l-160 211l-159 -211h-119z" />
<glyph unicode="&#xc3;" horiz-adv-x="1384" d="M4 0l651 1399h97l628 -1399h-114l-199 440h-741l-203 -440h-119zM371 537h653l-319 708zM401 1470q0 80 54.5 125t119.5 45q39 0 152 -57q102 -51 123 -51q27 0 49.5 25.5t26.5 105.5l96 -53q-6 -82 -56.5 -128t-115.5 -46q-43 0 -156 57q-102 51 -123 51 q-27 0 -48 -25.5t-25 -109.5z" />
<glyph unicode="&#xc4;" horiz-adv-x="1384" d="M4 0l651 1397h97l628 -1397h-114l-199 440h-741l-203 -440h-119zM371 537h653l-319 708zM526 1477v108q0 51 54 51q51 0 51 -51v-108q0 -51 -51 -52q-54 1 -54 52zM764 1477v108q0 51 51 51q53 0 53 -51v-108q0 -51 -53 -52q-51 1 -51 52z" />
<glyph unicode="&#xc5;" horiz-adv-x="1384" d="M4 0l651 1403h97l628 -1403h-114l-199 442h-741l-203 -442h-119zM371 539h653l-319 710zM504 1614q0 76 56 125t134 49q80 0 135.5 -48t55.5 -126t-55.5 -126t-135.5 -48q-78 0 -134 48t-56 126zM612 1614q0 -74 82 -74q84 0 84 74q0 72 -84 72q-82 0 -82 -72z" />
<glyph unicode="&#xc6;" horiz-adv-x="2205" d="M-94 0l1276 1389h950v-97h-848v-520h94v-2h645v-94h-739l2 -580h856v-96h-964v676h-519l-620 -676h-133zM750 772h428l4 465z" />
<glyph unicode="&#xc7;" horiz-adv-x="1472" d="M74 678q0 332 202.5 528.5t546.5 196.5q399 0 588 -268l-88 -56q-156 225 -500 226q-295 0 -470 -167t-175 -452q0 -281 167 -447.5t456 -166.5q330 0 504 229l88 -55q-205 -272 -590 -273q-336 0 -532.5 190.5t-196.5 514.5zM535 -313l51 90q111 -35 174 -35 q133 0 133 70q0 41 -92 49q-55 6 -109 -21v60l17 166h104l-4 -107q199 0 199 -156q0 -160 -242 -159q-79 0 -231 43z" />
<glyph unicode="&#xc8;" horiz-adv-x="1155" d="M86 0v1401h1057v-98h-955v-525h846v-96h-846v-584h965v-98h-1067zM406 1692q0 20 22 34q37 31 72 -6l233 -241q14 -16 15 -35q0 -23 -21 -39q-39 -27 -74 8l-231 242q-16 17 -16 37z" />
<glyph unicode="&#xc9;" horiz-adv-x="1155" d="M86 0v1401h1057v-98h-955v-525h846v-96h-846v-584h965v-98h-1067zM408 1444q0 18 14 35l233 241q16 18 39 19q55 0 56 -49q0 -18 -17 -35l-231 -242q-18 -18 -41 -18q-53 0 -53 49z" />
<glyph unicode="&#xca;" horiz-adv-x="1155" d="M86 0v1401h1057v-96h-955v-527h846v-96h-846v-584h965v-98h-1067zM295 1427l242 328h75l250 -328h-129l-160 211l-159 -211h-119z" />
<glyph unicode="&#xcb;" horiz-adv-x="1155" d="M86 0v1399h1057v-99h-955v-524h846v-94h-846v-586h965v-96h-1067zM408 1493v109q0 51 51 51q53 0 53 -51v-109q0 -51 -53 -51q-51 0 -51 51zM643 1493v109q0 51 53 51q51 0 52 -51v-109q0 -51 -52 -51q-53 0 -53 51z" />
<glyph unicode="&#xcc;" horiz-adv-x="274" d="M-35 1720q0 23 23 39q39 29 73 -8l232 -242q14 -16 14 -34q0 -25 -20 -39q-41 -27 -74 8l-231 242q-17 16 -17 34zM86 0v1401h104v-1401h-104z" />
<glyph unicode="&#xcd;" horiz-adv-x="274" d="M-35 1466q0 18 17 35l231 242q18 20 43 20q53 0 53 -49q0 -18 -16 -35l-232 -243q-16 -18 -41 -19q-55 0 -55 49zM86 0v1401h104v-1401h-104z" />
<glyph unicode="&#xce;" horiz-adv-x="274" d="M-145 1419l241 328h76l250 -328h-127l-160 211l-164 -211h-116zM86 0v1401h104v-1401h-104z" />
<glyph unicode="&#xcf;" horiz-adv-x="274" d="M-35 1509v109q0 49 55 49q47 0 52 -49v-109q0 -53 -52 -53q-55 0 -55 53zM86 0v1399h104v-1399h-104zM205 1509v109q0 49 51 49q49 0 53 -49v-109q0 -53 -53 -53q-51 0 -51 53z" />
<glyph unicode="&#xd0;" horiz-adv-x="1392" d="M10 647v98h76v644h559q342 0 520 -187q170 -180 170 -510q0 -340 -217 -522q-203 -170 -551 -170h-481v647h-76zM190 96h383q311 0 484.5 151.5t173.5 444.5q0 291 -141 441q-150 160 -447 159h-453v-547h406v-98h-406v-551z" />
<glyph unicode="&#xd1;" horiz-adv-x="1392" d="M86 0v1397h109l503 -621l504 -614v1235h105v-1397h-109l-1008 1241v-1241h-104zM387 1458q0 78 55.5 124t116.5 46q41 0 154 -57q102 -51 123 -51q27 0 49 25.5t26 103.5l97 -50q-6 -82 -56.5 -129t-115.5 -47q-43 0 -156 58q-102 51 -123 51q-27 0 -48.5 -25.5 t-25.5 -109.5z" />
<glyph unicode="&#xd2;" horiz-adv-x="1550" d="M41 700q0 330 196.5 512.5t538.5 182.5t539.5 -182.5t197.5 -512.5q0 -332 -197.5 -523t-539.5 -191q-344 0 -539.5 190t-195.5 524zM145 700q0 -285 168 -450.5t463 -165.5q299 0 466 164t167 452q0 287 -167 442.5t-466 155.5q-297 0 -464 -156.5t-167 -441.5z M604 1720q0 43 55 43q27 0 41 -16l232 -242q14 -16 14 -35q0 -25 -22 -38q-37 -25 -70 8l-233 241q-17 21 -17 39z" />
<glyph unicode="&#xd3;" horiz-adv-x="1550" d="M41 700q0 330 196.5 512.5t538.5 182.5t539.5 -182.5t197.5 -512.5q0 -332 -197.5 -523t-539.5 -191q-344 0 -539.5 190t-195.5 524zM145 700q0 -285 168 -450.5t463 -165.5q299 0 466 164t167 452q0 287 -167 442.5t-466 155.5q-297 0 -464 -156.5t-167 -441.5z M604 1477q0 20 17 34l231 244q31 35 74 8q23 -14 22 -37q0 -20 -16 -36l-236 -244q-20 -16 -39 -16q-53 0 -53 47z" />
<glyph unicode="&#xd4;" horiz-adv-x="1550" d="M41 700q0 330 196.5 512.5t538.5 182.5t539.5 -182.5t197.5 -512.5q0 -332 -197.5 -523t-539.5 -191q-344 0 -539.5 190t-195.5 524zM145 700q0 -285 168 -450.5t463 -165.5q299 0 466 164t167 452q0 287 -167 442.5t-466 155.5q-297 0 -464 -156.5t-167 -441.5z M494 1444l239 325h74l252 -325h-125l-162 209l-162 -209h-116z" />
<glyph unicode="&#xd5;" horiz-adv-x="1550" d="M41 698q0 330 196.5 512.5t538.5 182.5t539.5 -182.5t197.5 -512.5t-197.5 -521t-539.5 -191q-344 0 -539.5 190t-195.5 522zM145 698q0 -285 168 -449.5t463 -164.5q299 0 466 164t167 450q0 287 -167 442.5t-466 155.5q-297 0 -464 -156.5t-167 -441.5zM471 1501 q0 78 55.5 124t116.5 46q41 0 154 -57q102 -51 121 -51q29 0 51 25.5t26 105.5l97 -54q-10 -82 -59.5 -128t-114.5 -46q-41 0 -154 58q-102 51 -123 51q-66 0 -78 -135z" />
<glyph unicode="&#xd6;" horiz-adv-x="1550" d="M41 698q0 330 196.5 512.5t538.5 182.5t539.5 -182.5t197.5 -512.5t-197.5 -521t-539.5 -191q-344 0 -539.5 190t-195.5 522zM145 698q0 -285 168 -449.5t463 -164.5q299 0 466 164t167 450q0 287 -167 441.5t-466 154.5q-297 0 -464 -155.5t-167 -440.5zM606 1509v109 q0 49 51 49q49 0 54 -49v-109q0 -53 -54 -53q-51 0 -51 53zM842 1509v109q0 49 53 49q47 0 51 -49v-109q0 -53 -51 -53q-53 0 -53 53z" />
<glyph unicode="&#xd7;" horiz-adv-x="1003" d="M150 289l274 227l-274 223l77 64l275 -225l276 225l78 -66l-276 -221l278 -231l-78 -62l-278 228l-279 -224z" />
<glyph unicode="&#xd8;" horiz-adv-x="1550" d="M41 694q0 328 196.5 509t538.5 181q154 0 277 -34l47 92h110l-63 -127q367 -174 366 -621q0 -330 -197.5 -520t-539.5 -190q-156 0 -280 41l-43 -84h-111l61 120q-100 49 -176 129q-186 195 -186 504zM145 694q0 -266 160 -434q66 -70 144 -106l559 1106q-104 29 -232 28 q-297 0 -464 -155.5t-167 -438.5zM543 115q104 -35 233 -35q299 0 466 164t167 450q0 391 -309 531z" />
<glyph unicode="&#xd9;" horiz-adv-x="1359" d="M86 528v873h104v-871q0 -446 490 -446q487 0 487 438v879h105v-877q0 -283 -154 -413q-145 -125 -438 -125q-297 0 -440 125q-154 132 -154 417zM508 1702q0 20 22 37q39 29 74 -8l232 -240q16 -18 16 -37q0 -23 -23 -39q-33 -23 -71 6l-234 246q-16 17 -16 35z" />
<glyph unicode="&#xda;" horiz-adv-x="1359" d="M86 528v873h104v-871q0 -446 490 -446q487 0 487 438v879h105v-877q0 -283 -154 -413q-145 -125 -438 -125q-297 0 -440 125q-154 132 -154 417zM508 1458q0 18 16 37l232 240q18 20 43 20q53 0 53 -49q0 -18 -16 -35l-234 -244q-18 -16 -41 -16q-53 0 -53 47z" />
<glyph unicode="&#xdb;" horiz-adv-x="1359" d="M86 528v873h104v-871q0 -446 490 -446q487 0 487 438v879h105v-877q0 -283 -154 -413q-145 -125 -438 -125q-297 0 -440 125q-154 132 -154 417zM397 1423l242 328h76l250 -328h-125l-164 211l-160 -211h-119z" />
<glyph unicode="&#xdc;" horiz-adv-x="1359" d="M86 526v873h104v-871q0 -444 490 -444q487 0 487 436v879h105v-877q0 -281 -154 -411q-145 -125 -438 -125q-297 0 -440 125q-154 130 -154 415zM510 1509v109q0 49 51 49q53 0 53 -49v-109q0 -53 -53 -53q-51 0 -51 53zM745 1509v109q0 49 54 49q51 0 51 -49v-109 q0 -53 -51 -53q-54 0 -54 53z" />
<glyph unicode="&#xdd;" horiz-adv-x="1345" d="M-35 1401h135l574 -627l575 627h133l-655 -723v-678h-104v678zM504 1466q0 18 14 35l234 242q18 20 43 20q53 0 53 -49q0 -18 -17 -35l-233 -243q-18 -18 -41 -19q-53 0 -53 49z" />
<glyph unicode="&#xde;" horiz-adv-x="870" d="M88 0v1389h105v-302h290q305 0 305 -376q0 -367 -307 -367h-288v-344h-105zM193 436l290 2q199 0 199 273q0 279 -201 278h-288v-553z" />
<glyph unicode="&#xdf;" horiz-adv-x="1034" d="M16 799v100h72q0 90 6 197q16 317 391 317q446 0 439 -303q-6 -207 -199 -266q84 -37 156 -117q125 -137 125 -309q0 -244 -168 -369q-147 -111 -435 -110v96q498 0 498 383q0 184 -137 284q-129 96 -361 97v98q217 0 297 31q119 45 119 172q0 131 -92 178 q-74 39 -246 39q-289 0 -288 -275v-1044h-105v801h-72z" />
<glyph unicode="&#xe0;" horiz-adv-x="1130" d="M29 506q0 233 131 379q137 154 381 153q274 0 407 -196v192h105v-1034h-105v180q-137 -203 -416 -203q-238 0 -374 154q-129 146 -129 375zM131 506q0 -190 100 -307q106 -125 299 -125q190 0 306 127q113 121 112 305q0 199 -104 315q-111 121 -314 121 q-188 0 -297 -129q-102 -121 -102 -307zM346 1329q0 23 23 37q14 12 30 12q25 0 43 -20l232 -240q14 -16 14 -35q0 -23 -22 -39q-35 -23 -70 9l-234 239q-16 19 -16 37z" />
<glyph unicode="&#xe1;" horiz-adv-x="1130" d="M53 506q0 233 131 379q137 154 381 153q274 0 408 -196v192h104v-1034h-104v180q-137 -203 -416 -203q-238 0 -375 154q-129 146 -129 375zM156 506q0 -190 100 -307q106 -125 299 -125q190 0 305 127q113 121 113 305q0 199 -105 315q-111 121 -313 121 q-188 0 -297 -129q-102 -121 -102 -307zM371 1083q0 18 16 35l231 240q18 20 44 20q51 0 51 -47q0 -20 -15 -37l-235 -241q-20 -16 -39 -17q-53 0 -53 47z" />
<glyph unicode="&#xe2;" horiz-adv-x="1130" d="M53 506q0 233 131 379q137 154 381 153q274 0 408 -196v192h104v-1034h-104v180q-137 -203 -416 -203q-238 0 -375 154q-129 146 -129 375zM156 506q0 -188 100 -307q106 -125 299 -125q190 0 305 127q113 121 113 305q0 199 -105 315q-111 121 -313 121 q-188 0 -297 -129q-102 -121 -102 -307zM260 1059l240 321h73l252 -321h-125l-161 205l-162 -205h-117z" />
<glyph unicode="&#xe3;" horiz-adv-x="1130" d="M53 504q0 233 131 379q137 154 381 153q274 0 408 -196v192h104v-1032h-104v180q-137 -203 -416 -203q-238 0 -375 154q-129 144 -129 373zM156 504q0 -188 100 -305q106 -125 299 -125q190 0 304 122.5t114 307.5q0 199 -105 315q-111 121 -313 121q-188 0 -297 -131 q-102 -119 -102 -305zM236 1114q0 76 55 122t117 46q41 0 153 -57q102 -49 121 -49q29 0 51.5 24.5t26.5 104.5l96 -54q-10 -82 -59 -127t-115 -45q-43 0 -156 56q-102 51 -120 51q-66 0 -78 -133z" />
<glyph unicode="&#xe4;" horiz-adv-x="1130" d="M53 504q0 233 131 377q137 156 381 155q274 0 408 -196v192h104v-1034h-104v182q-137 -203 -416 -203q-238 0 -375 154q-129 144 -129 373zM156 504q0 -188 100 -305q106 -125 299 -125q190 0 304 122.5t114 307.5q0 199 -105 315q-111 121 -313 121q-188 0 -297 -131 q-102 -119 -102 -305zM397 1120v109q0 49 52 49q53 0 53 -49v-109q0 -51 -53 -51q-52 0 -52 51zM633 1120v109q0 49 53 49q51 0 51 -49v-109q0 -51 -51 -51q-53 0 -53 51z" />
<glyph unicode="&#xe5;" horiz-adv-x="1130" d="M53 506q0 236 131 381q137 154 381 153q274 0 408 -196v192h104v-1036h-104v180q-137 -203 -416 -203q-238 0 -375 154q-129 146 -129 375zM156 506q0 -188 100 -305q106 -127 299 -127q190 0 305 127q113 121 113 305q0 201 -105 317q-111 121 -313 121 q-188 0 -297 -131q-102 -121 -102 -307zM360 1260q0 78 56.5 126t136.5 48q78 0 133 -49.5t55 -124.5q0 -76 -55 -124.5t-133 -48.5q-80 0 -136.5 48.5t-56.5 124.5zM469 1260q0 -72 84 -72q82 0 82 72q0 74 -82 73q-84 1 -84 -73z" />
<glyph unicode="&#xe6;" horiz-adv-x="2015" d="M29 498q0 231 131 374q137 152 381 152q274 0 407 -195v191h105v-193q154 197 413 197q236 0 377.5 -132t141.5 -355v-72l-932 -2v-19q0 -371 409 -370q297 0 391 243h107q-59 -188 -203 -268q-129 -72 -299 -72q-274 0 -405 168v-147h-105v180q-137 -201 -416 -201 q-238 0 -374 152q-129 144 -129 369zM131 498q0 -186 100 -301q106 -123 299 -123q190 0 304 120.5t114 303.5q0 197 -104 311q-111 119 -314 119q-188 0 -299 -127q-100 -119 -100 -303zM1053 559h817q-10 172 -120 270.5t-284 98.5q-170 0 -288 -101q-125 -104 -125 -268z " />
<glyph unicode="&#xe7;" d="M37 475q0 246 144.5 397.5t402.5 151.5q156 0 270 -72q127 -78 170 -243l-94 -50q-70 268 -350 269q-209 0 -326 -129q-113 -121 -113 -324q0 -190 110.5 -303t307.5 -113q139 0 240 64q109 70 139 227l98 -43q-43 -180 -180 -266q-123 -78 -295 -78q-242 0 -383 140.5 t-141 371.5zM342 -313l47 90q115 -37 176 -37q135 0 135 70q0 41 -94 49q-55 6 -108 -21v60l20 163h103l-5 -106q197 0 197 -152q0 -160 -242 -159q-77 0 -229 43z" />
<glyph unicode="&#xe8;" d="M23 506q0 238 142 385t378 147t377 -133t141 -360v-74l-936 -2q20 -395 412 -395q297 0 391 248h106q-59 -195 -203 -275q-125 -70 -299 -70q-252 0 -385 148q-124 137 -124 381zM127 567h819q-10 174 -118.5 274.5t-284.5 100.5t-287 -100.5t-129 -274.5zM365 1331 q0 43 55 43q27 0 41 -14l233 -242q16 -16 17 -35q0 -25 -25 -39q-35 -20 -70 9l-235 241q-16 19 -16 37z" />
<glyph unicode="&#xe9;" d="M23 506q0 238 142 385t378 147t377 -133t141 -360v-74l-936 -2q20 -395 412 -395q297 0 391 248h106q-59 -195 -203 -275q-125 -70 -299 -70q-252 0 -385 148q-124 137 -124 381zM127 567h819q-10 174 -118.5 274.5t-284.5 100.5t-287 -100.5t-129 -274.5zM367 1087 q0 18 16 35l231 240q31 35 76 8q18 -16 19 -37q0 -14 -13 -35l-237 -241q-20 -16 -39 -17q-53 0 -53 47z" />
<glyph unicode="&#xea;" d="M23 506q0 238 142 385t378 147t377 -133t141 -360v-74l-936 -2q20 -395 412 -395q297 0 391 248h106q-59 -195 -203 -275q-125 -70 -299 -70q-252 0 -385 148q-124 137 -124 381zM127 567h819q-10 174 -118.5 274.5t-284.5 100.5t-287 -100.5t-129 -274.5zM254 1059 l244 321h75l248 -321h-125l-161 205l-162 -205h-119z" />
<glyph unicode="&#xeb;" d="M23 504q0 238 142 385t378 147t377 -134t141 -359v-72l-936 -2q20 -395 412 -395q297 0 391 245h106q-59 -193 -203 -272q-125 -70 -299 -70q-252 0 -385 146q-124 137 -124 381zM127 565h819q-10 174 -118.5 274.5t-284.5 100.5t-287 -100.5t-129 -274.5zM369 1120v109 q0 49 53 49q51 0 51 -49v-109q0 -51 -51 -51q-53 0 -53 51zM606 1120v109q0 49 51 49q53 0 54 -49v-109q0 -51 -54 -51q-51 0 -51 51z" />
<glyph unicode="&#xec;" horiz-adv-x="278" d="M-33 1329q0 23 23 37q14 12 30 12q23 0 41 -20l234 -240q16 -16 16 -35q0 -25 -24 -39q-35 -20 -70 9l-233 239q-17 17 -17 37zM88 0v1016h105v-1016h-105z" />
<glyph unicode="&#xed;" horiz-adv-x="278" d="M-31 1075q0 18 15 35l233 242q18 18 41 18q51 0 51 -49q0 -18 -14 -35l-232 -239q-18 -18 -40 -19q-54 0 -54 47zM88 0v1016h105v-1016h-105z" />
<glyph unicode="&#xee;" horiz-adv-x="278" d="M-129 1059l231 321h76l236 -321h-125l-148 203l-151 -203h-119zM88 0v1016h105v-1016h-105z" />
<glyph unicode="&#xef;" horiz-adv-x="278" d="M-25 1122v107q0 49 54 49q51 0 51 -49v-107q0 -53 -51 -53q-54 0 -54 53zM88 0v1012h105v-1012h-105zM213 1122v107q0 49 51 49q53 0 53 -49v-107q0 -53 -53 -53q-51 0 -51 53z" />
<glyph unicode="&#xf0;" horiz-adv-x="1155" d="M29 506q0 233 131 379q137 154 381 153q274 0 407 -194v305h-680v98h680v142h105v-1389h-105v180q-137 -203 -416 -203q-238 0 -374 154q-129 146 -129 375zM131 506q0 -188 100 -305q106 -127 299 -127q190 0 306 127q113 121 112 305q0 201 -104 315q-111 121 -314 121 q-188 0 -297 -129q-102 -121 -102 -307z" />
<glyph unicode="&#xf1;" d="M88 0v1012h105v-138q119 162 368 162q182 0 297 -86q125 -96 125 -270v-680h-104v662q0 135 -85 206.5t-231 71.5q-172 0 -271 -103.5t-99 -269.5v-567h-105zM236 1114q0 74 56 121t116 47q41 0 153 -57q102 -49 123 -49q27 0 49.5 24.5t26.5 104.5l96 -54 q-6 -80 -56 -126t-116 -46q-43 0 -156 56q-102 51 -122 51q-27 0 -48.5 -24.5t-25.5 -108.5z" />
<glyph unicode="&#xf2;" horiz-adv-x="1116" d="M29 508q0 240 145 385t387 145t385.5 -145t143.5 -385q0 -242 -145.5 -386.5t-387.5 -144.5q-244 0 -386 147.5t-142 383.5zM133 508q0 -197 116 -315.5t310 -118.5q195 0 310.5 118.5t115.5 315.5q0 195 -112.5 314.5t-313.5 119.5q-197 0 -311.5 -118.5t-114.5 -315.5z M387 1329q0 23 23 37q14 12 30 12q25 0 43 -20l232 -240q14 -16 14 -35q0 -23 -22 -39q-35 -23 -70 9l-234 239q-16 19 -16 37z" />
<glyph unicode="&#xf3;" horiz-adv-x="1116" d="M29 508q0 240 145 385t387 145t385.5 -145t143.5 -385q0 -242 -145.5 -386.5t-387.5 -144.5q-244 0 -386 147.5t-142 383.5zM133 508q0 -197 116 -315.5t310 -118.5q195 0 310.5 118.5t115.5 315.5q0 195 -112.5 314.5t-313.5 119.5q-197 0 -311.5 -118.5t-114.5 -315.5z M387 1077q0 16 14 33l234 242q18 18 43 18q53 0 53 -49q0 -18 -16 -35l-234 -242q-16 -16 -39 -16q-55 0 -55 49z" />
<glyph unicode="&#xf4;" horiz-adv-x="1116" d="M29 508q0 240 145 385t387 145t385.5 -145t143.5 -385q0 -242 -145.5 -386.5t-387.5 -144.5q-244 0 -386 147.5t-142 383.5zM133 508q0 -197 116 -315.5t310 -118.5q195 0 310.5 118.5t115.5 315.5t-112.5 315.5t-313.5 118.5q-197 0 -311.5 -118.5t-114.5 -315.5z M274 1059l244 321h74l252 -321h-125l-162 205l-164 -205h-119z" />
<glyph unicode="&#xf5;" horiz-adv-x="1116" d="M29 506q0 240 145 385t387 145q240 0 384.5 -145.5t144.5 -384.5q0 -240 -145.5 -384.5t-387.5 -144.5q-244 0 -389 150q-139 143 -139 379zM133 506q0 -197 116 -314.5t310 -117.5q195 0 310.5 117.5t115.5 314.5t-112.5 315.5t-313.5 118.5q-197 0 -311.5 -117.5 t-114.5 -316.5zM250 1114q0 78 54 123t120 45q39 0 151 -57q102 -49 123 -49q63 0 82 129l90 -54q-10 -80 -58 -126t-114 -46q-43 0 -157 56q-102 51 -119 51q-70 0 -76 -133z" />
<glyph unicode="&#xf6;" horiz-adv-x="1116" d="M29 506q0 240 146.5 385t385.5 145q240 0 384.5 -145.5t144.5 -384.5q0 -240 -145.5 -384.5t-387.5 -144.5q-244 0 -389 150q-139 143 -139 379zM133 506q0 -197 116 -314.5t310 -117.5q195 0 310.5 117.5t115.5 314.5q0 195 -112.5 314.5t-313.5 119.5 q-197 0 -311.5 -118.5t-114.5 -315.5zM389 1120v109q0 49 51 49q53 0 54 -49v-109q0 -51 -54 -51q-51 0 -51 51zM625 1120v109q0 49 53 49q51 0 51 -49v-109q0 -51 -51 -51q-53 0 -53 51z" />
<glyph unicode="&#xf7;" horiz-adv-x="1212" d="M72 444v95h1038v-95h-1038zM555 201v121q0 51 51 51q53 0 53 -51v-121q0 -49 -53 -49q-51 0 -51 49zM555 645v123q0 47 51 47q53 0 53 -47v-123q0 -49 -53 -49q-51 0 -51 49z" />
<glyph unicode="&#xf8;" horiz-adv-x="1116" d="M29 500q0 240 146.5 384t385.5 144q102 0 187 -24l63 120h111l-80 -163q248 -139 248 -461q0 -240 -146.5 -383.5t-386.5 -143.5q-113 0 -203 31l-51 -100h-110l71 143q-235 144 -235 453zM133 500q0 -240 176 -361l393 774q-66 18 -143 19q-197 0 -311.5 -116.5 t-114.5 -315.5zM399 94q70 -25 160 -24q195 0 310.5 117.5t115.5 312.5q0 180 -106 301q-39 43 -86 71z" />
<glyph unicode="&#xf9;" d="M88 356v660h105v-658q0 -285 319 -284q184 0 279 110q88 100 88 281v551h104v-1016h-104v139q-121 -162 -367 -162q-193 0 -305 95q-119 100 -119 284zM367 1321q0 20 20 35q14 14 31 14q25 0 43 -20l233 -240q16 -16 17 -37q0 -23 -25 -37q-35 -23 -70 8l-233 242 q-16 17 -16 35z" />
<glyph unicode="&#xfa;" d="M88 356v660h105v-658q0 -285 319 -284q184 0 279 110q88 100 88 283v549h104v-1016h-104v139q-121 -162 -367 -162q-193 0 -305 95q-119 100 -119 284zM369 1083q0 18 14 35l231 240q18 20 43 20q53 0 54 -49q0 -20 -17 -37l-231 -239q-18 -16 -41 -17q-53 0 -53 47z" />
<glyph unicode="&#xfb;" d="M88 356v660h105v-658q0 -285 319 -284q184 0 279 110q88 102 88 283v549h104v-1016h-104v139q-121 -162 -367 -162q-193 0 -305 95q-119 100 -119 284zM254 1059l244 321h75l248 -321h-125l-161 205l-162 -205h-119z" />
<glyph unicode="&#xfc;" d="M88 354v658h105v-656q0 -283 319 -282q184 0 279 108q88 102 88 283v547h104v-1014h-104v141q-121 -162 -367 -162q-193 0 -305 95q-119 100 -119 282zM367 1120v109q0 49 53 49q51 0 51 -49v-109q0 -51 -51 -51q-53 0 -53 51zM604 1120v109q0 49 51 49q53 0 54 -49v-109 q0 -51 -54 -51q-51 0 -51 51z" />
<glyph unicode="&#xfd;" horiz-adv-x="1036" d="M41 -2h104q23 -266 353 -266q381 0 381 321v76q-121 -164 -367 -164q-193 0 -305 96q-119 100 -119 287v664h105v-662q0 -287 319 -287q184 0 279 111q88 102 88 285v553h104v-961q0 -418 -489 -418q-182 0 -299 72q-144 88 -154 293zM346 1087q0 18 19 33l231 242 q33 35 76 8q18 -16 18 -37q0 -14 -12 -35l-238 -245q-20 -14 -39 -15q-20 0 -37.5 14.5t-17.5 34.5z" />
<glyph unicode="&#xfe;" horiz-adv-x="1155" d="M88 -344v1733h105v-549q135 197 405 196q244 0 381 -151q129 -143 129 -381q0 -244 -131 -387q-135 -150 -377 -150q-272 0 -407 197v-508h-105zM193 508q0 -207 100 -322q106 -123 315 -123q193 0 299 130q98 119 99 309q0 190 -101 309q-106 129 -295 129 q-190 0 -303.5 -119.5t-113.5 -312.5z" />
<glyph unicode="&#xff;" horiz-adv-x="1044" d="M41 -2h104q23 -268 353 -268q381 0 381 321v76q-121 -162 -367 -162q-193 0 -305 94q-119 102 -119 287v664h105v-662q0 -287 319 -287q184 0 279 111q88 102 88 285v553h104v-961q0 -416 -489 -416q-182 0 -299 72q-144 88 -154 293zM352 1120v109q0 49 54 49 q47 0 51 -47v-111q0 -53 -51 -53q-54 0 -54 53zM590 1120v109q0 49 51 49q49 0 53 -47v-111q0 -53 -53 -53q-51 0 -51 53z" />
<glyph unicode="&#x152;" horiz-adv-x="2068" d="M47 690q0 328 197.5 518.5t539.5 190.5q70 0 136 -10h1089v-97h-807q289 -172 316 -522h428v-94h-424q-6 -393 -308 -580h807v-96h-1056q-84 -16 -181 -16q-340 0 -538.5 190t-198.5 516zM152 690q0 -285 167.5 -448.5t464.5 -163.5q78 0 148 14v1198q-70 12 -148 13 q-297 0 -464.5 -164t-167.5 -449zM1034 119q123 43 211 129q168 162 172 428h-383v-557zM1034 770h379q-16 176 -115.5 307t-263.5 187v-494z" />
<glyph unicode="&#x153;" horiz-adv-x="2154" d="M78 500q0 240 146.5 382t385.5 142q166 0 293 -73.5t189 -213.5q35 76 94 137q145 150 373 150q236 0 377 -132t141 -355v-72l-934 -2q20 -389 411 -389q297 0 392 243h106q-59 -188 -203 -268q-129 -72 -299 -72q-356 0 -467 275q-66 -131 -190.5 -203t-286.5 -72 q-244 0 -386 146t-142 377zM182 500q0 -195 116 -310.5t310 -115.5q195 0 310.5 115.5t115.5 310.5q0 193 -112.5 310.5t-313.5 117.5q-197 0 -311.5 -115.5t-114.5 -312.5zM1145 559h817q-10 172 -119.5 270.5t-283.5 98.5q-170 0 -284 -100.5t-130 -268.5z" />
<glyph unicode="&#x178;" horiz-adv-x="1357" d="M-31 1399h137l574 -627l575 627h134l-656 -723v-676h-104v676zM518 1509v109q0 49 53 49q47 0 52 -49v-109q0 -53 -52 -53q-53 0 -53 53zM756 1509v109q0 49 51 49q49 0 53 -49v-109q0 -53 -53 -53q-51 0 -51 53z" />
<glyph unicode="&#x2c6;" horiz-adv-x="530" d="M-18 1106l243 274h72l254 -274h-127l-162 174l-162 -174h-118z" />
<glyph unicode="&#x2dc;" horiz-adv-x="749" d="M66 1155q0 57 57 93t115 36q39 0 153 -43q100 -37 121 -37q31 0 52.5 18.5t25.5 77.5l96 -40q-10 -61 -59 -96.5t-115 -35.5q-39 0 -154 43q-100 37 -122 37q-27 0 -48.5 -18.5t-25.5 -79.5z" />
<glyph unicode="&#x2000;" horiz-adv-x="894" />
<glyph unicode="&#x2001;" horiz-adv-x="1789" />
<glyph unicode="&#x2002;" horiz-adv-x="894" />
<glyph unicode="&#x2003;" horiz-adv-x="1789" />
<glyph unicode="&#x2004;" horiz-adv-x="595" />
<glyph unicode="&#x2005;" horiz-adv-x="446" />
<glyph unicode="&#x2006;" horiz-adv-x="296" />
<glyph unicode="&#x2007;" horiz-adv-x="296" />
<glyph unicode="&#x2008;" horiz-adv-x="223" />
<glyph unicode="&#x2009;" horiz-adv-x="356" />
<glyph unicode="&#x200a;" horiz-adv-x="98" />
<glyph unicode="&#x2010;" horiz-adv-x="716" d="M74 520v41h588v-41h-588z" />
<glyph unicode="&#x2011;" horiz-adv-x="716" d="M74 520v41h588v-41h-588z" />
<glyph unicode="&#x2012;" horiz-adv-x="716" d="M74 520v41h588v-41h-588z" />
<glyph unicode="&#x2013;" horiz-adv-x="1013" d="M-31 520v41h1071v-41h-1071z" />
<glyph unicode="&#x2014;" horiz-adv-x="1830" d="M-31 520v41h1889v-41h-1889z" />
<glyph unicode="&#x2018;" horiz-adv-x="358" d="M88 1069q0 6 4 14l86 271q10 33 49 32q55 0 56 -43q0 -6 -4 -14l-89 -270q-10 -33 -49 -33q-53 0 -53 43z" />
<glyph unicode="&#x2019;" horiz-adv-x="358" d="M88 1067q0 8 4 16l88 271q12 43 62 32q41 -10 41 -43q0 -6 -4 -14l-86 -270q-10 -33 -52 -33q-53 0 -53 41z" />
<glyph unicode="&#x201a;" horiz-adv-x="598" d="M166 -143q0 6 4 16l88 270q12 43 61 33q41 -10 41 -43q0 -6 -4 -14l-86 -271q-10 -35 -51 -34q-53 0 -53 43z" />
<glyph unicode="&#x201c;" horiz-adv-x="546" d="M88 1069q0 6 4 14l86 271q10 33 49 32q55 0 56 -43q0 -6 -4 -14l-89 -270q-10 -33 -49 -33q-53 0 -53 43zM303 1069q0 6 4 14l86 271q10 33 49 32q55 0 56 -43q0 -6 -4 -14l-88 -270q-10 -33 -50 -33q-53 0 -53 43z" />
<glyph unicode="&#x201d;" horiz-adv-x="565" d="M88 1067q0 8 4 16l88 271q12 43 62 32q41 -10 41 -43q0 -6 -4 -14l-86 -270q-10 -33 -52 -33q-53 0 -53 41zM303 1067q0 8 4 16l88 271q12 43 62 32q41 -10 41 -43q0 -6 -4 -14l-86 -270q-10 -33 -52 -33q-53 0 -53 41z" />
<glyph unicode="&#x201e;" horiz-adv-x="718" d="M166 -143q0 6 4 16l88 270q12 43 61 33q41 -10 41 -43q0 -6 -4 -14l-86 -271q-10 -35 -51 -34q-53 0 -53 43zM381 -143q0 6 4 16l88 270q12 43 62 33q41 -10 40 -43q0 -6 -4 -14l-86 -271q-10 -35 -51 -34q-53 0 -53 43z" />
<glyph unicode="&#x2022;" horiz-adv-x="598" d="M82 557v217q0 14 44 29.5t122 15.5t125 -16q41 -14 41 -29v-217q0 -14 -41 -29q-47 -16 -125 -16t-122 15.5t-44 29.5z" />
<glyph unicode="&#x2026;" horiz-adv-x="1306" d="M246 37v96q0 41 53 41q51 0 51 -41v-96q0 -41 -51 -41q-53 0 -53 41zM633 37v96q0 41 53 41q51 0 51 -41v-96q0 -41 -51 -41q-53 0 -53 41zM1020 37v96q0 41 53 41q51 0 51 -41v-96q0 -41 -51 -41q-53 0 -53 41z" />
<glyph unicode="&#x202f;" horiz-adv-x="356" />
<glyph unicode="&#x2039;" horiz-adv-x="602" d="M115 528v64l366 237v-108l-241 -160l241 -162v-102z" />
<glyph unicode="&#x203a;" horiz-adv-x="602" d="M115 297v102l241 162l-241 160v108l366 -237v-64z" />
<glyph unicode="&#x205f;" horiz-adv-x="446" />
<glyph unicode="&#x2122;" horiz-adv-x="1615" d="M78 1305v96h723l309 -543l305 543h125v-690h-115v493l-272 -493h-84l-285 503q2 -201 2 -503h-112v594h-180v-594h-113v594h-303z" />
<glyph unicode="&#xe000;" horiz-adv-x="1000" d="M0 1000h1000v-1000h-1000v1000z" />
<glyph unicode="&#xfb01;" horiz-adv-x="825" d="M635 0v1016h105v-1016h-105zM635 1223v143q18 41 49 41q25 0 56 -37v-151q-29 -37 -56 -37q-33 0 -49 41zM31 813v98h147v66q0 387 520 387v-94q-416 0 -415 -293v-66h227v-98h-227v-815h-105v815h-147z" />
<glyph unicode="&#xfb02;" horiz-adv-x="825" d="M635 0v1389h105v-1389h-105zM31 813v98h147v66q0 387 520 387v-94q-416 0 -415 -293v-66h227v-98h-227v-815h-105v815h-147z" />
<glyph unicode="&#xfb03;" horiz-adv-x="1372" d="M1182 0v1016h105v-1016h-105zM1182 1223v143q18 41 49 41q25 0 56 -37v-151q-29 -37 -56 -37q-33 0 -49 41zM578 813v98h147v66q0 387 520 387v-94q-416 0 -415 -293v-66h227v-98h-227v-815h-105v815h-147zM31 813v98h147v66q0 387 520 387v-94q-416 0 -415 -293v-66h227 v-98h-227v-815h-105v815h-147z" />
<glyph unicode="&#xfb04;" horiz-adv-x="1372" d="M1182 0v1389h105v-1389h-105zM578 813v98h147v66q0 387 520 387v-94q-416 0 -415 -293v-66h227v-98h-227v-815h-105v815h-147zM31 813v98h147v66q0 387 520 387v-94q-416 0 -415 -293v-66h227v-98h-227v-815h-105v815h-147z" />
</font>
</defs>
</svg>
