<?xml version="1.0" standalone="no"?>
<!DOCTYPE svg PUBLIC "-//W3C//DTD SVG 1.1//EN" "http://www.w3.org/Graphics/SVG/1.1/DTD/svg11.dtd" >
<svg xmlns="http://www.w3.org/2000/svg">
<metadata>
This is a custom SVG webfont generated by Font Squirrel.
Copyright   : GM
</metadata>
<defs>
<font id="webfontml4wBZqE" horiz-adv-x="1075" >
<font-face units-per-em="2048" ascent="1638" descent="-410" />
<missing-glyph horiz-adv-x="724" />
<glyph unicode=" "  horiz-adv-x="724" />
<glyph unicode="&#x09;" horiz-adv-x="724" />
<glyph unicode="&#xa0;" horiz-adv-x="724" />
<glyph unicode="!" horiz-adv-x="397" d="M170 37l27 131q8 35 45 35t28 -35l-26 -131q-8 -37 -45 -37t-29 37zM238 346l221 1043h73l-221 -1043h-73z" />
<glyph unicode="&#x22;" horiz-adv-x="598" d="M389 1155l39 186q8 35 43 35q39 0 31 -35l-39 -186q-8 -35 -47 -35q-35 0 -27 35zM625 1155l39 186q8 35 45 35t28 -35l-39 -186q-8 -35 -45 -35q-36 0 -28 35z" />
<glyph unicode="#" horiz-adv-x="1087" d="M246 485l28 68h183l86 182h-187l33 68h182l72 155h74l-72 -155h215l70 155h74l-70 -155h182l-29 -68h-184l-84 -182h182l-28 -68h-182l-72 -155h-74l72 155h-215l-72 -155h-74l72 155h-182zM530 553h215l84 182h-213z" />
<glyph unicode="$" horiz-adv-x="1314" d="M139 328q2 53 15 114l8 35h74l-7 -26q-12 -57 -12 -107q0 -227 256 -289l141 664q-293 72 -292 266q0 33 8 72q61 289 430 354l28 131h74l-24 -121q47 2 102 2q68 0 123 -6l27 125h73l-28 -135q287 -63 286 -320q0 -49 -10 -108h-74q6 43 6 80q0 223 -223 278l-133 -622 q160 -43 221 -84q106 -70 107 -197q0 -41 -10 -90q-33 -150 -179 -252q-127 -86 -295 -112l-26 -123h-74l25 112q-45 -4 -88 -4q-76 0 -140 10l-24 -118h-74l27 127q-318 76 -318 344zM397 1004q0 -147 232 -211l116 546q-295 -61 -342 -282q-6 -28 -6 -53zM543 43 q63 -10 141 -10q43 0 86 6l131 618l-217 45zM698 774l220 -43l131 619q-55 6 -123 6q-55 0 -105 -6zM846 49q139 23 241 94q117 82 144 207q25 113 -14 164q-53 72 -244 127z" />
<glyph unicode="%" horiz-adv-x="1536" d="M244 0l1292 1389h86l-1290 -1389h-88zM295 842q0 59 14 135q80 369 369 369q229 0 229 -230q0 -61 -18 -139q-76 -360 -369 -361q-227 1 -225 226zM371 858q0 -176 166 -176q215 0 276 295q16 68 16 121q0 180 -167 180q-211 0 -277 -301q-14 -68 -14 -119zM911 186 q0 61 17 138q78 371 368 370q227 0 228 -229q0 -61 -17 -141q-78 -362 -368 -363q-228 0 -228 225zM989 207q-2 -178 166 -178q213 0 277 295q14 70 14 122q0 180 -166 181q-213 0 -276 -303q-15 -66 -15 -117z" />
<glyph unicode="&#x26;" horiz-adv-x="1234" d="M139 248q0 195 217 356q102 78 328 182q-188 102 -188 267q0 35 6 69q29 127 143 201q106 66 242 66q117 0 190 -46q92 -55 92 -161q0 -31 -8 -64q-41 -190 -467 -397q-223 -109 -299 -166q-180 -137 -180 -293q0 -111 113 -174q94 -53 215 -53q274 0 452 235 q102 135 135 287h74l-127 -596h-73l61 289q-12 -14 -21 -29q-225 -254 -503 -254q-154 0 -265 64q-137 76 -137 217zM569 1065q0 -152 193 -244q332 166 332 342q0 80 -72 123q-59 35 -145 35q-104 0 -187 -49q-94 -55 -115 -152q-6 -28 -6 -55z" />
<glyph unicode="'" horiz-adv-x="358" d="M389 1155l39 186q8 35 43 35q39 0 31 -35l-39 -186q-8 -35 -47 -35q-35 0 -27 35z" />
<glyph unicode="(" horiz-adv-x="477" d="M211 197q0 180 43 383q111 522 455 923h79q-350 -401 -460 -923q-43 -201 -43 -383q0 -293 110 -541h-80q-104 248 -104 541z" />
<glyph unicode=")" horiz-adv-x="477" d="M-76 -344q360 403 471 924q41 193 41 368q0 301 -119 555h80q115 -244 115 -538q0 -184 -43 -385q-111 -526 -465 -924h-80z" />
<glyph unicode="*" horiz-adv-x="696" d="M307 1040q4 20 29 31l162 72l-131 69q-33 16 -7 48q12 14 31 14q8 0 19 -4h2l135 -72l31 143q8 35 45 35t28 -35l-30 -145l165 74q8 4 19 4q20 0 29 -14q10 -33 -27 -50l-158 -67l129 -72q18 -10 15 -31q-6 -33 -43 -32q-10 0 -23 4l-129 73l-31 -143q-8 -35 -45 -35 t-28 35l30 143l-164 -73q-12 -4 -22 -4q-37 -1 -31 32z" />
<glyph unicode="+" horiz-adv-x="1146" d="M248 481l14 68h391l72 338h74l-72 -338h393l-14 -68h-393l-74 -344h-74l74 344h-391z" />
<glyph unicode="," horiz-adv-x="536" d="M156 -156q0 4 4 15l151 293q16 33 47 24q35 -8 19 -43l-150 -293q-12 -27 -39 -26q-38 -1 -32 30z" />
<glyph unicode="-" horiz-adv-x="716" d="M201 520l8 41h557l-8 -41h-557z" />
<glyph unicode="." horiz-adv-x="428" d="M184 29l25 112q6 33 43 33t31 -33l-25 -112q-6 -33 -43 -33t-31 33z" />
<glyph unicode="/" horiz-adv-x="716" d="M-20 0l1001 1421h78l-1002 -1421h-77z" />
<glyph unicode="0" horiz-adv-x="1196" d="M174 362q0 63 16 140l74 344q49 238 219 383t410 145q190 0 301 -96q115 -102 115 -287q0 -68 -17 -145l-73 -344q-51 -238 -217 -382.5t-408 -144.5q-190 0 -305 100.5t-115 286.5zM250 377q0 -158 97 -246t259 -88q207 0 355 129q141 125 184 330l74 344q14 66 14 123 q0 160 -96.5 249t-259.5 89q-207 0 -351.5 -127t-187.5 -334l-74 -344q-14 -66 -14 -125z" />
<glyph unicode="1" horiz-adv-x="845" d="M377 979l489 344h66l-281 -1323h-73l258 1219l-344 -240h-115z" />
<glyph unicode="2" horiz-adv-x="1196" d="M102 0q84 373 545 616l322 168q207 106 231 232q8 31 8 57q0 113 -108 166q-82 39 -207 39q-418 0 -506 -410h-74q102 477 582 478q156 0 256 -50q129 -68 129 -209q0 -37 -8 -77q-37 -170 -406 -355q-174 -86 -280 -145q-131 -86 -234 -197q-125 -133 -153 -245h936 l-15 -68h-1018z" />
<glyph unicode="3" horiz-adv-x="1196" d="M147 317q0 53 15 115l6 35h74l-13 -64q-8 -41 -8 -79q0 -143 127 -220q104 -59 262 -59q180 0 320 74q166 86 200 248q8 43 9 79q0 229 -357 230h-108l14 69h111q383 0 440 271q6 27 6 51q0 117 -123 170q-92 41 -223 41q-442 0 -524 -385h-74q96 453 606 453 q162 0 271 -50q143 -66 143 -209q0 -35 -8 -71q-49 -240 -314 -303q215 -55 213 -254q0 -43 -10 -92q-41 -193 -225 -299q-160 -90 -373 -91q-195 0 -313 72q-144 88 -144 268z" />
<glyph unicode="4" horiz-adv-x="1196" d="M139 451l627 874h78l-580 -807h647l172 807l72 -2l-170 -805h264l-14 -67h-264l-97 -451h-73l96 451h-758z" />
<glyph unicode="5" horiz-adv-x="1196" d="M143 309q0 61 17 135h73q-12 -59 -12 -110q0 -289 381 -289q199 0 338 100q150 106 190 295q10 51 11 95q0 154 -121 233q-104 70 -266 70q-262 0 -430 -197h-78l174 682h909l-14 -68h-836l-129 -507q172 160 426 159q186 0 305 -84q135 -94 136 -272q0 -51 -13 -109 q-47 -221 -221 -346q-166 -119 -397 -119q-443 0 -443 332z" />
<glyph unicode="6" horiz-adv-x="1196" d="M188 309q0 49 13 105l4 20q4 14 6 17l98 462q43 201 211 316q156 109 369 108q172 0 278 -77q121 -88 121 -252q0 -53 -12 -115h-72q10 51 10 98q0 141 -102 217q-92 68 -240 68q-182 0 -313 -94q-139 -100 -176 -275l-51 -243q162 178 442 178q172 0 281 -74 q123 -86 123 -250q0 -49 -13 -104q-43 -201 -209 -318q-156 -109 -366 -108q-170 0 -279 75q-123 86 -123 246zM262 322q0 -137 105 -211q92 -63 237 -64q182 0 314 94q139 98 176 273q10 47 10 90q0 139 -107 213q-92 63 -237 63q-184 0 -314 -92q-137 -98 -174 -274 q-10 -49 -10 -92z" />
<glyph unicode="7" horiz-adv-x="1196" d="M367 0l893 1255h-873l14 68h983l-940 -1323h-77z" />
<glyph unicode="8" horiz-adv-x="1230" d="M141 285q0 45 11 94q61 283 389 350q-193 59 -193 211q0 29 8 59q39 184 203 273q137 74 344 74q166 0 271 -52q139 -68 139 -217q0 -37 -8 -78q-43 -197 -304 -270q250 -57 250 -264q0 -43 -10 -90q-45 -209 -235 -312q-160 -86 -394 -86q-193 0 -311 60 q-160 78 -160 248zM217 303q0 -143 141 -209q104 -49 269 -49q199 0 336 70q168 86 204 262q8 39 9 72q0 240 -412 239q-473 0 -539 -311q-8 -39 -8 -74zM424 958q0 -109 133 -161q98 -41 221 -41q147 0 273 55q154 68 180 190q8 35 8 66q0 211 -350 211q-399 0 -459 -281 q-6 -21 -6 -39z" />
<glyph unicode="9" horiz-adv-x="1196" d="M186 293q0 55 15 117h71q-12 -55 -12 -103q0 -139 102 -213q90 -66 238 -65q178 0 315.5 98t174.5 268l61 285q-164 -178 -444 -178q-170 0 -277 76q-123 86 -123 245q0 49 10 105q43 203 207 317q156 111 369 111q168 0 276 -78q125 -88 125 -248q0 -49 -12 -102l-4 -21 q-4 -10 -4 -14l-107 -502q-43 -199 -213 -315q-158 -106 -368 -107q-172 0 -279 76q-121 86 -121 248zM379 836q0 -137 106 -209q92 -63 236 -64q182 0 317.5 95.5t171.5 269.5q10 47 11 90q0 141 -105 213q-92 66 -237 65q-184 0 -316 -94q-137 -100 -174 -274 q-10 -49 -10 -92z" />
<glyph unicode=":" horiz-adv-x="499" d="M221 33l29 129q8 37 45 37q33 0 27 -37l-27 -129q-6 -37 -43 -37t-31 37zM383 786l27 129q8 37 45 37q35 0 26 -37l-24 -129q-8 -37 -45 -36q-37 -1 -29 36z" />
<glyph unicode=";" horiz-adv-x="514" d="M143 -154q2 6 7 15l153 309q16 35 47 27q35 -10 19 -45l-152 -310q-14 -29 -41 -28q-39 -1 -33 32zM424 786l27 129q8 37 45 37t28 -37l-26 -129q-8 -37 -45 -36q-37 -1 -29 36z" />
<glyph unicode="&#x3c;" horiz-adv-x="1095" d="M182 461l13 63l989 367l-15 -72l-886 -327l747 -328l-14 -72z" />
<glyph unicode="=" horiz-adv-x="1290" d="M160 342l14 64h1116l-14 -64h-1116zM211 578l14 63h1116l-14 -63h-1116z" />
<glyph unicode="&#x3e;" horiz-adv-x="1095" d="M104 92l15 72l885 328l-746 327l14 72l834 -367l-12 -63z" />
<glyph unicode="?" d="M287 1038q66 186 212 284.5t347 98.5q145 0 248 -57q125 -72 125 -205q0 -215 -291 -416q-168 -117 -223 -190q-37 -47 -56 -143l-14 -64h-76l10 51q43 203 285 371q141 100 197 158q92 98 92 221q0 111 -107 166q-84 41 -209 41q-369 0 -481 -355zM494 37l26 131 q8 35 43 35q39 0 31 -35l-27 -131q-8 -37 -47 -37q-34 0 -26 37z" />
<glyph unicode="@" horiz-adv-x="1720" d="M238 543q0 78 18 164q70 319 342 522q264 195 598 194q244 0 412 -114q193 -131 192 -363q0 -61 -14 -129q-43 -199 -213 -373q-55 -57 -135 -102q-92 -53 -160 -53q-63 0 -64 57q0 12 3.5 26.5t29.5 94.5q-184 -205 -440 -207q-203 -2 -275 139q-29 59 -28 136 q0 43 10 92q49 231 209 374q168 154 397 156q264 4 299 -196l68 196h69l-268 -778q0 -16 21 -17q47 0 123 50q61 43 102 90q188 219 188 432q0 205 -170 321q-147 102 -362 103q-309 0 -547 -180q-246 -184 -309 -482q-16 -78 -17 -149q0 -195 127 -328q166 -176 463 -176 q184 0 373 82q197 86 307 221h84q-121 -164 -339 -266.5t-427 -102.5q-334 0 -520 195q-147 152 -147 371zM571 545q0 -227 252 -226q168 2 316 119q137 111 196 275q31 84 31 161q0 223 -270 220q-190 -2 -336 -140q-137 -129 -178 -321q-11 -47 -11 -88z" />
<glyph unicode="A" horiz-adv-x="1302" d="M-14 0l934 1389h75l320 -1389h-80l-105 446h-761l-297 -446h-86zM416 514h700l-180 772z" />
<glyph unicode="B" horiz-adv-x="1314" d="M86 0l295 1389h676q158 0 258 -58q125 -70 125 -215q0 -41 -10 -86q-47 -217 -326 -303q242 -55 242 -258q0 -41 -11 -90q-41 -197 -225 -295q-156 -84 -375 -84h-649zM174 68h600q176 0 305 69q152 82 185 240q8 37 8 69q0 133 -127 197q-98 47 -246 47h-592zM322 758 h596q158 0 274 65q135 74 166 217q6 33 6 62q0 117 -111 174q-86 45 -215 45h-598z" />
<glyph unicode="C" horiz-adv-x="1472" d="M236 684q70 332 308 525.5t578 193.5q391 0 510 -252l-69 -41q-102 225 -455 225q-303 0 -518 -174t-279 -469q-20 -90 -20 -168q0 -229 147 -354q137 -117 375 -117q338 0 555 230l55 -41q-246 -256 -622 -256q-330 0 -482 188q-104 129 -104 320q0 92 21 190z" />
<glyph unicode="D" horiz-adv-x="1392" d="M102 0l295 1389h543q553 0 553 -484q0 -96 -25 -213q-72 -336 -317 -518q-236 -174 -584 -174h-465zM190 68h398q317 0 526 155q215 164 281 469q23 109 22 199q0 430 -493 430h-467z" />
<glyph unicode="E" horiz-adv-x="1155" d="M102 0l295 1389h1026l-14 -68h-954l-119 -563h846l-15 -66h-845l-134 -624h965l-14 -68h-1037z" />
<glyph unicode="F" horiz-adv-x="1034" d="M102 0l295 1389h953l-15 -68h-880l-119 -563h754l-15 -66h-753l-148 -692h-72z" />
<glyph unicode="G" horiz-adv-x="1552" d="M180 500q0 88 23 190q70 332 306 522.5t576 190.5q561 0 557 -469h-75q-4 401 -494 401q-307 0 -520 -172t-277 -471q-20 -94 -20 -176q0 -236 164 -356q145 -106 393 -107q242 0 436 125q211 137 258 365l13 53h-596l14 68h666q-6 -57 -15 -99q-63 -293 -321 -450 q-211 -129 -469 -129q-274 0 -437 118q-182 134 -182 396z" />
<glyph unicode="H" horiz-adv-x="1392" d="M102 0l295 1389h74l-133 -631h1042l133 631h74l-295 -1389h-73l147 692h-1042l-148 -692h-74z" />
<glyph unicode="I" horiz-adv-x="274" d="M102 0l295 1389h74l-295 -1389h-74z" />
<glyph unicode="J" horiz-adv-x="995" d="M92 319h74q-2 -23 -2 -43v-5q0 -217 297 -218q197 0 296 81t140 274l209 981h74l-211 -994q-86 -410 -514 -409q-365 0 -365 275q0 29 2 58z" />
<glyph unicode="K" horiz-adv-x="1372" d="M102 0l295 1389h74l-168 -793l1208 793h117l-913 -596l653 -793h-100l-621 752l-362 -244l-109 -508h-74z" />
<glyph unicode="L" horiz-adv-x="1034" d="M102 0l295 1389h74l-281 -1321h877l-14 -68h-951z" />
<glyph unicode="M" horiz-adv-x="1677" d="M102 0l295 1389h95l366 -1293l918 1293h94l-295 -1389h-74l271 1268l-900 -1268h-67l-359 1268l-270 -1268h-74z" />
<glyph unicode="N" horiz-adv-x="1392" d="M102 0l295 1389h86q119 -215 377 -644l381 -641l272 1285h74l-295 -1389h-88l-753 1288l-275 -1288h-74z" />
<glyph unicode="O" horiz-adv-x="1550" d="M182 496q0 92 23 198q70 328 299 508t565 180q266 0 424 -116q176 -129 176 -383q0 -86 -22 -189q-70 -332 -302.5 -520t-570.5 -188q-268 0 -422 120q-170 134 -170 390zM258 520q0 -231 152 -354q139 -113 378 -113q305 0 513 171t272 470q20 92 20 172q0 229 -157 346 q-139 102 -381 103q-303 0 -508 -163t-268 -458q-21 -94 -21 -174z" />
<glyph unicode="P" horiz-adv-x="1271" d="M102 0l295 1389h629q418 0 422 -281q0 -49 -12 -109q-41 -193 -226 -294q-158 -86 -370 -87h-533l-131 -618h-74zM322 688h569q168 0 293 74q143 84 176 235q8 47 8 88q0 236 -344 236h-567z" />
<glyph unicode="Q" horiz-adv-x="1550" d="M182 494q0 92 23 198q70 330 298 510t566 180q268 0 424 -116q174 -129 174 -385q0 -86 -20 -189q-55 -262 -225.5 -442t-426.5 -240q55 -78 176 -78h205l-14 -67h-205q-170 0 -242 129q-70 -10 -143 -10q-266 0 -420 120q-170 134 -170 390zM258 520q0 -174 92 -291 q49 96 146.5 154.5t208.5 58.5q109 0 184 -59q84 -63 84 -170q0 -18 -6 -53t-6 -51q0 -20 4 -39q238 49 397.5 215t210.5 407q20 98 20 180q-2 225 -159 340q-139 102 -379 103q-303 0 -508 -163t-268 -460q-21 -92 -21 -172zM399 180q139 -129 387 -129q55 0 109 8 q-4 20 -4 43q0 16 6 49t6 52q0 82 -67 131q-59 43 -146 43q-96 0 -180 -53.5t-111 -143.5z" />
<glyph unicode="R" horiz-adv-x="1314" d="M102 0l295 1389h654q408 0 407 -267q0 -43 -10 -92q-57 -270 -342 -354q186 -59 186 -240q0 -41 -10 -90l-74 -346h-73l71 340q8 41 8 76q0 219 -342 219h-561l-135 -635h-74zM326 705h551q182 0 311 71q150 84 184 248q10 41 10 76q0 221 -342 221h-583z" />
<glyph unicode="S" horiz-adv-x="1314" d="M141 334q0 51 13 110l8 35h74l-7 -26q-12 -53 -12 -101q0 -299 473 -299q190 0 330 60q178 78 213 239q6 37 6 68q0 133 -184 190q-59 18 -279 68q-252 55 -330 102q-125 74 -124 207q0 33 6 68q76 348 608 348q485 0 485 -324q0 -47 -12 -102h-74q8 43 8 82 q0 166 -137 231q-96 45 -284 45q-459 0 -521 -280q-6 -29 -6 -56q0 -115 131 -174q66 -31 230 -61q268 -51 350 -84q209 -84 209 -250q0 -39 -10 -84q-41 -190 -256 -287q-164 -74 -375 -73q-533 0 -533 348z" />
<glyph unicode="T" horiz-adv-x="1116" d="M270 1321l15 68h1136l-14 -68h-530l-281 -1321h-74l281 1321h-533z" />
<glyph unicode="U" horiz-adv-x="1359" d="M193 348q0 78 20 172l184 869h74l-184 -867q-16 -82 -17 -139q0 -330 422 -330q504 0 600 461l187 875h73l-184 -873q-113 -530 -690 -530q-485 0 -485 362z" />
<glyph unicode="V" horiz-adv-x="1286" d="M299 1389h76l299 -1291l829 1291h76l-893 -1389h-68z" />
<glyph unicode="W" horiz-adv-x="1986" d="M305 1389h76l276 -1291l486 781l-107 510h76l277 -1291l806 1291h76l-870 -1389h-68l-168 786l-495 -786h-68z" />
<glyph unicode="X" horiz-adv-x="1236" d="M-29 0l754 715l-428 674h98l391 -621l658 621h96l-715 -674l443 -715h-94l-412 659l-696 -659h-95z" />
<glyph unicode="Y" horiz-adv-x="1282" d="M260 1389h94l445 -644l721 644h92l-789 -713l-143 -676h-74l144 676z" />
<glyph unicode="Z" horiz-adv-x="1282" d="M61 0l15 72l1321 1249h-996l15 68h1087l-14 -70l-1323 -1251h1073l-14 -68h-1164z" />
<glyph unicode="[" horiz-adv-x="477" d="M119 -344l393 1847h272l-14 -67h-199l-364 -1712h199l-15 -68h-272z" />
<glyph unicode="\" horiz-adv-x="716" d="M262 1421h78l401 -1421h-77z" />
<glyph unicode="]" horiz-adv-x="477" d="M-59 -344l14 68h197l20 81l344 1631h-197l15 67h272l-397 -1847h-268z" />
<glyph unicode="^" horiz-adv-x="610" d="M322 1047l229 276h59l123 -276h-84l-84 198l-166 -198h-77z" />
<glyph unicode="_" d="M-68 -244l21 99h1108l-21 -99h-1108z" />
<glyph unicode="`" horiz-adv-x="395" d="M334 1321q-23 29 14 49q33 20 55 -6l183 -227q20 -27 -17 -47q-25 -14 -49 6z" />
<glyph unicode="a" horiz-adv-x="1155" d="M135 354q0 68 17 144q49 236 206 376q164 150 400 150q301 0 372 -242l52 238h73l-217 -1020h-73l47 225q-182 -248 -484 -248q-231 0 -331 152q-62 94 -62 225zM207 367q0 -152 88 -237t246 -85q195 0 344 131q143 127 186 322q14 72 14 133q0 162 -93 243.5t-259 81.5 q-195 0 -336 -135q-133 -127 -174 -323q-16 -70 -16 -131z" />
<glyph unicode="b" horiz-adv-x="1155" d="M104 0l295 1389h74l-127 -598q170 242 473 241q186 0 293 -98t107 -279q0 -72 -19 -155q-51 -238 -207 -375q-162 -145 -399 -145q-131 0 -227 59q-104 66 -142 184l-47 -223h-74zM270 379q0 -154 96.5 -243t254.5 -89q199 0 335 131q129 123 172 324q16 74 17 137 q0 154 -87 240t-245 86q-215 0 -354 -131q-129 -121 -176 -338q-13 -62 -13 -117z" />
<glyph unicode="c" d="M141 348q0 61 15 133q53 248 224 395.5t421 147.5q154 0 250 -70q104 -78 110 -227l-74 -35q-12 264 -305 264q-215 0 -361.5 -130t-191.5 -345q-12 -61 -14 -116q0 -156 98 -240q92 -80 256 -80q154 0 274 75t177 214l63 -31q-70 -158 -210 -242t-316 -84 q-188 0 -299 91q-117 98 -117 280z" />
<glyph unicode="d" horiz-adv-x="1155" d="M135 356q0 68 17 146q51 236 206 379q166 152 402 151q301 0 373 -244l127 601h73l-295 -1389h-73l47 225q-182 -248 -484 -248q-231 0 -331 152q-62 94 -62 227zM209 366q0 -149 86 -234q88 -87 246 -87q195 0 342 131t188 326q14 70 16 131q0 162 -92 247t-260 85 q-195 0 -338 -138q-131 -127 -174 -325q-14 -70 -14 -136z" />
<glyph unicode="e" d="M125 336q0 74 20 162q49 233 215 379.5t400 146.5q184 0 295 -88q121 -94 121 -270q0 -61 -15 -129l-12 -58l-936 -2q-14 -70 -14 -129q0 -303 348 -303q305 0 454 250h76q-168 -317 -549 -318q-403 1 -403 359zM227 545h850q10 53 10 102q0 150 -93 229.5t-249 79.5 q-190 0 -327.5 -112.5t-190.5 -298.5z" />
<glyph unicode="f" horiz-adv-x="546" d="M195 -2l176 833h-148l17 70h147l16 84q82 379 572 379l-14 -66q-416 0 -484 -313l-16 -84h227l-16 -70h-228l-176 -833h-73z" />
<glyph unicode="g" horiz-adv-x="1116" d="M94 -98q0 33 6 69h74q-4 -25 -4 -47q0 -223 313 -223q397 0 469 342l41 184q-82 -102 -206.5 -160.5t-258.5 -58.5q-180 0 -283.5 96.5t-103.5 270.5q0 63 15 137q49 231 209.5 371.5t392.5 140.5q125 0 219 -55q102 -61 135 -174l45 204h74l-205 -958 q-86 -408 -559 -408q-373 1 -373 269zM215 389q0 -147 86 -230t238 -83q193 0 333 120.5t181 311.5q12 61 12 117q0 115 -55 202q-84 129 -271 129q-193 0 -331 -124.5t-179 -317.5q-14 -68 -14 -125z" />
<glyph unicode="h" d="M104 0l295 1389h74l-119 -562q145 205 426 205q145 0 236 -59q106 -72 106 -207q0 -39 -8 -84l-145 -682h-74l141 662q8 45 8 81q0 113 -83 172q-72 49 -193 50q-178 0 -305 -111t-164 -289l-121 -565h-74z" />
<glyph unicode="i" horiz-adv-x="278" d="M104 0l215 1008h74l-215 -1008h-74zM367 1237l30 139q18 31 39 31q18 0 35 -29l-31 -143q-27 -27 -47 -27q-22 0 -26 29z" />
<glyph unicode="j" horiz-adv-x="278" d="M-397 -367l14 66q418 0 492 346l202 961h74l-205 -963q-85 -410 -577 -410zM367 1237l30 139q18 31 39 31q18 0 35 -29l-31 -145q-27 -25 -47 -25q-22 0 -26 29z" />
<glyph unicode="k" horiz-adv-x="1089" d="M104 0l295 1389h74l-192 -908l835 529l131 -2l-635 -390l445 -618h-99l-411 573l-285 -178l-84 -395h-74z" />
<glyph unicode="l" horiz-adv-x="278" d="M104 0l295 1389h74l-295 -1389h-74z" />
<glyph unicode="m" horiz-adv-x="1673" d="M104 0l213 999h74l-37 -174q139 199 396 199q246 0 278 -203q133 203 397 203q299 0 299 -238q0 -49 -12 -108l-143 -678h-74l139 657q12 53 13 100q0 199 -232 199q-154 0 -264.5 -89t-142.5 -238l-134 -629h-73l139 657q12 53 12 97q0 203 -237 202q-162 0 -277 -120 q-104 -106 -141 -275l-119 -561h-74z" />
<glyph unicode="n" d="M104 0l213 999h74l-39 -180q145 205 426 205q143 0 236 -59q109 -70 108 -205q0 -39 -10 -82l-143 -678h-74l139 657q10 43 10 80q0 113 -86 170q-72 49 -192 49q-178 0 -304 -109.5t-165 -285.5l-119 -561h-74z" />
<glyph unicode="o" horiz-adv-x="1116" d="M135 360q0 66 17 140q49 236 219 380t407 144q190 0 301 -96q119 -102 119 -287q0 -66 -16 -141q-51 -236 -221 -379.5t-408 -143.5q-188 0 -303 99.5t-115 283.5zM211 379q0 -160 96 -247t262 -87q205 0 350.5 126t188.5 329q14 68 14 127q0 162 -97 245.5t-263 83.5 q-207 0 -350.5 -124.5t-186.5 -331.5q-14 -64 -14 -121z" />
<glyph unicode="p" horiz-adv-x="1155" d="M31 -344l286 1343h74l-47 -217q170 242 471 242q188 0 295 -96.5t107 -278.5q0 -70 -17 -149q-51 -240 -205 -381q-162 -147 -401 -148q-303 0 -371 240l-119 -555h-73zM268 354q0 -315 348 -315q199 0 338 133q131 125 174 326q14 72 15 133q0 152 -87 238.5t-243 86.5 q-201 0 -343 -125.5t-185 -326.5q-17 -82 -17 -150z" />
<glyph unicode="q" horiz-adv-x="1155" d="M135 354q0 68 17 146q49 229 206 372q168 152 396 152q305 0 374 -242l48 217h73l-286 -1343h-74l117 551q-164 -236 -484 -236q-225 0 -325 156q-62 96 -62 227zM209 369q0 -111 49 -193q84 -137 279 -137q213 0 354 125q135 121 180 334q12 64 12 126q0 118 -60 203 q-62 88 -130 113q-45 16 -164 16q-195 0 -334 -135q-129 -125 -170 -323q-16 -70 -16 -129z" />
<glyph unicode="r" horiz-adv-x="651" d="M104 0l213 999h74l-47 -217q49 76 131 133q154 109 356 109l-14 -68q-229 0 -377 -170q-125 -143 -178 -387l-84 -399h-74z" />
<glyph unicode="s" horiz-adv-x="995" d="M133 250q0 51 14 112h78q-12 -51 -12 -92q2 -225 309 -225q127 0 221 45q117 55 142 166q2 18 2 35q0 113 -180 155q-33 8 -199 35q-244 39 -244 203q0 27 6 57q29 135 160 215q115 70 262 70q365 0 365 -252q0 -43 -10 -92h-80q8 41 8 76q0 197 -287 196 q-119 0 -211 -49q-106 -57 -129 -164q-4 -18 -4 -34q0 -111 176 -146q29 -6 209 -39q240 -43 240 -209q0 -27 -6 -57q-33 -150 -175 -223q-117 -59 -284 -60q-371 1 -371 277z" />
<glyph unicode="t" horiz-adv-x="538" d="M215 881l16 69h203l66 307h73l-65 -307h207l-17 -69h-206l-187 -881h-69l182 881h-203z" />
<glyph unicode="u" d="M166 246q0 47 12 100l139 653h74l-139 -651q-10 -45 -10 -84q0 -219 280 -219q188 0 314 115q117 106 155 297l117 542h74l-213 -999h-74l39 180q-150 -203 -426 -203q-150 0 -238 60q-104 72 -104 209z" />
<glyph unicode="v" horiz-adv-x="964" d="M207 999h88l225 -915l584 915h80l-645 -999h-74z" />
<glyph unicode="w" horiz-adv-x="1579" d="M248 999h84l205 -913l366 596l-78 317h88l203 -913l563 913h80l-622 -999h-76l-137 588l-369 -588h-74z" />
<glyph unicode="x" horiz-adv-x="956" d="M-25 0l568 518l-314 481h97l272 -430l467 430h90l-518 -481l344 -518h-92l-314 465l-507 -465h-93z" />
<glyph unicode="y" d="M45 -96q0 31 6 67h74q-4 -25 -4 -47q0 -223 313 -223q397 0 469 342l29 131q-150 -205 -426 -205q-150 0 -238 62q-102 70 -102 209q0 47 10 102l141 657h74l-139 -655q-10 -47 -10 -86q0 -219 278 -219q190 0 314 115q117 109 157 299l117 546h74l-205 -958 q-86 -408 -561 -408q-371 1 -371 271z" />
<glyph unicode="z" horiz-adv-x="968" d="M43 0l14 68l940 864h-696l14 67h791l-14 -65l-942 -866h792l-14 -68h-885z" />
<glyph unicode="{" horiz-adv-x="716" d="M285 -213q0 35 10 76l98 461q25 119 -4 161q-16 25 -104 68l12 55q106 41 133 66q45 43 72 162l98 460q43 207 217 207h39l-14 -67h-37q-72 0 -107 -64q-16 -33 -36 -125l-89 -416q-29 -133 -81 -188q-27 -27 -105 -63q61 -33 78 -62q31 -57 2 -190l-88 -414 q-20 -94 -17 -127q6 -63 78 -63h37l-14 -68h-39q-139 0 -139 131z" />
<glyph unicode="|" horiz-adv-x="477" d="M188 -66l322 1512h74l-322 -1512h-74z" />
<glyph unicode="}" horiz-adv-x="716" d="M94 -344l15 68h34q72 0 107 63q20 37 39 127l88 414q29 135 82 190q27 29 102 62q-61 35 -76 63q-31 53 -2 188l88 416q20 88 15 125q-8 63 -78 64h-35l14 67h37q141 0 142 -133q0 -33 -9 -74l-98 -460q-27 -121 0 -162q16 -25 107 -66l-13 -55q-109 -43 -135 -68 q-43 -41 -67 -161l-99 -461q-45 -207 -221 -207h-37z" />
<glyph unicode="~" horiz-adv-x="1122" d="M250 717q37 94 118 153.5t177 59.5q59 0 206.5 -68.5t194.5 -68.5q127 0 182 141h97q-37 -100 -119 -157.5t-174 -57.5q-63 0 -213 67.5t-193 67.5q-125 0 -180 -137h-96z" />
<glyph unicode="&#xa0;" />
<glyph unicode="&#xa1;" horiz-adv-x="397" d="M121 -195l221 1043h74l-221 -1043h-74zM381 1026l29 131q8 37 45 37t28 -37l-28 -131q-6 -35 -43 -35t-31 35z" />
<glyph unicode="&#xa2;" d="M141 350q0 59 15 133q53 248 225 395.5t420 147.5q78 0 143 -18l84 120h78l-102 -143q147 -74 159 -256l-76 -35q-8 166 -124 228l-590 -836q80 -41 196 -41q334 0 451 289l63 -31q-70 -158 -211 -243t-317 -85q-133 0 -229 48l-68 -97h-78l94 131q-135 105 -133 293z M215 362q0 -154 104 -241l580 823q-53 14 -117 14q-215 0 -361.5 -130t-191.5 -345q-14 -66 -14 -121z" />
<glyph unicode="&#xa3;" horiz-adv-x="1196" d="M166 506l27 69h143l39 187h-107l29 67h92l4 17q49 238 219 383t410 145q229 0 348 -157l-63 -50q-102 139 -301 140q-207 0 -351.5 -127t-187.5 -334l-4 -17h604l-29 -67h-589l-39 -187h553l-27 -69h-541l-2 -4q-14 -66 -14 -123q0 -160 97 -248t259 -88q199 0 363 137 l43 -47q-188 -158 -418 -158q-190 0 -305 100.5t-115 286.5q0 63 16 140l3 4h-156z" />
<glyph unicode="&#xa4;" horiz-adv-x="1196" d="M211 440l244 181q-37 53 -37 116q0 131 114 232l-172 182l62 43l170 -180q100 59 211 59q115 0 188 -59l248 180l41 -43l-246 -182q41 -55 41 -123q0 -127 -112 -228l167 -178l-61 -43l-166 176q-102 -61 -217 -61t-188 63l-246 -178zM492 748q0 -80 65 -127 q59 -43 143 -43q102 0 190.5 59t108.5 156q6 25 7 45q0 82 -70 129q-59 41 -143 41q-104 0 -187 -56q-88 -59 -110 -157q-4 -24 -4 -47z" />
<glyph unicode="&#xa5;" horiz-adv-x="1320" d="M248 258l14 68h434l39 186h-434l14 70h435l20 94l-489 713h94l444 -644l721 644h92l-788 -713l-21 -94h434l-14 -70h-434l-39 -186h434l-14 -68h-434l-56 -258h-73l55 258h-434z" />
<glyph unicode="&#xa6;" horiz-adv-x="477" d="M193 -47l141 663h74l-142 -663h-73zM365 762l141 663h74l-142 -663h-73z" />
<glyph unicode="&#xa7;" horiz-adv-x="1196" d="M207 27q0 43 12 94h74q-10 -41 -10 -76q0 -199 286 -199q123 0 215 52q106 57 131 168q4 20 5 38q0 104 -144 136l-303 63q-72 25 -119 78q-53 57 -53 131q0 29 10 61q55 190 275 244q-150 55 -150 178q0 25 6 52q29 137 158 215q115 72 262 71q362 0 363 -252 q0 -43 -11 -92h-73q8 41 8 76q0 201 -289 201q-121 0 -213 -52q-109 -59 -131 -167q-4 -18 -4 -35q0 -80 88 -117q45 -18 252 -61q104 -10 164 -50q119 -55 119 -170q0 -27 -7 -55q-45 -209 -284 -266q152 -55 151 -178q0 -23 -6 -49q-29 -135 -160 -216q-117 -72 -264 -71 q-358 0 -358 248zM385 539q0 -100 109 -154q84 -41 196 -41q131 0 223 45q115 55 140 168q-4 211 -314 211q-258 0 -342 -156l-8 -30q-4 -23 -4 -43z" />
<glyph unicode="&#xa8;" horiz-adv-x="438" d="M311 1153l19 94q8 31 45 31t28 -31l-18 -94q-8 -33 -45 -33t-29 33zM549 1153l18 94q8 31 43 31q39 0 31 -31l-18 -94q-8 -33 -48 -33q-34 0 -26 33z" />
<glyph unicode="&#xa9;" horiz-adv-x="1146" d="M260 829q0 47 10 99q43 199 224 325q170 123 378 123q172 0 293 -90q135 -98 135 -264q0 -43 -12 -92q-41 -199 -221 -326q-172 -121 -381 -121q-176 0 -293 84q-133 94 -133 262zM340 848q0 -139 111 -221q100 -74 245 -74q178 0 324 100q156 106 190 275q10 41 11 80 q0 139 -113 221q-102 76 -248 76q-178 0 -321 -101q-154 -104 -191 -274q-8 -43 -8 -82zM475 852q0 33 8 72q27 129 128.5 203.5t236.5 74.5q233 0 223 -217h-80q0 145 -162 145q-100 0 -173.5 -55t-94.5 -151q-6 -29 -6 -54q0 -82 59 -125q51 -39 136 -38q135 0 215 155h84 q-115 -227 -314 -227q-113 0 -182 51q-78 60 -78 166z" />
<glyph unicode="&#xaa;" horiz-adv-x="774" d="M281 938q0 39 10 86q31 145 133 234.5t250 89.5q156 0 215 -101l22 99h78l-135 -631h-78l21 90q-106 -104 -265 -105q-115 0 -183 62.5t-68 175.5zM369 1024q-23 -113 18 -180q45 -74 160 -74q109 0 190.5 72.5t104.5 181.5q10 41 10 76q0 178 -197 178 q-111 0 -186 -71.5t-100 -182.5z" />
<glyph unicode="&#xab;" horiz-adv-x="800" d="M244 535l12 51l385 231l-16 -78l-293 -178l217 -180l-17 -72zM481 535l13 51l385 231l-17 -78l-293 -178l217 -180l-16 -72z" />
<glyph unicode="&#xac;" horiz-adv-x="1232" d="M205 555l12 63h1036l-73 -344h-74l61 281h-962z" />
<glyph unicode="&#xad;" horiz-adv-x="1212" d="M188 473l9 39h1007l-8 -39h-1008z" />
<glyph unicode="&#x2212;" horiz-adv-x="1212" d="M188 473l9 39h1007l-8 -39h-1008z" />
<glyph unicode="&#xae;" horiz-adv-x="1112" d="M240 831q0 45 10 97q43 199 223 325q170 123 379 123q205 0 328 -119q98 -96 98 -233q0 -45 -12 -94q-41 -203 -222 -328q-168 -119 -380 -119q-172 0 -291 86q-133 96 -133 262zM319 846q0 -141 111 -221q98 -72 246 -72q180 0 323 100q154 104 189 275q10 43 10 84 q0 141 -113 221q-100 72 -247 72q-178 0 -322 -99q-152 -106 -188 -276q-9 -45 -9 -84zM506 653l115 541h247q160 0 160 -111q0 -18 -4 -41q-18 -84 -88 -127q47 -37 31 -114l-31 -148h-80l31 146q2 10 2 20q0 59 -94 60h-164l-47 -226h-78zM647 952h160q141 0 141 109 q0 59 -96 59h-170z" />
<glyph unicode="&#xaf;" horiz-adv-x="641" d="M317 1223l9 39h530l-8 -39h-531z" />
<glyph unicode="&#x2c9;" horiz-adv-x="641" d="M317 1223l9 39h530l-8 -39h-531z" />
<glyph unicode="&#xb0;" horiz-adv-x="860" d="M328 1008q0 29 8 57q25 123 139 201q109 76 238 75q109 0 184 -55q88 -61 88 -164q0 -27 -6 -55q-27 -123 -138.5 -201t-242.5 -78q-106 0 -184 56q-86 64 -86 164zM401 1022q0 -80 68 -127q59 -43 141 -43q104 0 190.5 58.5t108.5 154.5q4 25 4 47q0 80 -67 125 q-59 41 -144 41q-102 0 -188 -57.5t-106 -153.5q-7 -22 -7 -45z" />
<glyph unicode="&#xb1;" horiz-adv-x="1290" d="M217 -6l16 69h859l-17 -69h-858zM319 479l15 68h391l72 340h73l-71 -340h393l-14 -68h-394l-73 -346h-74l74 346h-392z" />
<glyph unicode="&#xb2;" horiz-adv-x="802" d="M170 524q39 176 211 305q70 51 311 170q164 80 178 144q2 16 2 33q0 109 -194 108q-252 0 -303 -242h-80q68 313 391 314q266 0 266 -164q0 -25 -6 -53q-20 -98 -186 -181l-199 -98q-244 -121 -293 -266h604l-16 -70h-686z" />
<glyph unicode="&#xb3;" horiz-adv-x="872" d="M240 733q0 31 8 66l8 37h82l-12 -54q-4 -20 -4 -41q0 -154 241 -153q109 0 191 37q106 45 125 137q4 20 4 41q0 129 -219 129h-89l15 69h90q102 0 172 33q94 43 94 135q0 63 -82 95q-57 20 -135 20q-270 0 -319 -229h-80q66 301 413 301q106 0 183 -33q102 -43 102 -137 q0 -18 -4 -41q-29 -129 -166 -178q106 -45 107 -150q0 -27 -7 -55q-27 -125 -153 -191q-109 -55 -248 -55q-129 0 -211 45q-106 55 -106 172z" />
<glyph unicode="&#xb4;" horiz-adv-x="434" d="M299 1114q2 12 14 23l281 227q16 14 35 14q37 0 30 -32q-4 -12 -16 -25l-278 -225q-16 -12 -35 -13q-39 0 -31 31z" />
<glyph unicode="&#xb5;" d="M31 -350l286 1349h74l-117 -544q-14 -72 -14 -133q0 -283 307 -283q336 0 402 305l139 655h74l-142 -657q-47 -227 -241 -319q-39 -18 -45 -54q-18 -86 147 -86l-16 -73q-78 0 -140 26q-82 35 -81 103q0 12 2 24l4 17q-55 -10 -117 -11q-276 0 -338 205l-111 -524h-73z " />
<glyph unicode="&#xb6;" horiz-adv-x="1015" d="M303 842q-2 49 10 104q43 201 224 326q172 119 383 119q8 0 14 -2h266l-352 -1661h-74l338 1593h-145l-338 -1593h-74l164 774q-207 -8 -328 116q-88 91 -88 224z" />
<glyph unicode="&#xb7;" horiz-adv-x="428" d="M336 608l24 111q6 33 43 33t31 -33l-24 -111q-6 -35 -43 -35t-31 35z" />
<glyph unicode="&#x2219;" horiz-adv-x="428" d="M336 608l24 111q6 33 43 33t31 -33l-24 -111q-6 -35 -43 -35t-31 35z" />
<glyph unicode="&#xb8;" horiz-adv-x="530" d="M-23 -322l46 62q96 -33 161 -33q152 0 168 84q12 51 -96 62q-57 4 -96 -13l8 35l45 143h74l-27 -102h16q162 0 160 -100q0 -16 -4 -33q-29 -139 -256 -139q-78 -1 -199 34z" />
<glyph unicode="&#xb9;" horiz-adv-x="587" d="M252 1104l412 233h65l-172 -805h-84l150 701l-234 -129h-137z" />
<glyph unicode="&#xba;" horiz-adv-x="845" d="M291 954q0 35 8 76q31 147 145.5 230t266.5 83q123 0 200 -57q86 -63 86 -180q0 -35 -8 -76q-31 -147 -147.5 -230t-270.5 -83q-121 0 -196 57q-84 63 -84 180zM360 967q0 -94 68 -144q61 -45 160 -45q125 0 216 66.5t116 185.5q6 33 6 62q0 94 -70 145q-61 45 -162 45 q-121 0 -211 -67.5t-114 -184.5q-9 -34 -9 -63z" />
<glyph unicode="&#xbb;" horiz-adv-x="780" d="M197 309l16 72l289 180l-213 178l16 78l287 -231l-12 -51zM434 309l17 72l288 180l-213 178l17 78l286 -231l-12 -51z" />
<glyph unicode="&#xbc;" horiz-adv-x="1671" d="M309 1108l396 227h61l-172 -809h-74l152 717l-242 -135h-121zM387 0l999 1421h78l-999 -1421h-78zM811 274l449 553h77l-395 -491h434l105 493l71 -4l-104 -489h188l-14 -62h-188l-58 -274h-71l57 274h-551z" />
<glyph unicode="&#xbd;" horiz-adv-x="1644" d="M287 1108l395 227h61l-172 -809h-73l151 717l-239 -135h-123zM365 0l1001 1421h78l-1002 -1421h-77zM881 0q59 246 356 393l203 101q129 63 143 131q4 18 4 34q0 115 -198 115q-256 0 -312 -250h-69q72 311 387 312q260 0 260 -162q0 -25 -6 -53q-20 -98 -168 -172 l-209 -107q-258 -135 -303 -281h602l-12 -61h-678z" />
<glyph unicode="&#xbe;" horiz-adv-x="1855" d="M266 719q0 35 8 74l9 32h69l-12 -51q-4 -23 -4 -41q0 -88 86 -129q66 -31 164 -31q111 0 196 39q106 47 125 144q6 23 6 41q0 135 -227 135h-82l12 63h84q240 0 273 148q2 16 2 31q0 117 -221 116q-274 0 -326 -231h-70q68 295 406 295q283 0 283 -168q0 -20 -5 -43 q-29 -129 -180 -182q121 -45 121 -156q0 -23 -6 -49q-25 -123 -154 -189q-106 -55 -245 -55q-312 0 -312 207zM573 0l1002 1421h78l-1002 -1421h-78zM997 274l451 553h78l-398 -491h435l104 493l72 -4l-105 -489h189l-15 -62h-188l-57 -274h-72l57 274h-551z" />
<glyph unicode="&#xbf;" d="M90 68q0 174 168 319l242 195q135 113 162 237l14 64h76l-13 -54q-43 -201 -286 -370q-145 -100 -199 -158q-90 -98 -90 -221q0 -113 106 -166q82 -41 209 -41q369 0 482 358l59 -43q-135 -383 -557 -383q-147 0 -248 58q-125 70 -125 205zM715 1059l26 131q8 37 43 37 q39 0 31 -37l-27 -131q-8 -35 -47 -35q-34 0 -26 35z" />
<glyph unicode="&#xc0;" horiz-adv-x="1384" d="M27 0l936 1395h75l318 -1395h-80l-102 449h-762l-299 -449h-86zM459 518h700l-180 774zM911 1700q-20 29 17 49q31 25 51 -4l180 -248q23 -31 -16 -51q-33 -18 -49 6z" />
<glyph unicode="&#xc1;" horiz-adv-x="1384" d="M27 0l936 1395h75l318 -1395h-80l-102 449h-762l-299 -449h-86zM459 518h700l-180 774zM854 1477q4 14 16 24l287 248q16 14 33 14q37 0 29 -34q-2 -14 -15 -25l-284 -248q-16 -14 -33 -14q-39 0 -33 35z" />
<glyph unicode="&#xc2;" horiz-adv-x="1384" d="M27 0l936 1395h75l318 -1395h-80l-102 449h-762l-299 -449h-86zM459 518h700l-180 774zM750 1434l284 301h60l161 -301h-88l-120 223l-216 -223h-81z" />
<glyph unicode="&#xc3;" horiz-adv-x="1384" d="M27 0l936 1393h75l318 -1393h-80l-102 449h-762l-299 -449h-86zM459 516h700l-180 774zM735 1491q12 61 68.5 105t120.5 44q33 0 130 -55t122 -55q86 0 116 123l58 -37q-20 -68 -74.5 -111t-114.5 -43q-37 0 -135 55.5t-121 55.5q-84 0 -114 -125z" />
<glyph unicode="&#xc4;" horiz-adv-x="1384" d="M27 0l936 1393h75l318 -1393h-80l-102 449h-762l-299 -449h-86zM459 516h700l-180 774zM860 1489l23 110q8 37 45 37t28 -37l-22 -110q-8 -37 -45 -37t-29 37zM1098 1489l22 110q8 37 43 37q39 0 31 -37l-23 -110q-8 -37 -47 -37q-34 0 -26 37z" />
<glyph unicode="&#xc5;" horiz-adv-x="1384" d="M27 0l936 1395h75l318 -1395h-80l-102 449h-762l-299 -449h-86zM459 518h700l-180 774zM862 1589q0 92 80 154q61 45 133 45q59 0 102.5 -34t43.5 -91q0 -94 -80 -154q-61 -45 -135 -45q-59 0 -101.5 34t-42.5 91zM942 1604q0 -68 78 -68q100 0 121 90q2 14 2 27 q0 63 -84 63q-47 0 -82 -32.5t-35 -79.5z" />
<glyph unicode="&#xc6;" horiz-adv-x="2205" d="M-61 0l1546 1389h928l-15 -68h-848l-118 -561h94v-2h645l-14 -66h-740l-133 -624h858l-14 -68h-934l147 692h-542l-768 -692h-92zM877 760h479l114 530z" />
<glyph unicode="&#xc7;" horiz-adv-x="1472" d="M213 494q0 88 23 188q70 332 308 526.5t578 194.5q391 0 510 -252l-69 -41q-102 225 -455 225q-303 0 -519 -175t-278 -470q-20 -94 -20 -176q0 -227 147 -350q137 -115 373 -115q338 0 557 227l53 -40q-246 -256 -622 -256q-330 0 -482 190q-104 129 -104 324zM489 -317 l50 63q94 -35 159 -35q150 0 168 88q12 55 -94 66q-59 6 -94 -10l8 34l45 154h74l-27 -111q6 2 17 2q160 0 157 -106q0 -16 -4 -37q-31 -147 -258 -147q-78 0 -201 39z" />
<glyph unicode="&#xc8;" horiz-adv-x="1155" d="M102 0l297 1395h1026l-14 -68h-954l-121 -567h846l-15 -66h-845l-134 -626h965l-14 -68h-1037zM788 1679q-23 31 17 52q31 23 51 -5l180 -247q23 -29 -14 -52q-33 -23 -53 7z" />
<glyph unicode="&#xc9;" horiz-adv-x="1155" d="M102 0l297 1395h1026l-14 -68h-954l-121 -567h846l-15 -66h-845l-134 -626h965l-14 -68h-1037zM731 1454q2 14 14 25l287 247q16 12 33 13q37 0 31 -35q-4 -14 -17 -25l-282 -245q-16 -14 -35 -15q-39 0 -31 35z" />
<glyph unicode="&#xca;" horiz-adv-x="1155" d="M102 0l297 1395h1026l-14 -68h-954l-121 -567h846l-15 -66h-845l-134 -626h965l-14 -68h-1037zM633 1454l285 301h59l164 -301h-90l-121 223l-215 -223h-82z" />
<glyph unicode="&#xcb;" horiz-adv-x="1155" d="M102 0l297 1393h1026l-14 -68h-954l-121 -565h846l-15 -66h-845l-134 -626h965l-14 -68h-1037zM743 1505l25 111q8 37 43 37q39 0 31 -37l-25 -111q-8 -37 -47 -37q-35 0 -27 37zM979 1505l25 111q8 37 45 37t28 -37l-24 -111q-8 -37 -45 -37t-29 37z" />
<glyph unicode="&#xcc;" horiz-adv-x="274" d="M102 0l297 1395h74l-297 -1395h-74zM354 1710q-20 29 17 51q35 23 53 -4l180 -248q20 -29 -18 -51q-33 -20 -51 6z" />
<glyph unicode="&#xcd;" horiz-adv-x="274" d="M102 0l297 1395h74l-297 -1395h-74zM295 1477q4 14 16 24l285 248q16 14 35 14q37 0 28 -34q-2 -14 -14 -25l-285 -248q-16 -14 -32 -14q-39 0 -33 35z" />
<glyph unicode="&#xce;" horiz-adv-x="274" d="M102 0l297 1395h74l-297 -1395h-74zM190 1446l285 301h60l163 -301h-88l-121 223l-217 -223h-82z" />
<glyph unicode="&#xcf;" horiz-adv-x="274" d="M102 0l297 1393h74l-297 -1393h-74zM303 1522l23 110q8 35 49 35q35 0 26 -35l-20 -110q-8 -39 -45 -39q-41 0 -33 39zM545 1522l22 110q8 35 43 35q37 0 29 -35l-21 -110q-8 -39 -47 -39q-34 0 -26 39z" />
<glyph unicode="&#xd0;" horiz-adv-x="1392" d="M102 0l142 662h-76l14 69h76l139 658h543q553 0 553 -484q0 -96 -25 -213q-72 -336 -317 -518q-236 -174 -584 -174h-465zM190 68h398q317 0 526 155q215 164 281 469q23 109 22 199q0 430 -493 430h-467l-125 -590h405l-14 -69h-406z" />
<glyph unicode="&#xd1;" horiz-adv-x="1392" d="M102 0l297 1393h86q119 -219 375 -643l381 -646l275 1289h73l-297 -1393h-88l-753 1292l-275 -1292h-74zM717 1479q14 59 70.5 104t117.5 45q35 0 132.5 -55t121.5 -55q86 0 115 122l59 -34q-20 -68 -75.5 -112t-114.5 -44q-37 0 -134.5 55.5t-119.5 55.5 q-84 0 -115 -125z" />
<glyph unicode="&#xd2;" horiz-adv-x="1550" d="M182 498q0 92 23 198q70 330 299 511.5t567 181.5q268 0 424 -115q174 -131 174 -385q0 -90 -22 -193q-70 -330 -303.5 -520t-569.5 -190q-268 0 -422 123q-170 133 -170 389zM260 518q0 -227 150 -350q139 -115 378 -115q305 0 513 171t272 472q20 96 20 178 q0 227 -157 345q-139 102 -379 102q-305 0 -510 -164t-268 -461q-21 -94 -19 -178zM991 1731q6 37 43 36q18 0 29 -14l178 -248q23 -29 -16 -51q-31 -18 -47 6l-185 246q-6 13 -2 25z" />
<glyph unicode="&#xd3;" horiz-adv-x="1550" d="M182 500q0 92 23 198q72 328 301 509.5t565 181.5q268 0 424 -115q174 -131 174 -385q0 -88 -22 -191q-70 -332 -302.5 -522t-570.5 -190q-268 0 -424 123q-168 133 -168 391zM260 520q0 -229 150 -352q139 -115 378 -115q305 0 513 172t272 473q20 90 20 168 q2 231 -153 351q-141 104 -383 104q-303 0 -509 -164t-269 -459q-19 -96 -19 -178zM936 1487q4 16 16 26l285 248q29 25 55 6q27 -25 -8 -53l-287 -246q-16 -12 -30 -12q-37 0 -31 31z" />
<glyph unicode="&#xd4;" horiz-adv-x="1550" d="M182 500q0 92 23 198q72 328 301 509.5t565 181.5q268 0 424 -115q174 -131 174 -385q0 -88 -22 -191q-70 -332 -302.5 -522t-570.5 -190q-268 0 -424 123q-168 133 -168 391zM260 520q0 -229 150 -352q139 -115 378 -115q305 0 513 172t272 473q20 90 20 168 q2 231 -153 351q-141 104 -383 104q-303 0 -509 -164t-269 -459q-19 -96 -19 -178zM836 1470l282 299h60l163 -299h-88l-120 222l-215 -222h-82z" />
<glyph unicode="&#xd5;" horiz-adv-x="1550" d="M182 498q0 92 23 198q70 330 299 511.5t567 181.5q266 0 424 -117q174 -131 174 -385q0 -88 -22 -191q-70 -332 -302.5 -521t-570.5 -189q-268 0 -422 123q-170 133 -170 389zM258 520q0 -231 152 -354q139 -113 378 -113q305 0 513 171t272 472q20 94 20 174 q0 229 -155 347q-139 102 -381 102q-305 0 -510 -163t-268 -460q-21 -94 -21 -176zM811 1522q12 59 69.5 104t116.5 45q35 0 132.5 -55t119.5 -55q88 0 119 122l57 -36q-23 -68 -77 -111t-113 -43q-35 0 -133 55.5t-121 55.5q-78 0 -119 -125z" />
<glyph unicode="&#xd6;" horiz-adv-x="1550" d="M182 498q0 92 23 198q70 330 299 510t567 180q266 0 424 -116q174 -131 174 -385q0 -86 -22 -189q-70 -332 -302.5 -521t-570.5 -189q-268 0 -422 123q-170 133 -170 389zM258 520q0 -231 152 -354q139 -113 378 -113q305 0 513 171t272 472q20 94 20 174q0 229 -155 347 q-139 102 -381 102q-305 0 -510 -163t-268 -460q-21 -94 -21 -176zM946 1522l23 110q8 35 43 35q37 0 28 -35l-20 -110q-8 -39 -47 -39q-35 0 -27 39zM1182 1522l22 110q8 35 45 35q35 0 27 -35l-21 -110q-8 -39 -45 -39q-36 0 -28 39z" />
<glyph unicode="&#xd7;" horiz-adv-x="1003" d="M231 276l328 240l-225 236l63 47l224 -238l327 238l43 -47l-325 -236l225 -244l-62 -43l-229 238l-328 -236z" />
<glyph unicode="&#xd8;" horiz-adv-x="1550" d="M184 508q0 86 21 186q70 328 299 509t567 181q158 0 277 -38l67 96h78l-86 -123q262 -131 262 -434q0 -88 -22 -191q-70 -332 -302.5 -520t-570.5 -188q-160 0 -280 43l-62 -88h-78l82 116q-252 123 -252 451zM260 530q0 -168 86 -288q57 -82 135 -119l819 1159 q-104 33 -245 33q-303 0 -508 -163t-268 -458q-19 -86 -19 -164zM541 94q104 -41 247 -41q305 0 513 171t272 470q20 100 20 185q-4 268 -231 378z" />
<glyph unicode="&#xd9;" horiz-adv-x="1359" d="M193 350q0 78 20 172l186 873h74l-186 -871q-16 -78 -17 -143q0 -328 422 -328q504 0 602 463l187 879h73l-186 -877q-113 -532 -690 -532q-485 -1 -485 364zM895 1692q-20 27 14 49q35 23 54 -4l180 -246q23 -31 -17 -53q-27 -16 -51 6z" />
<glyph unicode="&#xda;" horiz-adv-x="1359" d="M193 350q0 78 20 172l186 873h74l-186 -871q-16 -78 -17 -143q0 -328 422 -328q504 0 602 463l187 879h73l-186 -877q-113 -532 -690 -532q-485 -1 -485 364zM836 1468q4 16 16 27l285 246q16 14 34 14q37 0 31 -35q-4 -14 -16 -24l-287 -248q-16 -12 -33 -12 q-36 -1 -30 32z" />
<glyph unicode="&#xdb;" horiz-adv-x="1359" d="M193 350q0 78 20 172l186 873h74l-186 -871q-16 -78 -17 -143q0 -328 422 -328q504 0 602 463l187 879h73l-186 -877q-113 -532 -690 -532q-485 -1 -485 364zM733 1450l287 301h59l162 -301h-88l-121 223l-217 -223h-82z" />
<glyph unicode="&#xdc;" horiz-adv-x="1359" d="M193 350q0 78 20 172l186 871h74l-186 -869q-16 -78 -17 -143q0 -328 422 -328q504 0 602 463l187 877h73l-186 -875q-113 -532 -690 -532q-485 -1 -485 364zM850 1522l22 110q8 35 43 35q39 0 31 -35l-22 -110q-8 -39 -47 -39q-35 0 -27 39zM1085 1522l23 110 q8 35 45 35t29 -35l-23 -110q-8 -39 -45 -39t-29 39z" />
<glyph unicode="&#xdd;" horiz-adv-x="1345" d="M295 1395h94l445 -647l720 647h93l-789 -715l-145 -680h-74l145 680zM831 1477q4 14 17 24l287 248q16 14 34 14q37 0 29 -34q-2 -14 -14 -25l-287 -248q-16 -14 -33 -14q-39 0 -33 35z" />
<glyph unicode="&#xde;" horiz-adv-x="870" d="M104 0l295 1389h74l-65 -310h305q229 0 229 -227q0 -63 -16 -141q-78 -360 -371 -361h-303l-74 -350h-74zM266 416h305q215 0 279 295q14 70 14 123q0 178 -168 178h-303z" />
<glyph unicode="&#xdf;" horiz-adv-x="1034" d="M104 -2l175 819h-72l14 70h72q18 90 53 217q80 309 440 309q369 0 369 -217q0 -35 -10 -78q-53 -219 -291 -270q104 -31 170 -131.5t66 -212.5q0 -43 -11 -90q-100 -475 -671 -475l14 67q498 0 584 408q10 49 10 92q0 162 -135 244q-113 68 -287 67l14 68q203 0 293 33 q141 51 170 192q8 35 8 64q0 111 -110 149q-63 23 -201 23q-303 0 -367 -295l-223 -1053h-74z" />
<glyph unicode="&#xe0;" horiz-adv-x="1130" d="M135 356q0 68 17 146q51 236 206 379q166 152 402 151q301 0 373 -244l51 240h73l-219 -1028h-73l47 225q-182 -248 -484 -248q-231 0 -331 152q-62 94 -62 227zM209 373q-2 -154 86 -241t246 -87q195 0 342 131t188 326q14 70 16 131q0 162 -93 246t-259 84 q-197 0 -338 -136q-131 -127 -174 -325q-14 -70 -14 -129zM653 1317q-23 31 15 51q33 25 55 -4l178 -248q20 -27 -16 -49q-31 -18 -51 4z" />
<glyph unicode="&#xe1;" horiz-adv-x="1130" d="M160 356q0 68 16 146q51 236 207 379q166 152 401 151q301 0 373 -244l51 240h74l-219 -1028h-74l47 225q-182 -248 -483 -248q-231 0 -332 152q-61 94 -61 227zM233 373q-2 -154 86.5 -241t245.5 -87q195 0 342.5 131t188.5 326q14 70 16 131q0 162 -93 246t-259 84 q-197 0 -338 -136q-131 -127 -174 -325q-15 -70 -15 -129zM618 1092q4 14 17 24l285 248q16 14 34 14q37 0 29 -35q-2 -12 -14 -26l-289 -246q-16 -12 -31 -12q-37 0 -31 33z" />
<glyph unicode="&#xe2;" horiz-adv-x="1130" d="M160 356q0 68 16 146q51 236 207 379q166 152 401 151q301 0 373 -244l51 240h74l-219 -1028h-74l47 225q-182 -248 -483 -248q-231 0 -332 152q-61 94 -61 227zM233 373q-2 -154 86.5 -241t245.5 -87q195 0 342.5 131t188.5 326q14 70 16 131q0 162 -93 246t-259 84 q-197 0 -338 -136q-131 -127 -174 -325q-15 -70 -15 -129zM518 1081l283 299h59l164 -299h-88l-121 222l-215 -222h-82z" />
<glyph unicode="&#xe3;" horiz-adv-x="1130" d="M160 356q0 68 16 144q51 238 207 381q164 150 401 149q301 0 373 -242l49 238h74l-217 -1026h-74l47 225q-182 -248 -483 -248q-231 0 -332 152q-61 96 -61 227zM233 369q0 -111 48 -191q84 -133 284 -133q195 0 342.5 130t188.5 325q14 74 14 135q0 160 -93 244t-257 84 q-195 0 -338 -138q-133 -127 -174 -325q-15 -72 -15 -131zM494 1133q12 59 68 104t118 45q35 0 132 -55.5t120 -55.5q88 0 117 123l59 -37q-25 -68 -78 -110.5t-112 -42.5q-39 0 -136.5 55t-117.5 55q-80 0 -119 -124z" />
<glyph unicode="&#xe4;" horiz-adv-x="1130" d="M160 356q0 68 16 144q49 236 207 379q166 152 401 151q301 0 373 -242l49 238h74l-217 -1026h-74l47 225q-182 -248 -483 -248q-231 0 -332 152q-61 96 -61 227zM233 369q0 -111 48 -191q84 -133 284 -133q195 0 342.5 130t188.5 325q14 74 14 135q0 160 -93 244t-257 84 q-195 0 -338 -138q-133 -127 -174 -325q-15 -72 -15 -131zM655 1133l23 110q8 35 43 35q39 0 31 -35l-23 -110q-8 -39 -47 -39q-35 0 -27 39zM891 1133l22 110q8 35 45 35t29 -35l-22 -110q-8 -39 -45 -39t-29 39z" />
<glyph unicode="&#xe5;" horiz-adv-x="1130" d="M160 356q0 68 16 146q51 238 207 381q164 150 401 149q301 0 373 -241l51 237h74l-219 -1028h-74l49 227q-184 -250 -485 -250q-231 0 -332 152q-61 94 -61 227zM233 371q0 -154 88.5 -240t243.5 -86q195 0 342.5 131t188.5 326q16 74 16 135q0 160 -94 244t-258 84 q-195 0 -338 -138q-131 -127 -174 -325q-15 -72 -15 -131zM643 1235q0 94 80 154q61 45 135 45q59 0 101 -34t42 -91q0 -94 -79 -154q-61 -45 -134 -45q-59 0 -102 34t-43 91zM723 1253q0 -70 82 -69q47 0 83 31.5t36 76.5q0 70 -82 70q-47 0 -83 -32t-36 -77z" />
<glyph unicode="&#xe6;" horiz-adv-x="2015" d="M135 354q0 68 17 144q49 236 206 376q164 150 400 150q301 0 372 -242l52 238h73l-49 -234q37 45 86 88q174 150 391 150q184 0 295 -88q121 -94 121 -270q0 -61 -14 -129l-12 -58l-932 -2l-8 -35q-14 -66 -15 -120q0 -276 355 -277q305 0 454 250h76 q-170 -317 -549 -318q-299 0 -377 209l-39 -186h-73l47 225q-182 -248 -484 -248q-231 0 -331 152q-62 94 -62 225zM207 367q0 -152 88 -237t246 -85q195 0 344 131q143 127 186 322q14 72 14 133q0 162 -93 243.5t-259 81.5q-195 0 -336 -135q-133 -127 -174 -323 q-16 -70 -16 -131zM1155 545h846q10 53 10 102q0 150 -93 229.5t-249 79.5q-178 0 -326.5 -111.5t-185.5 -283.5z" />
<glyph unicode="&#xe7;" d="M139 342q0 63 17 135q51 248 223 397.5t422 149.5q156 0 250 -72q104 -78 110 -227l-74 -35q-12 266 -305 266q-217 0 -366 -135q-141 -127 -187 -344q-14 -63 -14 -119q0 -156 98 -239q92 -80 254 -80q156 0 275 74.5t176 216.5l65 -31q-70 -158 -211 -244t-317 -86 q-188 0 -299 92q-117 99 -117 281zM297 -319l47 65q96 -35 160 -35q152 0 170 88q12 55 -96 66q-57 4 -95 -12l6 34l50 154h73l-26 -109h14q160 0 158 -104q0 -16 -4 -37q-31 -147 -258 -147q-76 0 -199 37z" />
<glyph unicode="&#xe8;" d="M127 338q0 74 18 164q49 233 216 381.5t401 148.5q184 0 295 -88q119 -96 119 -274q0 -59 -15 -129l-12 -58l-936 -2q-12 -72 -12 -131q0 -305 346 -305q305 0 454 254h76q-166 -322 -549 -322q-401 1 -401 361zM227 549h850q10 55 10 102q0 150 -94 234q-92 78 -245 78 q-190 0 -329 -114t-192 -300zM668 1341q8 37 45 37q16 0 28 -14l181 -248q20 -29 -17 -51q-12 -6 -24 -6q-14 0 -27 12l-182 246q-6 12 -4 24z" />
<glyph unicode="&#xe9;" d="M127 338q0 74 18 164q49 233 216 381.5t401 148.5q184 0 295 -88q119 -96 119 -274q0 -59 -15 -129l-12 -58l-936 -2q-12 -72 -12 -131q0 -305 346 -305q305 0 454 254h76q-166 -322 -549 -322q-401 1 -401 361zM227 549h850q10 55 10 102q0 150 -94 234q-92 78 -245 78 q-190 0 -329 -114t-192 -300zM616 1096q2 14 15 24l284 248q29 25 58 4q10 -10 8 -24q-2 -10 -16 -25l-287 -248q-18 -12 -33 -12q-37 0 -29 33z" />
<glyph unicode="&#xea;" d="M127 338q0 74 18 164q49 233 216 381.5t401 148.5q184 0 295 -88q119 -96 119 -274q0 -59 -15 -129l-12 -58l-936 -2q-12 -72 -12 -131q0 -305 346 -305q305 0 454 254h76q-166 -322 -549 -322q-401 1 -401 361zM227 549h850q10 55 10 102q0 150 -94 234q-92 78 -245 78 q-190 0 -329 -114t-192 -300zM514 1081l285 299h59l162 -299h-88l-121 222l-215 -222h-82z" />
<glyph unicode="&#xeb;" d="M127 338q0 74 18 162q49 233 215 381.5t402 148.5q184 0 295 -88q119 -96 119 -272q0 -59 -15 -129l-12 -60l-936 -2q-14 -72 -14 -131q0 -303 348 -303q305 0 454 252h76q-168 -319 -549 -320q-401 1 -401 361zM227 547h850q10 55 10 104q0 150 -94 234q-92 78 -245 78 q-193 0 -330.5 -114t-190.5 -302zM627 1133l22 110q8 35 45 35t29 -35l-23 -110q-8 -39 -45 -39q-36 0 -28 39zM864 1133l23 110q8 35 43 35q39 0 31 -35l-23 -110q-8 -39 -47 -39q-35 0 -27 39z" />
<glyph unicode="&#xec;" horiz-adv-x="278" d="M104 0l215 1008h74l-215 -1008h-74zM274 1317q-23 29 15 51q31 25 53 -4l180 -248q20 -29 -16 -49q-31 -16 -51 4z" />
<glyph unicode="&#xed;" horiz-adv-x="278" d="M104 0l215 1008h74l-215 -1008h-74zM215 1085q2 12 14 23l287 248q16 14 33 14q37 0 31 -35q-4 -14 -17 -24l-282 -246q-18 -14 -35 -14q-39 -1 -31 34z" />
<glyph unicode="&#xee;" horiz-adv-x="278" d="M104 0l215 1008h74l-215 -1008h-74zM131 1081l272 299h60l149 -299h-86l-108 219l-207 -219h-80z" />
<glyph unicode="&#xef;" horiz-adv-x="278" d="M104 0l213 1006h74l-213 -1006h-74zM231 1133l23 110q8 35 47 35q37 0 29 -35l-23 -110q-8 -39 -45 -39q-39 0 -31 39zM471 1133l23 110q8 35 43 35q39 0 30 -35l-22 -110q-8 -39 -47 -39q-35 0 -27 39z" />
<glyph unicode="&#xf0;" horiz-adv-x="1155" d="M135 356q0 68 17 146q51 236 206 379q166 152 402 151q301 0 373 -244l81 386h-679l14 71h680l31 144h73l-295 -1389h-73l47 225q-182 -248 -484 -248q-231 0 -331 152q-62 94 -62 227zM209 373q-2 -154 86 -241t246 -87q195 0 342 131t188 326q14 70 16 131 q0 162 -92 247t-260 85q-195 0 -338 -138q-131 -127 -174 -325q-14 -70 -14 -129z" />
<glyph unicode="&#xf1;" d="M104 0l213 1006h74l-37 -181q145 205 426 205q143 0 236 -59q106 -70 106 -205q0 -39 -8 -84l-145 -682h-74l141 662q8 41 8 77q0 115 -83 172q-72 51 -193 52q-178 0 -305 -110t-164 -288l-121 -565h-74zM494 1133q12 57 69.5 103t116.5 46q35 0 132 -55.5t122 -55.5 q86 0 115 123l59 -37q-23 -68 -76 -110.5t-112 -42.5q-37 0 -135.5 55t-120.5 55q-84 0 -115 -124z" />
<glyph unicode="&#xf2;" horiz-adv-x="1116" d="M135 365q2 66 17 139q51 238 220 383t408 145q190 0 304 -100.5t114 -286.5q0 -66 -16 -141q-49 -238 -219 -382.5t-410 -144.5q-193 0 -305.5 101t-112.5 287zM211 379q0 -158 97.5 -246t260.5 -88q205 0 350.5 127t188.5 332q14 68 14 127q0 162 -96 247t-262 85 q-207 0 -350.5 -126t-188.5 -333q-14 -66 -14 -125zM694 1317q-23 31 15 51q33 25 55 -4l178 -248q20 -27 -16 -49q-31 -18 -52 4z" />
<glyph unicode="&#xf3;" horiz-adv-x="1116" d="M135 365q2 66 17 139q51 238 220 383t408 145q190 0 304 -100.5t114 -286.5q0 -66 -16 -141q-49 -238 -219 -382.5t-410 -144.5q-193 0 -305.5 101t-112.5 287zM211 379q0 -158 97.5 -246t260.5 -88q205 0 350.5 127t188.5 332q14 68 14 127q0 162 -96 247t-262 85 q-207 0 -350.5 -126t-188.5 -333q-14 -66 -14 -125zM635 1085q2 12 12 23l287 248q16 14 35 14q37 0 30 -35q-4 -14 -16 -24l-285 -246q-18 -14 -34 -14q-37 -1 -29 34z" />
<glyph unicode="&#xf4;" horiz-adv-x="1116" d="M135 365q2 66 17 139q51 238 220 383t408 145q190 0 304 -100.5t114 -286.5q0 -66 -16 -141q-49 -238 -219 -382.5t-410 -144.5q-193 0 -305.5 101t-112.5 287zM211 379q0 -158 97.5 -246t260.5 -88q205 0 350.5 127t188.5 332q14 68 14 127q0 162 -96 247t-262 85 q-207 0 -350.5 -126t-188.5 -333q-14 -66 -14 -125zM535 1081l284 299h60l163 -299h-88l-120 222l-218 -222h-81z" />
<glyph unicode="&#xf5;" horiz-adv-x="1116" d="M135 360q0 68 17 142q51 236 220 382t408 146q190 0 304 -100.5t114 -286.5q0 -66 -16 -141q-49 -236 -220 -380.5t-409 -144.5q-190 0 -301 99q-117 100 -117 284zM211 379q0 -158 98.5 -246t259.5 -88q203 0 353 129q143 125 186 328q14 68 14 129q0 160 -96 246 t-262 86q-207 0 -351.5 -127t-187.5 -334q-14 -66 -14 -123zM508 1133q12 61 68.5 105t119.5 44q33 0 130.5 -55.5t121.5 -55.5q76 0 119 123l55 -37q-25 -68 -77 -110.5t-111 -42.5q-39 0 -137.5 55t-116.5 55q-86 0 -117 -124z" />
<glyph unicode="&#xf6;" horiz-adv-x="1116" d="M135 360q0 68 17 142q51 236 220 382t408 146q190 0 304 -100.5t114 -286.5q0 -66 -16 -141q-49 -236 -220 -380.5t-409 -144.5q-190 0 -301 99q-117 100 -117 284zM211 379q0 -158 98.5 -246t259.5 -88q203 0 353 129q143 125 186 328q14 68 14 129q0 160 -96 246 t-262 86q-207 0 -351.5 -127t-187.5 -334q-14 -66 -14 -123zM647 1133l23 110q8 35 43 35q39 0 30 -35l-22 -110q-8 -39 -47 -39q-35 0 -27 39zM883 1133l22 110q8 35 45 35t29 -35l-23 -110q-8 -39 -45 -39q-36 0 -28 39z" />
<glyph unicode="&#xf7;" horiz-adv-x="1212" d="M186 459l15 67h1007l-14 -67h-1008zM612 188l27 127q6 35 41 35q39 0 33 -35l-27 -127q-8 -37 -47 -36q-35 -1 -27 36zM711 653l26 127q8 35 43 35q39 0 31 -35l-27 -127q-8 -37 -47 -37q-34 0 -26 37z" />
<glyph unicode="&#xf8;" horiz-adv-x="1116" d="M135 356q0 66 17 144q49 236 219 381t407 145q106 0 189 -31l92 129h78l-111 -157q170 -102 170 -330q0 -63 -14 -137q-51 -236 -221 -380.5t-410 -144.5q-117 0 -201 37l-76 -108h-77l96 137q-158 106 -158 315zM211 373q2 -170 127 -267l586 828q-72 25 -162 24 q-207 0 -350.5 -125.5t-186.5 -332.5q-14 -68 -14 -127zM393 76q72 -33 174 -33q207 0 355 129q143 123 186 328q12 59 12 114q0 115 -57 203q-39 57 -84 86z" />
<glyph unicode="&#xf9;" d="M168 250q0 45 10 98l141 660h74l-141 -658q-8 -45 -8 -84q0 -221 278 -221q188 0 314 117q117 109 157 299l117 547h74l-215 -1008h-74l39 182q-150 -205 -426 -205q-150 0 -238 62q-102 70 -102 211zM672 1311q-20 29 14 49q31 25 53 -4l181 -248q20 -29 -17 -49 q-31 -16 -51 4z" />
<glyph unicode="&#xfa;" d="M168 248q0 47 10 102l141 658h74l-141 -658q-8 -45 -8 -84q0 -221 278 -221q188 0 314 117q117 109 157 299l117 547h74l-215 -1008h-74l39 182q-150 -205 -426 -205q-150 0 -238 62q-102 70 -102 209zM616 1094q2 12 15 22l284 248q16 14 35 14q37 0 29 -35 q-2 -16 -14 -26l-285 -244q-16 -14 -33 -14q-39 0 -31 35z" />
<glyph unicode="&#xfb;" d="M168 248q0 47 10 102l141 658h74l-139 -656q-10 -47 -10 -86q0 -221 278 -221q188 0 314 117q117 109 157 299l117 547h74l-215 -1008h-74l39 182q-150 -205 -426 -205q-150 0 -238 62q-102 70 -102 209zM514 1081l285 299h59l162 -299h-88l-121 222l-215 -222h-82z" />
<glyph unicode="&#xfc;" d="M168 250q0 45 10 98l139 658h74l-139 -656q-8 -45 -8 -84q0 -221 278 -221q190 0 314 115q117 109 157 301l115 545h74l-213 -1006h-74l39 180q-150 -203 -426 -203q-150 0 -238 62q-104 72 -102 211zM625 1133l22 110q8 35 45 35t29 -35l-23 -110q-8 -39 -45 -39 q-36 0 -28 39zM862 1133l23 110q8 35 43 35q39 0 30 -35l-22 -110q-8 -39 -47 -39q-35 0 -27 39z" />
<glyph unicode="&#xfd;" horiz-adv-x="1036" d="M45 -96q0 33 6 69h74q-2 -25 -2 -47q0 -225 311 -225q397 0 471 344l27 131q-150 -205 -426 -205q-147 0 -238 62q-102 72 -102 211q0 47 12 100l139 662h74l-139 -660q-10 -45 -10 -82q0 -225 278 -225q190 0 316 117q117 111 155 301l117 549h74l-205 -963 q-86 -410 -561 -410q-371 1 -371 271zM596 1096q2 14 16 24l285 248q29 25 57 4q10 -10 9 -24q-2 -10 -17 -27l-287 -246q-18 -12 -32 -12q-39 0 -31 33z" />
<glyph unicode="&#xfe;" horiz-adv-x="1155" d="M31 -344l368 1733h74l-127 -601q170 242 471 242q186 0 294 -98t108 -281q0 -68 -19 -147q-51 -240 -205 -383q-162 -150 -401 -150q-303 0 -371 244l-119 -559h-73zM268 358q0 -317 348 -317q201 0 340 133q129 125 172 328q14 70 15 131q0 154 -86 242t-242 88 q-201 0 -344 -127t-184 -328q-19 -82 -19 -150z" />
<glyph unicode="&#xff;" horiz-adv-x="1044" d="M45 -96q0 33 6 69h74q-2 -25 -2 -47q0 -225 311 -225q397 0 471 344l27 131q-150 -205 -426 -205q-147 0 -238 62q-102 70 -102 209q0 47 12 102l139 660h74l-139 -658q-10 -47 -10 -86q0 -221 278 -221q190 0 316 117q117 111 155 301l117 547h74l-205 -961 q-86 -410 -561 -410q-371 1 -371 271zM610 1133l23 110q8 35 45 35q33 0 27 -35l-21 -110q-8 -39 -45 -39t-29 39zM848 1133l22 110q8 35 43 35t29 -35l-20 -110q-8 -39 -48 -39q-34 0 -26 39z" />
<glyph unicode="&#x152;" horiz-adv-x="2068" d="M188 496q0 90 23 194q70 330 302 519.5t568 189.5q68 0 133 -10h1076l-15 -68h-852q250 -141 250 -440q0 -57 -8 -123h428l-14 -68h-424q-94 -438 -484 -622h850l-14 -68h-1042q-90 -16 -185 -16q-334 0 -485 190q-105 129 -107 322zM264 514q0 -231 152 -352 q139 -113 379 -113q86 0 168 19l264 1247q-74 16 -160 16q-303 0 -511 -171t-271 -470q-21 -94 -21 -176zM1038 86q147 43 269 141q213 174 274 463h-414zM1182 758h409q8 55 8 106q0 156 -78.5 270.5t-224.5 163.5z" />
<glyph unicode="&#x153;" horiz-adv-x="2154" d="M184 360q0 66 17 140q49 236 219 380t407 144q168 0 275 -78q117 -84 137 -244q59 100 143 172q172 150 394 150q184 0 295 -88q121 -94 120 -270q0 -61 -14 -129l-12 -58l-934 -2q-14 -70 -14 -129q0 -303 348 -303q305 0 454 250h76q-170 -317 -549 -318 q-369 0 -399 310q-88 -145 -231.5 -227.5t-313.5 -82.5q-188 0 -303 99.5t-115 283.5zM260 379q0 -160 96.5 -247t261.5 -87q205 0 350.5 126t188.5 329q14 68 14 127q0 162 -97 245.5t-263 83.5q-207 0 -350.5 -124.5t-186.5 -331.5q-14 -64 -14 -121zM1245 545h848 q10 53 10 102q0 150 -93 229.5t-249 79.5q-186 0 -325.5 -114.5t-190.5 -296.5z" />
<glyph unicode="&#x178;" horiz-adv-x="1357" d="M299 1393h96l445 -645l721 645h92l-789 -713l-145 -680h-74l146 680zM858 1522l23 110q8 35 45 35q35 0 26 -35l-20 -110q-8 -39 -45 -39t-29 39zM1096 1522l22 110q8 35 43 35q37 0 29 -35l-21 -110q-8 -39 -47 -39q-34 0 -26 39z" />
<glyph unicode="&#x2c6;" horiz-adv-x="530" d="M248 1106l276 274h60l170 -274h-88l-125 203l-211 -203h-82z" />
<glyph unicode="&#x2dc;" horiz-adv-x="749" d="M328 1155q10 51 71 90q55 37 111 37q35 0 133 -47t121 -47q88 0 115 104l59 -30q-20 -57 -73.5 -94.5t-112.5 -37.5q-35 0 -133.5 47.5t-122.5 47.5q-84 0 -111 -107z" />
<glyph unicode="&#x2000;" horiz-adv-x="894" />
<glyph unicode="&#x2001;" horiz-adv-x="1789" />
<glyph unicode="&#x2002;" horiz-adv-x="894" />
<glyph unicode="&#x2003;" horiz-adv-x="1789" />
<glyph unicode="&#x2004;" horiz-adv-x="595" />
<glyph unicode="&#x2005;" horiz-adv-x="446" />
<glyph unicode="&#x2006;" horiz-adv-x="296" />
<glyph unicode="&#x2007;" horiz-adv-x="296" />
<glyph unicode="&#x2008;" horiz-adv-x="223" />
<glyph unicode="&#x2009;" horiz-adv-x="356" />
<glyph unicode="&#x200a;" horiz-adv-x="98" />
<glyph unicode="&#x2010;" horiz-adv-x="716" d="M201 520l8 41h557l-8 -41h-557z" />
<glyph unicode="&#x2011;" horiz-adv-x="716" d="M201 520l8 41h557l-8 -41h-557z" />
<glyph unicode="&#x2012;" horiz-adv-x="716" d="M201 520l8 41h557l-8 -41h-557z" />
<glyph unicode="&#x2013;" horiz-adv-x="1013" d="M94 520l8 41h1043l-8 -41h-1043z" />
<glyph unicode="&#x2014;" horiz-adv-x="1830" d="M94 520l8 41h1860l-8 -41h-1860z" />
<glyph unicode="&#x2018;" horiz-adv-x="358" d="M334 1069l147 293q12 25 43 24q33 0 33 -20q0 -8 -8 -23l-150 -292q-16 -33 -51 -25q-32 8 -14 43z" />
<glyph unicode="&#x2019;" horiz-adv-x="358" d="M326 1047q0 8 8 22l149 293q16 33 49 24q35 -8 17 -43l-148 -292q-12 -25 -43 -25q-32 1 -32 21z" />
<glyph unicode="&#x201a;" horiz-adv-x="598" d="M150 -156q0 4 4 15l151 293q16 33 47 24q35 -8 19 -43l-150 -293q-12 -27 -39 -26q-38 -1 -32 30z" />
<glyph unicode="&#x201c;" horiz-adv-x="546" d="M334 1069l147 293q12 25 43 24q33 0 33 -20q0 -8 -8 -23l-150 -292q-16 -33 -51 -25q-32 8 -14 43zM549 1069l147 293q12 25 43 24q33 0 33 -20q0 -8 -8 -23l-150 -292q-16 -33 -51 -25q-32 8 -14 43z" />
<glyph unicode="&#x201d;" horiz-adv-x="565" d="M326 1047q0 8 8 22l149 293q16 33 49 24q35 -8 17 -43l-148 -292q-12 -25 -43 -25q-32 1 -32 21zM541 1047q0 8 8 22l149 293q16 33 50 24q35 -8 16 -43l-148 -292q-12 -25 -43 -25q-32 1 -32 21z" />
<glyph unicode="&#x201e;" horiz-adv-x="718" d="M150 -156q0 4 4 15l151 293q16 33 47 24q35 -8 19 -43l-150 -293q-12 -27 -39 -26q-38 -1 -32 30zM365 -156q0 4 4 15l151 293q16 33 47 24q35 -8 19 -43l-150 -293q-12 -27 -39 -26q-38 -1 -32 30z" />
<glyph unicode="&#x2022;" horiz-adv-x="598" d="M215 547l49 237q8 35 158 35q152 0 143 -35l-49 -237q-8 -35 -160 -35q-149 0 -141 35z" />
<glyph unicode="&#x2026;" horiz-adv-x="1306" d="M268 29l25 112q6 33 43 33t31 -33l-25 -112q-6 -33 -43 -33t-31 33zM655 29l25 112q6 33 43 33t31 -33l-25 -112q-6 -33 -43 -33t-31 33zM1042 29l25 112q6 33 43 33t31 -33l-25 -112q-6 -33 -43 -33t-31 33z" />
<glyph unicode="&#x202f;" horiz-adv-x="356" />
<glyph unicode="&#x2039;" horiz-adv-x="602" d="M244 535l12 51l385 231l-16 -78l-293 -178l217 -180l-17 -72z" />
<glyph unicode="&#x203a;" horiz-adv-x="602" d="M197 309l16 72l289 180l-213 178l16 78l287 -231l-12 -51z" />
<glyph unicode="&#x205f;" horiz-adv-x="446" />
<glyph unicode="&#x2122;" horiz-adv-x="1615" d="M377 1331l14 70h699l194 -584l436 584h103l-146 -690h-84l119 563l-416 -563h-67l-189 571l-116 -571h-82l131 620h-211l-131 -620h-82l131 620h-303z" />
<glyph unicode="&#xe000;" horiz-adv-x="1000" d="M0 1000h1000v-1000h-1000v1000z" />
<glyph unicode="&#xfb01;" horiz-adv-x="825" d="M651 0l215 1008h74l-215 -1008h-74zM914 1237l30 139q18 31 39 31q18 0 35 -29l-31 -143q-27 -27 -47 -27q-22 0 -26 29zM195 -2l176 833h-148l17 70h147l16 84q82 379 572 379l-14 -66q-416 0 -484 -313l-16 -84h227l-16 -70h-228l-176 -833h-73z" />
<glyph unicode="&#xfb02;" horiz-adv-x="825" d="M651 0l295 1389h74l-295 -1389h-74zM195 -2l176 833h-148l17 70h147l16 84q82 379 572 379l-14 -66q-416 0 -484 -313l-16 -84h227l-16 -70h-228l-176 -833h-73z" />
<glyph unicode="&#xfb03;" horiz-adv-x="1372" d="M1198 0l215 1008h74l-215 -1008h-74zM1461 1237l30 139q18 31 39 31q18 0 35 -29l-31 -143q-27 -27 -47 -27q-22 0 -26 29zM742 -2l176 833h-148l17 70h147l16 84q82 379 572 379l-14 -66q-416 0 -484 -313l-16 -84h227l-16 -70h-228l-176 -833h-73zM195 -2l176 833h-148 l17 70h147l16 84q82 379 572 379l-14 -66q-416 0 -484 -313l-16 -84h227l-16 -70h-228l-176 -833h-73z" />
<glyph unicode="&#xfb04;" horiz-adv-x="1372" d="M1198 0l295 1389h74l-295 -1389h-74zM742 -2l176 833h-148l17 70h147l16 84q82 379 572 379l-14 -66q-416 0 -484 -313l-16 -84h227l-16 -70h-228l-176 -833h-73zM195 -2l176 833h-148l17 70h147l16 84q82 379 572 379l-14 -66q-416 0 -484 -313l-16 -84h227l-16 -70 h-228l-176 -833h-73z" />
</font>
</defs>
</svg>
