<?xml version="1.0" standalone="no"?>
<!DOCTYPE svg PUBLIC "-//W3C//DTD SVG 1.1//EN" "http://www.w3.org/Graphics/SVG/1.1/DTD/svg11.dtd" >
<svg>
<metadata>
Created by FontForge 20110222 at Sun Jul  8 15:14:50 2012
 By Stefan Warting
(c) Copyright SoftMaker Software GmbH and its licensors
</metadata>
<defs>
<font id="Antiqua" horiz-adv-x="500" >
  <font-face 
    font-family="Antiqua"
    font-weight="400"
    font-stretch="normal"
    units-per-em="1000"
    panose-1="0 0 4 0 0 0 0 0 0 0"
    ascent="800"
    descent="-200"
    x-height="467"
    cap-height="666"
    bbox="-157 -261 1044 905"
    underline-thickness="43"
    underline-position="-65"
    unicode-range="U+0020-FB04"
  />
<missing-glyph 
d="M63 0v760h375v-760h-375zM125 63h250v635h-250v-635z" />
    <glyph glyph-name=".notdef" 
d="M63 0v760h375v-760h-375zM125 63h250v635h-250v-635z" />
    <glyph glyph-name="NULL" horiz-adv-x="0" 
 />
    <glyph glyph-name="nonmarkingreturn" horiz-adv-x="250" 
 />
    <glyph glyph-name="space" unicode=" " horiz-adv-x="250" 
 />
    <glyph glyph-name="exclam" unicode="!" horiz-adv-x="279" 
d="M159 192h-39q2 64 2 109q0 95 -41 249q-8 30 -8 54q0 30 19.5 51t47.5 21t47 -21t19 -51q0 -24 -19 -98q-30 -116 -29 -208zM139 117q26 0 45 -18.5t19 -44.5t-18.5 -45t-44.5 -19q-27 0 -45.5 19t-18.5 45t19 44.5t44 18.5z" />
    <glyph glyph-name="quotedbl" unicode="&#x22;" horiz-adv-x="382" 
d="M128 399h-42l-26 267h95zM296 399h-42l-26 267h94z" />
    <glyph glyph-name="numbersign" unicode="#" horiz-adv-x="428" 
d="M62 0l32 158h-79l12 60h79l52 253h-84l12 60h84l28 135h33l-27 -135h97l28 135h33l-27 -135h75l-12 -60h-76l-51 -253h80l-13 -60h-80l-32 -158h-33l32 158h-97l-33 -158h-33zM140 218h97l52 253h-98z" />
    <glyph glyph-name="dollar" unicode="$" horiz-adv-x="576" 
d="M269 759h34v-84q66 -3 103 -25q60 -36 60 -99q0 -32 -20 -54.5t-49 -22.5q-23 0 -38 15t-15 38q0 22 11 34q7 7 32 21q11 6 11 15q0 16 -30 33q-21 12 -65 13v-262q94 -39 132 -67q65 -49 65 -132q0 -80 -53.5 -133.5t-143.5 -62.5v-92h-34v91q-89 2 -138.5 32t-49.5 82
q0 31 17.5 50.5t46.5 19.5q55 0 55 -52q0 -21 -20 -41q-7 -7 -7 -16q0 -19 31 -31q26 -10 65 -11v261q-97 41 -137 88t-40 118q0 110 78 159q39 24 99 31v84zM269 395v246q-102 -10 -102 -106q0 -92 102 -140zM303 267v-247q52 8 82.5 41t30.5 82q0 45 -25 72.5t-88 51.5z
" />
    <glyph glyph-name="percent" unicode="%" horiz-adv-x="540" 
d="M166 673q53 0 84 -36.5t31 -100.5t-31 -101t-84 -37q-55 0 -85.5 37t-30.5 102q0 62 31.5 99t84.5 37zM167 646q-62 0 -62 -109q0 -111 62 -111q61 0 61 110t-61 110zM551 700l-509 -733h-46l507 733h48zM379 269q55 0 85 -36t30 -102q0 -65 -30 -101.5t-85 -36.5
q-115 0 -115 140q0 64 30.5 100t84.5 36zM380 241q-61 0 -61 -109q0 -111 61 -111t61 110t-61 110z" />
    <glyph glyph-name="ampersand" unicode="&#x26;" horiz-adv-x="791" 
d="M759 399v-31q-61 -7 -81.5 -24.5t-49.5 -87.5q-22 -54 -84 -140q81 -88 214 -85l1 -31h-240l-49 49q-54 -34 -96 -46.5t-102 -12.5q-106 0 -164 49t-58 138q0 76 41.5 125.5t133.5 83.5q-36 71 -36 121q0 74 48 121.5t122 47.5q59 0 93 -30t34 -82q0 -67 -59 -109
q-34 -24 -108 -58q72 -141 202 -258q54 81 54 139q0 62 -46 79q-16 6 -84 11v31h314zM305 421l22 14q49 31 68 58.5t19 68.5q0 82 -71 82q-37 0 -60 -24.5t-23 -64.5q0 -47 45 -134zM447 72q-118 122 -211 287q-50 -26 -70.5 -57.5t-20.5 -83.5q0 -85 48 -135.5t128 -50.5
q62 0 126 40z" />
    <glyph glyph-name="quotesingle" unicode="'" horiz-adv-x="217" 
d="M131 399h-45l-26 267h97z" />
    <glyph glyph-name="parenleft" unicode="(" horiz-adv-x="330" 
d="M280 -144l-17 -19q-98 69 -148 159q-68 123 -68 274t68 274q50 90 148 159l17 -19q-78 -72 -105 -154q-37 -110 -37 -260q0 -151 37 -260q28 -82 105 -154z" />
    <glyph glyph-name="parenright" unicode=")" horiz-adv-x="330" 
d="M50 684l17 19q97 -68 148 -159q68 -121 68 -274t-68 -274q-51 -91 -148 -159l-17 19q77 72 105 154q37 109 37 260t-37 260q-28 82 -105 154z" />
    <glyph glyph-name="asterisk" unicode="*" horiz-adv-x="493" 
d="M174 511l-45 -1q-23 -1 -39.5 12t-16.5 30t11.5 28.5t27.5 11.5q21 0 69 -36q20 -15 53 -29q-3 36 -22 91q-5 14 -5 28q0 44 40 44t40 -45q0 -15 -16 -59q-8 -23 -11 -59q34 15 79 49q21 16 43 16q17 0 28 -11.5t11 -28.5q0 -18 -17 -31t-38 -12l-43 2q-13 1 -56 -8
q25 -29 72 -61q30 -20 30 -49q0 -14 -12 -26t-27 -12q-18 0 -34 20q-7 9 -10 16.5t-13 41.5q-5 18 -26 55q-15 -26 -20 -37.5t-16 -49.5q-13 -46 -48 -46q-14 0 -26.5 12t-12.5 26q0 22 21 42q2 2 37 26q19 12 44 42q-37 8 -52 8z" />
    <glyph glyph-name="plus" unicode="+" horiz-adv-x="520" 
d="M15 254h220v225h48v-225h223v-44h-223v-223h-48v223h-220v44z" />
    <glyph glyph-name="comma" unicode="," horiz-adv-x="273" 
d="M72 -142l-9 23q45 14 72 46.5t25 69.5q-22 -7 -36 -7q-25 0 -42.5 17t-17.5 42q0 26 20 45t48 19q35 0 56 -25.5t21 -66.5q0 -116 -137 -163z" />
    <glyph glyph-name="hyphen" unicode="-" horiz-adv-x="252" 
d="M252 266v-53h-252v53h252z" />
    <glyph glyph-name="period" unicode="." horiz-adv-x="273" 
d="M136 117q26 0 45 -18.5t19 -44.5t-18.5 -45t-44.5 -19q-27 0 -45.5 19t-18.5 45t19 44.5t44 18.5z" />
    <glyph glyph-name="slash" unicode="/" horiz-adv-x="460" 
d="M408 687l-325 -834h-53l328 834h50z" />
    <glyph glyph-name="zero" unicode="0" horiz-adv-x="576" 
d="M288 675q118 0 173.5 -84t55.5 -261t-55.5 -261t-172.5 -84q-119 0 -174.5 84.5t-55.5 265.5q0 176 61 265q51 75 168 75zM288 642q-80 0 -107 -69q-31 -78 -31 -240q0 -167 31 -246q27 -69 110 -69q91 0 121 119q14 59 14 193q0 166 -31 243q-28 69 -107 69z" />
    <glyph glyph-name="one" unicode="1" horiz-adv-x="576" 
d="M366 673v-535q0 -64 20 -81q27 -22 114 -26v-31h-365v31l22 1q79 4 103 36q12 17 12 70v354q0 24 -6 31t-30 7l-108 1v29q84 7 135.5 33t90.5 80h12z" />
    <glyph glyph-name="two" unicode="2" horiz-adv-x="576" 
d="M491 184l-23 -184h-414q7 91 48 154t132 125q83 57 112.5 103.5t29.5 118.5q0 66 -33 102t-94 36q-43 0 -81.5 -22t-38.5 -46q0 -12 9 -12q5 0 13.5 2.5t13.5 2.5q47 0 47 -52q0 -28 -18.5 -46t-46.5 -18q-31 0 -50.5 22t-19.5 56q0 64 57 106.5t143 42.5q94 0 150 -48
t56 -129q0 -88 -62 -147q-44 -42 -138 -92q-78 -41 -115 -77.5t-53 -87.5h298q23 0 31 24l23 66h24z" />
    <glyph glyph-name="three" unicode="3" horiz-adv-x="576" 
d="M162 328v35q19 -1 31 -1q68 0 109.5 43t41.5 114q0 58 -27.5 91t-74.5 33q-37 0 -63 -20.5t-26 -48.5q0 -12 8 -12q1 0 13 4q5 3 12 3q20 0 33.5 -15t13.5 -37q0 -27 -19.5 -46t-45.5 -19q-29 0 -48.5 22.5t-19.5 56.5q0 64 46.5 104t120.5 40q81 0 129.5 -41.5
t48.5 -111.5q0 -130 -172 -169v-8q73 -4 111 -22q83 -38 83 -141q0 -87 -62.5 -142t-161.5 -55q-73 0 -119.5 32t-46.5 83q0 30 18.5 48.5t47.5 18.5q26 0 42.5 -14.5t16.5 -37.5q0 -25 -21 -42q-13 -13 -13 -20q0 -16 19 -26.5t46 -10.5q60 0 93.5 44t33.5 121
q0 112 -86 137q-35 10 -112 10z" />
    <glyph glyph-name="four" unicode="4" horiz-adv-x="576" 
d="M410 673v-419h130l-22 -63h-108v-79q0 -53 17.5 -66t94.5 -17v-29h-329v29q70 0 99 19t29 65v78h-276v63l310 419h55zM321 571l-228 -317h228v317z" />
    <glyph glyph-name="five" unicode="5" horiz-adv-x="576" 
d="M96 325l26 335h235q38 0 48 7t23 43h23l-21 -141h-276l-19 -199q71 46 150 46q97 0 156.5 -59.5t59.5 -156.5q0 -100 -63 -157.5t-172 -57.5q-86 0 -142 34.5t-56 87.5q0 27 18 44.5t46 17.5q26 0 43 -15.5t17 -38.5q0 -22 -23 -43q-11 -10 -11 -17q0 -16 28.5 -28
t65.5 -12q70 0 109.5 47.5t39.5 133.5q0 82 -38 129t-105 47q-68 0 -136 -56z" />
    <glyph glyph-name="six" unicode="6" horiz-adv-x="576" 
d="M162 351q61 61 143 61q91 0 152.5 -61t61.5 -152q0 -100 -72 -163q-58 -51 -149 -51q-120 0 -176 79t-56 249q0 189 74 278q70 84 188 84q73 0 122 -31t49 -78q0 -29 -19 -48t-48 -19q-26 0 -43 15.5t-17 39.5q0 21 24 48q5 6 5 11q0 12 -23 22t-51 10q-165 0 -165 -294z
M298 379q-62 0 -96 -46.5t-34 -131.5q0 -183 130 -183q62 0 95.5 47t33.5 133q0 87 -33.5 134t-95.5 47z" />
    <glyph glyph-name="seven" unicode="7" horiz-adv-x="576" 
d="M556 660l-7 -66q-123 -132 -161 -217.5t-48 -247.5q-6 -96 -16 -116q-14 -28 -49 -28q-58 0 -58 56q0 52 30 140t76 173q33 61 65 102.5t101 112.5h-316q-19 0 -25 -19l-24 -72h-24l19 182h437z" />
    <glyph glyph-name="eight" unicode="8" horiz-adv-x="576" 
d="M215 349q-137 28 -137 154q0 80 56 126t155 46q98 0 154 -46t56 -126q0 -126 -137 -154q153 -43 153 -181q0 -86 -60.5 -134.5t-166.5 -48.5t-166 48.5t-60 134.5q0 138 153 181zM289 645q-56 0 -90 -37t-34 -97q0 -63 34 -100.5t90 -37.5q55 0 89 37.5t34 98.5
t-33.5 98.5t-89.5 37.5zM289 327q-61 0 -96.5 -41t-35.5 -111q0 -73 35 -114.5t97 -41.5q61 0 96 41.5t35 112.5t-35.5 112.5t-95.5 41.5z" />
    <glyph glyph-name="nine" unicode="9" horiz-adv-x="576" 
d="M415 309q-61 -62 -144 -62q-91 0 -152 61.5t-61 152.5q0 100 72 163q58 51 149 51q119 0 175.5 -79.5t56.5 -247.5q0 -186 -70.5 -274.5t-192.5 -88.5q-73 0 -121.5 31t-48.5 78q0 29 19 48t48 19q26 0 43 -15.5t17 -39.5q0 -21 -25 -48q-5 -5 -5 -11q0 -12 23 -22
t51 -10q166 0 166 294zM280 642q-62 0 -96 -46.5t-34 -132.5q0 -183 130 -183q62 0 95.5 47t33.5 134t-33.5 134t-95.5 47z" />
    <glyph glyph-name="colon" unicode=":" horiz-adv-x="273" 
d="M136 117q26 0 45 -18.5t19 -44.5t-18.5 -45t-44.5 -19q-27 0 -45.5 19t-18.5 45t19 44.5t44 18.5zM136 467q26 0 45 -18.5t19 -44.5t-18.5 -45t-44.5 -19q-27 0 -45.5 19t-18.5 45t19 44.5t44 18.5z" />
    <glyph glyph-name="semicolon" unicode=";" horiz-adv-x="273" 
d="M72 -142l-9 23q45 14 72 46.5t25 69.5q-15 -7 -35 -7q-26 0 -43.5 17t-17.5 42q0 26 20 45t48 19q35 0 56 -25.5t21 -66.5q0 -116 -137 -163zM128 467q26 0 45 -18.5t19 -44.5t-18.5 -45t-44.5 -19q-27 0 -45.5 19t-18.5 45t19 44.5t44 18.5z" />
    <glyph glyph-name="less" unicode="&#x3c;" horiz-adv-x="513" 
d="M14 204v35l462 182l23 -36l-411 -164l411 -163l-34 -39z" />
    <glyph glyph-name="equal" unicode="=" horiz-adv-x="540" 
d="M19 305h502v-44h-502v44zM19 171h502v-44h-502v44z" />
    <glyph glyph-name="greater" unicode="&#x3e;" horiz-adv-x="513" 
d="M499 236v-35l-451 -186l-34 40l411 162l-411 164l23 37z" />
    <glyph glyph-name="question" unicode="?" horiz-adv-x="399" 
d="M179 191h-45q-1 14 -1 35q0 50 13.5 78.5t61.5 78.5q45 46 59.5 75t14.5 69q0 117 -88 117q-22 0 -42 -10t-20 -21q0 -4 21 -20q14 -9 14 -32q0 -24 -16 -40t-41 -16t-41 16.5t-16 42.5q0 50 47 81t123 31q69 0 109 -34t40 -92t-40 -105q-20 -23 -89 -75
q-40 -30 -53 -54.5t-13 -70.5q0 -23 2 -54zM163 117q26 0 45 -18.5t19 -44.5t-18.5 -45t-44.5 -19q-27 0 -45.5 19t-18.5 45t19 44.5t44 18.5z" />
    <glyph glyph-name="at" unicode="@" horiz-adv-x="677" 
d="M436 467l60 11l-51 -230q-9 -41 -9 -54q0 -40 39 -40q51 0 89 64.5t38 151.5q0 100 -63 152t-162 52q-134 0 -216 -86.5t-82 -226.5q0 -120 65 -184q68 -67 178 -67q112 0 225 86l-7 -26q-106 -85 -228 -85q-116 0 -194 64q-91 74 -91 211q0 147 97.5 242t247.5 95
q122 0 195.5 -62.5t73.5 -167.5q0 -92 -57 -166.5t-127 -74.5t-70 86q-52 -82 -116 -82q-95 0 -95 122q0 98 62 169q49 56 115 56q55 0 77 -45zM362 456q-47 0 -84 -63.5t-37 -144.5q0 -88 56 -88q44 0 75 64q15 30 29 88.5t14 87.5q0 25 -14.5 40.5t-38.5 15.5z" />
    <glyph glyph-name="A" unicode="A" horiz-adv-x="706" 
d="M396 666l206 -496q36 -87 56 -109.5t68 -28.5v-32h-281v32q84 9 84 33q0 13 -21 67l-43 111h-271l-40 -102q-21 -54 -21 -70q0 -17 18.5 -25.5t68.5 -13.5v-32h-240v32q52 5 74 29t63 120l196 461l10 24h73zM328 578l-119 -295h239z" />
    <glyph glyph-name="B" unicode="B" horiz-adv-x="709" 
d="M43 666h370q108 0 154 -34q57 -42 57 -114q0 -123 -148 -164q75 -13 115 -43q59 -44 59 -125q0 -110 -105 -159q-58 -27 -201 -27h-301v32l36 4q41 5 54 20t13 78v398q0 63 -13 78t-54 20l-36 4v32zM246 369h94q84 0 130 35.5t46 99.5q0 72 -54 101q-40 21 -124 21h-92
v-257zM246 40h84q82 0 124 22q82 43 82 134q0 86 -80 119q-38 16 -111 16h-99v-291z" />
    <glyph glyph-name="C" unicode="C" horiz-adv-x="729" 
d="M690 666l2 -226l-42 -1q-24 93 -51 127q-60 77 -179 77q-121 0 -189.5 -82.5t-68.5 -228.5q0 -141 69.5 -225t185.5 -84q60 0 113.5 26.5t123.5 91.5l37 -41q-69 -63 -131 -89t-146 -26q-184 0 -280 104q-82 88 -82 245q0 169 95 258t275 89q59 0 92 -7t101 -33
q10 -4 19 -4q15 0 34 29h22z" />
    <glyph glyph-name="D" unicode="D" horiz-adv-x="791" 
d="M146 134v398q0 63 -13 78t-54 20l-36 4v32h328q100 0 160 -17.5t106 -60.5q101 -95 101 -255q0 -179 -122 -272q-80 -61 -245 -61h-328v32l36 4q41 5 54 20t13 78zM246 40h83q133 0 197 42q102 67 102 251q0 199 -121 262q-59 31 -178 31h-83v-586z" />
    <glyph glyph-name="E" unicode="E" horiz-adv-x="687" 
d="M603 666l15 -199h-42q-3 7 -22 48q-32 71 -62 91t-101 20h-145v-252l77 2q35 1 52.5 16.5t29.5 58.5l14 49h31v-290h-31l-16 55q-12 40 -30.5 54t-58.5 15l-68 2v-296h130q81 0 117 21q43 25 67 88l29 76h42l-17 -225h-571v32l36 4q41 5 54 20t13 78v398q0 63 -13 78
t-54 20l-36 4v32h560z" />
    <glyph glyph-name="F" unicode="F" horiz-adv-x="623" 
d="M588 666l12 -199h-42q-49 104 -68 124q-33 35 -118 35h-126v-252l77 2q35 1 52.5 16.5t29.5 58.5l14 49h31v-290h-31l-16 55q-12 40 -30.5 54t-58.5 15l-68 2v-202q0 -62 13 -78t54 -20l46 -4v-32h-316v32l36 4q41 5 54 20t13 78v398q0 63 -13 78t-54 20l-36 4v32h545z
" />
    <glyph glyph-name="G" unicode="G" horiz-adv-x="812" 
d="M689 666l2 -226l-42 -1q-22 91 -56 132q-60 72 -176 72q-117 0 -184 -81q-71 -86 -71 -227q0 -162 90 -249q66 -63 171 -63q78 0 145 35q31 16 36.5 24t5.5 37l1 71q1 40 -17.5 53.5t-77.5 17.5l-64 4v35h354v-35q-62 -5 -76.5 -21t-14.5 -78v-126q-37 0 -101 -20
q-111 -35 -191 -35q-179 0 -275 90t-96 258t94 258t269 90q104 0 192 -37q17 -7 26 -7q16 0 34 29h22z" />
    <glyph glyph-name="H" unicode="H" horiz-adv-x="837" 
d="M590 325h-344v-191q0 -63 13 -78t54 -20l36 -4v-32h-306v32l36 4q41 5 54 20t13 78v398q0 63 -13 78t-54 20l-36 4v32h306v-32l-36 -4q-41 -5 -54 -20t-13 -78v-165h344v165q0 63 -13 78t-54 20l-36 4v32h306v-32l-36 -4q-41 -5 -54 -20t-13 -78v-398q0 -63 13 -78
t54 -20l36 -4v-32h-306v32l36 4q41 5 54 20t13 78v191z" />
    <glyph glyph-name="I" unicode="I" horiz-adv-x="393" 
d="M146 134v398q0 63 -13 78t-54 20l-36 4v32h306v-32l-36 -4q-41 -5 -54 -20t-13 -78v-398q0 -63 13 -78t54 -20l36 -4v-32h-306v32l36 4q41 5 54 20t13 78z" />
    <glyph glyph-name="J" unicode="J" horiz-adv-x="369" 
d="M6 -227l-4 30q76 13 107 63q19 31 24 79q2 20 2 84v503q0 63 -13 78t-54 20l-36 4v32h306v-32l-36 -4q-41 -5 -54 -20t-13 -78v-503q0 -71 -10.5 -106.5t-41.5 -66.5q-69 -70 -177 -83z" />
    <glyph glyph-name="K" unicode="K" horiz-adv-x="737" 
d="M742 29v-29h-209v21q0 11 -7 20l-222 298l-58 -46v-159q0 -63 13 -78t54 -20l36 -4v-32h-306v32l36 4q41 5 54 20t13 78v398q0 63 -13 78t-54 20l-36 4v32h306v-32l-36 -4q-41 -5 -54 -20t-13 -78v-191l187 151q72 57 91 77t19 36q0 15 -12 20.5t-52 8.5v32h251v-32
q-64 -5 -131 -59l-217 -175l202 -253q58 -73 85.5 -93.5t72.5 -24.5z" />
    <glyph glyph-name="L" unicode="L" horiz-adv-x="630" 
d="M606 226l-18 -226h-545v32l36 4q41 5 54 20t13 78v398q0 63 -13 78t-54 20l-36 4v32h306v-32l-36 -4q-41 -5 -54 -20t-13 -78v-492h106q80 0 117.5 24t65.5 92l29 70h42z" />
    <glyph glyph-name="M" unicode="M" horiz-adv-x="985" 
d="M267 666l229 -536l224 536h222v-32l-36 -4q-41 -5 -54 -20t-13 -78v-398q0 -63 13 -78t54 -20l36 -4v-32h-306v32l36 4q41 5 54 20t13 78v474l-252 -608h-47l-259 608l8 -475q1 -61 19 -77.5t90 -23.5v-32h-270v32q73 6 90 22t18 79l8 405q0 58 -18.5 73.5t-96.5 22.5v32
h238z" />
    <glyph glyph-name="N" unicode="N" horiz-adv-x="802" 
d="M256 666l374 -530l-7 389q-1 67 -21 87t-89 22v32h269v-32q-67 -2 -86.5 -21.5t-20.5 -87.5l-8 -525h-68l-417 574l7 -434q1 -67 19 -84.5t92 -23.5v-32h-271v32q70 2 88 19.5t19 81.5l7 408q0 52 -19 67.5t-95 25.5v32h227z" />
    <glyph glyph-name="O" unicode="O" horiz-adv-x="835" 
d="M418 681q176 0 270.5 -90t94.5 -258q0 -167 -94.5 -257.5t-269.5 -90.5q-177 0 -275 93q-92 88 -92 260q0 164 95.5 253.5t270.5 89.5zM418 643q-120 0 -186 -83q-70 -88 -70 -223q0 -145 69 -229.5t187 -84.5q116 0 185.5 84.5t69.5 225.5q0 139 -70 227q-66 83 -185 83
z" />
    <glyph glyph-name="P" unicode="P" horiz-adv-x="640" 
d="M246 273v-139q0 -63 14 -78t60 -20l40 -4v-32h-317v32l36 4q41 5 54 20t13 78v398q0 63 -13 78t-54 20l-36 4v32h310q117 0 173 -33q88 -52 88 -163q0 -77 -46 -126.5t-129 -61.5q-64 -9 -193 -9zM246 626v-314q25 -1 60 -1q103 0 150.5 38.5t47.5 122.5q0 98 -65 134
q-36 20 -114 20h-79z" />
    <glyph glyph-name="Q" unicode="Q" horiz-adv-x="835" 
d="M909 -75l23 -8q-20 -61 -52 -97q-54 -60 -120 -60q-64 0 -157 71l-106 81q-49 35 -106 73q-166 8 -252.5 97t-86.5 251q0 168 94.5 258t271.5 90q176 0 270.5 -90t94.5 -258q0 -282 -253 -337q113 -89 168.5 -121t99.5 -32q38 0 62 17.5t49 64.5zM418 643
q-120 0 -186 -83q-70 -88 -70 -223q0 -145 69 -229.5t187 -84.5q116 0 185.5 84.5t69.5 225.5q0 139 -70 227q-66 83 -185 83z" />
    <glyph glyph-name="R" unicode="R" horiz-adv-x="717" 
d="M681 33l5 -30q-49 -11 -84 -11q-65 0 -93 40q-18 26 -44 123q-21 81 -31 104.5t-28 37.5q-33 26 -95 26h-65v-189q0 -63 13 -78t54 -20l36 -4v-32h-306v32l36 4q41 5 54 20t13 78v398q0 63 -13 78t-54 20l-36 4v32h341q114 0 168 -39q61 -44 61 -117q0 -83 -71 -131
q-41 -28 -122 -41q76 -12 104.5 -45.5t49.5 -134.5q15 -75 31.5 -101.5t45.5 -26.5q5 0 30 3zM246 361h79q80 0 129 39.5t49 103.5q0 60 -41 91t-139 31q-29 0 -77 -3v-262z" />
    <glyph glyph-name="S" unicode="S" horiz-adv-x="603" 
d="M509 666l2 -226l-39 -1q-12 99 -44 142q-46 62 -131 62q-57 0 -92.5 -31t-35.5 -81q0 -61 52 -98q40 -28 127 -57q91 -29 128 -53q73 -47 73 -141q0 -91 -71 -150q-57 -47 -155 -47q-86 0 -193 39q-8 3 -13 3q-13 0 -36 -27h-22l-2 233l39 2q20 -75 45 -118
q55 -94 173 -94q65 0 104 33.5t39 88.5t-39 83q-21 15 -38 23t-97 39q-101 40 -143 72q-63 49 -63 134t55 135t149 50q64 0 156 -34q8 -4 15 -4q13 0 35 23h22z" />
    <glyph glyph-name="T" unicode="T" horiz-adv-x="655" 
d="M642 666l2 -225h-42l-17 53q-24 75 -54 103.5t-86 28.5h-68v-492q0 -63 13 -78t54 -20l36 -4v-32h-306v32l36 4q41 5 54 20t13 78v492h-68q-56 0 -86 -28.5t-54 -103.5l-17 -53h-42l2 225h630z" />
    <glyph glyph-name="U" unicode="U" horiz-adv-x="777" 
d="M499 666h268v-32q-77 -5 -92.5 -27.5t-17.5 -136.5l-5 -230q-1 -58 -9 -88q-11 -42 -42 -78q-77 -89 -217 -89q-152 0 -218 93q-38 54 -38 166v288q0 63 -13 78t-54 20l-36 4v32h306v-32l-36 -4q-41 -5 -54 -20t-13 -78v-287q0 -91 52 -145t139 -54q126 0 168 90
q20 43 20 130v7l-4 201q-2 109 -15.5 131t-88.5 29v32z" />
    <glyph glyph-name="V" unicode="V" horiz-adv-x="702" 
d="M384 -12h-64l-221 523q-32 75 -53 96t-73 27v32h289v-32q-25 -4 -49 -7q-33 -9 -33 -29q0 -14 8 -34l192 -480l188 477q8 20 8 32q0 19 -17 27t-68 14v32h238v-32q-56 -5 -74 -23.5t-58 -114.5z" />
    <glyph glyph-name="W" unicode="W" horiz-adv-x="1024" 
d="M568 666l179 -551l69 229q64 212 64 250q0 19 -17.5 27t-67.5 13v32h249v-32q-46 -4 -63 -17q-25 -18 -52 -82q-24 -58 -74 -216l-105 -331h-70l-176 546l-168 -546h-66l-175 540q-23 72 -38 87t-67 19v32h272v-32q-47 -4 -61.5 -10.5t-14.5 -22.5q0 -19 10 -51l136 -434
l168 550h68z" />
    <glyph glyph-name="X" unicode="X" horiz-adv-x="655" 
d="M664 0h-297v32q48 9 63 15.5t15 19.5q0 15 -44 81l-94 140l-62 -92l-22 -33l-26 -39q-31 -48 -31 -59q0 -13 21 -21q5 -2 59 -12v-32h-253v32q53 8 90 36t92 105l107 149l-172 248q-26 38 -45 49t-61 15v32h269v-32q-61 -2 -61 -25q0 -11 16 -34l116 -168l55 77
q75 105 75 127q0 15 -21 20q-4 1 -33 3v32h214v-32q-50 1 -91.5 -37t-132.5 -165l-42 -59l192 -276q23 -34 42 -46t62 -19v-32z" />
    <glyph glyph-name="Y" unicode="Y" horiz-adv-x="665" 
d="M377 282v-148q0 -62 12 -77q15 -18 55 -21l49 -4v-32h-332v32l49 4q40 3 55 21q12 15 12 77v134l-182 288l-15 24q-18 31 -35.5 41t-57.5 13v32h283v-32q-38 -3 -49 -10q-18 -11 -18 -28q0 -19 21 -53l135 -218l117 184q44 69 44 96q0 26 -63 29v32h221v-32
q-42 -2 -66 -19t-64 -77z" />
    <glyph glyph-name="Z" unicode="Z" horiz-adv-x="671" 
d="M78 666h546v-28l-460 -598h212q87 0 123.5 22.5t72.5 99.5l30 63h42l-16 -225h-601v28l467 601h-205q-107 0 -141 -100l-30 -88h-42z" />
    <glyph glyph-name="bracketleft" unicode="[" horiz-adv-x="330" 
d="M67 687h213v-33h-133v-768h133v-33h-213v834z" />
    <glyph glyph-name="backslash" unicode="\" horiz-adv-x="460" 
d="M65 687h49l329 -834h-53z" />
    <glyph glyph-name="bracketright" unicode="]" horiz-adv-x="330" 
d="M263 -147h-213v33h133v768h-133v33h213v-834z" />
    <glyph glyph-name="asciicircum" unicode="^" horiz-adv-x="434" 
d="M91 439l-45 14l151 244h32l158 -244l-45 -14l-127 201z" />
    <glyph glyph-name="underscore" unicode="_" horiz-adv-x="543" 
d="M0 -65h543v-43h-543v43z" />
    <glyph glyph-name="grave" unicode="`" 
d="M306 525l-188 140q-24 18 -24 36q0 13 9.5 23t21.5 10q19 0 39 -22l155 -171z" />
    <glyph glyph-name="a" unicode="a" horiz-adv-x="549" 
d="M528 69l12 -16q-61 -60 -111 -60q-36 0 -57 30q-11 15 -20 52q-77 -85 -163 -85q-61 0 -98.5 37t-37.5 98t36 93t132 48q16 3 38 7l94 17q-2 86 -16 113q-22 44 -93 44q-28 0 -52 -10t-24 -21q0 -4 12.5 -16.5t12.5 -32.5q0 -24 -16 -40t-41 -16t-40.5 16.5t-15.5 42.5
q0 49 50 78t134 29q123 0 162 -75q15 -31 15 -100v-164q0 -52 8 -72t30 -20q16 0 49 23zM354 181v78q-102 -18 -145 -33q-63 -22 -63 -90q0 -40 25 -65.5t65 -25.5q59 0 90 41q28 36 28 95z" />
    <glyph glyph-name="b" unicode="b" horiz-adv-x="628" 
d="M124 -13h-25v546q0 64 -15.5 82t-71.5 22l-15 1v28l189 24v-297q65 84 166 84q106 0 168.5 -65.5t62.5 -176.5q0 -114 -64.5 -179.5t-177.5 -65.5q-89 0 -155 45q-7 5 -12 5q-8 0 -50 -53zM335 438q-75 0 -116 -55q-33 -45 -33 -144q0 -117 34 -164q36 -50 108 -50
q73 0 114 55t41 152q0 108 -43 159q-40 47 -105 47z" />
    <glyph glyph-name="c" unicode="c" horiz-adv-x="495" 
d="M450 102l22 -22q-48 -50 -91.5 -70t-103.5 -20q-106 0 -169 66t-63 178q0 115 64 178.5t180 63.5q81 0 133.5 -32.5t52.5 -82.5q0 -25 -17.5 -41.5t-43.5 -16.5q-24 0 -39.5 14t-15.5 36q0 21 24 44q4 6 4 10q0 16 -27.5 27.5t-64.5 11.5q-75 0 -108 -47
q-42 -59 -42 -163q0 -97 42 -148.5t120 -51.5q77 0 143 66z" />
    <glyph glyph-name="d" unicode="d" horiz-adv-x="648" 
d="M528 690v-558q0 -62 11 -79.5t56 -21.5l24 -2v-29h-172v79q-65 -89 -175 -89q-104 0 -166 67t-62 179q0 107 64 173.5t167 66.5q110 0 166 -81v156q0 50 -17 67t-70 19l-22 1v28zM290 439q-146 0 -146 -202q0 -209 149 -209q84 0 120 64q28 49 28 138q0 97 -27 143
q-39 66 -124 66z" />
    <glyph glyph-name="e" unicode="e" horiz-adv-x="539" 
d="M461 111l22 -20q-38 -43 -67 -62q-60 -39 -140 -39q-105 0 -168 67t-63 179q0 110 63 175t170 65q131 0 187 -91q31 -51 34 -146h-355q0 -98 30 -142q41 -60 130 -60q49 0 82 15.5t75 58.5zM145 272h258q-7 95 -36 134.5t-92 39.5q-77 0 -107 -64q-16 -34 -23 -110z" />
    <glyph glyph-name="f" unicode="f" horiz-adv-x="381" 
d="M40 434v33h92q-3 29 -3 52q0 79 42.5 125t114.5 46q48 0 78 -21.5t30 -56.5q0 -29 -17.5 -48t-43.5 -19q-23 0 -38 14.5t-15 37.5q0 21 17 38q5 5 6 8q0 16 -37 16q-31 0 -50 -22.5t-19 -58.5q0 -26 21 -111h125v-33h-125v-302q0 -61 10.5 -77.5t56.5 -23.5l31 -2v-29
h-276v29l24 2q45 4 56 21.5t11 79.5v302h-91z" />
    <glyph glyph-name="g" unicode="g" horiz-adv-x="573" 
d="M169 171q-97 35 -97 142q0 79 52 122q49 41 151 41q118 0 171 -45q6 51 20 75q23 39 68 39q25 0 42 -16t17 -40q0 -22 -14 -36.5t-34 -14.5q-34 0 -38 30q-1 11 -8 11q-11 0 -19 -17q-15 -25 -15 -43q0 -11 10 -45t10 -56q0 -105 -91 -142q-29 -12 -56 -15.5t-111 -6.5
q-67 -3 -67 -42q0 -36 86 -40q146 -7 181 -16q42 -11 66.5 -43.5t24.5 -77.5q0 -73 -68 -117.5t-180 -44.5q-99 0 -162 37.5t-63 96.5q0 64 92 102q-64 24 -64 75q0 70 96 87zM281 443q-118 0 -118 -128q0 -126 118 -126q117 0 117 125q0 129 -117 129zM177 -2l-9 -6
q-51 -34 -51 -71q0 -46 50.5 -80.5t118.5 -34.5q67 0 108.5 28.5t41.5 75.5q0 50 -39 64q-25 9 -119 14q-58 3 -101 10z" />
    <glyph glyph-name="h" unicode="h" horiz-adv-x="671" 
d="M207 690v-302q63 88 169 88q105 0 152 -67q29 -41 29 -120v-157q0 -62 11 -79.5t56 -21.5l24 -2v-29h-269v29l24 2q45 4 56 21.5t11 79.5v133q0 87 -28.5 125.5t-92.5 38.5q-84 0 -120 -59q-22 -36 -22 -104v-134q0 -62 11 -79.5t56 -21.5l24 -2v-29h-269v29l24 2
q45 4 56 21.5t11 79.5v416q0 54 -16.5 70.5t-70.5 18.5l-22 1v28z" />
    <glyph glyph-name="i" unicode="i" horiz-adv-x="342" 
d="M219 477v-345q0 -62 11 -79.5t56 -21.5l24 -2v-29h-269v29l24 2q45 4 56 21.5t11 79.5v194q0 54 -4 68q-10 36 -64 41l-32 3v28zM173 688q25 0 42 -17t17 -42t-17.5 -42t-42.5 -17q-24 0 -41 17.5t-17 42.5q0 23 17.5 40.5t41.5 17.5z" />
    <glyph glyph-name="j" unicode="j" horiz-adv-x="305" 
d="M218 477v-489q0 -103 -45 -155q-52 -60 -136 -60q-47 0 -75 22t-28 59q0 28 17 45t43 17q23 0 38 -14.5t15 -36.5q0 -21 -18 -38q-5 -7 -5 -9q0 -15 32 -15q49 0 67 46q8 20 8 80v404q0 47 -4 61q-10 36 -64 41l-32 3v28zM172 688q25 0 42 -17t17 -42t-17 -42t-42 -17
t-42 17.5t-17 42.5q0 23 17.5 40.5t41.5 17.5z" />
    <glyph glyph-name="k" unicode="k" horiz-adv-x="602" 
d="M263 240l-56 -50v-58q0 -62 11 -79.5t56 -21.5l24 -2v-29h-269v29l24 2q45 4 56 21.5t11 79.5v401q0 57 -10 75q-14 26 -77 29l-22 1v28l196 24v-459l122 115q5 5 22 20q30 27 30 48q0 13 -12 18t-47 6v29h245v-29q-58 -4 -102 -30.5t-139 -112.5l175 -200q34 -39 58 -53
t58 -13v-29h-159z" />
    <glyph glyph-name="l" unicode="l" horiz-adv-x="326" 
d="M207 690v-558q0 -63 11 -80t56 -21l24 -2v-29h-269v29l24 2q45 4 56 21.5t11 79.5v402q0 63 -16 82t-71 21l-22 1v28z" />
    <glyph glyph-name="m" unicode="m" horiz-adv-x="1015" 
d="M213 476v-90q76 90 176 90q59 0 94.5 -21t64.5 -73q60 94 175 94q113 0 157 -82q21 -39 21 -120v-142q0 -62 11 -79.5t56 -21.5l24 -2v-29h-269v29l24 2q45 4 56 21.5t11 79.5v129q0 83 -23 118q-33 50 -96 50q-88 0 -121 -69q-14 -28 -14 -99v-129q0 -62 11 -79.5
t56 -21.5l24 -2v-29h-269v29l24 2q45 4 56 21.5t11 79.5v118q0 95 -20 126q-33 51 -100 51q-59 0 -96.5 -40.5t-37.5 -104.5v-150q0 -62 11 -79.5t56 -21.5l24 -2v-29h-269v29l24 2q45 4 56 21.5t11 79.5v195q0 53 -4 67q-10 36 -64 41l-32 3v28z" />
    <glyph glyph-name="n" unicode="n" horiz-adv-x="682" 
d="M212 476v-92q38 51 76.5 71.5t97.5 20.5q183 0 183 -187v-157q0 -62 11 -79.5t56 -21.5l24 -2v-29h-269v29l24 2q45 4 56 21.5t11 79.5v133q0 83 -23 118q-31 47 -101 47q-77 0 -117 -61q-22 -34 -22 -103v-134q0 -62 11 -79.5t56 -21.5l24 -2v-29h-269v29l24 2
q45 4 56 21.5t11 79.5v195q0 53 -4 67q-10 36 -64 41l-32 3v28z" />
    <glyph glyph-name="o" unicode="o" horiz-adv-x="593" 
d="M296 476q116 0 181 -58q70 -62 70 -185t-70 -185q-65 -58 -180 -58q-122 0 -187 64t-65 183q0 120 70 181q67 58 181 58zM295 446q-150 0 -150 -210q0 -216 153 -216q149 0 149 213t-152 213z" />
    <glyph glyph-name="p" unicode="p" horiz-adv-x="648" 
d="M207 476v-88q65 89 171 89q100 0 164 -66q61 -63 61 -175q0 -116 -64 -181t-177 -65q-87 0 -155 48v-122q0 -63 11 -80t56 -21l31 -3v-29h-276v29l24 2q45 4 56 21.5t11 80.5v418q0 46 -4 60q-10 36 -64 41l-32 3v28zM355 437q-71 0 -111 -52q-37 -48 -37 -152
q0 -93 26 -141q37 -68 117 -68q70 0 111.5 58t41.5 156q0 93 -39.5 146t-108.5 53z" />
    <glyph glyph-name="q" unicode="q" horiz-adv-x="615" 
d="M506 500h22v-584q0 -63 11 -80.5t56 -21.5l21 -2v-29h-273v29l31 3q45 4 56 21.5t11 79.5v158q-69 -84 -171 -84q-100 0 -162.5 67t-62.5 176q0 110 62.5 177t164.5 67q107 0 167 -76zM294 439q-70 0 -109.5 -53.5t-39.5 -148.5q0 -100 38.5 -154.5t108.5 -54.5
q74 0 111.5 52.5t37.5 155.5q0 102 -37.5 152.5t-109.5 50.5z" />
    <glyph glyph-name="r" unicode="r" horiz-adv-x="459" 
d="M215 476v-103q56 107 145 107q41 0 67 -21t26 -55q0 -28 -17.5 -46t-43.5 -18q-22 0 -37 14.5t-15 34.5q0 17 15 36q7 7 7 11q0 11 -18 11q-50 0 -89 -66q-36 -60 -36 -159v-90q0 -61 11 -78.5t56 -21.5l31 -3v-29h-276v29l24 2q45 4 56 21.5t11 79.5v198q0 50 -4 64
q-10 36 -64 41l-32 3v28z" />
    <glyph glyph-name="s" unicode="s" horiz-adv-x="458" 
d="M380 467l2 -143l-29 -1q-16 60 -34 81q-37 44 -96 44q-38 0 -61.5 -19.5t-23.5 -51.5t26 -54.5t90 -45.5q83 -30 108 -47q43 -29 43 -94q0 -68 -44 -107t-122 -39q-45 0 -107 17q-29 8 -37 8q-11 0 -19 -15h-17l-2 168l29 1q13 -64 37 -95q42 -54 105 -54q44 0 71 23.5
t27 60.5q0 39 -31 60q-15 10 -25 15q-13 5 -63 23q-78 28 -109 59t-31 80q0 65 42 100.5t119 35.5q57 0 105 -19q8 -4 15 -4q9 0 15 13h17z" />
    <glyph glyph-name="t" unicode="t" horiz-adv-x="369" 
d="M339 467v-33h-139v-301q0 -89 75 -89q25 0 71 18l11 -24q-82 -48 -143 -48q-100 0 -100 109v335h-113v33h113v102l65 65h21v-167h139z" />
    <glyph glyph-name="u" unicode="u" horiz-adv-x="672" 
d="M469 0v78q-78 -88 -183 -88q-95 0 -140 60q-32 43 -32 134v143q0 53 -4 67q-10 36 -64 41l-32 3v28l187 11v-274q0 -164 126 -164q87 0 118 68q17 37 17 96v124q0 53 -4 67q-10 36 -64 41l-32 3v28l187 11v-345q0 -62 11 -79.5t56 -21.5l24 -2v-29h-171z" />
    <glyph glyph-name="v" unicode="v" horiz-adv-x="580" 
d="M317 0h-66l-165 369q-20 44 -32.5 54t-56.5 15v29h249v-29q-74 -3 -74 -32q0 -12 14 -44l129 -292l121 289q13 31 13 45q0 19 -13 25.5t-57 8.5v29h208v-29q-44 -4 -64 -25q-25 -25 -68 -117z" />
    <glyph glyph-name="w" unicode="w" horiz-adv-x="869" 
d="M292 0h-70l-138 366q-16 42 -30.5 54t-56.5 18v29h241v-29q-39 -5 -43 -7q-23 -7 -23 -30q0 -17 6 -33l109 -290l136 389h68l135 -379l98 270q11 30 11 46q0 33 -66 34v29h207v-29q-42 -2 -65 -25.5t-54 -97.5l-132 -315h-64l-131 367z" />
    <glyph glyph-name="x" unicode="x" horiz-adv-x="553" 
d="M535 467v-29q-44 -5 -59.5 -14t-55.5 -50l-103 -107l132 -177q40 -54 100 -61v-29h-247v29q60 8 60 29q0 12 -19 37l-84 109l-88 -106q-27 -33 -27 -45q0 -17 67 -24v-29h-208v29q42 6 59 15t45 40l134 146l-117 153q-24 32 -40 42q-19 12 -54 13v29h233v-29
q-49 -5 -49 -25q0 -9 16 -30l68 -91l76 93q13 16 13 27q0 19 -43 24l-16 2v29h207z" />
    <glyph glyph-name="y" unicode="y" horiz-adv-x="578" 
d="M314 80l119 276q14 33 14 47q0 32 -70 35v29h208v-29q-40 -4 -61 -24.5t-53 -85.5l-160 -323q-54 -110 -62 -125q-15 -28 -29 -47q-44 -59 -114 -59q-46 0 -74 22.5t-28 59.5q0 28 16.5 45.5t42.5 17.5q22 0 37 -14t15 -34q0 -18 -17 -40q-2 -6 -2 -8q0 -17 31 -17
q40 0 76 55q13 20 64 124l-176 369q-26 55 -40 67t-54 17v29h249v-29q-44 -3 -58.5 -10t-14.5 -26q0 -16 24 -68z" />
    <glyph glyph-name="z" unicode="z" horiz-adv-x="517" 
d="M474 444l-321 -407h134q67 0 105 30q18 14 28 33t28 73l29 -1l-2 -172h-438v28l321 406h-123q-75 0 -103 -32q-18 -21 -45 -100l-29 1l2 164h414v-23z" />
    <glyph glyph-name="braceleft" unicode="{" horiz-adv-x="330" 
d="M19 269v29q41 2 58 19.5t17 56.5q0 14 -1 40q-2 51 -2 84q0 58 3 79q6 47 27 73q30 36 116 36q38 0 46 1v-30q-67 -1 -91.5 -26t-24.5 -94v-28q0 -10 1 -37v-49q0 -44 -2 -57q-4 -32 -22 -52q-20 -23 -60 -31q68 -8 80 -71q4 -21 4 -88v-116q0 -71 24 -97t91 -28v-30
q-4 1 -48 1q-77 1 -107 28q-36 33 -36 104v59l1 150q0 71 -74 74z" />
    <glyph glyph-name="bar" unicode="|" horiz-adv-x="543" 
d="M249 666h45v-833h-45v833z" />
    <glyph glyph-name="braceright" unicode="}" horiz-adv-x="330" 
d="M311 298v-29q-74 -3 -74 -74l1 -209q0 -78 -42 -109q-30 -22 -101 -23q-20 0 -48 -1v30q52 2 76.5 16.5t33.5 48.5q5 20 5 63v113q0 86 16 117t68 42q-40 8 -60 31q-18 20 -22 51q-2 13 -2 57q0 15 1 44v43v29q0 68 -24.5 93t-91.5 26v30q8 -1 46 -1q49 0 74 -8
q36 -12 54 -46t18 -134q0 -34 -2 -84q-1 -25 -1 -41q0 -38 17.5 -55.5t57.5 -19.5z" />
    <glyph glyph-name="asciitilde" unicode="~" horiz-adv-x="444" 
d="M22 600l-8 40q59 53 113 53q30 0 93 -26q58 -24 89 -24q48 0 103 54l8 -39q-56 -62 -123 -62q-23 0 -39 4.5t-90 31.5q-41 15 -56 15q-40 0 -90 -47z" />
    <glyph glyph-name="Adieresis" unicode="&#xc4;" horiz-adv-x="706" 
d="M396 666l206 -496q36 -87 56 -109.5t68 -28.5v-32h-281v32q84 9 84 33q0 13 -21 67l-43 111h-271l-40 -102q-21 -54 -21 -70q0 -17 18.5 -25.5t68.5 -13.5v-32h-240v32q52 5 74 29t63 120l196 461l10 24h73zM328 578l-119 -295h239zM232 852q26 0 44.5 -18t18.5 -44
t-18.5 -44.5t-44.5 -18.5t-44 18.5t-18 44.5q0 25 18.5 43.5t43.5 18.5zM492 852q26 0 44.5 -18t18.5 -44t-18.5 -44.5t-44.5 -18.5t-44 18.5t-18 44.5q0 25 18.5 43.5t43.5 18.5z" />
    <glyph glyph-name="Aring" unicode="&#xc5;" horiz-adv-x="706" 
d="M396 666l206 -496q36 -87 56 -109.5t68 -28.5v-32h-281v32q84 9 84 33q0 13 -21 67l-43 111h-271l-40 -102q-21 -54 -21 -70q0 -17 18.5 -25.5t68.5 -13.5v-32h-240v32q52 5 74 29t63 120l196 461l10 24h73zM328 578l-119 -295h239zM364 864q39 0 64.5 -22.5t25.5 -57.5
q0 -34 -26 -57.5t-64 -23.5q-40 0 -65.5 23t-25.5 59q0 35 25.5 57t65.5 22zM364 839q-47 0 -47 -54q0 -25 13 -41t33 -16t33.5 16t13.5 41q0 24 -13 39t-33 15z" />
    <glyph glyph-name="Ccedilla" unicode="&#xc7;" horiz-adv-x="729" 
d="M422 -16l-16 -52q18 2 22 2q31 0 52.5 -17.5t21.5 -41.5q0 -35 -32.5 -58t-81.5 -23q-21 0 -64 7l4 28q27 -3 38 -3q68 0 68 46q0 31 -52 31q-1 0 -23 -2l26 84q-163 10 -248 99.5t-85 249.5q0 169 95 258t275 89q59 0 92 -7t101 -33q10 -4 19 -4q15 0 34 29h22l2 -226
l-42 -1q-24 93 -51 127q-60 77 -179 77q-121 0 -189.5 -82.5t-68.5 -228.5q0 -141 69.5 -225t185.5 -84q60 0 114 26.5t123 90.5l37 -40q-117 -113 -269 -116z" />
    <glyph glyph-name="Eacute" unicode="&#xc9;" horiz-adv-x="687" 
d="M603 666l15 -199h-42q-3 7 -22 48q-32 71 -62 91t-101 20h-145v-252l77 2q35 1 52.5 16.5t29.5 58.5l14 49h31v-290h-31l-16 55q-12 40 -30.5 54t-58.5 15l-68 2v-296h130q81 0 117 21q43 25 67 88l29 76h42l-17 -225h-571v32l36 4q41 5 54 20t13 78v398q0 63 -13 78
t-54 20l-36 4v32h560zM307 707l-11 17l181 143q23 18 38 18q12 0 21 -10t9 -23q0 -22 -29 -37z" />
    <glyph glyph-name="Ntilde" unicode="&#xd1;" horiz-adv-x="802" 
d="M256 666l374 -530l-7 389q-1 67 -21 87t-89 22v32h269v-32q-67 -2 -86.5 -21.5t-20.5 -87.5l-8 -525h-68l-417 574l7 -434q1 -67 19 -84.5t92 -23.5v-32h-271v32q70 2 88 19.5t19 81.5l7 408q0 52 -19 67.5t-95 25.5v32h227zM569 848l34 -2q-10 -117 -86 -117
q-34 0 -142 46q-28 12 -51 12q-21 0 -31.5 -13.5t-17.5 -50.5l-34 7q7 115 89 115q31 0 109 -30q65 -25 85 -25q23 0 32.5 12.5t12.5 45.5z" />
    <glyph glyph-name="Odieresis" unicode="&#xd6;" horiz-adv-x="835" 
d="M418 681q176 0 270.5 -90t94.5 -258q0 -167 -94.5 -257.5t-269.5 -90.5q-177 0 -275 93q-92 88 -92 260q0 164 95.5 253.5t270.5 89.5zM418 643q-120 0 -186 -83q-70 -88 -70 -223q0 -145 69 -229.5t187 -84.5q116 0 185.5 84.5t69.5 225.5q0 139 -70 227q-66 83 -185 83
zM296 852q26 0 44.5 -18t18.5 -44t-18.5 -44.5t-44.5 -18.5t-44 18.5t-18 44.5q0 25 18.5 43.5t43.5 18.5zM556 852q26 0 44.5 -18t18.5 -44t-18.5 -44.5t-44.5 -18.5t-44 18.5t-18 44.5q0 25 18.5 43.5t43.5 18.5z" />
    <glyph glyph-name="Udieresis" unicode="&#xdc;" horiz-adv-x="777" 
d="M499 666h268v-32q-77 -5 -92.5 -27.5t-17.5 -136.5l-5 -230q-1 -58 -9 -88q-11 -42 -42 -78q-77 -89 -217 -89q-152 0 -218 93q-38 54 -38 166v288q0 63 -13 78t-54 20l-36 4v32h306v-32l-36 -4q-41 -5 -54 -20t-13 -78v-287q0 -91 52 -145t139 -54q126 0 168 90
q20 43 20 130v7l-4 201q-2 109 -15.5 131t-88.5 29v32zM294 852q26 0 44.5 -18t18.5 -44t-18.5 -44.5t-44.5 -18.5t-44 18.5t-18 44.5q0 25 18.5 43.5t43.5 18.5zM554 852q26 0 44.5 -18t18.5 -44t-18.5 -44.5t-44.5 -18.5t-44 18.5t-18 44.5q0 25 18.5 43.5t43.5 18.5z" />
    <glyph glyph-name="aacute" unicode="&#xe1;" horiz-adv-x="549" 
d="M528 69l12 -16q-61 -60 -111 -60q-36 0 -57 30q-11 15 -20 52q-77 -85 -163 -85q-61 0 -98.5 37t-37.5 98t36 93t132 48q16 3 38 7l94 17q-2 86 -16 113q-22 44 -93 44q-28 0 -52 -10t-24 -21q0 -4 12.5 -16.5t12.5 -32.5q0 -24 -16 -40t-41 -16t-40.5 16.5t-15.5 42.5
q0 49 50 78t134 29q123 0 162 -75q15 -31 15 -100v-164q0 -52 8 -72t30 -20q16 0 49 23zM354 181v78q-102 -18 -145 -33q-63 -22 -63 -90q0 -40 25 -65.5t65 -25.5q59 0 90 41q28 36 28 95zM250 529l-13 15l162 164q23 23 39 23q12 0 21.5 -10t9.5 -23q0 -21 -24 -37z" />
    <glyph glyph-name="agrave" unicode="&#xe0;" horiz-adv-x="549" 
d="M528 69l12 -16q-61 -60 -111 -60q-36 0 -57 30q-11 15 -20 52q-77 -85 -163 -85q-61 0 -98.5 37t-37.5 98t36 93t132 48q16 3 38 7l94 17q-2 86 -16 113q-22 44 -93 44q-28 0 -52 -10t-24 -21q0 -4 12.5 -16.5t12.5 -32.5q0 -24 -16 -40t-41 -16t-40.5 16.5t-15.5 42.5
q0 49 50 78t134 29q123 0 162 -75q15 -31 15 -100v-164q0 -52 8 -72t30 -20q16 0 49 23zM354 181v78q-102 -18 -145 -33q-63 -22 -63 -90q0 -40 25 -65.5t65 -25.5q59 0 90 41q28 36 28 95zM312 525l-188 140q-24 18 -24 36q0 13 9.5 23t21.5 10q19 0 39 -22l155 -171z" />
    <glyph glyph-name="acircumflex" unicode="&#xe2;" horiz-adv-x="549" 
d="M528 69l12 -16q-61 -60 -111 -60q-36 0 -57 30q-11 15 -20 52q-77 -85 -163 -85q-61 0 -98.5 37t-37.5 98t36 93t132 48q16 3 38 7l94 17q-2 86 -16 113q-22 44 -93 44q-28 0 -52 -10t-24 -21q0 -4 12.5 -16.5t12.5 -32.5q0 -24 -16 -40t-41 -16t-40.5 16.5t-15.5 42.5
q0 49 50 78t134 29q123 0 162 -75q15 -31 15 -100v-164q0 -52 8 -72t30 -20q16 0 49 23zM354 181v78q-102 -18 -145 -33q-63 -22 -63 -90q0 -40 25 -65.5t65 -25.5q59 0 90 41q28 36 28 95zM277 729l169 -164l-20 -25l-149 115l-148 -115l-21 25z" />
    <glyph glyph-name="adieresis" unicode="&#xe4;" horiz-adv-x="549" 
d="M528 69l12 -16q-61 -60 -111 -60q-36 0 -57 30q-11 15 -20 52q-77 -85 -163 -85q-61 0 -98.5 37t-37.5 98t36 93t132 48q16 3 38 7l94 17q-2 86 -16 113q-22 44 -93 44q-28 0 -52 -10t-24 -21q0 -4 12.5 -16.5t12.5 -32.5q0 -24 -16 -40t-41 -16t-40.5 16.5t-15.5 42.5
q0 49 50 78t134 29q123 0 162 -75q15 -31 15 -100v-164q0 -52 8 -72t30 -20q16 0 49 23zM354 181v78q-102 -18 -145 -33q-63 -22 -63 -90q0 -40 25 -65.5t65 -25.5q59 0 90 41q28 36 28 95zM186 688q25 0 42 -17t17 -42t-17.5 -42t-42.5 -17q-24 0 -41 17.5t-17 42.5
q0 23 17.5 40.5t41.5 17.5zM363 688q25 0 42 -17t17 -42t-17 -42t-42 -17t-42 17.5t-17 42.5q0 23 17.5 40.5t41.5 17.5z" />
    <glyph glyph-name="atilde" unicode="&#xe3;" horiz-adv-x="549" 
d="M528 69l12 -16q-61 -60 -111 -60q-36 0 -57 30q-11 15 -20 52q-77 -85 -163 -85q-61 0 -98.5 37t-37.5 98t36 93t132 48q16 3 38 7l94 17q-2 86 -16 113q-22 44 -93 44q-28 0 -52 -10t-24 -21q0 -4 12.5 -16.5t12.5 -32.5q0 -24 -16 -40t-41 -16t-40.5 16.5t-15.5 42.5
q0 49 50 78t134 29q123 0 162 -75q15 -31 15 -100v-164q0 -52 8 -72t30 -20q16 0 49 23zM354 181v78q-102 -18 -145 -33q-63 -22 -63 -90q0 -40 25 -65.5t65 -25.5q59 0 90 41q28 36 28 95zM434 692l34 -3q-10 -116 -86 -116q-34 0 -142 45q-29 12 -51 12q-21 0 -31.5 -13
t-17.5 -50l-34 7q7 114 89 114q31 0 109 -30q62 -24 85 -24t32.5 12.5t12.5 45.5z" />
    <glyph glyph-name="aring" unicode="&#xe5;" horiz-adv-x="549" 
d="M528 69l12 -16q-61 -60 -111 -60q-36 0 -57 30q-11 15 -20 52q-77 -85 -163 -85q-61 0 -98.5 37t-37.5 98t36 93t132 48q16 3 38 7l94 17q-2 86 -16 113q-22 44 -93 44q-28 0 -52 -10t-24 -21q0 -4 12.5 -16.5t12.5 -32.5q0 -24 -16 -40t-41 -16t-40.5 16.5t-15.5 42.5
q0 49 50 78t134 29q123 0 162 -75q15 -31 15 -100v-164q0 -52 8 -72t30 -20q16 0 49 23zM354 181v78q-102 -18 -145 -33q-63 -22 -63 -90q0 -40 25 -65.5t65 -25.5q59 0 90 41q28 36 28 95zM273 703q41 0 69 -25.5t28 -62.5q0 -38 -28 -63.5t-69 -25.5q-43 0 -70.5 25.5
t-27.5 64.5q0 37 28 62t70 25zM272 677q-22 0 -36.5 -17.5t-14.5 -43.5q0 -29 14.5 -46.5t37.5 -17.5q22 0 36.5 18t14.5 46q0 26 -15 43.5t-37 17.5z" />
    <glyph glyph-name="ccedilla" unicode="&#xe7;" horiz-adv-x="495" 
d="M285 -10l-17 -51q8 1 21 1q31 0 51.5 -16t20.5 -41q0 -32 -32.5 -52.5t-83.5 -20.5q-24 0 -52 6l5 27q24 -3 34 -3q64 0 64 43q0 31 -42 31q-9 0 -26 -3l24 79q-101 8 -157 72t-56 171q0 115 64 179t180 64q81 0 133.5 -32.5t52.5 -82.5q0 -25 -17.5 -41.5t-43.5 -16.5
q-24 0 -39.5 14t-15.5 36q0 21 24 44q4 6 4 10q0 16 -27.5 27.5t-64.5 11.5q-75 0 -108 -47q-42 -59 -42 -163q0 -96 42 -148t119 -52q75 0 141 66l22 -22q-76 -83 -178 -90z" />
    <glyph glyph-name="eacute" unicode="&#xe9;" horiz-adv-x="539" 
d="M461 111l22 -20q-38 -43 -67 -62q-60 -39 -140 -39q-105 0 -168 67t-63 179q0 110 63 175t170 65q131 0 187 -91q31 -51 34 -146h-355q0 -98 30 -142q41 -60 130 -60q49 0 82 15.5t75 58.5zM145 272h258q-7 95 -36 134.5t-92 39.5q-77 0 -107 -64q-16 -34 -23 -110z
M253 529l-13 15l162 164q23 23 39 23q12 0 21.5 -10t9.5 -23q0 -21 -24 -37z" />
    <glyph glyph-name="egrave" unicode="&#xe8;" horiz-adv-x="539" 
d="M461 111l22 -20q-38 -43 -67 -62q-60 -39 -140 -39q-105 0 -168 67t-63 179q0 110 63 175t170 65q131 0 187 -91q31 -51 34 -146h-355q0 -98 30 -142q41 -60 130 -60q49 0 82 15.5t75 58.5zM145 272h258q-7 95 -36 134.5t-92 39.5q-77 0 -107 -64q-16 -34 -23 -110z
M308 525l-188 140q-24 18 -24 36q0 13 9.5 23t21.5 10q19 0 39 -22l155 -171z" />
    <glyph glyph-name="ecircumflex" unicode="&#xea;" horiz-adv-x="539" 
d="M461 111l22 -20q-38 -43 -67 -62q-60 -39 -140 -39q-105 0 -168 67t-63 179q0 110 63 175t170 65q131 0 187 -91q31 -51 34 -146h-355q0 -98 30 -142q41 -60 130 -60q49 0 82 15.5t75 58.5zM145 272h258q-7 95 -36 134.5t-92 39.5q-77 0 -107 -64q-16 -34 -23 -110z
M289 729l169 -164l-20 -25l-149 115l-148 -115l-21 25z" />
    <glyph glyph-name="edieresis" unicode="&#xeb;" horiz-adv-x="539" 
d="M461 111l22 -20q-38 -43 -67 -62q-60 -39 -140 -39q-105 0 -168 67t-63 179q0 110 63 175t170 65q131 0 187 -91q31 -51 34 -146h-355q0 -98 30 -142q41 -60 130 -60q49 0 82 15.5t75 58.5zM145 272h258q-7 95 -36 134.5t-92 39.5q-77 0 -107 -64q-16 -34 -23 -110z
M196 688q25 0 42 -17t17 -42t-17.5 -42t-42.5 -17q-24 0 -41 17.5t-17 42.5q0 23 17.5 40.5t41.5 17.5zM373 688q25 0 42 -17t17 -42t-17 -42t-42 -17t-42 17.5t-17 42.5q0 23 17.5 40.5t41.5 17.5z" />
    <glyph glyph-name="iacute" unicode="&#xed;" horiz-adv-x="342" 
d="M219 477v-345q0 -62 11 -79.5t56 -21.5l24 -2v-29h-269v29l24 2q45 4 56 21.5t11 79.5v194q0 54 -4 68q-10 36 -64 41l-32 3v28zM149 529l-13 15l162 164q23 23 39 23q12 0 21.5 -10t9.5 -23q0 -21 -24 -37z" />
    <glyph glyph-name="igrave" unicode="&#xec;" horiz-adv-x="342" 
d="M219 477v-345q0 -62 11 -79.5t56 -21.5l24 -2v-29h-269v29l24 2q45 4 56 21.5t11 79.5v194q0 54 -4 68q-10 36 -64 41l-32 3v28zM190 525l-188 140q-24 18 -24 36q0 13 9.5 23t21.5 10q19 0 39 -22l155 -171z" />
    <glyph glyph-name="icircumflex" unicode="&#xee;" horiz-adv-x="342" 
d="M219 477v-345q0 -62 11 -79.5t56 -21.5l24 -2v-29h-269v29l24 2q45 4 56 21.5t11 79.5v194q0 54 -4 68q-10 36 -64 41l-32 3v28zM178 729l169 -164l-20 -25l-149 115l-148 -115l-21 25z" />
    <glyph glyph-name="idieresis" unicode="&#xef;" horiz-adv-x="342" 
d="M219 477v-345q0 -62 11 -79.5t56 -21.5l24 -2v-29h-269v29l24 2q45 4 56 21.5t11 79.5v194q0 54 -4 68q-10 36 -64 41l-32 3v28zM85 688q25 0 42 -17t17 -42t-17.5 -42t-42.5 -17q-24 0 -41 17.5t-17 42.5q0 23 17.5 40.5t41.5 17.5zM262 688q25 0 42 -17t17 -42t-17 -42
t-42 -17t-42 17.5t-17 42.5q0 23 17.5 40.5t41.5 17.5z" />
    <glyph glyph-name="ntilde" unicode="&#xf1;" horiz-adv-x="682" 
d="M212 476v-92q38 51 76.5 71.5t97.5 20.5q183 0 183 -187v-157q0 -62 11 -79.5t56 -21.5l24 -2v-29h-269v29l24 2q45 4 56 21.5t11 79.5v133q0 83 -23 118q-31 47 -101 47q-77 0 -117 -61q-22 -34 -22 -103v-134q0 -62 11 -79.5t56 -21.5l24 -2v-29h-269v29l24 2
q45 4 56 21.5t11 79.5v195q0 53 -4 67q-10 36 -64 41l-32 3v28zM510 692l34 -3q-10 -116 -86 -116q-34 0 -142 45q-29 12 -51 12q-21 0 -31.5 -13t-17.5 -50l-34 7q7 114 89 114q31 0 109 -30q62 -24 85 -24t32.5 12.5t12.5 45.5z" />
    <glyph glyph-name="oacute" unicode="&#xf3;" horiz-adv-x="593" 
d="M296 476q116 0 181 -58q70 -62 70 -185t-70 -185q-65 -58 -180 -58q-122 0 -187 64t-65 183q0 120 70 181q67 58 181 58zM295 446q-150 0 -150 -210q0 -216 153 -216q149 0 149 213t-152 213zM280 529l-13 15l162 164q23 23 39 23q12 0 21.5 -10t9.5 -23q0 -21 -24 -37z
" />
    <glyph glyph-name="ograve" unicode="&#xf2;" horiz-adv-x="593" 
d="M296 476q116 0 181 -58q70 -62 70 -185t-70 -185q-65 -58 -180 -58q-122 0 -187 64t-65 183q0 120 70 181q67 58 181 58zM295 446q-150 0 -150 -210q0 -216 153 -216q149 0 149 213t-152 213zM325 525l-188 140q-24 18 -24 36q0 13 9.5 23t21.5 10q19 0 39 -22l155 -171z
" />
    <glyph glyph-name="ocircumflex" unicode="&#xf4;" horiz-adv-x="593" 
d="M296 476q116 0 181 -58q70 -62 70 -185t-70 -185q-65 -58 -180 -58q-122 0 -187 64t-65 183q0 120 70 181q67 58 181 58zM295 446q-150 0 -150 -210q0 -216 153 -216q149 0 149 213t-152 213zM306 729l169 -164l-20 -25l-149 115l-148 -115l-21 25z" />
    <glyph glyph-name="odieresis" unicode="&#xf6;" horiz-adv-x="593" 
d="M296 476q116 0 181 -58q70 -62 70 -185t-70 -185q-65 -58 -180 -58q-122 0 -187 64t-65 183q0 120 70 181q67 58 181 58zM295 446q-150 0 -150 -210q0 -216 153 -216q149 0 149 213t-152 213zM217 688q25 0 42 -17t17 -42t-17.5 -42t-42.5 -17q-24 0 -41 17.5t-17 42.5
q0 23 17.5 40.5t41.5 17.5zM394 688q25 0 42 -17t17 -42t-17 -42t-42 -17t-42 17.5t-17 42.5q0 23 17.5 40.5t41.5 17.5z" />
    <glyph glyph-name="otilde" unicode="&#xf5;" horiz-adv-x="593" 
d="M296 476q116 0 181 -58q70 -62 70 -185t-70 -185q-65 -58 -180 -58q-122 0 -187 64t-65 183q0 120 70 181q67 58 181 58zM295 446q-150 0 -150 -210q0 -216 153 -216q149 0 149 213t-152 213zM465 692l34 -3q-10 -116 -86 -116q-34 0 -142 45q-29 12 -51 12
q-21 0 -31.5 -13t-17.5 -50l-34 7q7 114 89 114q31 0 109 -30q62 -24 85 -24t32.5 12.5t12.5 45.5z" />
    <glyph glyph-name="uacute" unicode="&#xfa;" horiz-adv-x="672" 
d="M469 0v78q-78 -88 -183 -88q-95 0 -140 60q-32 43 -32 134v143q0 53 -4 67q-10 36 -64 41l-32 3v28l187 11v-274q0 -164 126 -164q87 0 118 68q17 37 17 96v124q0 53 -4 67q-10 36 -64 41l-32 3v28l187 11v-345q0 -62 11 -79.5t56 -21.5l24 -2v-29h-171zM308 529l-13 15
l162 164q23 23 39 23q12 0 21.5 -10t9.5 -23q0 -21 -24 -37z" />
    <glyph glyph-name="ugrave" unicode="&#xf9;" horiz-adv-x="672" 
d="M469 0v78q-78 -88 -183 -88q-95 0 -140 60q-32 43 -32 134v143q0 53 -4 67q-10 36 -64 41l-32 3v28l187 11v-274q0 -164 126 -164q87 0 118 68q17 37 17 96v124q0 53 -4 67q-10 36 -64 41l-32 3v28l187 11v-345q0 -62 11 -79.5t56 -21.5l24 -2v-29h-171zM353 525
l-188 140q-24 18 -24 36q0 13 9.5 23t21.5 10q19 0 39 -22l155 -171z" />
    <glyph glyph-name="ucircumflex" unicode="&#xfb;" horiz-adv-x="672" 
d="M469 0v78q-78 -88 -183 -88q-95 0 -140 60q-32 43 -32 134v143q0 53 -4 67q-10 36 -64 41l-32 3v28l187 11v-274q0 -164 126 -164q87 0 118 68q17 37 17 96v124q0 53 -4 67q-10 36 -64 41l-32 3v28l187 11v-345q0 -62 11 -79.5t56 -21.5l24 -2v-29h-171zM334 729
l169 -164l-20 -25l-149 115l-148 -115l-21 25z" />
    <glyph glyph-name="udieresis" unicode="&#xfc;" horiz-adv-x="672" 
d="M469 0v78q-78 -88 -183 -88q-95 0 -140 60q-32 43 -32 134v143q0 53 -4 67q-10 36 -64 41l-32 3v28l187 11v-274q0 -164 126 -164q87 0 118 68q17 37 17 96v124q0 53 -4 67q-10 36 -64 41l-32 3v28l187 11v-345q0 -62 11 -79.5t56 -21.5l24 -2v-29h-171zM235 688
q25 0 42 -17t17 -42t-17.5 -42t-42.5 -17q-24 0 -41 17.5t-17 42.5q0 23 17.5 40.5t41.5 17.5zM412 688q25 0 42 -17t17 -42t-17 -42t-42 -17t-42 17.5t-17 42.5q0 23 17.5 40.5t41.5 17.5z" />
    <glyph glyph-name="dagger" unicode="&#x2020;" horiz-adv-x="533" 
d="M250 402q-2 63 -6.5 90t-21.5 93q-5 19 -5 35q0 57 50 57t50 -57q0 -16 -17 -81q-12 -46 -16 -137q24 3 65 10q14 3 55 16q12 4 27 4q20 0 33 -13.5t13 -33.5t-13 -34t-32 -14t-66 17l-4 1q-41 15 -78 17q-1 -230 33 -409q4 -21 4 -43q0 -64 -54 -64t-54 64q0 13 17 117
q22 131 20 335q-37 -2 -78 -17l-4 -1q-47 -17 -66 -17q-18 0 -31.5 14.5t-13.5 33.5q0 20 13 33.5t33 13.5q13 0 64 -15q23 -7 83 -15z" />
    <glyph glyph-name="degree" unicode="&#xb0;" horiz-adv-x="306" 
d="M153 676q38 0 65.5 -27.5t27.5 -65.5q0 -39 -27.5 -66t-66.5 -27q-38 0 -65 27.5t-27 65.5t27.5 65.5t65.5 27.5zM153 650q-28 0 -47.5 -19.5t-19.5 -47.5q0 -27 19.5 -47t46.5 -20q28 0 48 19.5t20 47.5t-19.5 47.5t-47.5 19.5z" />
    <glyph glyph-name="cent" unicode="&#xa2;" horiz-adv-x="576" 
d="M300 670h33v-87q78 -3 126 -34.5t48 -80.5q0 -25 -17.5 -41.5t-43.5 -16.5q-24 0 -39.5 14t-15.5 36q0 21 24 44q4 4 4 9q0 16 -24.5 27t-61.5 13v-410h7q73 0 139 66l23 -22q-75 -81 -169 -89v-94h-33v93q-104 5 -163 70t-59 174q0 110 58 172.5t164 68.5v88zM300 147
v403q-39 -5 -64 -27q-58 -51 -58 -181q0 -166 122 -195z" />
    <glyph glyph-name="sterling" unicode="&#xa3;" horiz-adv-x="576" 
d="M451 377v-33h-130q15 -41 15 -80q0 -67 -51 -140q82 -41 102 -49t42 -8q36 0 61 32t25 78q0 13 -4 36l21 3q11 -40 11 -66q0 -72 -36.5 -118.5t-93.5 -46.5q-39 0 -99 35l-68 40q-71 -75 -134 -75q-40 0 -64.5 25t-24.5 65q0 44 30 71t80 27q54 0 126 -36q23 45 23 67
q0 51 -71 140h-139v33h115q-55 78 -55 144q0 70 48 112t129 42q67 0 108.5 -32t41.5 -85q0 -34 -19.5 -56.5t-48.5 -22.5q-24 0 -40 15t-16 38q0 18 9 28q5 6 25 19q11 7 11 20q0 19 -23 32.5t-57 13.5q-46 0 -72.5 -23.5t-26.5 -64.5q0 -38 24 -76q4 -7 55 -72q6 -6 25 -32
h146zM220 77l-54 29q-34 16 -59 16q-20 0 -34.5 -15t-14.5 -37q0 -24 16.5 -41t40.5 -17q49 0 105 65z" />
    <glyph glyph-name="section" unicode="&#xa7;" horiz-adv-x="465" 
d="M381 171v-7q25 -39 25 -77q0 -81 -59.5 -134t-150.5 -53q-64 0 -105.5 29.5t-41.5 75.5q0 30 17.5 48.5t45.5 18.5q56 0 56 -50q0 -22 -26 -43q-7 -7 -7 -13q0 -31 75 -31q58 0 97 30t39 75q0 43 -37 69q-24 16 -118 46q-149 47 -149 166q0 75 55 130v6q-13 27 -13 54
q0 72 49.5 118.5t126.5 46.5q59 0 95.5 -22t36.5 -59q0 -26 -16.5 -43t-41.5 -17q-23 0 -38.5 12.5t-15.5 31.5q0 12 13 28q3 3 3 10q0 28 -51 28q-43 0 -72.5 -29t-29.5 -72t30 -70q26 -24 98.5 -56t100.5 -58q41 -39 41 -92q0 -43 -32 -97zM116 428h-7q-19 -30 -19 -57
q0 -57 55 -94q26 -17 112 -47q68 -23 99 -44h5q17 24 17 43q0 36 -36 60q-23 15 -87.5 42.5t-89 44t-49.5 52.5z" />
    <glyph glyph-name="bullet" unicode="&#x2022;" horiz-adv-x="667" 
d="M336 477q56 0 96.5 -41t40.5 -98t-40.5 -97.5t-97.5 -40.5q-58 0 -98.5 40.5t-40.5 97.5q0 58 40.5 98.5t99.5 40.5z" />
    <glyph glyph-name="paragraph" unicode="&#xb6;" horiz-adv-x="417" 
d="M242 6l-4 275q-113 4 -176 57.5t-63 146.5q0 97 61 144q48 37 141 37h209v-28l-98 -6q-31 -2 -36.5 -7t-5.5 -31v-580q0 -94 -28 -134q-31 -43 -90 -43q-43 0 -71 24.5t-28 62.5q0 26 15.5 42.5t40.5 16.5q53 0 53 -51q0 -18 -10 -30.5t-10 -16.5q0 -14 25 -14
q35 0 53 28q22 33 22 102v5z" />
    <glyph glyph-name="germandbls" unicode="&#xdf;" horiz-adv-x="642" 
d="M54 434v33h78q3 112 39 157q53 66 172 66q75 0 117 -27t42 -76q0 -32 -27 -60q-3 -3 -42 -35q-32 -25 -32 -48q0 -21 24 -46q6 -6 64 -54q67 -53 92 -93t25 -93q0 -73 -49.5 -118t-129.5 -45q-137 0 -137 85q0 26 17 42.5t42 16.5q22 0 37 -14t15 -35q0 -15 -15 -34
q-6 -6 -6 -9q0 -7 15 -13t34 -6q45 0 72 26.5t27 71.5q0 53 -37 95q-14 16 -55 48q-61 48 -82 75.5t-21 60.5q0 35 35 72q42 44 54.5 63.5t12.5 42.5q0 33 -27.5 55t-68.5 22q-76 0 -105 -65q-16 -36 -16 -105v-490h-178v30l24 1q39 2 53.5 19.5t14.5 57.5v326h-78z" />
    <glyph glyph-name="registered" unicode="&#xae;" horiz-adv-x="777" 
d="M576 168l4 -23q-35 -7 -53 -7q-39 0 -56 24q-13 18 -27 70q-18 67 -33 78q-18 14 -54 14h-35v-102q0 -33 5.5 -41t31.5 -11l24 -3v-24h-186v24l24 3q25 3 30.5 11t5.5 41v222q0 33 -5.5 41t-30.5 11l-24 3v24h203q137 0 137 -90q0 -76 -96 -97q34 -10 47.5 -28.5
t25.5 -72.5q15 -69 42 -69q3 0 20 2zM322 352h43q46 0 73.5 21t27.5 56q0 65 -103 65q-24 0 -41 -1v-141zM389 681q144 0 246 -102t102 -245q0 -146 -102.5 -247.5t-250.5 -101.5q-141 0 -242.5 102.5t-101.5 245.5q0 144 102 246t247 102zM389 647q-130 0 -222.5 -92
t-92.5 -222q0 -128 92 -221t219 -93q133 0 225.5 91.5t92.5 223.5q0 129 -92.5 221t-221.5 92z" />
    <glyph glyph-name="copyright" unicode="&#xa9;" horiz-adv-x="777" 
d="M567 523l2 -133l-31 -1q-15 54 -30 72q-35 42 -102 42q-70 0 -109 -45.5t-39 -125.5q0 -78 39.5 -124t106.5 -46q63 0 139 68l26 -28q-76 -68 -167 -68q-102 0 -158.5 52.5t-56.5 146.5q0 96 56.5 147t163.5 51q53 0 114 -23q8 -2 10 -2q7 0 19 17h17zM389 681
q144 0 246 -102t102 -245q0 -146 -102.5 -247.5t-250.5 -101.5q-141 0 -242.5 102.5t-101.5 245.5q0 144 102 246t247 102zM389 647q-130 0 -222.5 -92t-92.5 -222q0 -128 92 -221t219 -93q133 0 225.5 91.5t92.5 223.5q0 129 -92.5 221t-221.5 92z" />
    <glyph glyph-name="trademark" unicode="&#x2122;" horiz-adv-x="959" 
d="M379 666l1 -133h-30l-11 32q-14 42 -30.5 57t-48.5 15h-37v-272q0 -32 5.5 -40t31.5 -11l24 -3v-24h-186v24l24 3q25 3 30.5 11t5.5 40v272h-36q-32 0 -48.5 -15t-30.5 -57l-11 -32h-30l1 133h376zM541 666l131 -295l129 295h135v-24l-24 -3q-25 -3 -30.5 -10.5
t-5.5 -40.5v-223q0 -32 5.5 -40t31.5 -11l24 -3v-24h-186v24l24 3q25 3 30.5 11t5.5 40v249l-141 -327h-33l-145 327l4 -249q1 -33 11 -41.5t53 -12.5v-24h-164v24q44 4 53 12t10 42l4 235q0 28 -20 36q-7 3 -47 6v24h145z" />
    <glyph glyph-name="acute" unicode="&#xb4;" 
d="M201 529l-13 15l162 164q23 23 39 23q12 0 21.5 -10t9.5 -23q0 -21 -24 -37z" />
    <glyph glyph-name="dieresis" unicode="&#xa8;" 
d="M161 688q25 0 42 -17t17 -42t-17.5 -42t-42.5 -17q-24 0 -41 17.5t-17 42.5q0 23 17.5 40.5t41.5 17.5zM338 688q25 0 42 -17t17 -42t-17 -42t-42 -17t-42 17.5t-17 42.5q0 23 17.5 40.5t41.5 17.5z" />
    <glyph glyph-name="notequal" unicode="&#x2260;" horiz-adv-x="540" 
d="M19 321h296l108 133l32 -29l-84 -104h150v-44h-186l-70 -90h256v-44h-291l-104 -131l-34 27l84 104h-157v44h194l69 90h-263v44z" />
    <glyph glyph-name="AE" unicode="&#xc6;" horiz-adv-x="993" 
d="M908 666l15 -199h-42l-22 48q-32 70 -62 90.5t-101 20.5h-131v-252l63 2q35 1 52.5 16t29.5 59l14 49h31v-290h-31l-16 55q-12 40 -30 54t-58 15l-55 2v-296h117q80 0 116 21q43 25 67 88l29 76h42l-17 -225h-564v32l43 4q41 4 54 20t13 78v93h-240l-81 -134
q-10 -17 -10 -30q0 -20 30 -26l45 -5v-32h-236v32q47 5 70 19t48 53l310 481q7 14 7 20q0 16 -22 22q-6 1 -61 7v32h583zM465 613l-215 -346h215v346z" />
    <glyph glyph-name="Oslash" unicode="&#xd8;" horiz-adv-x="835" 
d="M133 -78l-34 25l76 105q-123 91 -123 281q0 168 92 255q98 93 271 93q113 0 191 -35l77 105l33 -24l-73 -101q140 -88 140 -295q0 -166 -94.5 -256t-268.5 -90q-126 0 -210 45zM599 565l-348 -479q70 -63 167 -63q116 0 185.5 84.5t69.5 225.5t-74 232zM223 118l346 476
q-65 49 -151 49q-120 0 -186 -83q-70 -89 -70 -227q0 -125 61 -215z" />
    <glyph glyph-name="infinity" unicode="&#x221e;" horiz-adv-x="721" 
d="M369 274q44 58 65 80q43 44 109 44q64 0 102.5 -40t38.5 -106q0 -74 -46.5 -122t-116.5 -48q-48 0 -87.5 25t-89.5 87q-48 -61 -80 -83t-75 -22q-63 0 -105.5 44.5t-42.5 111.5q0 65 40.5 108.5t101.5 43.5q69 0 118 -46q17 -16 68 -77zM327 217l-53 75q-55 75 -103 75
q-38 0 -63.5 -34.5t-25.5 -86.5q0 -56 30.5 -91t79.5 -35t86 36q13 13 49 61zM386 250q27 -38 72 -96q36 -40 82 -40t74.5 36.5t28.5 95.5q0 57 -28 89.5t-78 32.5q-51 0 -91 -43q-18 -19 -60 -75z" />
    <glyph glyph-name="plusminus" unicode="&#xb1;" horiz-adv-x="527" 
d="M17 343h227v222h40v-222h226v-40h-226v-228h-40v228h-227v40zM17 40h493v-40h-493v40z" />
    <glyph glyph-name="lessequal" unicode="&#x2264;" horiz-adv-x="533" 
d="M484 463l27 -34l-416 -164l409 -167l-30 -35l-457 185v36zM17 43h499v-43h-499v43z" />
    <glyph glyph-name="greaterequal" unicode="&#x2265;" horiz-adv-x="533" 
d="M516 284v-36l-457 -185l-30 35l409 167l-416 164l27 34zM516 43v-43h-499v43h499z" />
    <glyph glyph-name="yen" unicode="&#xa5;" horiz-adv-x="576" 
d="M39 256v34h193l-44 87h-152v33h135l-72 140q-24 47 -39 60t-52 18v32h255v-32q-37 -5 -49.5 -13t-12.5 -28q0 -13 17 -51l91 -204l83 171q32 66 32 93q0 17 -13.5 23.5t-50.5 8.5v32h208v-32q-39 -2 -60 -19.5t-52 -76.5l-65 -122h138v-33h-156l-45 -87h197v-34h-198
v-124q0 -63 12 -78q15 -18 55 -21l49 -4v-29h-321v29l49 4q40 3 55 21q12 15 12 78v124h-199z" />
    <glyph glyph-name="partialdiff" unicode="&#x2202;" horiz-adv-x="522" 
d="M208 710l13 -17q-70 -46 -82 -56t-12 -25q0 -17 18.5 -33.5t71.5 -47.5q133 -77 168 -109q90 -83 90 -189q0 -103 -65.5 -173t-162.5 -70q-92 0 -147.5 59.5t-55.5 159.5q0 88 44 144.5t146 100.5q-11 7 -23 15q-3 2 -66 39q-55 32 -75.5 52.5t-20.5 42.5q0 23 34 44
q27 14 54 27q34 17 71 36zM260 438q-17 -7 -23 -10q-55 -25 -86 -81t-31 -130q0 -88 40 -144t103 -56t102.5 54t39.5 140q0 143 -145 227z" />
    <glyph glyph-name="summation" unicode="&#x2211;" horiz-adv-x="666" 
d="M251 328l-195 325v13h502l20 -198h-25l-14 59q-15 64 -40 84q-28 23 -97 23h-241l155 -264l-193 -298h304q60 0 87.5 15.5t43.5 58.5l24 65h23l-28 -211h-535v9z" />
    <glyph glyph-name="product" unicode="&#x220f;" horiz-adv-x="761" 
d="M536 633h-303v-505q0 -64 13 -79t54 -20l36 -4v-25h-283v25l36 4q41 5 54 20t13 79v411q0 62 -12.5 77.5t-54.5 20.5l-36 4v25h663v-25l-36 -4q-42 -5 -54.5 -20.5t-12.5 -77.5v-411q0 -64 13 -79t54 -20l36 -4v-25h-283v25l36 4q41 5 54 20t13 79v505z" />
    <glyph glyph-name="integral" unicode="&#x222b;" horiz-adv-x="283" 
d="M-4 -115q27 0 38 -37q8 -26 28 -26q53 0 53 153q0 47 -12 234q-10 156 -10 223q0 126 41 187q38 57 102 57q28 0 45.5 -14.5t17.5 -37.5q0 -19 -11.5 -31.5t-28.5 -12.5q-19 0 -27 14q-2 2 -6.5 26t-26.5 24q-51 0 -51 -133q0 -39 13 -170t13 -249q0 -299 -148 -299
q-30 0 -48.5 15t-18.5 39q0 38 37 38z" />
    <glyph glyph-name="ordfeminine" unicode="&#xaa;" horiz-adv-x="355" 
d="M334 312l11 -14q-41 -38 -73 -38q-35 0 -49 45q-44 -47 -98 -47q-39 0 -63 23t-24 60q0 38 23.5 57.5t82.5 28.5q17 3 24 4l54 10q-1 47 -9 62q-12 25 -55 25q-12 0 -28 -6t-15 -10l1 -1q16 -16 16 -28q0 -14 -12 -25t-27 -11q-16 0 -27.5 11.5t-11.5 27.5q0 29 33 47.5
t84 18.5q60 0 86 -24.5t26 -82.5v-97q0 -50 20 -50q8 0 31 14zM223 374v42q-67 -12 -84 -18q-37 -13 -37 -50q0 -23 14.5 -37t37.5 -14q69 0 69 77z" />
    <glyph glyph-name="ordmasculine" unicode="&#xba;" horiz-adv-x="381" 
d="M191 552q75 0 116.5 -38.5t41.5 -108.5t-41.5 -108.5t-115.5 -38.5q-159 0 -159 149q0 68 42 106.5t116 38.5zM191 528q-90 0 -90 -121q0 -125 90 -125t90 123t-90 123z" />
    <glyph glyph-name="Omega" unicode="&#x3a9;" horiz-adv-x="750" 
d="M37 0l-10 164h15l18 -53q10 -29 20 -37.5t37 -8.5h129q-179 85 -179 295q0 141 83 228.5t216 87.5q139 0 222.5 -85t83.5 -227q0 -147 -97 -240q-40 -38 -90 -59h131q31 0 45.5 10t22.5 36l17 53h17l-11 -164h-302v55q71 15 111 58q76 81 76 250q0 285 -223 285
q-110 0 -166 -75q-59 -79 -59 -222q0 -151 67 -229q49 -57 118 -67v-55h-292z" />
    <glyph glyph-name="ae" unicode="&#xe6;" horiz-adv-x="836" 
d="M758 111l22 -20q-38 -43 -67 -62q-60 -39 -140 -39q-67 0 -121 30t-80 82q-64 -112 -181 -112q-62 0 -100 36.5t-38 97.5q0 74 53.5 108.5t174.5 37.5l74 2q-4 79 -6.5 96t-11.5 35q-22 44 -93 44q-28 0 -52 -10t-24 -21q0 -3 12.5 -15.5t12.5 -33.5q0 -24 -16 -39.5
t-41 -15.5t-40.5 16.5t-15.5 42.5q0 49 50 77.5t135 28.5q109 0 149 -56q64 55 160 55q72 0 125 -31q59 -34 81 -97q13 -39 16 -109h-355q0 -97 30 -142q41 -61 129 -61q49 0 83 16t75 59zM354 181v58q-109 -4 -145 -17q-63 -23 -63 -86q0 -40 25 -65.5t65 -25.5q59 0 90 41
q28 36 28 95zM442 272h258q-7 95 -36 134.5t-92 39.5q-78 0 -107 -64q-16 -35 -23 -110z" />
    <glyph glyph-name="oslash" unicode="&#xf8;" horiz-adv-x="593" 
d="M108 -54l-30 22l49 70q-82 63 -82 195q0 123 70 185q65 58 180 58q67 0 124 -23l50 72l31 -22l-47 -67q94 -58 94 -203q0 -123 -70 -185q-65 -58 -181 -58q-75 0 -136 29zM415 383l-224 -320q37 -43 104 -43q152 0 152 214q0 91 -32 149zM169 98l222 316q-35 32 -94 32
q-152 0 -152 -213q0 -79 24 -135z" />
    <glyph glyph-name="questiondown" unicode="&#xbf;" horiz-adv-x="399" 
d="M221 265h44q1 -14 1 -35q0 -51 -13.5 -79.5t-59.5 -76.5t-61 -76.5t-15 -68.5q0 -117 89 -117q22 0 42 10t20 21q0 5 -22 20q-14 10 -14 32q0 24 16 40t41 16t41 -16.5t16 -42.5q0 -50 -47 -81t-123 -31q-69 0 -109 34t-40 92t40 105q20 23 89 75q40 30 53 54.5t13 70.5
q0 24 -1 54zM236 467q26 0 44.5 -19t18.5 -45q0 -25 -18.5 -44t-44.5 -19t-45 18.5t-19 44.5t19 45t45 19z" />
    <glyph glyph-name="exclamdown" unicode="&#xa1;" horiz-adv-x="279" 
d="M159 265l-1 -109q-1 -94 40 -250q8 -30 8 -54q0 -30 -19 -51t-47 -21t-47.5 21t-19.5 51q0 22 20 98q29 111 29 209q0 12 -2 106h39zM139 467q27 0 45.5 -19t18.5 -45q0 -25 -18.5 -44t-44.5 -19t-45 18.5t-19 44.5t18.5 45t44.5 19z" />
    <glyph glyph-name="logicalnot" unicode="&#xac;" horiz-adv-x="533" 
d="M12 238h490v-267h-47v223h-443v44z" />
    <glyph glyph-name="radical" unicode="&#x221a;" horiz-adv-x="393" 
d="M8 326l-3 23l115 18l107 -272l215 602h166v-27h-141l-240 -670h-35l-128 330z" />
    <glyph glyph-name="florin" unicode="&#x192;" horiz-adv-x="576" 
d="M468 403v-32h-145l-52 -304q-18 -104 -72.5 -166t-127.5 -62q-41 0 -70 25.5t-29 61.5q0 28 17 46t43 18q23 0 38 -14t15 -36q0 -28 -33 -48q-6 -5 -6 -9q0 -17 34 -17q50 0 78 63q14 31 35 152l51 290h-134v32h140q21 141 67 206.5t123 65.5q46 0 75 -23t29 -58
q0 -27 -18 -45.5t-44 -18.5q-20 0 -33.5 13t-13.5 33t24 44q5 5 5 10q0 8 -9.5 14t-21.5 6q-33 0 -53 -31q-24 -36 -36 -117l-15 -99h139z" />
    <glyph glyph-name="approxequal" unicode="&#x2248;" horiz-adv-x="447" 
d="M22 238l-8 40q59 52 113 52q30 0 93 -25q60 -24 89 -24q47 0 103 53l8 -38q-56 -62 -123 -62q-22 0 -38.5 4.5t-90.5 31.5q-38 14 -56 14q-41 0 -90 -46zM32 103l-10 38q65 62 127 62q25 0 83.5 -21.5t82.5 -21.5q48 0 100 56l8 -41q-55 -65 -121 -65q-15 0 -114 32
q-34 11 -58 11q-49 0 -98 -50z" />
    <glyph glyph-name="approxequal" unicode="&#x22f2;" horiz-adv-x="447" 
d="M22 238l-8 40q59 52 113 52q30 0 93 -25q60 -24 89 -24q47 0 103 53l8 -38q-56 -62 -123 -62q-22 0 -38.5 4.5t-90.5 31.5q-38 14 -56 14q-41 0 -90 -46zM32 103l-10 38q65 62 127 62q25 0 83.5 -21.5t82.5 -21.5q48 0 100 56l8 -41q-55 -65 -121 -65q-15 0 -114 32
q-34 11 -58 11q-49 0 -98 -50z" />
    <glyph glyph-name="guillemotleft" unicode="&#xab;" horiz-adv-x="422" 
d="M189 458h32l-92 -222l92 -218h-32l-136 218zM317 458h32l-63 -222l63 -218h-32l-107 218z" />
    <glyph glyph-name="guillemotright" unicode="&#xbb;" horiz-adv-x="422" 
d="M233 458l136 -222l-136 -218h-32l92 218l-92 222h32zM105 458l106 -222l-106 -218h-32l63 218l-63 222h32z" />
    <glyph glyph-name="ellipsis" unicode="&#x2026;" horiz-adv-x="700" 
d="M116 117q26 0 45 -18.5t19 -44.5t-18.5 -45t-44.5 -19q-27 0 -45.5 19t-18.5 45t19 44.5t44 18.5zM349 117q26 0 45 -18.5t19 -44.5t-18.5 -45t-44.5 -19q-27 0 -45.5 19t-18.5 45t19 44.5t44 18.5zM583 117q26 0 45 -18.5t19 -44.5t-18.5 -45t-44.5 -19q-27 0 -45.5 19
t-18.5 45t19 44.5t44 18.5z" />
    <glyph glyph-name="nonbreakingspace" unicode="&#xa0;" horiz-adv-x="250" 
 />
    <glyph glyph-name="Agrave" unicode="&#xc0;" horiz-adv-x="706" 
d="M396 666l206 -496q36 -87 56 -109.5t68 -28.5v-32h-281v32q84 9 84 33q0 13 -21 67l-43 111h-271l-40 -102q-21 -54 -21 -70q0 -17 18.5 -25.5t68.5 -13.5v-32h-240v32q52 5 74 29t63 120l196 461l10 24h73zM328 578l-119 -295h239zM387 707l-204 115q-28 16 -28 37
q0 13 9 23t21 10q17 0 38 -18l175 -150z" />
    <glyph glyph-name="Atilde" unicode="&#xc3;" horiz-adv-x="706" 
d="M396 666l206 -496q36 -87 56 -109.5t68 -28.5v-32h-281v32q84 9 84 33q0 13 -21 67l-43 111h-271l-40 -102q-21 -54 -21 -70q0 -17 18.5 -25.5t68.5 -13.5v-32h-240v32q52 5 74 29t63 120l196 461l10 24h73zM328 578l-119 -295h239zM520 848l34 -2q-10 -117 -86 -117
q-34 0 -142 46q-28 12 -51 12q-21 0 -31.5 -13.5t-17.5 -50.5l-34 7q7 115 89 115q31 0 109 -30q65 -25 85 -25q23 0 32.5 12.5t12.5 45.5z" />
    <glyph glyph-name="Otilde" unicode="&#xd5;" horiz-adv-x="835" 
d="M418 681q176 0 270.5 -90t94.5 -258q0 -167 -94.5 -257.5t-269.5 -90.5q-177 0 -275 93q-92 88 -92 260q0 164 95.5 253.5t270.5 89.5zM418 643q-120 0 -186 -83q-70 -88 -70 -223q0 -145 69 -229.5t187 -84.5q116 0 185.5 84.5t69.5 225.5q0 139 -70 227q-66 83 -185 83
zM584 848l34 -2q-10 -117 -86 -117q-34 0 -142 46q-28 12 -51 12q-21 0 -31.5 -13.5t-17.5 -50.5l-34 7q7 115 89 115q31 0 109 -30q65 -25 85 -25q23 0 32.5 12.5t12.5 45.5z" />
    <glyph glyph-name="OE" unicode="&#x152;" horiz-adv-x="1083" 
d="M999 666l15 -199h-42q-3 7 -22 48q-32 71 -62 91t-101 20h-145v-252l77 2q35 1 52.5 16.5t29.5 58.5l14 49h31v-290h-31l-16 55q-12 40 -30.5 54t-58.5 15l-68 2v-296h130q81 0 117 21q43 25 67 88l29 76h42l-17 -225h-430q-47 0 -128 -6q-27 -2 -56 -2q-164 0 -254 89.5
t-90 251.5q0 163 90 252t254 89q31 0 100 -5q42 -3 85 -3h418zM542 65v536q-51 36 -117 36q-122 0 -192.5 -81t-70.5 -223q0 -141 70.5 -222.5t192.5 -81.5q66 0 117 36z" />
    <glyph glyph-name="oe" unicode="&#x153;" horiz-adv-x="929" 
d="M851 111l22 -20q-39 -44 -67 -62q-61 -39 -140 -39q-106 0 -174 72q-66 -72 -195 -72q-118 0 -182 58q-70 63 -70 186q0 122 70 184q65 58 182 58q128 0 194 -71q63 71 176 71q131 0 188 -91q30 -48 34 -146h-355q0 -96 30 -142q40 -61 129 -61q49 0 83 16t75 59z
M295 446q-150 0 -150 -209q0 -217 153 -217q149 0 149 214q0 212 -152 212zM535 272h258q-7 94 -36.5 134t-91.5 40q-78 0 -108 -64q-16 -35 -22 -110z" />
    <glyph glyph-name="endash" unicode="&#x2013;" horiz-adv-x="485" 
d="M441 264v-47h-398v47h398z" />
    <glyph glyph-name="emdash" unicode="&#x2014;" horiz-adv-x="770" 
d="M770 264v-47h-770v47h770z" />
    <glyph glyph-name="quotedblleft" unicode="&#x201c;" horiz-adv-x="497" 
d="M413 690l8 -22q-44 -14 -71 -47t-26 -70q19 8 34 8q27 0 44.5 -16t17.5 -40q0 -26 -19 -44t-47 -18q-33 0 -53.5 24.5t-20.5 64.5q0 115 133 160zM206 690l8 -22q-44 -14 -71 -47t-26 -70q19 8 34 8q27 0 44.5 -16t17.5 -40q0 -26 -19 -44t-47 -18q-33 0 -53.5 24.5
t-20.5 64.5q0 115 133 160z" />
    <glyph glyph-name="quotedblright" unicode="&#x201d;" horiz-adv-x="497" 
d="M83 441l-8 21q44 15 71 48t26 70q-19 -8 -34 -8q-27 0 -44.5 16t-17.5 40q0 26 19 44t47 18q33 0 53.5 -24.5t20.5 -64.5q0 -115 -133 -160zM290 441l-8 21q44 15 71 48t26 70q-19 -8 -34 -8q-27 0 -44.5 16t-17.5 40q0 26 19 44t47 18q33 0 53.5 -24.5t20.5 -64.5
q0 -115 -133 -160z" />
    <glyph glyph-name="quoteleft" unicode="&#x2018;" horiz-adv-x="290" 
d="M206 690l8 -22q-44 -14 -71 -47t-26 -70q19 8 34 8q27 0 44.5 -16t17.5 -40q0 -26 -19 -44t-47 -18q-33 0 -53.5 24.5t-20.5 64.5q0 115 133 160z" />
    <glyph glyph-name="quoteright" unicode="&#x2019;" horiz-adv-x="290" 
d="M83 441l-8 21q44 15 71 48t26 70q-19 -8 -34 -8q-27 0 -44.5 16t-17.5 40q0 26 19 44t47 18q33 0 53.5 -24.5t20.5 -64.5q0 -115 -133 -160z" />
    <glyph glyph-name="divide" unicode="&#xf7;" horiz-adv-x="543" 
d="M272 465q20 0 34.5 -14.5t14.5 -34.5t-14.5 -35t-34.5 -15t-35 14.5t-15 34.5q0 21 14.5 35.5t35.5 14.5zM272 101q20 0 34.5 -14.5t14.5 -34.5t-14.5 -35t-34.5 -15t-35 14.5t-15 34.5q0 21 14.5 35.5t35.5 14.5zM26 255h491v-44h-491v44z" />
    <glyph glyph-name="lozenge" unicode="&#x25ca;" horiz-adv-x="667" 
d="M334 693l259 -360l-259 -359l-260 359zM334 604l-197 -271l197 -270l197 270z" />
    <glyph glyph-name="ydieresis" unicode="&#xff;" horiz-adv-x="578" 
d="M314 80l119 276q14 33 14 47q0 32 -70 35v29h208v-29q-40 -4 -61 -24.5t-53 -85.5l-160 -323q-54 -110 -62 -125q-15 -28 -29 -47q-44 -59 -114 -59q-46 0 -74 22.5t-28 59.5q0 28 16.5 45.5t42.5 17.5q22 0 37 -14t15 -34q0 -18 -17 -40q-2 -6 -2 -8q0 -17 31 -17
q40 0 76 55q13 20 64 124l-176 369q-26 55 -40 67t-54 17v29h249v-29q-44 -3 -58.5 -10t-14.5 -26q0 -16 24 -68zM222 688q25 0 42 -17t17 -42t-17.5 -42t-42.5 -17q-24 0 -41 17.5t-17 42.5q0 23 17.5 40.5t41.5 17.5zM399 688q25 0 42 -17t17 -42t-17 -42t-42 -17
t-42 17.5t-17 42.5q0 23 17.5 40.5t41.5 17.5z" />
    <glyph glyph-name="Ydieresis" unicode="&#x178;" horiz-adv-x="665" 
d="M377 282v-148q0 -62 12 -77q15 -18 55 -21l49 -4v-32h-332v32l49 4q40 3 55 21q12 15 12 77v134l-182 288l-15 24q-18 31 -35.5 41t-57.5 13v32h283v-32q-38 -3 -49 -10q-18 -11 -18 -28q0 -19 21 -53l135 -218l117 184q44 69 44 96q0 26 -63 29v32h221v-32
q-42 -2 -66 -19t-64 -77zM218 852q26 0 44.5 -18t18.5 -44t-18.5 -44.5t-44.5 -18.5t-44 18.5t-18 44.5q0 25 18.5 43.5t43.5 18.5zM479 852q26 0 44.5 -18t18.5 -44t-18.5 -44.5t-44.5 -18.5t-44 18.5t-18 44.5q0 25 18.5 43.5t43.5 18.5z" />
    <glyph glyph-name="fraction" unicode="&#x2044;" horiz-adv-x="133" 
d="M290 660l-405 -660h-42l405 660h42z" />
    <glyph glyph-name="currency" unicode="&#xa4;" horiz-adv-x="825" 
d="M238 388h352l-14 -32h-341v-32h327l-13 -32h-312q10 -124 78 -196.5t175 -72.5q60 0 113.5 26.5t123.5 91.5l37 -41q-68 -63 -130.5 -89t-146.5 -26q-117 0 -201.5 44.5t-124.5 127.5q-28 58 -34 135h-68l14 32h52v32h-66l14 32h55q35 293 367 293q57 0 97 -9
q34 -7 96 -31q8 -4 19 -4q15 0 34 29h22l2 -225l-42 -2q-24 93 -51 127q-61 77 -179 77q-109 0 -176 -67t-79 -188z" />
    <glyph glyph-name="guilsinglleft" unicode="&#x2039;" horiz-adv-x="295" 
d="M128 236l93 -218h-34l-134 218l134 222h34z" />
    <glyph glyph-name="guilsinglright" unicode="&#x203a;" horiz-adv-x="295" 
d="M166 236l-93 222h34l134 -222l-134 -218h-34z" />
    <glyph glyph-name="fi" unicode="&#xf001;" horiz-adv-x="642" 
d="M40 434v33h92q-1 106 38 154q57 69 181 69q160 0 160 -90q0 -59 -57 -59q-54 0 -54 53q0 6 2 18t2 18q0 12 -18 20.5t-45 8.5q-86 0 -110 -77q-13 -42 -13 -115h300v-335q0 -62 11 -79.5t56 -21.5l24 -2v-29h-269v29l24 2q45 4 56 21.5t11 79.5v190q0 51 -2.5 64
t-12.5 25q-20 23 -84 23h-114v-302q0 -61 10.5 -77.5t56.5 -23.5l31 -2v-29h-276v29l24 2q45 4 56 21.5t11 79.5v302h-91z" />
    <glyph glyph-name="fl" unicode="&#xf002;" horiz-adv-x="645" 
d="M538 683v-551q0 -63 11 -80t56 -21l24 -2v-29h-269v29l24 2q45 4 56 21.5t11 79.5v417q-57 2 -57 56q0 8 1 15v7q0 32 -59 32q-83 0 -107 -76q-11 -35 -11 -116h125v-33h-125v-302q0 -61 10.5 -77.5t56.5 -23.5l31 -2v-29h-276v29l24 2q45 4 56 21.5t11 79.5v302h-91v33
h92v22q0 201 212 201q89 0 128 -29z" />
    <glyph glyph-name="daggerdbl" unicode="&#x2021;" horiz-adv-x="533" 
d="M249 162v233q-32 -1 -47 -5t-71 -25q-13 -5 -27 -5q-20 0 -34 14.5t-14 34.5q0 19 13.5 32t33.5 13q15 0 75 -20q18 -6 71 -9q-5 68 -29 159q-6 23 -6 40q0 22 15 37t37 15t37 -15t15 -37q0 -15 -20 -93q-10 -37 -15 -106q27 1 56 6q8 1 59 18q15 5 31 5q20 0 33.5 -13
t13.5 -32q0 -21 -14 -35t-34 -14q-13 0 -77 24q-31 11 -68 11v-233q49 6 85 18q46 15 61 15q20 0 33.5 -13t13.5 -32q0 -20 -14 -35t-33 -15q-11 0 -64 18q-38 13 -82 14q2 -38 8 -97q3 -19 22 -86q4 -14 4 -33q0 -27 -14 -43.5t-37 -16.5q-22 0 -36.5 16.5t-14.5 42.5
q0 21 21 95q8 28 13 122q-43 -1 -116 -26q-18 -6 -30 -6q-19 0 -33 14.5t-14 34.5t13.5 33t33.5 13q15 0 61 -15q37 -12 85 -18z" />
    <glyph glyph-name="periodcentered" unicode="&#x2219;" horiz-adv-x="587" 
d="M294 329q29 0 49.5 -20.5t20.5 -49.5q0 -28 -20.5 -49t-49.5 -21t-49.5 21t-20.5 50q0 28 21 48.5t49 20.5z" />
    <glyph glyph-name="quotesinglbase" unicode="&#x201a;" horiz-adv-x="290" 
d="M83 -141l-8 21q44 14 71.5 47t25.5 71q-19 -8 -34 -8q-27 0 -44.5 16t-17.5 40q0 26 19 43.5t47 17.5q33 0 53.5 -24.5t20.5 -64.5q0 -114 -133 -159z" />
    <glyph glyph-name="quotedblbase" unicode="&#x201e;" horiz-adv-x="497" 
d="M83 -141l-8 21q44 14 71.5 47t25.5 71q-19 -8 -34 -8q-27 0 -44.5 16t-17.5 40q0 26 19 43.5t47 17.5q33 0 53.5 -24.5t20.5 -64.5q0 -114 -133 -159zM290 -141l-8 21q44 14 71.5 47t25.5 71q-19 -8 -34 -8q-27 0 -44.5 16t-17.5 40q0 26 19 43.5t47 17.5
q33 0 53.5 -24.5t20.5 -64.5q0 -114 -133 -159z" />
    <glyph glyph-name="perthousand" unicode="&#x2030;" horiz-adv-x="770" 
d="M166 673q53 0 84 -36.5t31 -100.5t-31 -101t-84 -37q-55 0 -85.5 37t-30.5 102q0 62 31.5 99t84.5 37zM167 646q-62 0 -62 -109q0 -111 62 -111q61 0 61 110t-61 110zM551 700l-509 -733h-46l507 733h48zM379 269q55 0 85 -36t30 -102q0 -65 -30 -101.5t-85 -36.5
q-115 0 -115 140q0 64 30.5 100t84.5 36zM380 241q-61 0 -61 -109q0 -111 61 -111t61 110t-61 110zM655 269q55 0 85 -36t30 -102q0 -65 -30 -101.5t-85 -36.5q-115 0 -115 140q0 64 30.5 100t84.5 36zM656 241q-61 0 -61 -109q0 -111 61 -111t61 110t-61 110z" />
    <glyph glyph-name="Acircumflex" unicode="&#xc2;" horiz-adv-x="706" 
d="M396 666l206 -496q36 -87 56 -109.5t68 -28.5v-32h-281v32q84 9 84 33q0 13 -21 67l-43 111h-271l-40 -102q-21 -54 -21 -70q0 -17 18.5 -25.5t68.5 -13.5v-32h-240v32q52 5 74 29t63 120l196 461l10 24h73zM328 578l-119 -295h239zM363 882l169 -150l-20 -25l-149 101
l-148 -101l-21 25z" />
    <glyph glyph-name="Ecircumflex" unicode="&#xca;" horiz-adv-x="687" 
d="M603 666l15 -199h-42q-3 7 -22 48q-32 71 -62 91t-101 20h-145v-252l77 2q35 1 52.5 16.5t29.5 58.5l14 49h31v-290h-31l-16 55q-12 40 -30.5 54t-58.5 15l-68 2v-296h130q81 0 117 21q43 25 67 88l29 76h42l-17 -225h-571v32l36 4q41 5 54 20t13 78v398q0 63 -13 78
t-54 20l-36 4v32h560zM363 882l169 -150l-20 -25l-149 101l-148 -101l-21 25z" />
    <glyph glyph-name="Aacute" unicode="&#xc1;" horiz-adv-x="706" 
d="M396 666l206 -496q36 -87 56 -109.5t68 -28.5v-32h-281v32q84 9 84 33q0 13 -21 67l-43 111h-271l-40 -102q-21 -54 -21 -70q0 -17 18.5 -25.5t68.5 -13.5v-32h-240v32q52 5 74 29t63 120l196 461l10 24h73zM328 578l-119 -295h239zM336 707l-11 17l181 143q23 18 38 18
q12 0 21 -10t9 -23q0 -22 -29 -37z" />
    <glyph glyph-name="Edieresis" unicode="&#xcb;" horiz-adv-x="687" 
d="M603 666l15 -199h-42q-3 7 -22 48q-32 71 -62 91t-101 20h-145v-252l77 2q35 1 52.5 16.5t29.5 58.5l14 49h31v-290h-31l-16 55q-12 40 -30.5 54t-58.5 15l-68 2v-296h130q81 0 117 21q43 25 67 88l29 76h42l-17 -225h-571v32l36 4q41 5 54 20t13 78v398q0 63 -13 78
t-54 20l-36 4v32h560zM229 852q26 0 44.5 -18t18.5 -44t-18.5 -44.5t-44.5 -18.5t-44 18.5t-18 44.5q0 25 18.5 43.5t43.5 18.5zM489 852q26 0 44.5 -18t18.5 -44t-18.5 -44.5t-44.5 -18.5t-44 18.5t-18 44.5q0 25 18.5 43.5t43.5 18.5z" />
    <glyph glyph-name="Egrave" unicode="&#xc8;" horiz-adv-x="687" 
d="M603 666l15 -199h-42q-3 7 -22 48q-32 71 -62 91t-101 20h-145v-252l77 2q35 1 52.5 16.5t29.5 58.5l14 49h31v-290h-31l-16 55q-12 40 -30.5 54t-58.5 15l-68 2v-296h130q81 0 117 21q43 25 67 88l29 76h42l-17 -225h-571v32l36 4q41 5 54 20t13 78v398q0 63 -13 78
t-54 20l-36 4v32h560zM390 707l-204 115q-28 16 -28 37q0 13 9 23t21 10q17 0 38 -18l175 -150z" />
    <glyph glyph-name="Iacute" unicode="&#xcd;" horiz-adv-x="393" 
d="M146 134v398q0 63 -13 78t-54 20l-36 4v32h306v-32l-36 -4q-41 -5 -54 -20t-13 -78v-398q0 -63 13 -78t54 -20l36 -4v-32h-306v32l36 4q41 5 54 20t13 78zM176 707l-11 17l181 143q23 18 38 18q12 0 21 -10t9 -23q0 -22 -29 -37z" />
    <glyph glyph-name="Icircumflex" unicode="&#xce;" horiz-adv-x="393" 
d="M146 134v398q0 63 -13 78t-54 20l-36 4v32h306v-32l-36 -4q-41 -5 -54 -20t-13 -78v-398q0 -63 13 -78t54 -20l36 -4v-32h-306v32l36 4q41 5 54 20t13 78zM203 882l169 -150l-20 -25l-149 101l-148 -101l-21 25z" />
    <glyph glyph-name="Idieresis" unicode="&#xcf;" horiz-adv-x="393" 
d="M146 134v398q0 63 -13 78t-54 20l-36 4v32h306v-32l-36 -4q-41 -5 -54 -20t-13 -78v-398q0 -63 13 -78t54 -20l36 -4v-32h-306v32l36 4q41 5 54 20t13 78zM108 852q26 0 44.5 -18t18.5 -44t-18.5 -44.5t-44.5 -18.5t-44 18.5t-18 44.5q0 25 18.5 43.5t43.5 18.5zM295 852
q26 0 44.5 -18t18.5 -44t-18.5 -44.5t-44.5 -18.5t-44 18.5t-18 44.5q0 25 18.5 43.5t43.5 18.5z" />
    <glyph glyph-name="Igrave" unicode="&#xcc;" horiz-adv-x="393" 
d="M147 134v398q0 63 -13 78t-54 20l-36 4v32h306v-32l-36 -4q-41 -5 -54 -20t-13 -78v-398q0 -63 13 -78t54 -20l36 -4v-32h-306v32l36 4q41 5 54 20t13 78zM234 707l-204 115q-28 16 -28 37q0 13 9 23t21 10q17 0 38 -18l175 -150z" />
    <glyph glyph-name="Oacute" unicode="&#xd3;" horiz-adv-x="835" 
d="M418 681q176 0 270.5 -90t94.5 -258q0 -167 -94.5 -257.5t-269.5 -90.5q-177 0 -275 93q-92 88 -92 260q0 164 95.5 253.5t270.5 89.5zM418 643q-120 0 -186 -83q-70 -88 -70 -223q0 -145 69 -229.5t187 -84.5q116 0 185.5 84.5t69.5 225.5q0 139 -70 227q-66 83 -185 83
zM398 707l-11 17l181 143q23 18 38 18q12 0 21 -10t9 -23q0 -22 -29 -37z" />
    <glyph glyph-name="Ocircumflex" unicode="&#xd4;" horiz-adv-x="835" 
d="M418 681q176 0 270.5 -90t94.5 -258q0 -167 -94.5 -257.5t-269.5 -90.5q-177 0 -275 93q-92 88 -92 260q0 164 95.5 253.5t270.5 89.5zM418 643q-120 0 -186 -83q-70 -88 -70 -223q0 -145 69 -229.5t187 -84.5q116 0 185.5 84.5t69.5 225.5q0 139 -70 227q-66 83 -185 83
zM424 882l169 -150l-20 -25l-149 101l-148 -101l-21 25z" />
    <glyph glyph-name="apple" unicode="&#xf000;" horiz-adv-x="667" 
d="M480 691q2 -69 -41 -119.5t-107 -53.5q-1 69 40 117t108 56zM623 457q-81 -61 -81 -140q0 -105 100 -148q-37 -92 -82 -144t-86 -52q-25 0 -65 19q-23 11 -51 11q-39 0 -87 -20q-27 -11 -46 -11q-65 0 -129 112t-64 225q0 95 52.5 156t133.5 61q28 0 91 -23q22 -7 35 -7
q16 0 59 16t75 16q92 0 145 -71z" />
    <glyph glyph-name="Ograve" unicode="&#xd2;" horiz-adv-x="835" 
d="M418 681q176 0 270.5 -90t94.5 -258q0 -167 -94.5 -257.5t-269.5 -90.5q-177 0 -275 93q-92 88 -92 260q0 164 95.5 253.5t270.5 89.5zM418 643q-120 0 -186 -83q-70 -88 -70 -223q0 -145 69 -229.5t187 -84.5q116 0 185.5 84.5t69.5 225.5q0 139 -70 227q-66 83 -185 83
zM445 707l-204 115q-28 16 -28 37q0 13 9 23t21 10q17 0 38 -18l175 -150z" />
    <glyph glyph-name="Uacute" unicode="&#xda;" horiz-adv-x="777" 
d="M499 666h268v-32q-77 -5 -92.5 -27.5t-17.5 -136.5l-5 -230q-1 -58 -9 -88q-11 -42 -42 -78q-77 -89 -217 -89q-152 0 -218 93q-38 54 -38 166v288q0 63 -13 78t-54 20l-36 4v32h306v-32l-36 -4q-41 -5 -54 -20t-13 -78v-287q0 -91 52 -145t139 -54q126 0 168 90
q20 43 20 130v7l-4 201q-2 109 -15.5 131t-88.5 29v32zM389 707l-11 17l181 143q23 18 38 18q12 0 21 -10t9 -23q0 -22 -29 -37z" />
    <glyph glyph-name="Ucircumflex" unicode="&#xdb;" horiz-adv-x="777" 
d="M499 666h268v-32q-77 -5 -92.5 -27.5t-17.5 -136.5l-5 -230q-1 -58 -9 -88q-11 -42 -42 -78q-77 -89 -217 -89q-152 0 -218 93q-38 54 -38 166v288q0 63 -13 78t-54 20l-36 4v32h306v-32l-36 -4q-41 -5 -54 -20t-13 -78v-287q0 -91 52 -145t139 -54q126 0 168 90
q20 43 20 130v7l-4 201q-2 109 -15.5 131t-88.5 29v32zM416 882l169 -150l-20 -25l-149 101l-148 -101l-21 25z" />
    <glyph glyph-name="Ugrave" unicode="&#xd9;" horiz-adv-x="777" 
d="M499 666h268v-32q-77 -5 -92.5 -27.5t-17.5 -136.5l-5 -230q-1 -58 -9 -88q-11 -42 -42 -78q-77 -89 -217 -89q-152 0 -218 93q-38 54 -38 166v288q0 63 -13 78t-54 20l-36 4v32h306v-32l-36 -4q-41 -5 -54 -20t-13 -78v-287q0 -91 52 -145t139 -54q126 0 168 90
q20 43 20 130v7l-4 201q-2 109 -15.5 131t-88.5 29v32zM443 707l-204 115q-28 16 -28 37q0 13 9 23t21 10q17 0 38 -18l175 -150z" />
    <glyph glyph-name="dotlessi" unicode="&#x131;" horiz-adv-x="342" 
d="M219 477v-345q0 -62 11 -79.5t56 -21.5l24 -2v-29h-269v29l24 2q45 4 56 21.5t11 79.5v194q0 54 -4 68q-10 36 -64 41l-32 3v28z" />
    <glyph glyph-name="circumflex" unicode="&#x2c6;" 
d="M250 729l169 -164l-20 -25l-149 115l-148 -115l-21 25z" />
    <glyph glyph-name="tilde" unicode="&#x2dc;" 
d="M397 692l34 -3q-10 -116 -86 -116q-34 0 -142 45q-29 12 -51 12q-21 0 -31.5 -13t-17.5 -50l-34 7q7 114 89 114q31 0 109 -30q62 -24 85 -24t32.5 12.5t12.5 45.5z" />
    <glyph glyph-name="macron" unicode="&#x2c9;" 
d="M396 652v-53h-292v53h292z" />
    <glyph glyph-name="breve" unicode="&#x2d8;" 
d="M380 705h34q-12 -148 -163 -148t-164 148h34q17 -88 129 -88q114 0 130 88z" />
    <glyph glyph-name="dotaccent" unicode="&#x2d9;" 
d="M249 688q25 0 42 -17t17 -42t-17.5 -42t-42.5 -17q-24 0 -41 17.5t-17 42.5q0 23 17.5 40.5t41.5 17.5z" />
    <glyph glyph-name="ring" unicode="&#x2da;" 
d="M250 716q41 0 69 -25.5t28 -62.5q0 -38 -28 -63.5t-69 -25.5q-43 0 -70.5 25.5t-27.5 64.5q0 37 28 62t70 25zM249 690q-22 0 -36.5 -17.5t-14.5 -43.5q0 -29 14.5 -46.5t37.5 -17.5q22 0 36.5 18t14.5 46q0 26 -15 43.5t-37 17.5z" />
    <glyph glyph-name="cedilla" unicode="&#xb8;" 
d="M261 7l-20 -61q9 1 21 1q31 0 51.5 -16t20.5 -41q0 -32 -32.5 -52.5t-83.5 -20.5q-24 0 -52 6l5 27q24 -3 34 -3q64 0 64 43q0 31 -42 31q-8 0 -26 -3l27 89h33z" />
    <glyph glyph-name="hungarumlaut" unicode="&#x2dd;" 
d="M132 529l-14 13l128 163q20 26 39 26q12 0 21.5 -10.5t9.5 -23.5q0 -19 -20 -35zM279 529l-14 13l127 163q20 26 40 26q12 0 21.5 -10.5t9.5 -23.5q0 -18 -21 -35z" />
    <glyph glyph-name="ogonek" unicode="&#x2db;" 
d="M296 0h35q-63 -36 -63 -87q0 -27 20.5 -45t51.5 -18q22 0 46 12l12 -23q-40 -22 -84 -22q-48 0 -78.5 22.5t-30.5 59.5q0 63 91 101z" />
    <glyph glyph-name="caron" unicode="&#x2c7;" 
d="M250 540l-169 163l21 26l148 -116l149 116l20 -26z" />
    <glyph glyph-name="Lslash" unicode="&#x141;" horiz-adv-x="630" 
d="M146 330v202q0 63 -13 78t-54 20l-36 4v32h306v-32l-36 -4q-41 -5 -54 -20t-13 -78v-142l133 102v-53l-133 -101v-298h106q80 0 117.5 24t65.5 92l29 70h42l-18 -226h-545v32l36 4q41 5 54 20t13 78v143l-96 -74v53z" />
    <glyph glyph-name="lslash" unicode="&#x142;" horiz-adv-x="326" 
d="M120 347v187q0 63 -16 82t-71 21l-22 1v28l196 24v-290l84 65v-42l-84 -65v-226q0 -63 11 -80t56 -21l24 -2v-29h-269v29l24 2q45 4 56 21.5t11 79.5v173l-85 -65v42z" />
    <glyph glyph-name="Scaron" unicode="&#x160;" horiz-adv-x="603" 
d="M509 666l2 -226l-39 -1q-12 99 -44 142q-46 62 -131 62q-57 0 -92.5 -31t-35.5 -81q0 -61 52 -98q40 -28 127 -57q91 -29 128 -53q73 -47 73 -141q0 -91 -71 -150q-57 -47 -155 -47q-86 0 -193 39q-8 3 -13 3q-13 0 -36 -27h-22l-2 233l39 2q20 -75 45 -118
q55 -94 173 -94q65 0 104 33.5t39 88.5t-39 83q-21 15 -38 23t-97 39q-101 40 -143 72q-63 49 -63 134t55 135t149 50q64 0 156 -34q8 -4 15 -4q13 0 35 23h22zM300 713l-169 150l20 26l149 -102l148 102l21 -26z" />
    <glyph glyph-name="scaron" unicode="&#x161;" horiz-adv-x="458" 
d="M380 467l2 -143l-29 -1q-16 60 -34 81q-37 44 -96 44q-38 0 -61.5 -19.5t-23.5 -51.5t26 -54.5t90 -45.5q83 -30 108 -47q43 -29 43 -94q0 -68 -44 -107t-122 -39q-45 0 -107 17q-29 8 -37 8q-11 0 -19 -15h-17l-2 168l29 1q13 -64 37 -95q42 -54 105 -54q44 0 71 23.5
t27 60.5q0 39 -31 60q-15 10 -25 15q-13 5 -63 23q-78 28 -109 59t-31 80q0 65 42 100.5t119 35.5q57 0 105 -19q8 -4 15 -4q9 0 15 13h17zM234 540l-169 163l21 26l148 -116l149 116l20 -26z" />
    <glyph glyph-name="Zcaron" unicode="&#x17d;" horiz-adv-x="671" 
d="M78 666h546v-28l-460 -598h212q87 0 123.5 22.5t72.5 99.5l30 63h42l-16 -225h-601v28l467 601h-205q-107 0 -141 -100l-30 -88h-42zM359 707l-170 150l21 25l149 -102l148 102l21 -25z" />
    <glyph glyph-name="zcaron" unicode="&#x17e;" horiz-adv-x="517" 
d="M474 444l-321 -407h134q67 0 105 30q18 14 28 33t28 73l29 -1l-2 -172h-438v28l321 406h-123q-75 0 -103 -32q-18 -21 -45 -100l-29 1l2 164h414v-23zM277 540l-169 163l21 26l148 -116l149 116l21 -26z" />
    <glyph glyph-name="brokenbar" unicode="&#xa6;" 
d="M217 666h65v-339h-65v339zM217 153h65v-320h-65v320z" />
    <glyph glyph-name="Eth" unicode="&#xd0;" horiz-adv-x="791" 
d="M146 367v165q0 63 -13 78t-54 20l-36 4v32h328q101 0 161 -17.5t106 -60.5q101 -95 101 -255q0 -179 -122 -272q-80 -61 -246 -61h-328v32l36 4q41 5 54 20t13 78v191h-103v42h103zM246 367h168v-42h-168v-285h83q134 0 198 42q102 67 102 251q0 200 -121 262
q-61 31 -179 31h-83v-259z" />
    <glyph glyph-name="eth" unicode="&#xf0;" horiz-adv-x="571" 
d="M47 654l56 18l133 -78l121 36l23 -27l-107 -32q134 -76 193.5 -154t59.5 -179q0 -114 -65 -181t-177 -67q-110 0 -174.5 64t-64.5 174q0 155 127 215q51 24 134 24l-113 82l-120 -38l-23 27l113 33q-35 26 -116 83zM339 438q-25 3 -37 3q-73 0 -115 -57.5t-42 -155.5
q0 -95 39.5 -151.5t105.5 -56.5q63 0 99.5 56.5t36.5 153.5q0 136 -87 208z" />
    <glyph glyph-name="Yacute" unicode="&#xdd;" horiz-adv-x="665" 
d="M377 282v-148q0 -62 12 -77q15 -18 55 -21l49 -4v-32h-332v32l49 4q40 3 55 21q12 15 12 77v134l-182 288l-15 24q-18 31 -35.5 41t-57.5 13v32h283v-32q-38 -3 -49 -10q-18 -11 -18 -28q0 -19 21 -53l135 -218l117 184q44 69 44 96q0 26 -63 29v32h221v-32
q-42 -2 -66 -19t-64 -77zM339 707l-11 17l181 143q23 18 38 18q12 0 21 -10t9 -23q0 -22 -29 -37z" />
    <glyph glyph-name="yacute" unicode="&#xfd;" horiz-adv-x="578" 
d="M314 80l119 276q14 33 14 47q0 32 -70 35v29h208v-29q-40 -4 -61 -24.5t-53 -85.5l-160 -323q-54 -110 -62 -125q-15 -28 -29 -47q-44 -59 -114 -59q-46 0 -74 22.5t-28 59.5q0 28 16.5 45.5t42.5 17.5q22 0 37 -14t15 -34q0 -18 -17 -40q-2 -6 -2 -8q0 -17 31 -17
q40 0 76 55q13 20 64 124l-176 369q-26 55 -40 67t-54 17v29h249v-29q-44 -3 -58.5 -10t-14.5 -26q0 -16 24 -68zM285 529l-13 15l162 164q23 23 39 23q12 0 21.5 -10t9.5 -23q0 -21 -24 -37z" />
    <glyph glyph-name="Thorn" unicode="&#xde;" horiz-adv-x="640" 
d="M246 180v-46q0 -63 14 -78t60 -20l40 -4v-32h-317v32l36 4q41 5 54 20t13 78v398q0 63 -13 78t-54 20l-36 4v32h306v-32l-36 -4q-37 -4 -50 -15.5t-17 -41.5h107q117 0 173 -33q88 -52 88 -163q0 -77 -46.5 -127t-128.5 -62q-57 -8 -193 -8zM246 533v-314q25 -1 60 -1
q103 0 150.5 38.5t47.5 122.5q0 98 -65 134q-36 20 -114 20h-79z" />
    <glyph glyph-name="thorn" unicode="&#xfe;" horiz-adv-x="648" 
d="M207 690v-302q65 89 171 89q100 0 164 -66q61 -63 61 -175q0 -116 -64 -181t-177 -65q-87 0 -155 48v-122q0 -63 11 -80t56 -21l31 -3v-29h-276v29l24 2q45 4 56 21.5t11 80.5v631q0 46 -4 60q-10 36 -64 41l-32 3v29zM355 437q-71 0 -111 -52q-37 -48 -37 -152
q0 -93 26 -141q37 -68 117 -68q70 0 111.5 58t41.5 156q0 93 -39.5 146t-108.5 53z" />
    <glyph glyph-name="minus" unicode="&#x2212;" horiz-adv-x="520" 
d="M15 255h491v-44h-491v44z" />
    <glyph glyph-name="multiply" unicode="&#xd7;" horiz-adv-x="567" 
d="M64 483l219 -222l221 222l28 -31l-218 -221l218 -216l-33 -31l-216 216l-214 -216l-28 31l211 216l-218 221z" />
    <glyph glyph-name="onesuperior" unicode="&#xb9;" horiz-adv-x="371" 
d="M236 668v-319q0 -41 19 -52q12 -6 63 -8v-25h-231v25q58 4 71.5 13.5t13.5 46.5v208q0 13 -3 16.5t-16 3.5h-70v23q99 10 141 68h12z" />
    <glyph glyph-name="twosuperior" unicode="&#xb2;" horiz-adv-x="371" 
d="M314 379l-15 -115h-261q4 56 29.5 94.5t82.5 75.5q50 33 68 60t18 69q0 78 -74 78q-23 0 -46.5 -12.5t-23.5 -24.5q0 -3 3 -4q2 0 6 1.5t9 1.5q32 0 32 -34q0 -17 -12.5 -29t-30.5 -12q-20 0 -33 14t-13 36q0 39 36 65t90 26q59 0 94.5 -29.5t35.5 -78.5
q0 -46 -26.5 -76.5t-98.5 -67.5q-84 -43 -100 -91h179q11 0 15 12l15 41h21z" />
    <glyph glyph-name="threesuperior" unicode="&#xb3;" horiz-adv-x="374" 
d="M105 457v28q14 -1 24 -1q39 0 63.5 24.5t24.5 63.5q0 69 -59 69q-20 0 -35 -10.5t-15 -24.5q0 -3 2 -3t5 1q8 2 11 2q13 0 22 -10.5t9 -24.5q0 -17 -13 -29.5t-31 -12.5q-20 0 -33 14.5t-13 36.5q0 38 30 63t77 25q52 0 83 -25.5t31 -67.5q0 -38 -28.5 -66t-72.5 -33v-4
q47 -3 68 -15q47 -27 47 -83q0 -53 -40 -86.5t-103 -33.5q-47 0 -77 20t-30 51q0 44 45 44q41 0 41 -35q0 -15 -15 -27q-7 -6 -7 -9q0 -17 37 -17q75 0 75 93q0 66 -52 78q-23 5 -71 5z" />
    <glyph glyph-name="onehalf" unicode="&#xbd;" horiz-adv-x="875" 
d="M236 668v-319q0 -41 19 -52q12 -6 63 -8v-25h-231v25q58 4 71.5 13.5t13.5 46.5v208q0 13 -3 16.5t-16 3.5h-70v23q99 10 141 68h12zM674 660l-405 -660h-42l405 660h42zM818 115l-15 -115h-261q3 56 28.5 94t83.5 76q50 32 67.5 59.5t17.5 69.5q0 78 -74 78
q-23 0 -46.5 -12.5t-23.5 -24.5q0 -3 3 -4l5 2t10 2q33 0 33 -35q0 -17 -12.5 -29t-30.5 -12q-20 0 -33.5 14t-13.5 36q0 39 36 65t90 26q59 0 94.5 -29.5t35.5 -78.5q0 -46 -26.5 -77t-98.5 -67q-83 -42 -100 -91h179q12 0 16 12l15 41h21z" />
    <glyph glyph-name="onequarter" unicode="&#xbc;" horiz-adv-x="875" 
d="M236 668v-319q0 -41 19 -52q12 -6 63 -8v-25h-231v25q58 4 71.5 13.5t13.5 46.5v208q0 13 -3 16.5t-16 3.5h-70v23q99 10 141 68h12zM681 660l-406 -660h-42l406 660h42zM767 404v-247h81l-16 -44h-65v-43q0 -30 10 -36.5t59 -9.5v-24h-208v24h7q71 0 71 46v43h-170v42
l193 249h38zM706 331l-130 -174h130v174z" />
    <glyph glyph-name="threequarters" unicode="&#xbe;" horiz-adv-x="875" 
d="M681 660l-405 -660h-42l405 660h42zM767 404v-247h81l-16 -44h-65v-43q0 -30 10 -36.5t59 -9.5v-24h-208v24h7q71 0 71 46v43h-170v42l193 249h38zM706 331l-130 -174h130v174zM105 457v28q14 -1 24 -1q39 0 63.5 24.5t24.5 63.5q0 69 -59 69q-20 0 -35 -10.5t-15 -24.5
q0 -3 2 -3t5 1q8 2 11 2q13 0 22 -10.5t9 -24.5q0 -17 -13 -29.5t-31 -12.5q-20 0 -33 14.5t-13 36.5q0 38 30 63t77 25q52 0 83 -25.5t31 -67.5q0 -38 -28.5 -66t-72.5 -33v-4q47 -3 68 -15q47 -27 47 -83q0 -53 -40 -86.5t-103 -33.5q-47 0 -77 20t-30 51q0 44 45 44
q41 0 41 -35q0 -15 -15 -27q-7 -6 -7 -9q0 -17 37 -17q75 0 75 93q0 66 -52 78q-23 5 -71 5z" />
    <glyph glyph-name="franc" unicode="&#x20a3;" horiz-adv-x="861" 
d="M546 660l10 -186h-34q-45 96 -77.5 122.5t-106.5 26.5h-104v-254l56 2q37 1 55 19q15 15 26 55l13 49h29v-285h-29l-15 55q-11 40 -29.5 53.5t-58.5 14.5l-47 1v-202q0 -64 12 -77q12 -16 54 -21l36 -4v-29h-283v29l26 4q42 6 54 20.5t12 77.5v398q0 63 -11.5 76.5
t-54.5 20.5l-26 4v30h493zM632 405v-102q33 60 61.5 83t69.5 23q38 0 61.5 -20.5t23.5 -54.5q0 -26 -16.5 -44t-41.5 -18q-22 0 -36.5 13.5t-14.5 33.5q0 18 14 35q6 6 6 12q0 11 -17 11q-37 0 -71.5 -66t-34.5 -157v-25q0 -61 10.5 -77t55.5 -22l23 -3v-27h-250v27l16 2
q46 6 56.5 22.5t10.5 77.5v133q0 56 -9 74q-13 26 -58 30l-24 2v27z" />
    <glyph glyph-name="Gbreve" unicode="&#x11e;" horiz-adv-x="812" 
d="M689 666l2 -226l-42 -1q-22 91 -56 132q-60 72 -176 72q-117 0 -184 -81q-71 -86 -71 -227q0 -162 90 -249q66 -63 171 -63q78 0 145 35q31 16 36.5 24t5.5 37l1 71q1 40 -17.5 53.5t-77.5 17.5l-64 4v35h354v-35q-62 -5 -76.5 -21t-14.5 -78v-126q-37 0 -101 -20
q-111 -35 -191 -35q-179 0 -275 90t-96 258t94 258t269 90q104 0 192 -37q17 -7 26 -7q16 0 34 29h22zM549 865h34q-12 -148 -163 -148t-164 148h34q17 -88 129 -88q114 0 130 88z" />
    <glyph glyph-name="gbreve" unicode="&#x11f;" horiz-adv-x="573" 
d="M169 171q-97 35 -97 142q0 79 52 122q49 41 151 41q118 0 171 -45q6 51 20 75q23 39 68 39q25 0 42 -16t17 -40q0 -22 -14 -36.5t-34 -14.5q-34 0 -38 30q-1 11 -8 11q-11 0 -19 -17q-15 -25 -15 -43q0 -11 10 -45t10 -56q0 -105 -91 -142q-29 -12 -56 -15.5t-111 -6.5
q-67 -3 -67 -42q0 -36 86 -40q146 -7 181 -16q42 -11 66.5 -43.5t24.5 -77.5q0 -73 -68 -117.5t-180 -44.5q-99 0 -162 37.5t-63 96.5q0 64 92 102q-64 24 -64 75q0 70 96 87zM281 443q-118 0 -118 -128q0 -126 118 -126q117 0 117 125q0 129 -117 129zM177 -2l-9 -6
q-51 -34 -51 -71q0 -46 50.5 -80.5t118.5 -34.5q67 0 108.5 28.5t41.5 75.5q0 50 -39 64q-25 9 -119 14q-58 3 -101 10zM422 705h34q-10 -148 -162 -148q-151 0 -164 148h34q16 -88 129 -88q115 0 129 88z" />
    <glyph glyph-name="Scedilla" unicode="&#x15e;" horiz-adv-x="603" 
d="M317 -15l-11 -39q16 2 22 2q30 0 51.5 -17.5t21.5 -41.5q0 -35 -32.5 -58t-81.5 -23q-21 0 -64 7l4 28q29 -3 39 -3q67 0 67 46q0 31 -52 31q-1 0 -23 -2l23 72q-66 5 -151 37q-8 3 -13 3q-13 0 -36 -27h-22l-2 233l39 2q20 -75 45 -118q55 -94 173 -94q65 0 104 33.5
t39 88.5t-39 83q-21 15 -38 23t-97 39q-101 40 -143 72q-63 49 -63 134t55 135t149 50q64 0 156 -34q8 -4 15 -4q13 0 35 23h22l2 -226l-39 -1q-12 99 -44 142q-46 62 -131 62q-57 0 -92.5 -31t-35.5 -81q0 -61 52 -98q37 -27 126 -57q98 -33 129 -53q73 -47 73 -141
q0 -56 -30.5 -104.5t-80 -70.5t-121.5 -22z" />
    <glyph glyph-name="scedilla" unicode="&#x15f;" horiz-adv-x="458" 
d="M235 -10l-14 -44q8 1 20 1q31 0 51.5 -16t20.5 -41q0 -32 -32.5 -52.5t-83.5 -20.5q-23 0 -52 6l5 27q26 -3 34 -3q64 0 64 43q0 31 -42 31q-8 0 -25 -3l22 74q-31 3 -71 15q-28 8 -37 8q-11 0 -19 -15h-17l-2 168l29 1q13 -64 37 -95q42 -54 105 -54q44 0 71 23.5
t27 60.5q0 39 -31 60q-15 10 -25 15q-13 5 -63 23q-78 28 -109 59t-31 80q0 65 42 100.5t119 35.5q57 0 105 -19q8 -4 15 -4q9 0 15 13h17l2 -143l-29 -1q-16 60 -34 81q-37 44 -96 44q-38 0 -61.5 -19.5t-23.5 -51.5q0 -33 25.5 -54.5t90.5 -45.5q85 -31 108 -47
q43 -30 43 -94q0 -70 -44 -108t-126 -38z" />
    <glyph glyph-name="Cacute" unicode="&#x106;" horiz-adv-x="729" 
d="M690 666l2 -226l-42 -1q-24 93 -51 127q-60 77 -179 77q-121 0 -189.5 -82.5t-68.5 -228.5q0 -141 69.5 -225t185.5 -84q60 0 113.5 26.5t123.5 91.5l37 -41q-69 -63 -131 -89t-146 -26q-184 0 -280 104q-82 88 -82 245q0 169 95 258t275 89q59 0 92 -7t101 -33
q10 -4 19 -4q15 0 34 29h22zM400 707l-13 14l126 141q21 23 40 23q11 0 20.5 -10.5t9.5 -23.5q0 -20 -24 -36z" />
    <glyph glyph-name="cacute" unicode="&#x107;" horiz-adv-x="495" 
d="M450 102l22 -22q-48 -50 -91.5 -70t-103.5 -20q-106 0 -169 66t-63 178q0 115 64 178.5t180 63.5q81 0 133.5 -32.5t52.5 -82.5q0 -25 -17.5 -41.5t-43.5 -16.5q-24 0 -39.5 14t-15.5 36q0 21 24 44q4 6 4 10q0 16 -27.5 27.5t-64.5 11.5q-75 0 -108 -47
q-42 -59 -42 -163q0 -97 42 -148.5t120 -51.5q77 0 143 66zM279 529l-14 13l128 163q20 26 39 26q12 0 21.5 -10.5t9.5 -23.5q0 -18 -21 -35z" />
    <glyph glyph-name="Ccaron" unicode="&#x10c;" horiz-adv-x="729" 
d="M690 666l2 -226l-42 -1q-24 93 -51 127q-60 77 -179 77q-121 0 -189.5 -82.5t-68.5 -228.5q0 -141 69.5 -225t185.5 -84q60 0 113.5 26.5t123.5 91.5l37 -41q-69 -63 -131 -89t-146 -26q-184 0 -280 104q-82 88 -82 245q0 169 95 258t275 89q59 0 92 -7t101 -33
q10 -4 19 -4q15 0 34 29h22zM414 707l-169 150l21 25l148 -102l149 102l20 -25z" />
    <glyph glyph-name="ccaron" unicode="&#x10d;" horiz-adv-x="495" 
d="M450 102l22 -22q-48 -50 -91.5 -70t-103.5 -20q-106 0 -169 66t-63 178q0 115 64 178.5t180 63.5q81 0 133.5 -32.5t52.5 -82.5q0 -25 -17.5 -41.5t-43.5 -16.5q-24 0 -39.5 14t-15.5 36q0 21 24 44q4 6 4 10q0 16 -27.5 27.5t-64.5 11.5q-75 0 -108 -47
q-42 -59 -42 -163q0 -97 42 -148.5t120 -51.5q77 0 143 66zM287 540l-169 163l21 26l148 -116l149 116l20 -26z" />
    <glyph glyph-name="sfthyphen" unicode="&#xad;" horiz-adv-x="252" 
d="M252 266v-53h-252v53h252z" />
    <glyph glyph-name="overscore.001" unicode="&#xaf;" 
d="M19 844h462v-51h-462v51z" />
    <glyph glyph-name="mu1" unicode="&#xb5;" horiz-adv-x="602" 
d="M153 -169l-66 -5q14 249 14 380q0 119 -4 259l75 6q-12 -190 -12 -266q0 -83 22 -120q31 -52 103 -52q82 0 110 80q13 34 13 123q0 129 -5 227l79 8q-13 -140 -13 -327q0 -65 11 -86q14 -28 47 -28q22 0 49 15l-6 -27q-34 -28 -77 -28q-78 0 -85 98q-49 -98 -149 -98
q-75 0 -118 59q6 -112 12 -218z" />
    <glyph glyph-name="mu1" unicode="&#x3bc;" horiz-adv-x="602" 
d="M153 -169l-66 -5q14 249 14 380q0 119 -4 259l75 6q-12 -190 -12 -266q0 -83 22 -120q31 -52 103 -52q82 0 110 80q13 34 13 123q0 129 -5 227l79 8q-13 -140 -13 -327q0 -65 11 -86q14 -28 47 -28q22 0 49 15l-6 -27q-34 -28 -77 -28q-78 0 -85 98q-49 -98 -149 -98
q-75 0 -118 59q6 -112 12 -218z" />
    <glyph glyph-name="middot.001" unicode="&#xb7;" horiz-adv-x="587" 
d="M294 329q29 0 49.5 -20.5t20.5 -49.5q0 -28 -20.5 -49t-49.5 -21t-49.5 21t-20.5 50q0 28 21 48.5t49 20.5z" />
    <glyph glyph-name="Amacron" unicode="&#x100;" horiz-adv-x="706" 
d="M396 666l206 -496q36 -87 56 -109.5t68 -28.5v-32h-281v32q84 9 84 33q0 13 -21 67l-43 111h-271l-40 -102q-21 -54 -21 -70q0 -17 18.5 -25.5t68.5 -13.5v-32h-240v32q52 5 74 29t63 120l196 461l10 24h73zM328 578l-119 -295h239zM519 810v-53h-312v53h312z" />
    <glyph glyph-name="amacron" unicode="&#x101;" horiz-adv-x="549" 
d="M528 69l12 -16q-61 -60 -111 -60q-36 0 -57 30q-11 15 -20 52q-77 -85 -163 -85q-61 0 -98.5 37t-37.5 98t36 93t132 48q16 3 38 7l94 17q-2 86 -16 113q-22 44 -93 44q-28 0 -52 -10t-24 -21q0 -4 12.5 -16.5t12.5 -32.5q0 -24 -16 -40t-41 -16t-40.5 16.5t-15.5 42.5
q0 49 50 78t134 29q123 0 162 -75q15 -31 15 -100v-164q0 -52 8 -72t30 -20q16 0 49 23zM354 181v78q-102 -18 -145 -33q-63 -22 -63 -90q0 -40 25 -65.5t65 -25.5q59 0 90 41q28 36 28 95zM431 652v-53h-292v53h292z" />
    <glyph glyph-name="Abreve" unicode="&#x102;" horiz-adv-x="706" 
d="M396 666l206 -496q36 -87 56 -109.5t68 -28.5v-32h-281v32q84 9 84 33q0 13 -21 67l-43 111h-271l-40 -102q-21 -54 -21 -70q0 -17 18.5 -25.5t68.5 -13.5v-32h-240v32q52 5 74 29t63 120l196 461l10 24h73zM328 578l-119 -295h239zM489 865h34q-12 -148 -163 -148
t-164 148h34q17 -88 129 -88q114 0 130 88z" />
    <glyph glyph-name="abreve" unicode="&#x103;" horiz-adv-x="549" 
d="M528 69l12 -16q-61 -60 -111 -60q-36 0 -57 30q-11 15 -20 52q-77 -85 -163 -85q-61 0 -98.5 37t-37.5 98t36 93t132 48q16 3 38 7l94 17q-2 86 -16 113q-22 44 -93 44q-28 0 -52 -10t-24 -21q0 -4 12.5 -16.5t12.5 -32.5q0 -24 -16 -40t-41 -16t-40.5 16.5t-15.5 42.5
q0 49 50 78t134 29q123 0 162 -75q15 -31 15 -100v-164q0 -52 8 -72t30 -20q16 0 49 23zM354 181v78q-102 -18 -145 -33q-63 -22 -63 -90q0 -40 25 -65.5t65 -25.5q59 0 90 41q28 36 28 95zM404 705h34q-12 -148 -163 -148t-164 148h34q17 -88 129 -88q114 0 130 88z" />
    <glyph glyph-name="Aogonek" unicode="&#x104;" horiz-adv-x="706" 
d="M726 0h-105q-62 -37 -62 -90q0 -30 19.5 -49t50.5 -19q23 0 46 13l11 -25q-38 -22 -83 -22q-50 0 -80 23.5t-30 63.5q0 68 91 105h-139v32q84 9 84 33q0 13 -21 67l-43 111h-271l-40 -102q-21 -54 -21 -70q0 -17 18.5 -25.5t68.5 -13.5v-32h-240v32q52 5 74 29t63 120
l206 485h73l206 -496q36 -87 56 -109.5t68 -28.5v-32zM328 578l-119 -295h239z" />
    <glyph glyph-name="aogonek" unicode="&#x105;" horiz-adv-x="549" 
d="M429 -7h-3q-53 -32 -53 -80q0 -27 21 -45t52 -18q21 0 46 12l12 -23q-40 -22 -84 -22q-49 0 -79.5 22.5t-30.5 59.5q0 63 91 101q-35 16 -49 75q-77 -85 -163 -85q-61 0 -98.5 37t-37.5 98t36 93t132 48q16 3 38 7l94 17q-2 86 -16 113q-22 44 -93 44q-28 0 -52 -10
t-24 -21q0 -4 12.5 -16.5t12.5 -32.5q0 -24 -16 -40t-41 -16t-40.5 16.5t-15.5 42.5q0 49 50 78t134 29q123 0 162 -75q15 -31 15 -100v-164q0 -52 8 -72t30 -20q16 0 49 23l12 -16q-61 -60 -111 -60zM354 181v78q-102 -18 -145 -33q-63 -22 -63 -90q0 -40 25 -65.5
t65 -25.5q59 0 90 41q28 36 28 95z" />
    <glyph glyph-name="Ccircumflex" unicode="&#x108;" horiz-adv-x="729" 
d="M690 666l2 -226l-42 -1q-24 93 -51 127q-60 77 -179 77q-121 0 -189.5 -82.5t-68.5 -228.5q0 -141 69.5 -225t185.5 -84q60 0 113.5 26.5t123.5 91.5l37 -41q-69 -63 -131 -89t-146 -26q-184 0 -280 104q-82 88 -82 245q0 169 95 258t275 89q59 0 92 -7t101 -33
q10 -4 19 -4q15 0 34 29h22zM428 882l169 -150l-20 -25l-149 101l-149 -101l-20 25z" />
    <glyph glyph-name="Cdotaccent" unicode="&#x10a;" horiz-adv-x="729" 
d="M690 666l2 -226l-42 -1q-24 93 -51 127q-60 77 -179 77q-121 0 -189.5 -82.5t-68.5 -228.5q0 -141 69.5 -225t185.5 -84q60 0 113.5 26.5t123.5 91.5l37 -41q-69 -63 -131 -89t-146 -26q-184 0 -280 104q-82 88 -82 245q0 169 95 258t275 89q59 0 92 -7t101 -33
q10 -4 19 -4q15 0 34 29h22zM427 852q26 0 44.5 -18t18.5 -44t-18.5 -44.5t-44.5 -18.5t-44 18.5t-18 44.5q0 25 18.5 43.5t43.5 18.5z" />
    <glyph glyph-name="cdotaccent" unicode="&#x10b;" horiz-adv-x="495" 
d="M450 102l22 -22q-48 -50 -91.5 -70t-103.5 -20q-106 0 -169 66t-63 178q0 115 64 178.5t180 63.5q81 0 133.5 -32.5t52.5 -82.5q0 -25 -17.5 -41.5t-43.5 -16.5q-24 0 -39.5 14t-15.5 36q0 21 24 44q4 6 4 10q0 16 -27.5 27.5t-64.5 11.5q-75 0 -108 -47
q-42 -59 -42 -163q0 -97 42 -148.5t120 -51.5q77 0 143 66zM289 688q25 0 42 -17t17 -42t-17.5 -42t-42.5 -17q-24 0 -41 17.5t-17 42.5q0 23 17.5 40.5t41.5 17.5z" />
    <glyph glyph-name="Dcaron" unicode="&#x10e;" horiz-adv-x="791" 
d="M146 134v398q0 63 -13 78t-54 20l-36 4v32h328q100 0 160 -17.5t106 -60.5q101 -95 101 -255q0 -179 -122 -272q-80 -61 -245 -61h-328v32l36 4q41 5 54 20t13 78zM246 40h83q133 0 197 42q102 67 102 251q0 199 -121 262q-59 31 -178 31h-83v-586zM398 707l-169 150
l21 25l148 -102l149 102l20 -25z" />
    <glyph glyph-name="dcaron" unicode="&#x10f;" horiz-adv-x="782" 
d="M528 690v-558q0 -62 11 -79.5t56 -21.5l24 -2v-29h-172v79q-65 -89 -175 -89q-104 0 -166 67t-62 179q0 107 64 173.5t167 66.5q110 0 166 -81v156q0 50 -17 67t-70 19l-22 1v28zM290 439q-146 0 -146 -202q0 -209 149 -209q84 0 120 64q28 49 28 138q0 97 -27 143
q-39 66 -124 66zM621 496l-7 20q67 22 73 78l-5 4q-12 -5 -23 -5q-45 0 -45 45q0 22 15.5 37t38.5 15q27 0 44 -19.5t17 -50.5q0 -89 -108 -124z" />
    <glyph glyph-name="Dcroat" unicode="&#x110;" horiz-adv-x="791" 
d="M146 367v165q0 63 -13 78t-54 20l-36 4v32h328q101 0 161 -17.5t106 -60.5q101 -95 101 -255q0 -179 -122 -272q-80 -61 -246 -61h-328v32l36 4q41 5 54 20t13 78v191h-103v42h103zM246 367h168v-42h-168v-285h83q134 0 198 42q102 67 102 251q0 200 -121 262
q-61 31 -179 31h-83v-259z" />
    <glyph glyph-name="dcroat" unicode="&#x111;" horiz-adv-x="648" 
d="M441 553v7q0 43 -18.5 59t-68.5 18l-22 1v28l196 24v-137h91v-33h-91v-388q0 -62 11 -79.5t56 -21.5l24 -2v-29h-172v79q-65 -89 -174 -89q-104 0 -166 67t-62 179q0 107 64 174t167 67q109 0 165 -82v125h-179v33h179zM291 440q-146 0 -146 -203q0 -209 148 -209
q82 0 120 65q28 48 28 137q0 99 -26 144q-39 66 -124 66z" />
    <glyph glyph-name="Emacron" unicode="&#x112;" horiz-adv-x="687" 
d="M603 666l15 -199h-42q-3 7 -22 48q-32 71 -62 91t-101 20h-145v-252l77 2q35 1 52.5 16.5t29.5 58.5l14 49h31v-290h-31l-16 55q-12 40 -30.5 54t-58.5 15l-68 2v-296h130q81 0 117 21q43 25 67 88l29 76h42l-17 -225h-571v32l36 4q41 5 54 20t13 78v398q0 63 -13 78
t-54 20l-36 4v32h560zM516 810v-53h-312v53h312z" />
    <glyph glyph-name="emacron" unicode="&#x113;" horiz-adv-x="539" 
d="M429 652v-53h-292v53h292zM461 111l22 -20q-38 -43 -67 -62q-60 -39 -140 -39q-105 0 -168 67t-63 179q0 110 63 175t170 65q131 0 187 -91q31 -51 34 -146h-355q0 -98 30 -142q41 -60 130 -60q49 0 82 15.5t75 58.5zM145 272h258q-7 95 -36 134.5t-92 39.5
q-77 0 -107 -64q-16 -34 -23 -110z" />
    <glyph glyph-name="Ebreve" unicode="&#x114;" horiz-adv-x="687" 
d="M603 666l15 -199h-42q-3 7 -22 48q-32 71 -62 91t-101 20h-145v-252l77 2q35 1 52.5 16.5t29.5 58.5l14 49h31v-290h-31l-16 55q-12 40 -30.5 54t-58.5 15l-68 2v-296h130q81 0 117 21q43 25 67 88l29 76h42l-17 -225h-571v32l36 4q41 5 54 20t13 78v398q0 63 -13 78
t-54 20l-36 4v32h560zM489 865h34q-10 -148 -162 -148q-151 0 -164 148h34q16 -88 129 -88q115 0 129 88z" />
    <glyph glyph-name="ebreve" unicode="&#x115;" horiz-adv-x="539" 
d="M461 111l22 -20q-38 -43 -67 -62q-60 -39 -140 -39q-105 0 -168 67t-63 179q0 110 63 175t170 65q131 0 187 -91q31 -51 34 -146h-355q0 -98 30 -142q41 -60 130 -60q49 0 82 15.5t75 58.5zM145 272h258q-7 95 -36 134.5t-92 39.5q-77 0 -107 -64q-16 -34 -23 -110z
M412 705h34q-12 -148 -162 -148q-152 0 -165 148h34q17 -88 130 -88q115 0 129 88z" />
    <glyph glyph-name="Edotaccent" unicode="&#x116;" horiz-adv-x="687" 
d="M603 666l15 -199h-42q-3 7 -22 48q-32 71 -62 91t-101 20h-145v-252l77 2q35 1 52.5 16.5t29.5 58.5l14 49h31v-290h-31l-16 55q-12 40 -30.5 54t-58.5 15l-68 2v-296h130q81 0 117 21q43 25 67 88l29 76h42l-17 -225h-571v32l36 4q41 5 54 20t13 78v398q0 63 -13 78
t-54 20l-36 4v32h560zM359 852q26 0 44.5 -18t18.5 -44t-18.5 -44.5t-44.5 -18.5t-44 18.5t-18 44.5q0 25 18.5 43.5t43.5 18.5z" />
    <glyph glyph-name="edotaccent" unicode="&#x117;" horiz-adv-x="539" 
d="M461 111l22 -20q-38 -43 -67 -62q-60 -39 -140 -39q-105 0 -168 67t-63 179q0 110 63 175t170 65q131 0 187 -91q31 -51 34 -146h-355q0 -98 30 -142q41 -60 130 -60q49 0 82 15.5t75 58.5zM145 272h258q-7 95 -36 134.5t-92 39.5q-77 0 -107 -64q-16 -34 -23 -110z
M285 688q25 0 42 -17t17 -42t-17.5 -42t-42.5 -17q-24 0 -41 17.5t-17 42.5q0 23 17.5 40.5t41.5 17.5z" />
    <glyph glyph-name="Eogonek" unicode="&#x118;" horiz-adv-x="687" 
d="M614 0h-77q-61 -36 -61 -90q0 -30 19.5 -49t50.5 -19q22 0 45 13l12 -25q-38 -22 -83 -22q-50 0 -80 23.5t-30 63.5q0 69 90 105h-457v32l36 4q41 5 54 20t13 79v397q0 63 -13 78t-54 20l-36 4v32h560l15 -199h-42q-3 7 -22 48q-32 71 -62 91t-101 20h-145v-252l77 2
q35 1 52.5 16.5t29.5 58.5l14 49h31v-290h-31l-16 55q-12 40 -30.5 54t-58.5 15l-68 2v-296h130q81 0 117 21q43 25 67 88l29 76h42z" />
    <glyph glyph-name="eogonek" unicode="&#x119;" horiz-adv-x="539" 
d="M461 111l22 -20q-52 -59 -109 -84q-84 -36 -84 -95q0 -26 21 -44t52 -18q21 0 45 12l12 -23q-38 -22 -84 -22q-48 0 -78.5 22.5t-30.5 58.5q0 53 72 93q-9 -1 -22 -1q-106 0 -169 67t-63 179q0 110 63 175t170 65q131 0 187 -91q31 -51 34 -146h-355q0 -98 30 -142
q41 -60 130 -60q49 0 82 15.5t75 58.5zM145 272h258q-7 95 -36 134.5t-92 39.5q-77 0 -107 -64q-16 -34 -23 -110z" />
    <glyph glyph-name="Ecaron" unicode="&#x11a;" horiz-adv-x="687" 
d="M603 666l15 -199h-42q-3 7 -22 48q-32 71 -62 91t-101 20h-145v-252l77 2q35 1 52.5 16.5t29.5 58.5l14 49h31v-290h-31l-16 55q-12 40 -30.5 54t-58.5 15l-68 2v-296h130q81 0 117 21q43 25 67 88l29 76h42l-17 -225h-571v32l36 4q41 5 54 20t13 78v398q0 63 -13 78
t-54 20l-36 4v32h560zM367 707l-169 150l21 25l148 -102l149 102l20 -25z" />
    <glyph glyph-name="ecaron" unicode="&#x11b;" horiz-adv-x="539" 
d="M461 111l22 -20q-38 -43 -67 -62q-60 -39 -140 -39q-105 0 -168 67t-63 179q0 110 63 175t170 65q131 0 187 -91q31 -51 34 -146h-355q0 -98 30 -142q41 -60 130 -60q49 0 82 15.5t75 58.5zM145 272h258q-7 95 -36 134.5t-92 39.5q-77 0 -107 -64q-16 -34 -23 -110z
M283 540l-169 163l21 26l148 -116l149 116l20 -26z" />
    <glyph glyph-name="Gcircumflex" unicode="&#x11c;" horiz-adv-x="812" 
d="M689 666l2 -226l-42 -1q-22 91 -56 132q-60 72 -176 72q-117 0 -184 -81q-71 -86 -71 -227q0 -162 90 -249q66 -63 171 -63q78 0 145 35q31 16 36.5 24t5.5 37l1 71q1 40 -17.5 53.5t-77.5 17.5l-64 4v35h354v-35q-62 -5 -76.5 -21t-14.5 -78v-126q-37 0 -101 -20
q-111 -35 -191 -35q-179 0 -275 90t-96 258t94 258t269 90q104 0 192 -37q17 -7 26 -7q16 0 34 29h22zM420 882l169 -150l-21 -25l-148 101l-149 -101l-21 25z" />
    <glyph glyph-name="gcircumflex" unicode="&#x11d;" horiz-adv-x="573" 
d="M169 171q-97 35 -97 142q0 79 52 122q49 41 151 41q118 0 171 -45q6 51 20 75q23 39 68 39q25 0 42 -16t17 -40q0 -22 -14 -36.5t-34 -14.5q-34 0 -38 30q-1 11 -8 11q-11 0 -19 -17q-15 -25 -15 -43q0 -11 10 -45t10 -56q0 -105 -91 -142q-29 -12 -56 -15.5t-111 -6.5
q-67 -3 -67 -42q0 -36 86 -40q146 -7 181 -16q42 -11 66.5 -43.5t24.5 -77.5q0 -73 -68 -117.5t-180 -44.5q-99 0 -162 37.5t-63 96.5q0 64 92 102q-64 24 -64 75q0 70 96 87zM281 443q-118 0 -118 -128q0 -126 118 -126q117 0 117 125q0 129 -117 129zM177 -2l-9 -6
q-51 -34 -51 -71q0 -46 50.5 -80.5t118.5 -34.5q67 0 108.5 28.5t41.5 75.5q0 50 -39 64q-25 9 -119 14q-58 3 -101 10zM296 729l170 -164l-21 -25l-149 115l-148 -115l-21 25z" />
    <glyph glyph-name="Gdotaccent" unicode="&#x120;" horiz-adv-x="812" 
d="M689 666l2 -226l-42 -1q-22 91 -56 132q-60 72 -176 72q-117 0 -184 -81q-71 -86 -71 -227q0 -162 90 -249q66 -63 171 -63q78 0 145 35q31 16 36.5 24t5.5 37l1 71q1 40 -17.5 53.5t-77.5 17.5l-64 4v35h354v-35q-62 -5 -76.5 -21t-14.5 -78v-126q-37 0 -101 -20
q-111 -35 -191 -35q-179 0 -275 90t-96 258t94 258t269 90q104 0 192 -37q17 -7 26 -7q16 0 34 29h22zM421 852q26 0 44.5 -18t18.5 -44t-18.5 -44.5t-44.5 -18.5t-44 18.5t-18 44.5q0 25 18.5 43.5t43.5 18.5z" />
    <glyph glyph-name="gdotaccent" unicode="&#x121;" horiz-adv-x="573" 
d="M169 171q-97 35 -97 142q0 79 52 122q49 41 151 41q118 0 171 -45q6 51 20 75q23 39 68 39q25 0 42 -16t17 -40q0 -22 -14 -36.5t-34 -14.5q-34 0 -38 30q-1 11 -8 11q-11 0 -19 -17q-15 -25 -15 -43q0 -11 10 -45t10 -56q0 -105 -91 -142q-29 -12 -56 -15.5t-111 -6.5
q-67 -3 -67 -42q0 -36 86 -40q146 -7 181 -16q42 -11 66.5 -43.5t24.5 -77.5q0 -73 -68 -117.5t-180 -44.5q-99 0 -162 37.5t-63 96.5q0 64 92 102q-64 24 -64 75q0 70 96 87zM281 443q-118 0 -118 -128q0 -126 118 -126q117 0 117 125q0 129 -117 129zM177 -2l-9 -6
q-51 -34 -51 -71q0 -46 50.5 -80.5t118.5 -34.5q67 0 108.5 28.5t41.5 75.5q0 50 -39 64q-25 9 -119 14q-58 3 -101 10zM295 688q25 0 42 -17t17 -42t-17.5 -42t-42.5 -17q-24 0 -41 17.5t-17 42.5q0 23 17.5 40.5t41.5 17.5z" />
    <glyph glyph-name="Gcommaaccent" unicode="&#x122;" horiz-adv-x="812" 
d="M689 666l2 -226l-42 -1q-22 91 -56 132q-60 72 -176 72q-117 0 -184 -81q-71 -86 -71 -227q0 -162 90 -249q66 -63 171 -63q78 0 145 35q31 16 36.5 24t5.5 37l1 71q1 40 -17.5 53.5t-77.5 17.5l-64 4v35h354v-35q-62 -5 -76.5 -21t-14.5 -78v-126q-37 0 -101 -20
q-111 -35 -191 -35q-179 0 -275 90t-96 258t94 258t269 90q104 0 192 -37q17 -7 26 -7q16 0 34 29h22zM367 -258l-8 21q71 24 77 83l-5 3q-14 -5 -24 -5q-48 0 -48 48q0 23 16.5 39t40.5 16q29 0 47 -20.5t18 -54.5q0 -93 -114 -130z" />
    <glyph glyph-name="gcommaaccent" unicode="&#x123;" horiz-adv-x="573" 
d="M169 171q-97 35 -97 142q0 79 52 122q49 41 151 41q118 0 171 -45q6 51 20 75q23 39 68 39q25 0 42 -16t17 -40q0 -22 -14 -36.5t-34 -14.5q-34 0 -38 30q-1 11 -8 11q-11 0 -19 -17q-15 -25 -15 -43q0 -11 10 -45t10 -56q0 -105 -91 -142q-29 -12 -56 -15.5t-111 -6.5
q-67 -3 -67 -42q0 -36 86 -40q146 -7 181 -16q42 -11 66.5 -43.5t24.5 -77.5q0 -73 -68 -117.5t-180 -44.5q-99 0 -162 37.5t-63 96.5q0 64 92 102q-64 24 -64 75q0 70 96 87zM281 443q-118 0 -118 -128q0 -126 118 -126q117 0 117 125q0 129 -117 129zM177 -2l-9 -6
q-51 -34 -51 -71q0 -46 50.5 -80.5t118.5 -34.5q67 0 108.5 28.5t41.5 75.5q0 50 -39 64q-25 9 -119 14q-58 3 -101 10zM336 723l7 -20q-67 -20 -73 -78l5 -4q13 5 23 5q45 0 45 -45q0 -22 -15.5 -37t-38.5 -15q-27 0 -44 20t-17 51q0 89 108 123z" />
    <glyph glyph-name="Hcircumflex" unicode="&#x124;" horiz-adv-x="837" 
d="M590 325h-344v-191q0 -63 13 -78t54 -20l36 -4v-32h-306v32l36 4q41 5 54 20t13 78v398q0 63 -13 78t-54 20l-36 4v32h306v-32l-36 -4q-41 -5 -54 -20t-13 -78v-165h344v165q0 63 -13 78t-54 20l-36 4v32h306v-32l-36 -4q-41 -5 -54 -20t-13 -78v-398q0 -63 13 -78
t54 -20l36 -4v-32h-306v32l36 4q41 5 54 20t13 78v191zM425 882l169 -150l-21 -25l-148 101l-149 -101l-20 25z" />
    <glyph glyph-name="Hbar" unicode="&#x126;" horiz-adv-x="837" 
d="M146 490h-93v42h93q1 54 -6 69q-12 24 -61 29l-36 4v32h306v-32l-36 -4q-49 -5 -61 -29q-7 -15 -6 -69h344q1 54 -6 69q-12 24 -61 29l-36 4v32h306v-32l-36 -4q-49 -5 -61 -29q-7 -15 -6 -69h93v-42h-93v-356q0 -63 13 -78t54 -20l36 -4v-32h-306v32l36 4q41 5 54 20
t13 78v191h-344v-191q0 -63 13 -78t54 -20l36 -4v-32h-306v32l36 4q41 5 54 20t13 78v356zM246 490v-123h344v123h-344z" />
    <glyph glyph-name="hbar" unicode="&#x127;" horiz-adv-x="671" 
d="M207 553h188v-33h-188v-132q34 48 73 68.5t97 20.5q102 0 151 -68q29 -40 29 -120v-157q0 -62 11 -79.5t56 -21.5l24 -2v-29h-269v29l24 2q45 4 56 21.5t11 79.5v133q0 88 -28.5 126.5t-92.5 38.5q-84 0 -120 -59q-22 -36 -22 -105v-134q0 -62 11 -79.5t56 -21.5l24 -2
v-29h-269v29l24 2q45 4 56 21.5t11 79.5v388h-109v33h109v6q0 47 -22 63q-18 13 -65 15l-22 1v28l196 24v-137z" />
    <glyph glyph-name="Imacron" unicode="&#x12a;" horiz-adv-x="393" 
d="M146 134v398q0 63 -13 78t-54 20l-36 4v32h306v-32l-36 -4q-41 -5 -54 -20t-13 -78v-398q0 -63 13 -78t54 -20l36 -4v-32h-306v32l36 4q41 5 54 20t13 78zM356 810v-53h-312v53h312z" />
    <glyph glyph-name="imacron" unicode="&#x12b;" horiz-adv-x="342" 
d="M219 477v-345q0 -62 11 -79.5t56 -21.5l24 -2v-29h-269v29l24 2q45 4 56 21.5t11 79.5v194q0 54 -4 68q-10 36 -64 41l-32 3v28zM320 652v-53h-292v53h292z" />
    <glyph glyph-name="ibreve" unicode="&#x12d;" horiz-adv-x="342" 
d="M219 477v-345q0 -62 11 -79.5t56 -21.5l24 -2v-29h-269v29l24 2q45 4 56 21.5t11 79.5v194q0 54 -4 68q-10 36 -64 41l-32 3v28zM301 705h34q-12 -148 -163 -148t-164 148h34q17 -88 129 -88q114 0 130 88z" />
    <glyph glyph-name="Iogonek" unicode="&#x12e;" horiz-adv-x="393" 
d="M349 0h-115q-61 -36 -61 -90q0 -30 19.5 -49t50.5 -19q22 0 45 13l12 -25q-38 -22 -84 -22q-50 0 -79.5 23.5t-29.5 63.5q0 69 90 105h-154v32l36 4q41 5 54 20t13 78v398q0 63 -13 78t-54 20l-36 4v32h306v-32l-36 -4q-41 -5 -54 -20t-13 -78v-398q0 -63 13 -78t54 -20
l36 -4v-32z" />
    <glyph glyph-name="iogonek" unicode="&#x12f;" horiz-adv-x="342" 
d="M310 0h-99q-63 -36 -63 -87q0 -27 20.5 -45t51.5 -18q21 0 46 12l11 -23q-38 -22 -83 -22q-49 0 -79.5 22.5t-30.5 59.5q0 64 92 101h-136v29l24 2q54 4 64 37q4 12 4 64v194q0 54 -4 68q-10 36 -64 41l-32 3v28l187 11v-345q0 -55 6 -69q12 -28 61 -32l24 -2v-29z
M173 688q25 0 42 -17t17 -42t-17.5 -42t-42.5 -17q-24 0 -41 17.5t-17 42.5q0 23 17.5 40.5t41.5 17.5z" />
    <glyph glyph-name="Idotaccent" unicode="&#x130;" horiz-adv-x="393" 
d="M146 134v398q0 63 -13 78t-54 20l-36 4v32h306v-32l-36 -4q-41 -5 -54 -20t-13 -78v-398q0 -63 13 -78t54 -20l36 -4v-32h-306v32l36 4q41 5 54 20t13 78zM201 852q26 0 44.5 -18t18.5 -44t-18.5 -44.5t-44.5 -18.5t-44 18.5t-18 44.5q0 25 18.5 43.5t43.5 18.5z" />
    <glyph glyph-name="IJ" unicode="&#x132;" horiz-adv-x="762" 
d="M146 134v398q0 63 -13 78t-54 20l-36 4v32h306v-32l-36 -4q-41 -5 -54 -20t-13 -78v-398q0 -63 13 -78t54 -20l36 -4v-32h-306v32l36 4q41 5 54 20t13 78zM398 -227l-4 30q76 13 107 63q19 31 24 79q2 20 2 84v503q0 63 -13 78t-54 20l-36 4v32h306v-32l-36 -4
q-41 -5 -54 -20t-13 -78v-503q0 -71 -10.5 -106.5t-41.5 -66.5q-69 -70 -177 -83z" />
    <glyph glyph-name="ij" unicode="&#x133;" horiz-adv-x="597" 
d="M219 477v-345q0 -62 11 -79.5t56 -21.5l24 -2v-29h-269v29l24 2q45 4 56 21.5t11 79.5v194q0 54 -4 68q-10 36 -64 41l-32 3v28zM173 688q25 0 42 -17t17 -42t-17.5 -42t-42.5 -17q-24 0 -41 17.5t-17 42.5q0 23 17.5 40.5t41.5 17.5zM510 477v-489q0 -103 -45 -155
q-52 -60 -136 -60q-47 0 -75 22t-28 59q0 28 17 45t43 17q23 0 38 -14.5t15 -36.5q0 -21 -18 -38q-5 -7 -5 -9q0 -15 32 -15q49 0 67 46q8 20 8 80v404q0 47 -4 61q-10 36 -64 41l-32 3v28zM464 688q25 0 42 -17t17 -42t-17 -42t-42 -17t-42 17.5t-17 42.5q0 23 17.5 40.5
t41.5 17.5z" />
    <glyph glyph-name="Kcommaaccent" unicode="&#x136;" horiz-adv-x="737" 
d="M742 29v-29h-209v21q0 11 -7 20l-222 298l-58 -46v-159q0 -63 13 -78t54 -20l36 -4v-32h-306v32l36 4q41 5 54 20t13 78v398q0 63 -13 78t-54 20l-36 4v32h306v-32l-36 -4q-41 -5 -54 -20t-13 -78v-191l187 151q72 57 91 77t19 36q0 15 -12 20.5t-52 8.5v32h251v-32
q-64 -5 -131 -59l-217 -175l202 -253q58 -73 85.5 -93.5t72.5 -24.5zM329 -258l-8 21q71 24 77 83l-5 3q-14 -5 -24 -5q-48 0 -48 48q0 23 16.5 39t40.5 16q29 0 47 -20.5t18 -54.5q0 -93 -114 -130z" />
    <glyph glyph-name="kcommaaccent" unicode="&#x137;" horiz-adv-x="602" 
d="M263 240l-56 -50v-58q0 -62 11 -79.5t56 -21.5l24 -2v-29h-269v29l24 2q45 4 56 21.5t11 79.5v401q0 57 -10 75q-14 26 -77 29l-22 1v28l196 24v-459l122 115q5 5 22 20q30 27 30 48q0 13 -12 18t-47 6v29h245v-29q-58 -4 -102 -30.5t-139 -112.5l175 -200q34 -39 58 -53
t58 -13v-29h-159zM264 -241l-7 21q67 20 73 78l-5 3q-12 -5 -23 -5q-45 0 -45 45q0 22 15.5 37t38.5 15q27 0 44 -19.5t17 -50.5q0 -89 -108 -124z" />
    <glyph glyph-name="kgreenlandic" unicode="&#x138;" horiz-adv-x="602" 
d="M263 240l-56 -50v-58q0 -62 11 -79.5t56 -21.5l24 -2v-29h-269v29l24 2q45 4 56 21.5t11 79.5v198q0 50 -4 64q-10 36 -64 41l-32 3v28l187 11v-246l122 115q5 5 22 20q30 27 30 48q0 13 -12 18t-47 6v29h245v-29q-58 -4 -102 -30.5t-139 -112.5l175 -200
q35 -40 58.5 -53.5t58.5 -12.5v-29h-160z" />
    <glyph glyph-name="Lacute" unicode="&#x139;" horiz-adv-x="630" 
d="M606 226l-18 -226h-545v32l36 4q41 5 54 20t13 78v398q0 63 -13 78t-54 20l-36 4v32h306v-32l-36 -4q-41 -5 -54 -20t-13 -78v-492h106q80 0 117.5 24t65.5 92l29 70h42zM200 707l-13 14l126 141q21 23 40 23q11 0 20.5 -10.5t9.5 -23.5q0 -20 -24 -36z" />
    <glyph glyph-name="lacute" unicode="&#x13a;" horiz-adv-x="326" 
d="M207 690v-558q0 -63 11 -80t56 -21l24 -2v-29h-269v29l24 2q45 4 56 21.5t11 79.5v402q0 63 -16 82t-71 21l-22 1v28zM153 727l-13 14l126 141q21 23 40 23q11 0 20.5 -10.5t9.5 -23.5q0 -20 -24 -36z" />
    <glyph glyph-name="Lcommaaccent" unicode="&#x13b;" horiz-adv-x="630" 
d="M606 226l-18 -226h-545v32l36 4q41 5 54 20t13 78v398q0 63 -13 78t-54 20l-36 4v32h306v-32l-36 -4q-41 -5 -54 -20t-13 -78v-492h106q80 0 117.5 24t65.5 92l29 70h42zM272 -258l-8 21q71 24 77 83l-5 3q-14 -5 -24 -5q-48 0 -48 48q0 23 16.5 39t40.5 16
q29 0 47 -20.5t18 -54.5q0 -93 -114 -130z" />
    <glyph glyph-name="lcommaaccent" unicode="&#x13c;" horiz-adv-x="326" 
d="M207 690v-558q0 -63 11 -80t56 -21l24 -2v-29h-269v29l24 2q45 4 56 21.5t11 79.5v402q0 63 -16 82t-71 21l-22 1v28zM116 -241l-7 21q67 20 73 78l-5 3q-12 -5 -23 -5q-45 0 -45 45q0 22 15.5 37t38.5 15q27 0 44 -19.5t17 -50.5q0 -89 -108 -124z" />
    <glyph glyph-name="Lcaron" unicode="&#x13d;" horiz-adv-x="630" 
d="M606 226l-18 -226h-545v32l36 4q41 5 54 20t13 78v398q0 63 -13 78t-54 20l-36 4v32h306v-32l-36 -4q-41 -5 -54 -20t-13 -78v-492h106q80 0 117.5 24t65.5 92l29 70h42zM455 476l-8 22q71 22 77 82l-5 4q-14 -5 -24 -5q-48 0 -48 47q0 23 16.5 39t40.5 16q29 0 47 -20.5
t18 -53.5q0 -92 -114 -131z" />
    <glyph glyph-name="lcaron" unicode="&#x13e;" horiz-adv-x="460" 
d="M207 690v-558q0 -63 11 -80t56 -21l24 -2v-29h-269v29l24 2q45 4 56 21.5t11 79.5v402q0 63 -16 82t-71 21l-22 1v28zM299 496l-7 20q67 22 73 78l-5 4q-12 -5 -23 -5q-45 0 -45 45q0 22 15.5 37t38.5 15q27 0 44 -19.5t17 -50.5q0 -89 -108 -124z" />
    <glyph glyph-name="Ldot" unicode="&#x13f;" horiz-adv-x="630" 
d="M606 226l-18 -226h-545v32l36 4q41 5 54 20t13 78v398q0 63 -13 78t-54 20l-36 4v32h306v-32l-36 -4q-41 -5 -54 -20t-13 -78v-492h106q80 0 117.5 24t65.5 92l29 70h42zM495 427q30 0 51.5 -21.5t21.5 -51.5t-21.5 -51.5t-51.5 -21.5t-51.5 21.5t-21.5 52.5
q0 29 21.5 50.5t51.5 21.5z" />
    <glyph glyph-name="ldot" unicode="&#x140;" horiz-adv-x="483" 
d="M207 690v-558q0 -63 11 -80t56 -21l24 -2v-29h-269v29l24 2q45 4 56 21.5t11 79.5v402q0 63 -16 82t-71 21l-22 1v28zM413 418q29 0 49.5 -20.5t20.5 -49.5q0 -28 -20.5 -49t-49.5 -21t-49.5 21t-20.5 50q0 28 21 48.5t49 20.5z" />
    <glyph glyph-name="Ncommaaccent" unicode="&#x145;" horiz-adv-x="802" 
d="M256 666l374 -530l-7 389q-1 67 -21 87t-89 22v32h269v-32q-67 -2 -86.5 -21.5t-20.5 -87.5l-8 -525h-68l-417 574l7 -434q1 -67 19 -84.5t92 -23.5v-32h-271v32q70 2 88 19.5t19 81.5l7 408q0 52 -19 67.5t-95 25.5v32h227zM342 -258l-8 21q71 24 77 83l-5 3
q-14 -5 -24 -5q-48 0 -48 48q0 23 16.5 39t40.5 16q29 0 47 -20.5t18 -54.5q0 -93 -114 -130z" />
    <glyph glyph-name="ncommaaccent" unicode="&#x146;" horiz-adv-x="682" 
d="M212 476v-92q38 51 76.5 71.5t97.5 20.5q183 0 183 -187v-157q0 -62 11 -79.5t56 -21.5l24 -2v-29h-269v29l24 2q45 4 56 21.5t11 79.5v133q0 83 -23 118q-31 47 -101 47q-77 0 -117 -61q-22 -34 -22 -103v-134q0 -62 11 -79.5t56 -21.5l24 -2v-29h-269v29l24 2
q45 4 56 21.5t11 79.5v195q0 53 -4 67q-10 36 -64 41l-32 3v28zM297 -241l-7 21q67 20 73 78l-5 3q-12 -5 -23 -5q-45 0 -45 45q0 22 15.5 37t38.5 15q27 0 44 -19.5t17 -50.5q0 -89 -108 -124z" />
    <glyph glyph-name="Ncaron" unicode="&#x147;" horiz-adv-x="802" 
d="M256 666l374 -530l-7 389q-1 67 -21 87t-89 22v32h269v-32q-67 -2 -86.5 -21.5t-20.5 -87.5l-8 -525h-68l-417 574l7 -434q1 -67 19 -84.5t92 -23.5v-32h-271v32q70 2 88 19.5t19 81.5l7 408q0 52 -19 67.5t-95 25.5v32h227zM411 707l-169 150l21 25l148 -102l149 102
l20 -25z" />
    <glyph glyph-name="ncaron" unicode="&#x148;" horiz-adv-x="682" 
d="M212 476v-92q38 51 76.5 71.5t97.5 20.5q183 0 183 -187v-157q0 -62 11 -79.5t56 -21.5l24 -2v-29h-269v29l24 2q45 4 56 21.5t11 79.5v133q0 83 -23 118q-31 47 -101 47q-77 0 -117 -61q-22 -34 -22 -103v-134q0 -62 11 -79.5t56 -21.5l24 -2v-29h-269v29l24 2
q45 4 56 21.5t11 79.5v195q0 53 -4 67q-10 36 -64 41l-32 3v28zM358 540l-169 163l21 26l148 -116l149 116l20 -26z" />
    <glyph glyph-name="napostrophe" unicode="&#x149;" horiz-adv-x="859" 
d="M83 441l-8 21q44 15 71 48t26 70q-19 -8 -34 -8q-27 0 -44.5 16t-17.5 40q0 26 19 44t47 18q33 0 53.5 -24.5t20.5 -64.5q0 -115 -133 -160zM388 476v-92q38 51 76.5 71.5t97.5 20.5q183 0 183 -187v-157q0 -62 11 -79.5t56 -21.5l24 -2v-29h-269v29l24 2q45 4 56 21.5
t11 79.5v133q0 83 -23 118q-31 47 -101 47q-77 0 -117 -61q-22 -34 -22 -103v-134q0 -62 11 -79.5t56 -21.5l24 -2v-29h-269v29l24 2q45 4 56 21.5t11 79.5v195q0 53 -4 67q-10 36 -64 41l-32 3v28z" />
    <glyph glyph-name="Eng" unicode="&#x14a;" horiz-adv-x="809" 
d="M239 666l-1 -93q73 108 216 108q225 0 225 -202v-491q0 -104 -48.5 -159.5t-139.5 -55.5q-109 0 -109 84q0 28 17 45t43 17q23 0 38 -14t15 -36t-18 -39q-5 -5 -5 -8q0 -16 35 -16q46 0 64 46q8 20 8 80v523q0 88 -40.5 135t-116.5 47q-97 0 -148 -76q-28 -41 -28 -105
v-322q0 -63 13 -78t54 -20l36 -4v-32h-306v32l36 4q41 5 54 20t13 78v380q0 53 -4 67q-11 38 -64 41l-35 2v32z" />
    <glyph glyph-name="eng" unicode="&#x14b;" horiz-adv-x="684" 
d="M212 476v-92q37 51 76 71.5t98 20.5q183 0 183 -187v-301q0 -103 -45 -155q-52 -60 -135 -60q-47 0 -75 22t-28 59q0 28 17 45t43 17q22 0 37 -14.5t15 -36.5q0 -21 -18 -38q-5 -7 -5 -9q0 -15 32 -15q49 0 67 46q8 20 8 80v336q0 83 -23 118q-31 47 -101 47
q-78 0 -118 -61q-21 -32 -21 -103v-134q0 -62 11 -79.5t56 -21.5l24 -2v-29h-270v29l24 2q46 4 57 21.5t11 79.5v195q0 53 -4 67q-10 36 -64 41l-32 3v28z" />
    <glyph glyph-name="Omacron" unicode="&#x14c;" horiz-adv-x="835" 
d="M418 681q176 0 270.5 -90t94.5 -258q0 -167 -94.5 -257.5t-269.5 -90.5q-177 0 -275 93q-92 88 -92 260q0 164 95.5 253.5t270.5 89.5zM418 643q-120 0 -186 -83q-70 -88 -70 -223q0 -145 69 -229.5t187 -84.5q116 0 185.5 84.5t69.5 225.5q0 139 -70 227q-66 83 -185 83
zM580 810v-53h-312v53h312z" />
    <glyph glyph-name="omacron" unicode="&#x14d;" horiz-adv-x="593" 
d="M296 476q116 0 181 -58q70 -62 70 -185t-70 -185q-65 -58 -180 -58q-122 0 -187 64t-65 183q0 120 70 181q67 58 181 58zM295 446q-150 0 -150 -210q0 -216 153 -216q149 0 149 213t-152 213zM452 652v-53h-292v53h292z" />
    <glyph glyph-name="Ohungarumlaut" unicode="&#x150;" horiz-adv-x="835" 
d="M418 681q176 0 270.5 -90t94.5 -258q0 -167 -94.5 -257.5t-269.5 -90.5q-177 0 -275 93q-92 88 -92 260q0 164 95.5 253.5t270.5 89.5zM418 643q-120 0 -186 -83q-70 -88 -70 -223q0 -145 69 -229.5t187 -84.5q116 0 185.5 84.5t69.5 225.5q0 139 -70 227q-66 83 -185 83
zM340 707l-13 14l126 141q21 23 40 23q11 0 20.5 -10.5t9.5 -23.5q0 -20 -24 -36zM500 707l-13 14l126 141q21 23 40 23q11 0 20.5 -10.5t9.5 -23.5q0 -20 -24 -36z" />
    <glyph glyph-name="ohungarumlaut" unicode="&#x151;" horiz-adv-x="593" 
d="M296 476q116 0 181 -58q70 -62 70 -185t-70 -185q-65 -58 -180 -58q-122 0 -187 64t-65 183q0 120 70 181q67 58 181 58zM295 446q-150 0 -150 -210q0 -216 153 -216q149 0 149 213t-152 213zM234 529l-14 13l128 163q20 26 40 26q12 0 21.5 -10.5t9.5 -23.5
q0 -17 -21 -35zM381 529l-14 13l128 163q20 26 39 26q12 0 21.5 -10.5t9.5 -23.5q0 -19 -20 -35z" />
    <glyph glyph-name="Rcommaaccent" unicode="&#x156;" horiz-adv-x="717" 
d="M681 33l5 -30q-49 -11 -84 -11q-65 0 -93 40q-18 26 -44 123q-21 81 -31 104.5t-28 37.5q-33 26 -95 26h-65v-189q0 -63 13 -78t54 -20l36 -4v-32h-306v32l36 4q41 5 54 20t13 78v398q0 63 -13 78t-54 20l-36 4v32h341q114 0 168 -39q61 -44 61 -117q0 -83 -71 -131
q-41 -28 -122 -41q76 -12 104.5 -45.5t49.5 -134.5q15 -75 31.5 -101.5t45.5 -26.5q5 0 30 3zM246 361h79q80 0 129 39.5t49 103.5q0 60 -41 91t-139 31q-29 0 -77 -3v-262zM309 -258l-8 21q71 24 77 83l-5 3q-14 -5 -24 -5q-48 0 -48 48q0 23 16.5 39t40.5 16
q29 0 46.5 -20.5t17.5 -54.5q0 -93 -113 -130z" />
    <glyph glyph-name="rcommaaccent" unicode="&#x157;" horiz-adv-x="459" 
d="M215 476v-103q56 107 145 107q41 0 67 -21t26 -55q0 -28 -17.5 -46t-43.5 -18q-22 0 -37 14.5t-15 34.5q0 17 15 36q7 7 7 11q0 11 -18 11q-50 0 -89 -66q-36 -60 -36 -159v-90q0 -61 11 -78.5t56 -21.5l31 -3v-29h-276v29l24 2q45 4 56 21.5t11 79.5v198q0 50 -4 64
q-10 36 -64 41l-32 3v28zM128 -241l-7 21q67 20 73 78l-5 3q-12 -5 -23 -5q-45 0 -45 45q0 22 15.5 37t38.5 15q27 0 44 -19.5t17 -50.5q0 -89 -108 -124z" />
    <glyph glyph-name="Rcaron" unicode="&#x158;" horiz-adv-x="717" 
d="M681 33l5 -30q-49 -11 -84 -11q-65 0 -93 40q-18 26 -44 123q-21 81 -31 104.5t-28 37.5q-33 26 -95 26h-65v-189q0 -63 13 -78t54 -20l36 -4v-32h-306v32l36 4q41 5 54 20t13 78v398q0 63 -13 78t-54 20l-36 4v32h341q114 0 168 -39q61 -44 61 -117q0 -83 -71 -131
q-41 -28 -122 -41q76 -12 104.5 -45.5t49.5 -134.5q15 -75 31.5 -101.5t45.5 -26.5q5 0 30 3zM246 361h79q80 0 129 39.5t49 103.5q0 60 -41 91t-139 31q-29 0 -77 -3v-262zM338 707l-169 150l21 25l148 -102l149 102l20 -25z" />
    <glyph glyph-name="rcaron" unicode="&#x159;" horiz-adv-x="459" 
d="M215 476v-103q56 107 145 107q41 0 67 -21t26 -55q0 -28 -17.5 -46t-43.5 -18q-22 0 -37 14.5t-15 34.5q0 17 15 36q7 7 7 11q0 11 -18 11q-50 0 -89 -66q-36 -60 -36 -159v-90q0 -61 11 -78.5t56 -21.5l31 -3v-29h-276v29l24 2q45 4 56 21.5t11 79.5v198q0 50 -4 64
q-10 36 -64 41l-32 3v28zM239 540l-169 163l21 26l148 -116l149 116l21 -26z" />
    <glyph glyph-name="Sacute" unicode="&#x15a;" horiz-adv-x="603" 
d="M509 666l2 -226l-39 -1q-12 99 -44 142q-46 62 -131 62q-57 0 -92.5 -31t-35.5 -81q0 -61 52 -98q40 -28 127 -57q91 -29 128 -53q73 -47 73 -141q0 -91 -71 -150q-57 -47 -155 -47q-86 0 -193 39q-8 3 -13 3q-13 0 -36 -27h-22l-2 233l39 2q20 -75 45 -118
q55 -94 173 -94q65 0 104 33.5t39 88.5t-39 83q-21 15 -38 23t-97 39q-101 40 -143 72q-63 49 -63 134t55 135t149 50q64 0 156 -34q8 -4 15 -4q13 0 35 23h22zM265 707l-11 17l180 143q23 18 38 18q12 0 21 -10t9 -23q0 -23 -28 -37z" />
    <glyph glyph-name="sacute" unicode="&#x15b;" horiz-adv-x="458" 
d="M380 467l2 -143l-29 -1q-16 60 -34 81q-37 44 -96 44q-38 0 -61.5 -19.5t-23.5 -51.5t26 -54.5t90 -45.5q83 -30 108 -47q43 -29 43 -94q0 -68 -44 -107t-122 -39q-45 0 -107 17q-29 8 -37 8q-11 0 -19 -15h-17l-2 168l29 1q13 -64 37 -95q42 -54 105 -54q44 0 71 23.5
t27 60.5q0 39 -31 60q-15 10 -25 15q-13 5 -63 23q-78 28 -109 59t-31 80q0 65 42 100.5t119 35.5q57 0 105 -19q8 -4 15 -4q9 0 15 13h17zM210 529l-13 15l162 164q23 23 39 23q12 0 21.5 -10t9.5 -23q0 -21 -24 -37z" />
    <glyph glyph-name="Scircumflex" unicode="&#x15c;" horiz-adv-x="603" 
d="M509 666l2 -226l-39 -1q-12 99 -44 142q-46 62 -131 62q-57 0 -92.5 -31t-35.5 -81q0 -61 52 -98q40 -28 127 -57q91 -29 128 -53q73 -47 73 -141q0 -91 -71 -150q-57 -47 -155 -47q-86 0 -193 39q-8 3 -13 3q-13 0 -36 -27h-22l-2 233l39 2q20 -75 45 -118
q55 -94 173 -94q65 0 104 33.5t39 88.5t-39 83q-21 15 -38 23t-97 39q-101 40 -143 72q-63 49 -63 134t55 135t149 50q64 0 156 -34q8 -4 15 -4q13 0 35 23h22zM301 882l170 -150l-21 -25l-149 101l-148 -101l-21 25z" />
    <glyph glyph-name="scircumflex" unicode="&#x15d;" horiz-adv-x="458" 
d="M380 467l2 -143l-29 -1q-16 60 -34 81q-37 44 -96 44q-38 0 -61.5 -19.5t-23.5 -51.5t26 -54.5t90 -45.5q83 -30 108 -47q43 -29 43 -94q0 -68 -44 -107t-122 -39q-45 0 -107 17q-29 8 -37 8q-11 0 -19 -15h-17l-2 168l29 1q13 -64 37 -95q42 -54 105 -54q44 0 71 23.5
t27 60.5q0 39 -31 60q-15 10 -25 15q-13 5 -63 23q-78 28 -109 59t-31 80q0 65 42 100.5t119 35.5q57 0 105 -19q8 -4 15 -4q9 0 15 13h17zM236 729l169 -164l-21 -25l-148 115l-149 -115l-20 25z" />
    <glyph glyph-name="Tcaron" unicode="&#x164;" horiz-adv-x="655" 
d="M642 666l2 -225h-42l-17 53q-24 75 -54 103.5t-86 28.5h-68v-492q0 -63 13 -78t54 -20l36 -4v-32h-306v32l36 4q41 5 54 20t13 78v492h-68q-56 0 -86 -28.5t-54 -103.5l-17 -53h-42l2 225h630zM331 707l-170 150l21 25l149 -102l148 102l21 -25z" />
    <glyph glyph-name="tcaron" unicode="&#x165;" horiz-adv-x="369" 
d="M339 467v-33h-140v-301q0 -89 75 -89q26 0 72 18l11 -24q-80 -48 -144 -48q-100 0 -100 109v335h-112v33h112v102l65 65h21v-167h140zM161 707l-169 150l21 25l148 -102l149 102l20 -25z" />
    <glyph glyph-name="Tbar" unicode="&#x166;" horiz-adv-x="655" 
d="M377 420h155v-42h-155v-244q0 -63 13 -78t54 -20l36 -4v-32h-306v32l36 4q41 5 54 20t13 78v244h-155v42h155v206h-68q-56 0 -86 -28.5t-54 -103.5l-17 -53h-42l2 225h630l2 -225h-42l-17 53q-24 75 -54 103.5t-86 28.5h-68v-206z" />
    <glyph glyph-name="tbar" unicode="&#x167;" horiz-adv-x="369" 
d="M339 467v-33h-139v-61h119v-33h-119v-200q0 -51 16 -71q20 -25 59 -25q24 0 71 18l11 -24q-80 -48 -143 -48q-100 0 -100 109v241h-93v33h93v61h-113v33h113v102l65 65h21v-167h139z" />
    <glyph glyph-name="utilde" unicode="&#x169;" horiz-adv-x="672" 
d="M469 0v78q-78 -88 -183 -88q-95 0 -140 60q-32 43 -32 134v143q0 53 -4 67q-10 36 -64 41l-32 3v28l187 11v-274q0 -164 126 -164q87 0 118 68q17 37 17 96v124q0 53 -4 67q-10 36 -64 41l-32 3v28l187 11v-345q0 -62 11 -79.5t56 -21.5l24 -2v-29h-171zM494 692l34 -3
q-10 -116 -87 -116q-34 0 -142 45q-29 12 -51 12q-20 0 -30.5 -13t-18.5 -50l-33 7q7 114 89 114q31 0 109 -30q62 -24 84 -24q23 0 32.5 12.5t13.5 45.5z" />
    <glyph glyph-name="Umacron" unicode="&#x16a;" horiz-adv-x="777" 
d="M499 666h268v-32q-77 -5 -92.5 -27.5t-17.5 -136.5l-5 -230q-1 -58 -9 -88q-11 -42 -42 -78q-77 -89 -217 -89q-152 0 -218 93q-38 54 -38 166v288q0 63 -13 78t-54 20l-36 4v32h306v-32l-36 -4q-41 -5 -54 -20t-13 -78v-287q0 -91 52 -145t139 -54q126 0 168 90
q20 43 20 130v7l-4 201q-2 109 -15.5 131t-88.5 29v32zM561 810v-53h-311v53h311z" />
    <glyph glyph-name="umacron" unicode="&#x16b;" horiz-adv-x="672" 
d="M469 0v78q-78 -88 -183 -88q-95 0 -140 60q-32 43 -32 134v143q0 53 -4 67q-10 36 -64 41l-32 3v28l187 11v-274q0 -164 126 -164q87 0 118 68q17 37 17 96v124q0 53 -4 67q-10 36 -64 41l-32 3v28l187 11v-345q0 -62 11 -79.5t56 -21.5l24 -2v-29h-171zM489 652v-53
h-292v53h292z" />
    <glyph glyph-name="ubreve" unicode="&#x16d;" horiz-adv-x="672" 
d="M469 0v78q-78 -88 -183 -88q-95 0 -140 60q-32 43 -32 134v143q0 53 -4 67q-10 36 -64 41l-32 3v28l187 11v-274q0 -164 126 -164q87 0 118 68q17 37 17 96v124q0 53 -4 67q-10 36 -64 41l-32 3v28l187 11v-345q0 -62 11 -79.5t56 -21.5l24 -2v-29h-171zM466 705h34
q-12 -148 -162 -148q-152 0 -165 148h34q17 -88 130 -88q115 0 129 88z" />
    <glyph glyph-name="Uring" unicode="&#x16e;" horiz-adv-x="777" 
d="M499 666h268v-32q-77 -5 -92.5 -27.5t-17.5 -136.5l-5 -230q-1 -58 -9 -88q-11 -42 -42 -78q-77 -89 -217 -89q-152 0 -218 93q-38 54 -38 166v288q0 63 -13 78t-54 20l-36 4v32h306v-32l-36 -4q-41 -5 -54 -20t-13 -78v-287q0 -91 52 -145t139 -54q126 0 168 90
q20 43 20 130v7l-4 201q-2 109 -15.5 131t-88.5 29v32zM419 864q39 0 64.5 -22.5t25.5 -57.5q0 -34 -26 -57.5t-64 -23.5q-40 0 -65.5 23t-25.5 59q0 35 25.5 57t65.5 22zM419 839q-47 0 -47 -54q0 -25 13 -41t33 -16t33.5 16t13.5 41q0 24 -13 39t-33 15z" />
    <glyph glyph-name="uring" unicode="&#x16f;" horiz-adv-x="672" 
d="M469 0v78q-78 -88 -183 -88q-95 0 -140 60q-32 43 -32 134v143q0 53 -4 67q-10 36 -64 41l-32 3v28l187 11v-274q0 -164 126 -164q87 0 118 68q17 37 17 96v124q0 53 -4 67q-10 36 -64 41l-32 3v28l187 11v-345q0 -62 11 -79.5t56 -21.5l24 -2v-29h-171zM334 716
q41 0 69 -25.5t28 -62.5q0 -38 -28 -63.5t-69 -25.5q-43 0 -70.5 25.5t-27.5 64.5q0 37 28 62t70 25zM333 690q-22 0 -36.5 -17.5t-14.5 -43.5q0 -29 14.5 -46.5t37.5 -17.5q22 0 36.5 18t14.5 46q0 26 -15 43.5t-37 17.5z" />
    <glyph glyph-name="Uhungarumlaut" unicode="&#x170;" horiz-adv-x="777" 
d="M499 666h268v-32q-77 -5 -92.5 -27.5t-17.5 -136.5l-5 -230q-1 -58 -9 -88q-11 -42 -42 -78q-77 -89 -217 -89q-152 0 -218 93q-38 54 -38 166v288q0 63 -13 78t-54 20l-36 4v32h306v-32l-36 -4q-41 -5 -54 -20t-13 -78v-287q0 -91 52 -145t139 -54q126 0 168 90
q20 43 20 130v7l-4 201q-2 109 -15.5 131t-88.5 29v32zM337 707l-13 14l127 141q21 23 39 23q11 0 20.5 -10.5t9.5 -23.5q0 -20 -23 -36zM497 707l-13 14l127 141q21 23 39 23q11 0 20.5 -10.5t9.5 -23.5q0 -20 -23 -36z" />
    <glyph glyph-name="uhungarumlaut" unicode="&#x171;" horiz-adv-x="672" 
d="M469 0v78q-78 -88 -183 -88q-95 0 -140 60q-32 43 -32 134v143q0 53 -4 67q-10 36 -64 41l-32 3v28l187 11v-274q0 -164 126 -164q87 0 118 68q17 37 17 96v124q0 53 -4 67q-10 36 -64 41l-32 3v28l187 11v-345q0 -62 11 -79.5t56 -21.5l24 -2v-29h-171zM252 529l-14 13
l127 163q20 26 40 26q12 0 21.5 -10.5t9.5 -23.5q0 -18 -21 -35zM398 529l-14 13l128 163q20 26 40 26q12 0 21.5 -10.5t9.5 -23.5q0 -18 -21 -35z" />
    <glyph glyph-name="Uogonek" unicode="&#x172;" horiz-adv-x="777" 
d="M657 470l-5 -230q-2 -85 -31 -137q-30 -55 -99 -90q-65 -44 -65 -102q0 -31 19.5 -50t50.5 -19q22 0 45 13l11 -25q-37 -22 -83 -22q-50 0 -79.5 23.5t-29.5 63.5q0 57 50 94q-27 -4 -58 -4q-151 0 -217 93q-38 53 -38 166v288q0 63 -13 78t-54 20l-36 4v32h306v-32
l-36 -4q-41 -5 -54 -20t-13 -78v-287q0 -91 52 -145t139 -54q126 0 168 90q20 43 20 130v7l-4 201q-2 109 -15.5 131t-88.5 29v32h268v-32q-77 -5 -92.5 -28t-17.5 -136z" />
    <glyph glyph-name="uogonek" unicode="&#x173;" horiz-adv-x="672" 
d="M641 0h-137q-63 -36 -63 -87q0 -27 20.5 -45t52.5 -18q21 0 45 12l12 -23q-40 -22 -84 -22q-48 0 -78.5 22.5t-30.5 59.5q0 65 91 101v78q-78 -88 -183 -88q-95 0 -140 60q-32 43 -32 134v143q0 53 -4 67q-10 36 -64 41l-32 3v28l187 11v-274q0 -164 126 -164
q87 0 118 68q17 37 17 96v124q0 53 -4 67q-10 36 -64 41l-32 3v28l187 11v-345q0 -55 6 -69q12 -28 62 -32l24 -2v-29z" />
    <glyph glyph-name="Wcircumflex" unicode="&#x174;" horiz-adv-x="1024" 
d="M568 666l179 -551l69 229q64 212 64 250q0 19 -17.5 27t-67.5 13v32h249v-32q-46 -4 -63 -17q-25 -18 -52 -82q-24 -58 -74 -216l-105 -331h-70l-176 546l-168 -546h-66l-175 540q-23 72 -38 87t-67 19v32h272v-32q-47 -4 -61.5 -10.5t-14.5 -22.5q0 -19 10 -51l136 -434
l168 550h68zM535 882l169 -150l-20 -25l-149 101l-148 -101l-21 25z" />
    <glyph glyph-name="Ycircumflex" unicode="&#x176;" horiz-adv-x="665" 
d="M377 282v-148q0 -62 12 -77q15 -18 55 -21l49 -4v-32h-332v32l49 4q40 3 55 21q12 15 12 77v134l-182 288l-15 24q-18 31 -35.5 41t-57.5 13v32h283v-32q-38 -3 -49 -10q-18 -11 -18 -28q0 -19 21 -53l135 -218l117 184q44 69 44 96q0 26 -63 29v32h221v-32
q-42 -2 -66 -19t-64 -77zM353 882l169 -150l-21 -25l-148 101l-149 -101l-21 25z" />
    <glyph glyph-name="ycircumflex" unicode="&#x177;" horiz-adv-x="578" 
d="M314 80l119 276q14 33 14 47q0 32 -70 35v29h208v-29q-40 -4 -61 -24.5t-53 -85.5l-160 -323q-54 -110 -62 -125q-15 -28 -29 -47q-44 -59 -114 -59q-46 0 -74 22.5t-28 59.5q0 28 16.5 45.5t42.5 17.5q22 0 37 -14t15 -34q0 -18 -17 -40q-2 -6 -2 -8q0 -17 31 -17
q40 0 76 55q13 20 64 124l-176 369q-26 55 -40 67t-54 17v29h249v-29q-44 -3 -58.5 -10t-14.5 -26q0 -16 24 -68zM309 729l170 -164l-21 -25l-149 115l-148 -115l-21 25z" />
    <glyph glyph-name="Zacute" unicode="&#x179;" horiz-adv-x="671" 
d="M78 666h546v-28l-460 -598h212q87 0 123.5 22.5t72.5 99.5l30 63h42l-16 -225h-601v28l467 601h-205q-107 0 -141 -100l-30 -88h-42zM360 707l-13 14l126 141q21 23 40 23q11 0 20.5 -10.5t9.5 -23.5q0 -20 -24 -36z" />
    <glyph glyph-name="zacute" unicode="&#x17a;" horiz-adv-x="517" 
d="M474 444l-321 -407h134q67 0 105 30q18 14 28 33t28 73l29 -1l-2 -172h-438v28l321 406h-123q-75 0 -103 -32q-18 -21 -45 -100l-29 1l2 164h414v-23zM280 529l-14 13l128 163q20 26 40 26q12 0 21.5 -10.5t9.5 -23.5q0 -17 -21 -35z" />
    <glyph glyph-name="Zdotaccent" unicode="&#x17b;" horiz-adv-x="671" 
d="M78 666h546v-28l-460 -598h212q87 0 123.5 22.5t72.5 99.5l30 63h42l-16 -225h-601v28l467 601h-205q-107 0 -141 -100l-30 -88h-42zM355 852q26 0 44.5 -18t18.5 -44t-18.5 -44.5t-44.5 -18.5t-44 18.5t-18 44.5q0 25 18.5 43.5t43.5 18.5z" />
    <glyph glyph-name="zdotaccent" unicode="&#x17c;" horiz-adv-x="517" 
d="M474 444l-321 -407h134q67 0 105 30q18 14 28 33t28 73l29 -1l-2 -172h-438v28l321 406h-123q-75 0 -103 -32q-18 -21 -45 -100l-29 1l2 164h414v-23zM278 688q25 0 42 -17t17 -42t-17.5 -42t-42.5 -17q-24 0 -41 17.5t-17 42.5q0 23 17.5 40.5t41.5 17.5z" />
    <glyph glyph-name="Acaron" unicode="&#x1cd;" horiz-adv-x="706" 
d="M396 666l206 -496q36 -87 56 -109.5t68 -28.5v-32h-281v32q84 9 84 33q0 13 -21 67l-43 111h-271l-40 -102q-21 -54 -21 -70q0 -17 18.5 -25.5t68.5 -13.5v-32h-240v32q52 5 74 29t63 120l196 461l10 24h73zM328 578l-119 -295h239zM360 707l-169 150l20 25l149 -102
l148 102l21 -25z" />
    <glyph glyph-name="acaron" unicode="&#x1ce;" horiz-adv-x="549" 
d="M528 69l12 -16q-61 -60 -111 -60q-36 0 -57 30q-11 15 -20 52q-77 -85 -163 -85q-61 0 -98.5 37t-37.5 98t36 93t132 48q16 3 38 7l94 17q-2 86 -16 113q-22 44 -93 44q-28 0 -52 -10t-24 -21q0 -4 12.5 -16.5t12.5 -32.5q0 -24 -16 -40t-41 -16t-40.5 16.5t-15.5 42.5
q0 49 50 78t134 29q123 0 162 -75q15 -31 15 -100v-164q0 -52 8 -72t30 -20q16 0 49 23zM354 181v78q-102 -18 -145 -33q-63 -22 -63 -90q0 -40 25 -65.5t65 -25.5q59 0 90 41q28 36 28 95zM268 540l-169 163l20 26l149 -116l148 116l21 -26z" />
    <glyph glyph-name="Ucaron" unicode="&#x1d3;" horiz-adv-x="777" 
d="M499 666h268v-32q-77 -5 -92.5 -27.5t-17.5 -136.5l-5 -230q-1 -58 -9 -88q-11 -42 -42 -78q-77 -89 -217 -89q-152 0 -218 93q-38 54 -38 166v288q0 63 -13 78t-54 20l-36 4v32h306v-32l-36 -4q-41 -5 -54 -20t-13 -78v-287q0 -91 52 -145t139 -54q126 0 168 90
q20 43 20 130v7l-4 201q-2 109 -15.5 131t-88.5 29v32zM422 707l-169 150l20 25l149 -102l149 102l20 -25z" />
    <glyph glyph-name="ucaron" unicode="&#x1d4;" horiz-adv-x="672" 
d="M469 0v78q-78 -88 -183 -88q-95 0 -140 60q-32 43 -32 134v143q0 53 -4 67q-10 36 -64 41l-32 3v28l187 11v-274q0 -164 126 -164q87 0 118 68q17 37 17 96v124q0 53 -4 67q-10 36 -64 41l-32 3v28l187 11v-345q0 -62 11 -79.5t56 -21.5l24 -2v-29h-171zM337 540
l-170 163l21 26l149 -116l148 116l21 -26z" />
    <glyph glyph-name="Gcaron" unicode="&#x1e6;" horiz-adv-x="812" 
d="M689 666l2 -226l-42 -1q-22 91 -56 132q-60 72 -176 72q-117 0 -184 -81q-71 -86 -71 -227q0 -162 90 -249q66 -63 171 -63q78 0 145 35q31 16 36.5 24t5.5 37l1 71q1 40 -17.5 53.5t-77.5 17.5l-64 4v35h354v-35q-62 -5 -76.5 -21t-14.5 -78v-126q-37 0 -101 -20
q-111 -35 -191 -35q-179 0 -275 90t-96 258t94 258t269 90q104 0 192 -37q17 -7 26 -7q16 0 34 29h22zM420 707l-170 150l21 25l149 -102l148 102l21 -25z" />
    <glyph glyph-name="gcaron" unicode="&#x1e7;" horiz-adv-x="573" 
d="M169 171q-97 35 -97 142q0 79 52 122q49 41 151 41q118 0 171 -45q6 51 20 75q23 39 68 39q25 0 42 -16t17 -40q0 -22 -14 -36.5t-34 -14.5q-34 0 -38 30q-1 11 -8 11q-11 0 -19 -17q-15 -25 -15 -43q0 -11 10 -45t10 -56q0 -105 -91 -142q-29 -12 -56 -15.5t-111 -6.5
q-67 -3 -67 -42q0 -36 86 -40q146 -7 181 -16q42 -11 66.5 -43.5t24.5 -77.5q0 -73 -68 -117.5t-180 -44.5q-99 0 -162 37.5t-63 96.5q0 64 92 102q-64 24 -64 75q0 70 96 87zM281 443q-118 0 -118 -128q0 -126 118 -126q117 0 117 125q0 129 -117 129zM177 -2l-9 -6
q-51 -34 -51 -71q0 -46 50.5 -80.5t118.5 -34.5q67 0 108.5 28.5t41.5 75.5q0 50 -39 64q-25 9 -119 14q-58 3 -101 10zM293 540l-169 163l21 26l148 -116l149 116l20 -26z" />
    <glyph glyph-name="Gacute" unicode="&#x1f4;" horiz-adv-x="812" 
d="M689 666l2 -226l-42 -1q-22 91 -56 132q-60 72 -176 72q-117 0 -184 -81q-71 -86 -71 -227q0 -162 90 -249q66 -63 171 -63q78 0 145 35q31 16 36.5 24t5.5 37l1 71q1 40 -17.5 53.5t-77.5 17.5l-64 4v35h354v-35q-62 -5 -76.5 -21t-14.5 -78v-126q-37 0 -101 -20
q-111 -35 -191 -35q-179 0 -275 90t-96 258t94 258t269 90q104 0 192 -37q17 -7 26 -7q16 0 34 29h22zM380 707l-11 17l180 143q23 18 38 18q12 0 21 -10t9 -23q0 -23 -28 -37z" />
    <glyph glyph-name="Scommaaccent" unicode="&#x218;" horiz-adv-x="603" 
d="M509 666l2 -226l-39 -1q-12 99 -44 142q-46 62 -131 62q-57 0 -92.5 -31t-35.5 -81q0 -61 52 -98q40 -28 127 -57q91 -29 128 -53q73 -47 73 -141q0 -91 -71 -150q-57 -47 -155 -47q-86 0 -193 39q-8 3 -13 3q-13 0 -36 -27h-22l-2 233l39 2q20 -75 45 -118
q55 -94 173 -94q65 0 104 33.5t39 88.5t-39 83q-21 15 -38 23t-97 39q-101 40 -143 72q-63 49 -63 134t55 135t149 50q64 0 156 -34q8 -4 15 -4q13 0 35 23h22zM258 -258l-7 21q69 23 77 83l-5 3q-14 -5 -24 -5q-48 0 -48 48q0 23 16.5 39t40.5 16q29 0 46.5 -20.5
t17.5 -54.5q0 -93 -114 -130z" />
    <glyph glyph-name="scommaaccent" unicode="&#x219;" horiz-adv-x="458" 
d="M380 467l2 -143l-29 -1q-16 60 -34 81q-37 44 -96 44q-38 0 -61.5 -19.5t-23.5 -51.5t26 -54.5t90 -45.5q83 -30 108 -47q43 -29 43 -94q0 -68 -44 -107t-122 -39q-45 0 -107 17q-29 8 -37 8q-11 0 -19 -15h-17l-2 168l29 1q13 -64 37 -95q42 -54 105 -54q44 0 71 23.5
t27 60.5q0 39 -31 60q-15 10 -25 15q-13 5 -63 23q-78 28 -109 59t-31 80q0 65 42 100.5t119 35.5q57 0 105 -19q8 -4 15 -4q9 0 15 13h17zM189 -241l-7 21q67 20 73 78l-5 3q-12 -5 -23 -5q-45 0 -45 45q0 22 15.5 37t38.5 15q27 0 44 -19.5t17 -50.5q0 -89 -108 -124z" />
    <glyph glyph-name="Tcommaaccent" unicode="&#x162;" horiz-adv-x="655" 
d="M642 666l2 -225h-42l-17 53q-24 75 -54 103.5t-86 28.5h-68v-492q0 -63 13 -78t54 -20l36 -4v-32h-306v32l36 4q41 5 54 20t13 78v492h-68q-56 0 -86 -28.5t-54 -103.5l-17 -53h-42l2 225h630zM284 -258l-7 21q69 23 77 83l-5 3q-14 -5 -25 -5q-48 0 -48 48q0 23 16.5 39
t40.5 16q29 0 47 -20.5t18 -54.5q0 -93 -114 -130z" />
    <glyph glyph-name="tcommaaccent" unicode="&#x163;" horiz-adv-x="369" 
d="M339 467v-33h-139v-301q0 -89 75 -89q25 0 71 18l11 -24q-82 -48 -143 -48q-100 0 -100 109v335h-113v33h113v102l65 65h21v-167h139zM121 -241l-7 21q67 20 73 78l-5 3q-12 -5 -23 -5q-45 0 -45 45q0 22 15.5 37t38.5 15q27 0 44 -19.5t17 -50.5q0 -89 -108 -124z" />
    <glyph glyph-name="Adotaccent" unicode="&#x226;" horiz-adv-x="706" 
d="M396 666l206 -496q36 -87 56 -109.5t68 -28.5v-32h-281v32q84 9 84 33q0 13 -21 67l-43 111h-271l-40 -102q-21 -54 -21 -70q0 -17 18.5 -25.5t68.5 -13.5v-32h-240v32q52 5 74 29t63 120l196 461l10 24h73zM328 578l-119 -295h239zM362 852q26 0 44.5 -18t18.5 -44
t-18.5 -44.5t-44.5 -18.5t-44 18.5t-18 44.5q0 25 18.5 43.5t43.5 18.5z" />
    <glyph glyph-name="adotaccent" unicode="&#x227;" horiz-adv-x="549" 
d="M528 69l12 -16q-61 -60 -111 -60q-36 0 -57 30q-11 15 -20 52q-77 -85 -163 -85q-61 0 -98.5 37t-37.5 98t36 93t132 48q16 3 38 7l94 17q-2 86 -16 113q-22 44 -93 44q-28 0 -52 -10t-24 -21q0 -4 12.5 -16.5t12.5 -32.5q0 -24 -16 -40t-41 -16t-40.5 16.5t-15.5 42.5
q0 49 50 78t134 29q123 0 162 -75q15 -31 15 -100v-164q0 -52 8 -72t30 -20q16 0 49 23zM354 181v78q-102 -18 -145 -33q-63 -22 -63 -90q0 -40 25 -65.5t65 -25.5q59 0 90 41q28 36 28 95zM273 688q25 0 42 -17t17 -42t-17.5 -42t-42.5 -17q-24 0 -41 17.5t-17 42.5
q0 23 17.5 40.5t41.5 17.5z" />
    <glyph glyph-name="commabelow" unicode="&#x326;" 
d="M199 -241l-7 21q67 20 73 78l-5 3q-12 -5 -23 -5q-45 0 -45 45q0 22 15.5 37t38.5 15q27 0 44 -19.5t17 -50.5q0 -89 -108 -124z" />
    <glyph glyph-name="Dcommaaccent" unicode="&#x1e10;" horiz-adv-x="791" 
d="M146 134v398q0 63 -13 78t-54 20l-36 4v32h328q100 0 160 -17.5t106 -60.5q101 -95 101 -255q0 -179 -122 -272q-80 -61 -245 -61h-328v32l36 4q41 5 54 20t13 78zM246 40h83q133 0 197 42q102 67 102 251q0 199 -121 262q-59 31 -178 31h-83v-586zM325 -258l-8 21
q71 24 77 83l-5 3q-14 -5 -24 -5q-48 0 -48 48q0 23 16.5 39t40.5 16q29 0 47 -20.5t18 -54.5q0 -93 -114 -130z" />
    <glyph glyph-name="dcommaaccent" unicode="&#x1e11;" horiz-adv-x="648" 
d="M528 690v-558q0 -62 11 -79.5t56 -21.5l24 -2v-29h-172v79q-65 -89 -175 -89q-104 0 -166 67t-62 179q0 107 64 173.5t167 66.5q110 0 166 -81v156q0 50 -17 67t-70 19l-22 1v28zM290 439q-146 0 -146 -202q0 -209 149 -209q84 0 120 64q28 49 28 138q0 97 -27 143
q-39 66 -124 66zM248 -241l-7 21q67 20 73 78l-5 3q-12 -5 -23 -5q-45 0 -45 45q0 22 15.5 37t38.5 15q27 0 44 -19.5t17 -50.5q0 -89 -108 -124z" />
    <glyph glyph-name="Fdotaccent" unicode="&#x1e1e;" horiz-adv-x="623" 
d="M588 666l12 -199h-42q-49 104 -68 124q-33 35 -118 35h-126v-252l77 2q35 1 52.5 16.5t29.5 58.5l14 49h31v-290h-31l-16 55q-12 40 -30.5 54t-58.5 15l-68 2v-202q0 -62 13 -78t54 -20l46 -4v-32h-316v32l36 4q41 5 54 20t13 78v398q0 63 -13 78t-54 20l-36 4v32h545z
M350 852q26 0 44.5 -18t18.5 -44t-18.5 -44.5t-44.5 -18.5t-44 18.5t-18 44.5q0 25 18.5 43.5t43.5 18.5z" />
    <glyph glyph-name="Wdieresis" unicode="&#x1e84;" horiz-adv-x="1024" 
d="M568 666l179 -551l69 229q64 212 64 250q0 19 -17.5 27t-67.5 13v32h249v-32q-46 -4 -63 -17q-25 -18 -52 -82q-24 -58 -74 -216l-105 -331h-70l-176 546l-168 -546h-66l-175 540q-23 72 -38 87t-67 19v32h272v-32q-47 -4 -61.5 -10.5t-14.5 -22.5q0 -19 10 -51l136 -434
l168 550h68zM400 852q26 0 44.5 -18t18.5 -44t-18.5 -44.5t-44.5 -18.5t-44 18.5t-18 44.5q0 25 18.5 43.5t43.5 18.5zM661 852q26 0 44.5 -18t18.5 -44t-18.5 -44.5t-44.5 -18.5t-44 18.5t-18 44.5q0 25 18.5 43.5t43.5 18.5z" />
    <glyph glyph-name="enquad" unicode="&#x2000;" 
 />
    <glyph glyph-name="enspace" unicode="&#x2002;" 
 />
    <glyph glyph-name="threeperemspace" unicode="&#x2004;" horiz-adv-x="333" 
 />
    <glyph glyph-name="fourperemspace" unicode="&#x2005;" horiz-adv-x="250" 
 />
    <glyph glyph-name="figurespace" unicode="&#x2007;" horiz-adv-x="576" 
 />
    <glyph glyph-name="hyphenminus" unicode="&#x2010;" horiz-adv-x="252" 
d="M252 266v-53h-252v53h252z" />
    <glyph glyph-name="underscoredbl" unicode="&#x2017;" 
d="M19 -35h462v-51h-462v51zM19 -143h462v-51h-462v51z" />
    <glyph glyph-name="trianglebullet" unicode="&#x2023;" 
d="M71 119v433l405 -217z" />
    <glyph glyph-name="onedotlead" unicode="&#x2024;" horiz-adv-x="587" 
d="M293 114q23 0 40 -17t17 -40t-17 -40t-40 -17t-40 17t-17 41q0 23 17 39.5t40 16.5z" />
    <glyph glyph-name="twodotlead" unicode="&#x2025;" horiz-adv-x="1173" 
d="M293 114q23 0 40 -17t17 -40t-17 -40t-40 -17t-40 17t-17 41q0 23 17 39.5t40 16.5zM880 114q23 0 40 -17t17 -40t-17 -40t-40 -17t-40 17t-17 41q0 23 17 39.5t40 16.5z" />
    <glyph glyph-name="minute" unicode="&#x2032;" horiz-adv-x="217" 
d="M131 399h-45l-26 267h97z" />
    <glyph glyph-name="second" unicode="&#x2033;" horiz-adv-x="382" 
d="M128 399h-42l-26 267h95zM296 399h-42l-26 267h94z" />
    <glyph glyph-name="exclamdbl" unicode="&#x203c;" horiz-adv-x="558" 
d="M159 192h-39q2 64 2 109q0 95 -41 249q-8 30 -8 54q0 30 19.5 51t47.5 21t47 -21t19 -51q0 -24 -19 -98q-30 -116 -29 -208zM139 117q26 0 45 -18.5t19 -44.5t-18.5 -45t-44.5 -19q-27 0 -45.5 19t-18.5 45t19 44.5t44 18.5zM439 192h-40q2 58 2 109q0 95 -41 249
q-8 30 -8 54q0 30 19.5 51t47.5 21t47 -21t19 -51q0 -24 -19 -98q-29 -113 -29 -208q0 -12 2 -106zM418 117q26 0 45 -18.5t19 -44.5t-18.5 -45t-44.5 -19q-27 0 -45.5 19t-18.5 45t19 44.5t44 18.5z" />
    <glyph glyph-name="overscore2" unicode="&#x203e;" 
d="M19 844h462v-51h-462v51z" />
    <glyph glyph-name="zerosuperior" unicode="&#x2070;" horiz-adv-x="371" 
d="M185 668q144 0 144 -207q0 -206 -144 -206t-144 210q0 203 144 203zM185 642q-44 0 -62.5 -40.5t-18.5 -138.5q0 -97 19 -144q15 -38 64 -38q45 0 60 38q19 48 19 142q0 99 -18.5 140t-62.5 41z" />
    <glyph glyph-name="foursuperior" unicode="&#x2074;" horiz-adv-x="371" 
d="M264 668v-247h81l-16 -44h-65v-43q0 -30 10 -36.5t59 -9.5v-24h-209v24h7q72 0 72 46v43h-170v42l193 249h38zM203 594l-131 -173h131v173z" />
    <glyph glyph-name="fivesuperior" unicode="&#x2075;" horiz-adv-x="371" 
d="M64 456l17 204h147q23 0 28 3.5t13 25.5h21l-14 -90h-170l-10 -108q41 25 88 25q61 0 98.5 -36.5t37.5 -95.5q0 -60 -40 -95t-108 -35q-55 0 -90 21.5t-35 54.5q0 40 43 40q40 0 40 -36q0 -14 -15 -28q-5 -4 -6 -7q0 -8 17 -14.5t37 -6.5q89 0 89 105q0 47 -22.5 74
t-62.5 27t-83 -35z" />
    <glyph glyph-name="sixsuperior" unicode="&#x2076;" horiz-adv-x="371" 
d="M111 482q34 32 84 32q58 0 96.5 -37t38.5 -93q0 -57 -39 -93.5t-100 -36.5q-146 0 -146 196q0 114 47 168q44 51 118 51q46 0 77 -19.5t31 -48.5q0 -19 -12.5 -31t-32.5 -12q-40 0 -40 36q0 14 16 31l2 4q0 5 -13.5 10.5t-28.5 5.5q-98 0 -98 -163zM190 488
q-76 0 -76 -103q0 -105 76 -105t76 104t-76 104z" />
    <glyph glyph-name="sevensuperior" unicode="&#x2077;" horiz-adv-x="371" 
d="M354 660l-5 -44q-76 -79 -99.5 -128.5t-29.5 -144.5q-3 -58 -10 -70q-9 -18 -33 -18q-39 0 -39 36q0 70 66 187q33 58 97 121h-186q-10 0 -13 -9l-15 -44h-21l12 114h276z" />
    <glyph glyph-name="eightsuperior" unicode="&#x2078;" horiz-adv-x="371" 
d="M127 472q-74 26 -74 91q0 49 35.5 77t97.5 28t97.5 -28t35.5 -77q0 -65 -74 -91q83 -30 83 -106q0 -52 -38 -81.5t-104 -29.5q-67 0 -105 29.5t-38 81.5q0 77 84 106zM186 644q-32 0 -52.5 -21t-20.5 -55q0 -35 20 -56.5t53 -21.5t53 21t20 56t-20 56t-53 21zM186 456
q-36 0 -57 -23t-21 -63q0 -88 78 -88q35 0 56 23.5t21 63.5t-21 63.5t-56 23.5z" />
    <glyph glyph-name="ninesuperior" unicode="&#x2079;" horiz-adv-x="371" 
d="M260 442q-33 -32 -84 -32q-57 0 -96 37t-39 92q0 57 39 93.5t100 36.5q146 0 146 -197q0 -111 -44.5 -164.5t-120.5 -53.5q-46 0 -77 19.5t-31 48.5q0 19 12.5 31t32.5 12q40 0 40 -36q0 -14 -16 -31q-1 -1 -2 -4q0 -6 13.5 -11t28.5 -5q98 0 98 164zM180 643
q-76 0 -76 -102q0 -105 77 -105q76 0 76 103q0 104 -77 104z" />
    <glyph glyph-name="plussuperior" unicode="&#x207a;" horiz-adv-x="342" 
d="M20 481h125v122h51v-122h126v-46h-126v-123h-51v123h-125v46z" />
    <glyph glyph-name="minussuperior" unicode="&#x207b;" horiz-adv-x="342" 
d="M20 481h302v-46h-302v46z" />
    <glyph glyph-name="parenleftsuperior" unicode="&#x207d;" horiz-adv-x="220" 
d="M185 183l-15 -16q-64 44 -94 96q-42 73 -42 164t42 163q32 55 94 97l15 -16q-50 -44 -66 -92q-22 -64 -22 -152t22 -152q17 -50 66 -92z" />
    <glyph glyph-name="parenrightsuperior" unicode="&#x207e;" horiz-adv-x="220" 
d="M34 671l15 16q64 -45 94 -97q42 -72 42 -163q0 -92 -42 -164q-31 -53 -94 -96l-15 16q49 42 66 92q22 64 22 152t-22 152q-16 48 -66 92z" />
    <glyph glyph-name="nsuperior" unicode="&#x207f;" horiz-adv-x="436" 
d="M142 552v-48q38 48 105 48q115 0 115 -114v-93q0 -35 6 -44t32 -12l18 -2v-23h-172v23l18 2q26 3 32 12t6 44v79q0 94 -73 94q-45 0 -70 -35q-13 -18 -13 -59v-79q0 -36 5.5 -44.5t33.5 -11.5l18 -2v-23h-173v23l18 2q27 3 32.5 11.5t5.5 44.5v115q0 32 -4 41
q-7 18 -34 20l-23 2v23z" />
    <glyph glyph-name="zeroinferior" unicode="&#x2080;" horiz-adv-x="371" 
d="M185 405q144 0 144 -207t-144 -207t-144 210q0 204 144 204zM185 379q-44 0 -62.5 -40.5t-18.5 -138.5q0 -97 19 -144q16 -39 64 -39q45 0 60 39q19 48 19 142q0 99 -18.5 140t-62.5 41z" />
    <glyph glyph-name="oneinferior" unicode="&#x2081;" horiz-adv-x="371" 
d="M236 404v-319q0 -41 20 -52q11 -6 63 -8v-25h-231v25q58 4 71 13.5t13 46.5v209q0 13 -3 16t-16 3l-70 1v23q96 8 141 67h12z" />
    <glyph glyph-name="twoinferior" unicode="&#x2082;" horiz-adv-x="371" 
d="M314 115l-15 -115h-261q4 56 29 94t83 76q50 33 68 60t18 69q0 78 -74 78q-23 0 -46.5 -12.5t-23.5 -24.5q0 -3 3 -4l5 2t10 2q32 0 32 -35q0 -17 -12.5 -29t-30.5 -12q-20 0 -33 14t-13 36q0 39 36 65t90 26q59 0 94.5 -29.5t35.5 -78.5q0 -46 -26.5 -77t-98.5 -67
q-84 -42 -100 -91h179q11 0 15 12l15 41h21z" />
    <glyph glyph-name="threeinferior" unicode="&#x2083;" horiz-adv-x="374" 
d="M105 193v29q16 -1 24 -1q39 0 63.5 24.5t24.5 63.5q0 69 -59 69q-20 0 -35 -10.5t-15 -24.5q0 -3 2 -3t5 1q8 2 11 2q13 0 22 -10.5t9 -24.5q0 -17 -13 -29.5t-31 -12.5q-20 0 -33 14.5t-13 36.5q0 38 30 63t77 25q52 0 83 -25.5t31 -68.5q0 -38 -28.5 -65.5t-72.5 -32.5
v-4q46 -3 68 -15q47 -26 47 -83q0 -53 -40 -86.5t-103 -33.5q-47 0 -77 20t-30 51q0 44 45 44q41 0 41 -35q0 -15 -15 -27q-7 -6 -7 -9q0 -17 37 -17q75 0 75 93q0 64 -52 77q-21 5 -71 5z" />
    <glyph glyph-name="fourinferior" unicode="&#x2084;" horiz-adv-x="371" 
d="M264 404v-247h81l-16 -44h-65v-43q0 -30 10 -36.5t59 -9.5v-24h-208v24h7q71 0 71 46v43h-170v42l193 249h38zM203 331l-130 -174h130v174z" />
    <glyph glyph-name="fiveinferior" unicode="&#x2085;" horiz-adv-x="371" 
d="M64 193l17 203h147q23 0 28 4t13 26h21l-14 -91h-170l-10 -107q40 24 88 24q61 0 98.5 -36t37.5 -95q0 -60 -40 -95t-108 -35q-55 0 -90 21.5t-35 53.5q0 40 43 40q40 0 40 -35q0 -14 -15 -28q-6 -6 -6 -8q0 -7 17 -13.5t37 -6.5q89 0 89 104q0 47 -22.5 74t-62.5 27
t-83 -35z" />
    <glyph glyph-name="sixinferior" unicode="&#x2086;" horiz-adv-x="371" 
d="M111 218q35 32 84 32q58 0 96.5 -37t38.5 -92q0 -57 -39 -93.5t-100 -36.5q-146 0 -146 196q0 113 47 167q44 51 118 51q46 0 77 -19.5t31 -48.5q0 -19 -12.5 -31t-32.5 -12q-40 0 -40 36q0 14 16 31l2 4q0 5 -13.5 10.5t-28.5 5.5q-98 0 -98 -163zM190 224
q-76 0 -76 -102q0 -105 76 -105t76 103q0 104 -76 104z" />
    <glyph glyph-name="seveninferior" unicode="&#x2087;" horiz-adv-x="371" 
d="M354 396l-5 -44q-76 -79 -99.5 -128.5t-29.5 -144.5q-3 -58 -10 -70q-9 -18 -33 -18q-39 0 -39 36q0 69 66 187q32 57 97 121h-186q-10 0 -13 -9l-15 -44h-21l12 114h276z" />
    <glyph glyph-name="eightinferior" unicode="&#x2088;" horiz-adv-x="371" 
d="M127 209q-74 25 -74 91q0 49 35.5 77t97.5 28t97.5 -28t35.5 -77q0 -66 -74 -91q83 -31 83 -107q0 -52 -38 -81.5t-104 -29.5q-67 0 -105 30t-38 82q0 75 84 106zM186 381q-32 0 -52.5 -21t-20.5 -55q0 -35 20 -56.5t53 -21.5t53 21t20 56t-20 56t-53 21zM186 193
q-36 0 -57 -23.5t-21 -62.5q0 -89 78 -89q35 0 56 23.5t21 63.5t-21 64t-56 24z" />
    <glyph glyph-name="nineinferior" unicode="&#x2089;" horiz-adv-x="371" 
d="M260 178q-35 -32 -84 -32q-57 0 -96 37t-39 92q0 57 39 93.5t100 36.5q146 0 146 -196q0 -111 -45 -164.5t-120 -53.5q-46 0 -77 19.5t-31 48.5q0 19 12.5 31t32.5 12q40 0 40 -36q0 -14 -16 -31q-1 -1 -2 -4q0 -6 13.5 -11t28.5 -5q98 0 98 163zM180 379q-76 0 -76 -102
q0 -105 77 -105q76 0 76 103q0 104 -77 104z" />
    <glyph glyph-name="lira" unicode="&#x20a4;" horiz-adv-x="576" 
d="M255 284h-190v33h167l-52 70h-115v33h94q-27 51 -27 101q0 71 48 112.5t130 41.5q67 0 108 -32.5t41 -84.5q0 -34 -19.5 -56.5t-48.5 -22.5q-23 0 -39 15.5t-16 37.5q0 19 8 28q5 6 25 19q11 7 11 20q0 19 -23 32.5t-56 13.5q-46 0 -72.5 -23.5t-26.5 -64.5
q0 -46 53 -115q1 -2 17 -22h173v-33h-148q21 -29 33 -70h115v-33h-109l1 -22q3 -59 -52 -138q84 -42 103 -49.5t41 -7.5q36 0 61 32.5t25 78.5q0 12 -4 35l21 3q11 -40 11 -66q0 -72 -36.5 -118.5t-92.5 -46.5q-41 0 -100 35q-19 12 -68 40q-71 -75 -134 -75q-40 0 -64.5 25
t-24.5 65q0 44 30 71t80 27q54 0 126 -36q24 44 24 68q0 30 -28 79zM220 77q-82 45 -113 45q-20 0 -34.5 -15t-14.5 -37q0 -24 16.5 -41t40.5 -17q49 0 105 65z" />
    <glyph glyph-name="peseta" unicode="&#x20a7;" horiz-adv-x="759" 
d="M221 281v-150q0 -63 13.5 -77.5t59.5 -20.5l30 -4v-29h-284v29l26 4q42 6 54 20.5t12 77.5v398q0 63 -11.5 76.5t-54.5 20.5l-26 4v30h243q112 0 166 -33q83 -51 83 -157q0 -74 -44.5 -122t-123.5 -60q-46 -7 -143 -7zM220 626v-309q73 0 94 2t43 13q77 37 77 140
q0 99 -61 134q-35 20 -107 20h-46zM722 275v-31h-108v-111q0 -88 71 -88q22 0 51 17l11 -21q-63 -48 -110 -48q-101 0 -101 108v143h-85v31h85v71l57 58h21v-129h108z" />
    <glyph glyph-name="Euro" unicode="&#x20ac;" horiz-adv-x="825" 
d="M238 388h352l-14 -32h-341v-32h327l-13 -32h-312q10 -124 78 -196.5t175 -72.5q60 0 113.5 26.5t123.5 91.5l37 -41q-68 -63 -130.5 -89t-146.5 -26q-117 0 -201.5 44.5t-124.5 127.5q-28 58 -34 135h-68l14 32h52v32h-66l14 32h55q35 293 367 293q57 0 97 -9
q34 -7 96 -31q8 -4 19 -4q15 0 34 29h22l2 -225l-42 -2q-24 93 -51 127q-61 77 -179 77q-109 0 -176 -67t-79 -188z" />
    <glyph glyph-name="aslashs" unicode="&#x2101;" horiz-adv-x="992" 
d="M245 666l128 -294q22 -51 34 -63.5t42 -16.5v-25h-179v25q52 5 52 17q0 6 -13 38l-26 63h-162l-24 -58q-12 -29 -12 -40q0 -15 53 -20v-25h-154v25q33 3 46.5 16.5t38.5 69.5l120 272l7 16h49zM201 602l-68 -162h137zM784 666l-410 -666h-42l410 666h42zM937 400l1 -140
l-30 -1q-8 61 -27 86q-27 35 -77 35q-34 0 -55 -17.5t-21 -45.5q0 -31 23 -50t84 -38.5t80 -31.5q47 -29 47 -86q0 -54 -39.5 -87t-103.5 -33q-56 0 -120 23q-2 1 -6 2q-8 0 -21 -16h-18l-2 144l30 1q19 -69 49 -97t83 -28q39 0 62 18.5t23 50.5q0 30 -23 46q-9 6 -82.5 35
t-101 55.5t-27.5 70.5q0 52 35 82.5t94 30.5q42 0 96 -21q8 -2 9 -2q7 0 19 14h19z" />
    <glyph glyph-name="liter" unicode="&#x2113;" 
d="M250 263q-28 -155 -28 -198q0 -25 16 -25q22 0 47 52q9 19 20 19q16 0 16 -17q0 -23 -22 -57q-36 -56 -82 -56q-75 0 -75 101q0 35 7 104q-40 -42 -51 -42q-5 0 -10 7t-5 14q0 12 17 28q23 22 56 61q40 217 89 318t114 101q32 0 51 -23.5t19 -63.5q0 -85 -66 -189
q-29 -46 -113 -134zM259 324q41 44 67 87q58 97 58 175q0 35 -24 35q-28 0 -50 -65t-51 -232z" />
    <glyph glyph-name="Ohm" unicode="&#x2126;" horiz-adv-x="750" 
d="M37 0l-10 164h15l18 -53q10 -29 20 -37.5t37 -8.5h129q-179 85 -179 295q0 141 83 228.5t216 87.5q139 0 222.5 -85t83.5 -227q0 -147 -97 -240q-40 -38 -90 -59h131q31 0 45.5 10t22.5 36l17 53h17l-11 -164h-302v55q71 15 111 58q76 81 76 250q0 285 -223 285
q-110 0 -166 -75q-59 -79 -59 -222q0 -151 67 -229q49 -57 118 -67v-55h-292z" />
    <glyph glyph-name="onethird" unicode="&#x2153;" horiz-adv-x="875" 
d="M236 668v-319q0 -41 19 -52q12 -6 63 -8v-25h-231v25q58 4 71.5 13.5t13.5 46.5v208q0 13 -3 16.5t-16 3.5h-70v23q99 10 141 68h12zM661 660l-406 -660h-42l406 660h42zM606 193v29q16 -1 24 -1q39 0 63.5 24.5t24.5 63.5q0 69 -59 69q-20 0 -35 -10.5t-15 -24.5
q0 -3 2 -3t5 1q8 2 11 2q13 0 22 -10.5t9 -24.5q0 -17 -13 -29.5t-31 -12.5q-20 0 -33 14.5t-13 36.5q0 38 30 63t77 25q52 0 83 -25.5t31 -68.5q0 -38 -28.5 -65.5t-72.5 -32.5v-4q46 -3 68 -15q47 -26 47 -83q0 -53 -40 -86.5t-103 -33.5q-47 0 -77 20t-30 51q0 44 45 44
q41 0 41 -35q0 -15 -15 -27q-7 -6 -7 -9q0 -17 37 -17q75 0 75 93q0 64 -52 77q-21 5 -71 5z" />
    <glyph glyph-name="twothirds" unicode="&#x2154;" horiz-adv-x="875" 
d="M314 379l-15 -115h-261q4 56 29.5 94.5t82.5 75.5q50 33 68 60t18 69q0 78 -74 78q-23 0 -46.5 -12.5t-23.5 -24.5q0 -3 3 -4q2 0 6 1.5t9 1.5q32 0 32 -34q0 -17 -12.5 -29t-30.5 -12q-20 0 -33 14t-13 36q0 39 36 65t90 26q59 0 94.5 -29.5t35.5 -78.5
q0 -46 -26.5 -76.5t-98.5 -67.5q-84 -43 -100 -91h179q11 0 15 12l15 41h21zM661 660l-405 -660h-42l405 660h42zM607 193v29q16 -1 24 -1q39 0 63.5 24.5t24.5 63.5q0 69 -59 69q-20 0 -35 -10.5t-15 -24.5q0 -3 2 -3t5 1q8 2 11 2q13 0 22 -10.5t9 -24.5q0 -17 -13 -29.5
t-31 -12.5q-20 0 -33 14.5t-13 36.5q0 38 30 63t77 25q52 0 83 -25.5t31 -68.5q0 -38 -28.5 -65.5t-72.5 -32.5v-4q46 -3 68 -15q47 -26 47 -83q0 -53 -40 -86.5t-103 -33.5q-47 0 -77 20t-30 51q0 44 45 44q41 0 41 -35q0 -15 -15 -27q-7 -6 -7 -9q0 -17 37 -17q75 0 75 93
q0 64 -52 77q-21 5 -71 5z" />
    <glyph glyph-name="onefifth" unicode="&#x2155;" horiz-adv-x="875" 
d="M236 668v-319q0 -41 19 -52q12 -6 63 -8v-25h-231v25q58 4 71.5 13.5t13.5 46.5v208q0 13 -3 16.5t-16 3.5h-70v23q99 10 141 68h12zM671 660l-406 -660h-42l406 660h42zM568 193l16 203h147q23 0 28.5 4t13.5 26h21l-15 -91h-169l-11 -107q40 24 89 24q61 0 98.5 -36
t37.5 -95q0 -60 -40 -95t-109 -35q-54 0 -89.5 21.5t-35.5 53.5q0 40 43 40q40 0 40 -35q0 -16 -15 -28q-5 -7 -5 -8q0 -7 17 -13.5t37 -6.5q89 0 89 104q0 47 -22.5 74t-62.5 27q-42 0 -83 -35z" />
    <glyph glyph-name="twofifths" unicode="&#x2156;" horiz-adv-x="875" 
d="M314 379l-15 -115h-261q4 56 29.5 94.5t82.5 75.5q50 33 68 60t18 69q0 78 -74 78q-23 0 -46.5 -12.5t-23.5 -24.5q0 -3 3 -4q2 0 6 1.5t9 1.5q32 0 32 -34q0 -17 -12.5 -29t-30.5 -12q-20 0 -33 14t-13 36q0 39 36 65t90 26q59 0 94.5 -29.5t35.5 -78.5
q0 -46 -26.5 -76.5t-98.5 -67.5q-84 -43 -100 -91h179q11 0 15 12l15 41h21zM668 660l-405 -660h-42l405 660h42zM568 193l17 203h147q23 0 28 4t14 26h20l-14 -91h-170l-10 -107q40 24 88 24q61 0 98.5 -36t37.5 -95q0 -60 -40 -95t-108 -35q-55 0 -90 21.5t-35 53.5
q0 40 43 40q40 0 40 -35q0 -14 -15 -28q-6 -6 -6 -8q0 -7 17 -13.5t37 -6.5q89 0 89 104q0 47 -22.5 74t-62.5 27q-41 0 -82 -35z" />
    <glyph glyph-name="threefifths" unicode="&#x2157;" horiz-adv-x="875" 
d="M661 660l-405 -660h-42l405 660h42zM568 193l16 203h148q23 0 28 4t13 26h21l-15 -91h-169l-11 -107q41 24 89 24q61 0 98.5 -36t37.5 -95q0 -60 -40 -95t-108 -35q-55 0 -90 21.5t-35 53.5q0 40 43 40q40 0 40 -35q0 -14 -15 -28q-6 -6 -6 -8q0 -7 17 -13.5t37 -6.5
q89 0 89 104q0 47 -22.5 74t-62.5 27q-42 0 -83 -35zM105 457v28q14 -1 24 -1q39 0 63.5 24.5t24.5 63.5q0 69 -59 69q-20 0 -35 -10.5t-15 -24.5q0 -3 2 -3t5 1q8 2 11 2q13 0 22 -10.5t9 -24.5q0 -17 -13 -29.5t-31 -12.5q-20 0 -33 14.5t-13 36.5q0 38 30 63t77 25
q52 0 83 -25.5t31 -67.5q0 -38 -28.5 -66t-72.5 -33v-4q47 -3 68 -15q47 -27 47 -83q0 -53 -40 -86.5t-103 -33.5q-47 0 -77 20t-30 51q0 44 45 44q41 0 41 -35q0 -15 -15 -27q-7 -6 -7 -9q0 -17 37 -17q75 0 75 93q0 66 -52 78q-23 5 -71 5z" />
    <glyph glyph-name="fourfifths" unicode="&#x2158;" horiz-adv-x="875" 
d="M264 668v-247h81l-16 -44h-65v-43q0 -30 10 -36.5t59 -9.5v-24h-209v24h7q72 0 72 46v43h-170v42l193 249h38zM203 594l-131 -173h131v173zM672 660l-406 -660h-42l406 660h42zM569 193l16 203h147q23 0 28.5 4t13.5 26h20l-14 -91h-169l-11 -107q40 24 88 24
q61 0 99 -36t38 -95q0 -60 -40 -95t-109 -35q-54 0 -89.5 21.5t-35.5 53.5q0 40 43 40q40 0 40 -35q0 -16 -15 -28q-5 -7 -5 -8q0 -7 17 -13.5t37 -6.5q89 0 89 104q0 47 -22.5 74t-62.5 27q-42 0 -83 -35z" />
    <glyph glyph-name="onesixth" unicode="&#x2159;" horiz-adv-x="875" 
d="M236 668v-319q0 -41 19 -52q12 -6 63 -8v-25h-231v25q58 4 71.5 13.5t13.5 46.5v208q0 13 -3 16.5t-16 3.5h-70v23q99 10 141 68h12zM671 660l-406 -660h-42l406 660h42zM615 218q35 32 85 32q57 0 95.5 -37t38.5 -92q0 -57 -39 -93.5t-100 -36.5q-146 0 -146 196
q0 113 47 167q44 51 118 51q46 0 77 -19.5t31 -48.5q0 -19 -12.5 -31t-32.5 -12q-40 0 -40 36q0 14 16 31l2 4q0 5 -13.5 10.5t-28.5 5.5q-98 0 -98 -163zM694 224q-76 0 -76 -102q0 -105 76 -105t76 103q0 104 -76 104z" />
    <glyph glyph-name="fivesixths" unicode="&#x215a;" horiz-adv-x="875" 
d="M64 456l17 204h147q23 0 28 3.5t13 25.5h21l-14 -90h-170l-10 -108q41 25 88 25q61 0 98.5 -36.5t37.5 -95.5q0 -60 -40 -95t-108 -35q-55 0 -90 21.5t-35 54.5q0 40 43 40q40 0 40 -36q0 -14 -15 -28q-5 -4 -6 -7q0 -8 17 -14.5t37 -6.5q89 0 89 105q0 47 -22.5 74
t-62.5 27t-83 -35zM661 660l-405 -660h-42l405 660h42zM615 218q35 32 85 32q57 0 96 -37t39 -92q0 -57 -39 -93.5t-100 -36.5q-146 0 -146 196q0 113 47 167q44 51 118 51q46 0 77 -19.5t31 -48.5q0 -19 -12.5 -31t-32.5 -12q-40 0 -40 36q0 14 16 31l2 4q0 6 -13.5 11
t-28.5 5q-99 0 -99 -163zM695 224q-76 0 -76 -102q0 -105 76 -105t76 103q0 104 -76 104z" />
    <glyph glyph-name="oneeighth" unicode="&#x215b;" horiz-adv-x="875" 
d="M236 668v-319q0 -41 19 -52q12 -6 63 -8v-25h-231v25q58 4 71.5 13.5t13.5 46.5v208q0 13 -3 16.5t-16 3.5h-70v23q99 10 141 68h12zM667 660l-405 -660h-42l405 660h42zM630 209q-74 25 -74 91q0 49 35.5 77t97.5 28t97.5 -28t35.5 -77q0 -66 -74 -91q84 -31 84 -107
q0 -52 -38 -81.5t-104 -29.5q-67 0 -105 30t-38 82q0 75 83 106zM689 381q-32 0 -52.5 -21t-20.5 -55q0 -35 20 -56.5t53 -21.5t53 21t20 56t-20 56t-53 21zM690 193q-36 0 -57 -23.5t-21 -62.5q0 -89 78 -89q35 0 56 23.5t21 63.5t-21 64t-56 24z" />
    <glyph glyph-name="threeeighths" unicode="&#x215c;" horiz-adv-x="875" 
d="M661 660l-405 -660h-42l405 660h42zM630 209q-74 25 -74 91q0 49 35.5 77t97.5 28t97.5 -28t35.5 -77q0 -66 -74 -91q84 -31 84 -107q0 -52 -38 -81.5t-104 -29.5q-67 0 -105 30t-38 82q0 75 83 106zM689 381q-32 0 -52.5 -21t-20.5 -55q0 -35 20 -56.5t53 -21.5t53 21
t20 56t-20 56t-53 21zM690 193q-36 0 -57 -23.5t-21 -62.5q0 -89 78 -89q35 0 56 23.5t21 63.5t-21 64t-56 24zM105 457v28q14 -1 24 -1q39 0 63.5 24.5t24.5 63.5q0 69 -59 69q-20 0 -35 -10.5t-15 -24.5q0 -3 2 -3t5 1q8 2 11 2q13 0 22 -10.5t9 -24.5q0 -17 -13 -29.5
t-31 -12.5q-20 0 -33 14.5t-13 36.5q0 38 30 63t77 25q52 0 83 -25.5t31 -67.5q0 -38 -28.5 -66t-72.5 -33v-4q47 -3 68 -15q47 -27 47 -83q0 -53 -40 -86.5t-103 -33.5q-47 0 -77 20t-30 51q0 44 45 44q41 0 41 -35q0 -15 -15 -27q-7 -6 -7 -9q0 -17 37 -17q75 0 75 93
q0 66 -52 78q-23 5 -71 5z" />
    <glyph glyph-name="fiveeighths" unicode="&#x215d;" horiz-adv-x="875" 
d="M64 456l17 204h147q23 0 28 3.5t13 25.5h21l-14 -90h-170l-10 -108q41 25 88 25q61 0 98.5 -36.5t37.5 -95.5q0 -60 -40 -95t-108 -35q-55 0 -90 21.5t-35 54.5q0 40 43 40q40 0 40 -36q0 -14 -15 -28q-5 -4 -6 -7q0 -8 17 -14.5t37 -6.5q89 0 89 105q0 47 -22.5 74
t-62.5 27t-83 -35zM661 660l-405 -660h-42l405 660h42zM631 209q-74 26 -74 91q0 49 35.5 77t97.5 28t97.5 -28t35.5 -77q0 -66 -74 -91q84 -31 84 -107q0 -52 -38 -81.5t-105 -29.5t-105 30t-38 82q0 75 84 106zM690 381q-32 0 -52.5 -21t-20.5 -55q0 -35 20 -56.5
t53 -21.5t53 21t20 56t-20 56t-53 21zM690 193q-35 0 -56.5 -23.5t-21.5 -62.5q0 -89 78 -89q36 0 57 23.5t21 63.5q0 41 -21 64.5t-57 23.5z" />
    <glyph glyph-name="seveneighths" unicode="&#x215e;" horiz-adv-x="875" 
d="M354 660l-5 -44q-76 -79 -99.5 -128.5t-29.5 -144.5q-3 -58 -10 -70q-9 -18 -33 -18q-39 0 -39 36q0 70 66 187q33 58 97 121h-186q-10 0 -13 -9l-15 -44h-21l12 114h276zM641 660l-405 -660h-42l405 660h42zM631 209q-74 25 -74 91q0 49 35.5 77t97.5 28q61 0 96.5 -28
t35.5 -77q0 -66 -73 -91q83 -31 83 -107q0 -52 -38 -81.5t-104 -29.5q-67 0 -105 30t-38 82q0 75 84 106zM690 381q-33 0 -53 -21t-20 -55q0 -35 20 -56.5t53 -21.5q32 0 52 21.5t20 55.5t-20 55.5t-52 21.5zM690 193q-36 0 -57 -23.5t-21 -62.5q0 -89 78 -89q35 0 56 23.5
t21 63.5t-21 64t-56 24z" />
    <glyph glyph-name="arrowleft" unicode="&#x2190;" horiz-adv-x="667" 
d="M653 310h-500q52 -77 52 -104q0 -14 -15 -14q-7 0 -35 31q-43 47 -119 89q-23 13 -23 24q0 10 23 23q83 46 131 103q14 17 23 17q15 0 15 -14q0 -24 -52 -104h500v-51z" />
    <glyph glyph-name="arrowup" unicode="&#x2191;" horiz-adv-x="667" 
d="M308 13v500q-77 -52 -104 -52q-14 0 -14 15q0 7 31 35q47 43 89 119q13 23 24 23q10 0 23 -23q46 -83 103 -131q17 -14 17 -23q0 -15 -14 -15q-26 0 -104 52v-500h-51z" />
    <glyph glyph-name="arrowright" unicode="&#x2192;" horiz-adv-x="667" 
d="M13 361h500q-52 77 -52 104q0 14 15 14q7 0 35 -31q43 -47 119 -89q23 -13 23 -24q0 -10 -23 -23q-83 -46 -131 -103q-14 -17 -23 -17q-15 0 -15 14q0 24 52 104h-500v51z" />
    <glyph glyph-name="arrowdown" unicode="&#x2193;" horiz-adv-x="667" 
d="M359 653v-500q78 52 104 52q14 0 14 -15q0 -7 -31 -35q-47 -43 -89 -119q-13 -23 -24 -23q-10 0 -23 23q-46 83 -103 131q-17 14 -17 23q0 15 14 15q25 0 104 -52v500h51z" />
    <glyph glyph-name="arrowboth" unicode="&#x2194;" horiz-adv-x="667" 
d="M513 310h-360q52 -77 52 -104q0 -14 -15 -14q-7 0 -35 31q-43 47 -119 89q-23 13 -23 24q0 10 23 23q83 46 131 103q14 17 23 17q15 0 15 -14q0 -24 -52 -104h360q-52 77 -52 104q0 14 15 14q7 0 35 -31q43 -47 119 -89q23 -13 23 -24q0 -10 -23 -23q-83 -46 -131 -103
q-14 -17 -23 -17q-15 0 -15 14q0 24 52 104z" />
    <glyph glyph-name="arrowupdn" unicode="&#x2195;" horiz-adv-x="667" 
d="M308 153v360q-77 -52 -104 -52q-14 0 -14 15q0 7 31 35q47 43 89 119q13 23 24 23q10 0 23 -23q46 -83 103 -131q17 -14 17 -23q0 -15 -14 -15q-26 0 -104 52v-360q75 52 104 52q14 0 14 -15q0 -7 -31 -35q-47 -43 -89 -119q-13 -23 -24 -23q-10 0 -23 23
q-46 83 -103 131q-17 14 -17 23q0 15 14 15q26 0 104 -52z" />
    <glyph glyph-name="arrowupdnbse" unicode="&#x21a8;" horiz-adv-x="667" 
d="M200 -68h266v-43h-266v43zM308 153v360q-77 -52 -104 -52q-14 0 -14 15q0 7 31 35q47 43 89 119q13 23 24 23q10 0 23 -23q46 -83 103 -131q17 -14 17 -23q0 -15 -14 -15q-26 0 -104 52v-360q75 52 104 52q14 0 14 -15q0 -7 -31 -35q-47 -43 -89 -119q-13 -23 -24 -23
q-10 0 -23 23q-46 83 -103 131q-17 14 -17 23q0 15 14 15q26 0 104 -52z" />
    <glyph glyph-name="emptyset" unicode="&#x2205;" horiz-adv-x="618" 
d="M496 654l-53 -105q109 -75 109 -203q0 -100 -71 -171t-172 -71q-43 0 -84 15l-53 -106l-49 25l53 106q-109 74 -109 202q0 101 71.5 172t171.5 71q43 0 85 -15l53 106zM417 499l-166 -330q28 -9 58 -9q77 0 132 54.5t55 132.5q0 94 -79 152zM202 194l167 329
q-31 10 -59 10q-77 0 -132 -55t-55 -132q0 -93 79 -152z" />
    <glyph glyph-name="Delta" unicode="&#x394;" horiz-adv-x="657" 
d="M21 0l311 681l304 -681h-615zM85 62h453l-223 507z" />
    <glyph glyph-name="Delta" unicode="&#x2206;" horiz-adv-x="657" 
d="M21 0l311 681l304 -681h-615zM85 62h453l-223 507z" />
    <glyph glyph-name="intersection" unicode="&#x2229;" horiz-adv-x="576" 
d="M74 0h-30v423q0 119 42 173q66 84 199 84q126 0 194 -70q32 -32 43 -68.5t11 -107.5v-434h-104v430q0 98 -19 132q-21 38 -62.5 60.5t-90.5 22.5q-95 0 -146 -69q-26 -35 -33 -80q-4 -26 -4 -88v-408z" />
    <glyph glyph-name="union" unicode="&#x222a;" horiz-adv-x="576" 
d="M44 666h104v-430q0 -98 19 -132q21 -38 62.5 -60.5t90.5 -22.5q95 0 146 69q26 35 33 80q4 25 4 88v408h30v-423q0 -120 -42 -173q-67 -84 -199 -84q-126 0 -194 70q-32 32 -43 68.5t-11 107.5v434z" />
    <glyph glyph-name="contintegral" unicode="&#x222e;" horiz-adv-x="498" 
d="M197 -69v111q-65 11 -109.5 66.5t-44.5 125.5t44.5 125.5t109.5 66.5v45q0 108 46.5 172.5t125.5 64.5q59 0 98 -30.5t39 -76.5q0 -28 -17 -46t-43 -18q-23 0 -40 16t-17 37q0 11 8 25.5t8 23.5q0 32 -33 32q-34 0 -53.5 -43.5t-19.5 -118.5v-83q68 -13 111 -66.5
t43 -125.5q0 -71 -44.5 -126.5t-109.5 -65.5v-33q0 -70 -3 -97q-6 -55 -27 -92q-47 -81 -139 -81q-65 0 -101.5 31.5t-36.5 81.5q0 23 17.5 40t41.5 17q23 0 40 -16t17 -38q0 -9 -12 -33q-4 -8 -4 -16q0 -30 33 -30q32 0 52 42.5t20 112.5zM299 375v-282q47 11 76 50t29 91
q0 76 -57 117q-28 20 -48 24zM197 94v281q-45 -9 -75 -49t-30 -92q0 -50 30 -90.5t75 -49.5z" />
    <glyph glyph-name="equivalence" unicode="&#x2261;" horiz-adv-x="576" 
d="M71 505h433v-56h-433v56zM71 215h433v-56h-433v56zM71 361h433v-59h-433v59z" />
    <glyph glyph-name="house" unicode="&#x2302;" horiz-adv-x="751" 
d="M84 0v401l291 328l292 -328v-401h-583zM135 51h481v328l-241 270l-240 -270v-328z" />
    <glyph glyph-name="turnednot" unicode="&#x2319;" 
d="M145 267v-219h321v-48h-432v267h111z" />
    <glyph glyph-name="integraltp" unicode="&#x2320;" 
d="M251 -254h-102v689q0 72 3 98q6 56 27 94q46 81 142 81q58 0 97.5 -31t39.5 -78q0 -26 -17.5 -44t-42.5 -18q-24 0 -41 16t-17 38q0 12 8 27t8 23q0 30 -33 30q-72 0 -72 -180v-745z" />
    <glyph glyph-name="integralbt" unicode="&#x2321;" 
d="M249 708h102v-689q0 -72 -3 -98q-6 -56 -27 -94q-45 -81 -142 -81q-59 0 -98 31t-39 78q0 26 17.5 44t42.5 18q24 0 41 -16t17 -38q0 -12 -8 -27t-8 -23q0 -30 33 -30q72 0 72 180v745z" />
    <glyph glyph-name="SF100000" unicode="&#x2500;" horiz-adv-x="1000" 
d="M0 217v66h1000v-66h-1000z" />
    <glyph glyph-name="SF110000" unicode="&#x2502;" horiz-adv-x="1000" 
d="M467 -250v1000h66v-1000h-66z" />
    <glyph glyph-name="SF010000" unicode="&#x250c;" horiz-adv-x="1000" 
d="M1000 283v-66h-467v-467h-66v533h533z" />
    <glyph glyph-name="SF030000" unicode="&#x2510;" horiz-adv-x="1000" 
d="M467 217h-467v66h533v-533h-66v467z" />
    <glyph glyph-name="SF020000" unicode="&#x2514;" horiz-adv-x="1000" 
d="M533 283h467v-66h-533v533h66v-467z" />
    <glyph glyph-name="SF040000" unicode="&#x2518;" horiz-adv-x="1000" 
d="M0 217v66h467v467h66v-533h-533z" />
    <glyph glyph-name="SF080000" unicode="&#x251c;" horiz-adv-x="1000" 
d="M533 283h467v-66h-467v-467h-66v1000h66v-467z" />
    <glyph glyph-name="SF090000" unicode="&#x2524;" horiz-adv-x="1000" 
d="M467 217h-467v66h467v467h66v-1000h-66v467z" />
    <glyph glyph-name="SF060000" unicode="&#x252c;" horiz-adv-x="1000" 
d="M533 217v-467h-66v467h-467v66h1000v-66h-467z" />
    <glyph glyph-name="SF070000" unicode="&#x2534;" horiz-adv-x="1000" 
d="M467 283v467h66v-467h467v-66h-1000v66h467z" />
    <glyph glyph-name="SF050000" unicode="&#x253c;" horiz-adv-x="1000" 
d="M467 217h-467v66h467v467h66v-467h467v-66h-467v-467h-66v467z" />
    <glyph glyph-name="SF430000" unicode="&#x2550;" horiz-adv-x="1000" 
d="M0 151v66h1000v-66h-1000zM0 283v66h1000v-66h-1000z" />
    <glyph glyph-name="SF240000" unicode="&#x2551;" horiz-adv-x="1000" 
d="M401 -250v1000h66v-1000h-66zM533 -250v1000h66v-1000h-66z" />
    <glyph glyph-name="SF510000" unicode="&#x2552;" horiz-adv-x="1000" 
d="M467 -250v599h533v-66h-467v-66h467v-66h-467v-401h-66z" />
    <glyph glyph-name="SF520000" unicode="&#x2553;" horiz-adv-x="1000" 
d="M533 217h-66v-467h-66v533h599v-66h-401v-467h-66v467z" />
    <glyph glyph-name="SF390000" unicode="&#x2554;" horiz-adv-x="1000" 
d="M467 283v-533h-66v599h599v-66h-533zM599 151v-401h-66v467h467v-66h-401z" />
    <glyph glyph-name="SF220000" unicode="&#x2555;" horiz-adv-x="1000" 
d="M467 151h-467v66h467v66h-467v66h533v-599h-66v401z" />
    <glyph glyph-name="SF210000" unicode="&#x2556;" horiz-adv-x="1000" 
d="M467 217v-467h-66v467h-401v66h599v-533h-66v467h-66z" />
    <glyph glyph-name="SF250000" unicode="&#x2557;" horiz-adv-x="1000" 
d="M533 283h-533v66h599v-599h-66v533zM401 151h-401v66h467v-467h-66v401z" />
    <glyph glyph-name="SF500000" unicode="&#x2558;" horiz-adv-x="1000" 
d="M467 750h66v-401h467v-66h-467v-66h467v-66h-533v599z" />
    <glyph glyph-name="SF490000" unicode="&#x2559;" horiz-adv-x="1000" 
d="M533 283v467h66v-467h401v-66h-599v533h66v-467h66z" />
    <glyph glyph-name="SF380000" unicode="&#x255a;" horiz-adv-x="1000" 
d="M467 217h533v-66h-599v599h66v-533zM599 349h401v-66h-467v467h66v-401z" />
    <glyph glyph-name="SF280000" unicode="&#x255b;" horiz-adv-x="1000" 
d="M467 349v401h66v-599h-533v66h467v66h-467v66h467z" />
    <glyph glyph-name="SF270000" unicode="&#x255c;" horiz-adv-x="1000" 
d="M467 283h66v467h66v-533h-599v66h401v467h66v-467z" />
    <glyph glyph-name="SF260000" unicode="&#x255d;" horiz-adv-x="1000" 
d="M533 217v533h66v-599h-599v66h533zM401 349v401h66v-467h-467v66h401z" />
    <glyph glyph-name="SF360000" unicode="&#x255e;" horiz-adv-x="1000" 
d="M467 750h66v-401h467v-66h-467v-66h467v-66h-467v-401h-66v1000z" />
    <glyph glyph-name="SF370000" unicode="&#x255f;" horiz-adv-x="1000" 
d="M599 217v-467h-66v1000h66v-467h401v-66h-401zM467 -250h-66v1000h66v-1000z" />
    <glyph glyph-name="SF420000" unicode="&#x2560;" horiz-adv-x="1000" 
d="M401 -250v1000h66v-1000h-66zM599 349h401v-66h-467v467h66v-401zM599 151v-401h-66v467h467v-66h-401z" />
    <glyph glyph-name="SF190000" unicode="&#x2561;" horiz-adv-x="1000" 
d="M467 349v401h66v-1000h-66v401h-467v66h467v66h-467v66h467z" />
    <glyph glyph-name="SF200000" unicode="&#x2562;" horiz-adv-x="1000" 
d="M401 217h-401v66h401v467h66v-1000h-66v467zM533 -250v1000h66v-1000h-66z" />
    <glyph glyph-name="SF230000" unicode="&#x2563;" horiz-adv-x="1000" 
d="M599 -250h-66v1000h66v-1000zM401 349v401h66v-467h-467v66h401zM401 151h-401v66h467v-467h-66v401z" />
    <glyph glyph-name="SF470000" unicode="&#x2564;" horiz-adv-x="1000" 
d="M0 349h1000v-66h-1000v66zM467 151h-467v66h1000v-66h-467v-401h-66v401z" />
    <glyph glyph-name="SF480000" unicode="&#x2565;" horiz-adv-x="1000" 
d="M401 217h-401v66h1000v-66h-401v-467h-66v467h-66v-467h-66v467z" />
    <glyph glyph-name="SF410000" unicode="&#x2566;" horiz-adv-x="1000" 
d="M0 349h1000v-66h-1000v66zM599 151v-401h-66v467h467v-66h-401zM401 151h-401v66h467v-467h-66v401z" />
    <glyph glyph-name="SF450000" unicode="&#x2567;" horiz-adv-x="1000" 
d="M0 151v66h1000v-66h-1000zM467 349v401h66v-401h467v-66h-1000v66h467z" />
    <glyph glyph-name="SF460000" unicode="&#x2568;" horiz-adv-x="1000" 
d="M0 217v66h401v467h66v-467h66v467h66v-467h401v-66h-1000z" />
    <glyph glyph-name="SF400000" unicode="&#x2569;" horiz-adv-x="1000" 
d="M0 151v66h1000v-66h-1000zM599 349h401v-66h-467v467h66v-401zM401 349v401h66v-467h-467v66h401z" />
    <glyph glyph-name="SF540000" unicode="&#x256a;" horiz-adv-x="1000" 
d="M467 217v66h-467v66h467v401h66v-401h467v-66h-467v-66h467v-66h-467v-401h-66v401h-467v66h467z" />
    <glyph glyph-name="SF530000" unicode="&#x256b;" horiz-adv-x="1000" 
d="M401 217h-401v66h401v467h66v-467h66v467h66v-467h401v-66h-401v-467h-66v467h-66v-467h-66v467z" />
    <glyph glyph-name="SF440000" unicode="&#x256c;" horiz-adv-x="1000" 
d="M599 349h401v-66h-467v467h66v-401zM401 349v401h66v-467h-467v66h401zM599 151v-401h-66v467h467v-66h-401zM401 151h-401v66h467v-467h-66v401z" />
    <glyph glyph-name="upblock" unicode="&#x2580;" horiz-adv-x="1000" 
d="M0 250v500h1000v-500h-1000z" />
    <glyph glyph-name="dnblock" unicode="&#x2584;" horiz-adv-x="1000" 
d="M0 -250v500h1000v-500h-1000z" />
    <glyph glyph-name="block" unicode="&#x2588;" horiz-adv-x="1000" 
d="M0 -250v1000h1000v-1000h-1000z" />
    <glyph glyph-name="lfblock" unicode="&#x258c;" horiz-adv-x="1000" 
d="M0 -250v1000h500v-1000h-500z" />
    <glyph glyph-name="rtblock" unicode="&#x2590;" horiz-adv-x="1000" 
d="M500 -250v1000h500v-1000h-500z" />
    <glyph glyph-name="ltshade" unicode="&#x2591;" horiz-adv-x="1000" 
d="M0 750h100v-100h-100v100zM200 750h100v-100h-100v100zM800 750h100v-100h-100v100zM400 750h100v-100h-100v100zM600 750h100v-100h-100v100zM0 550h100v-100h-100v100zM0 350h100v-100h-100v100zM0 150h100v-100h-100v100zM0 -50h100v-100h-100v100zM200 550h100v-100
h-100v100zM200 350h100v-100h-100v100zM200 150h100v-100h-100v100zM200 -50h100v-100h-100v100zM400 550h100v-100h-100v100zM400 350h100v-100h-100v100zM400 150h100v-100h-100v100zM400 -50h100v-100h-100v100zM600 550h100v-100h-100v100zM600 350h100v-100h-100v100z
M600 150h100v-100h-100v100zM600 -50h100v-100h-100v100zM800 550h100v-100h-100v100zM800 350h100v-100h-100v100zM800 150h100v-100h-100v100zM800 -50h100v-100h-100v100z" />
    <glyph glyph-name="shade" unicode="&#x2592;" horiz-adv-x="1000" 
d="M900 -150h100v-100h-100v100h-100v-100h-100v100h-100v-100h-100v100h-100v-100h-100v100h-100v-100h-100v100h-100v100h100v-100h100v100h100v-100h100v100h100v-100h100v100h100v-100h100v100h100v100h-100v-100h-100v100h-100v-100h-100v100h-100v-100h-100v100h-100
v-100h-100v100h-100v100h100v-100h100v100h100v-100h100v100h100v-100h100v100h100v-100h100v100h100v100h-100v-100h-100v100h-100v-100h-100v100h-100v-100h-100v100h-100v-100h-100v100h-100v100h100v-100h100v100h100v-100h100v100h100v-100h100v100h100v-100h100v100
h100v100h-100v-100h-100v100h-100v-100h-100v100h-100v-100h-100v100h-100v-100h-100v100h-100v100h100v-100h100v100h100v-100h100v100h100v-100h100v100h100v-100h100v100h100v100h-100v-100h-100v100h-100v-100h-100v100h-100v-100h-100v100h-100v-100h-100v100h-100v100
h100v-100h100v100h100v-100h100v100h100v-100h100v100h100v-100h100v100h100v-100h100v-100h-100v-100h100v-100h-100v-100h100v-100h-100v-100h100v-100h-100v-100z" />
    <glyph glyph-name="dkshade" unicode="&#x2593;" horiz-adv-x="1000" 
d="M1000 -250h-1000v100h100v100h-100v100h100v100h-100v100h100v100h-100v100h100v100h-100v100h100v100h100v-100h100v100h100v-100h100v100h100v-100h100v100h100v-100h100v100h100v-1000zM900 550h-100v-100h100v100zM700 550h-100v-100h100v100zM500 550h-100v-100h100
v100zM300 550h-100v-100h100v100zM900 350h-100v-100h100v100zM700 350h-100v-100h100v100zM500 350h-100v-100h100v100zM300 350h-100v-100h100v100zM900 150h-100v-100h100v100zM700 150h-100v-100h100v100zM500 150h-100v-100h100v100zM300 150h-100v-100h100v100z
M900 -50h-100v-100h100v100zM700 -50h-100v-100h100v100zM500 -50h-100v-100h100v100zM300 -50h-100v-100h100v100z" />
    <glyph glyph-name="filledbox" unicode="&#x25a0;" horiz-adv-x="667" 
d="M667 0h-667v666h667v-666z" />
    <glyph glyph-name="outlinedbox" unicode="&#x25a1;" horiz-adv-x="667" 
d="M667 0h-667v666h667v-666zM620 47v572h-573v-572h573z" />
    <glyph glyph-name="triagup" unicode="&#x25b2;" 
d="M466 147h-433l217 405z" />
    <glyph glyph-name="triagrt" unicode="&#x25b6;" 
d="M71 119v433l405 -217z" />
    <glyph glyph-name="triagdn" unicode="&#x25bc;" 
d="M33 520h433l-216 -405z" />
    <glyph glyph-name="triaglt" unicode="&#x25c0;" 
d="M428 119l-405 216l405 217v-433z" />
    <glyph glyph-name="diamondrhombsolid" unicode="&#x25c6;" horiz-adv-x="667" 
d="M80 333q54 60 130 167t124 193q49 -87 124 -194t129 -166q-54 -58 -129 -165t-124 -194q-50 88 -125.5 194.5t-128.5 164.5z" />
    <glyph glyph-name="diamondrhomb" unicode="&#x25c7;" horiz-adv-x="667" 
d="M334 693l259 -360l-259 -359l-260 359zM334 604l-197 -271l197 -270l197 270z" />
    <glyph glyph-name="circle" unicode="&#x25cb;" horiz-adv-x="667" 
d="M333 589q109 0 185 -75.5t76 -183.5q0 -103 -77.5 -178t-183.5 -75q-107 0 -183.5 75.5t-76.5 180.5t76.5 180.5t183.5 75.5zM333 543q-88 0 -150.5 -61.5t-62.5 -148.5t62.5 -148.5t150.5 -61.5t151 61t63 146q0 89 -62 151t-152 62z" />
    <glyph glyph-name="invbullet" unicode="&#x25d8;" horiz-adv-x="667" 
d="M0 0v666h667v-666h-667zM335 472q-58 0 -98.5 -40.5t-40.5 -99.5q0 -57 40.5 -98t97.5 -41q56 0 96.5 41t40.5 98q0 58 -40 99t-96 41z" />
    <glyph glyph-name="invcircle" unicode="&#x25d9;" horiz-adv-x="667" 
d="M333 543q90 0 152 -61.5t62 -151.5q0 -85 -63 -146t-151 -61t-150.5 61.5t-62.5 148.5t62.5 148.5t150.5 61.5zM667 0h-667v666h667v-666zM333 589q-107 0 -183.5 -75.5t-76.5 -180.5t76.5 -180.5t183.5 -75.5q106 0 183.5 75t77.5 178q0 108 -76 183.5t-185 75.5z" />
    <glyph glyph-name="smileface" unicode="&#x263a;" horiz-adv-x="667" 
d="M241 466q17 0 30 -13t13 -31t-13 -31t-31 -13t-31 13t-13 31t13 31t32 13zM429 466q17 0 30 -13t13 -31t-13 -31t-31 -13t-31 13t-13 31t13 31t32 13zM128 372q37 -159 206 -159q170 0 206 159q-8 -110 -50 -161q-57 -70 -156 -70q-109 0 -165 82q-33 47 -41 149z
M337 650q128 0 220.5 -93.5t92.5 -223.5t-92.5 -223t-223.5 -93t-224 92.5t-93 223.5q0 133 93 225t227 92zM337 609q-117 0 -198 -80t-81 -196q0 -113 81 -194t195 -81q113 0 194 81t81 194t-80.5 194.5t-191.5 81.5z" />
    <glyph glyph-name="invsmileface" unicode="&#x263b;" horiz-adv-x="667" 
d="M337 650q128 0 220.5 -93.5t92.5 -223.5t-92.5 -223t-223.5 -93t-224 92.5t-93 223.5q0 133 93 225t227 92zM241 465q-19 0 -32 -13t-13 -31t13 -31t31 -13t31 13t13 31t-13 31t-30 13zM428 466q-18 0 -31 -13t-13 -31t13 -31t30 -13q18 0 31 13t13 31t-13 31t-30 13z
M128 372q8 -108 51 -161q57 -70 155 -70q109 0 165 82q34 50 41 149q-36 -159 -206 -159q-169 0 -206 159z" />
    <glyph glyph-name="sun" unicode="&#x263c;" horiz-adv-x="667" 
d="M159 472l-75 75l35 35l75 -75q51 40 114 48v105h50v-105q67 -8 113 -48l75 75l35 -35l-74 -75q38 -46 47 -113h105v-51h-105q-9 -64 -47 -113l74 -75l-35 -35l-75 74q-50 -40 -113 -47v-105h-50v105q-58 6 -114 47l-75 -74l-35 35l74 74q-40 49 -46 114h-105v51h105
q7 63 47 113zM336 493q-68 0 -115.5 -46t-47.5 -112q0 -67 46.5 -114t113.5 -47q65 0 112 47t47 113q0 64 -46.5 111.5t-109.5 47.5z" />
    <glyph glyph-name="female" unicode="&#x2640;" horiz-adv-x="667" 
d="M357 0h-48v166h-162v43h162v105q-68 10 -112 61.5t-44 119.5q0 76 53 129.5t127 53.5t127 -53.5t53 -129.5q0 -68 -44 -119.5t-112 -61.5v-105h162v-43h-162v-166zM333 631q-55 0 -94 -39.5t-39 -94.5q0 -58 38.5 -98t94.5 -40q55 0 94 40t39 96t-39 96t-94 40z" />
    <glyph glyph-name="male" unicode="&#x2642;" horiz-adv-x="667" 
d="M385 382l151 151q-53 12 -106 40q-21 11 -21 23t13 12q6 0 20 -3q41 -9 83 -9q54 0 106 14l10 1q10 0 10 -11q0 -12 -8 -49t-8 -60q0 -39 10 -85q3 -14 3 -19q0 -14 -13 -14q-14 0 -34.5 39.5t-31.5 86.5l-151 -151q35 -52 35 -109q0 -76 -53 -129.5t-127 -53.5
t-127 53.5t-53 129.5q0 75 53 128.5t127 53.5q60 0 112 -39zM273 374q-55 0 -94 -39.5t-39 -94.5q0 -57 39 -97t94 -40t94 40t39 96t-39 95.5t-94 39.5z" />
    <glyph glyph-name="spade" unicode="&#x2660;" horiz-adv-x="667" 
d="M561 0h-455v18q81 14 122 40q51 31 80 98q18 40 19 99q-44 -102 -140 -102q-51 0 -87 37t-36 89q0 59 50 116q17 20 76 69q122 102 144 221q21 -119 143 -221q72 -60 99 -99.5t27 -85.5q0 -52 -36 -89t-87 -37q-96 0 -140 102q1 -79 35 -131q31 -49 70 -70.5t116 -35.5
v-18z" />
    <glyph glyph-name="club" unicode="&#x2663;" horiz-adv-x="667" 
d="M561 0h-455v18q221 31 221 256q-71 -128 -177 -128q-62 0 -104.5 44t-42.5 108q0 62 38.5 104.5t93.5 42.5q30 0 86 -28q-36 53 -36 99q0 59 44 101.5t105 42.5t104.5 -42.5t43.5 -101.5q0 -46 -36 -99q7 3 15 7q42 21 71 21q55 0 93.5 -43t38.5 -104q0 -64 -42.5 -108
t-104.5 -44q-106 0 -177 128q0 -225 221 -256v-18z" />
    <glyph glyph-name="heart" unicode="&#x2665;" horiz-adv-x="667" 
d="M333 -11q-16 66 -52.5 128t-133.5 193q-54 73 -72.5 112t-18.5 82q0 57 37.5 96t92.5 39q105 0 147 -130q37 131 146 131q56 0 94 -39.5t38 -97.5q0 -61 -48 -139q-19 -31 -89 -120q-117 -148 -141 -255z" />
    <glyph glyph-name="diamond" unicode="&#x2666;" horiz-adv-x="667" 
d="M80 333q54 60 130 167t124 193q49 -87 124 -194t129 -166q-54 -58 -129 -165t-124 -194q-50 88 -125.5 194.5t-128.5 164.5z" />
    <glyph glyph-name="musicalnote" unicode="&#x266a;" horiz-adv-x="667" 
d="M306 666h46v-61q7 -8 15 -18l52 -63q91 -110 91 -224q0 -93 -57 -162h-28q33 79 33 144q0 68 -31 119.5t-75 58.5v-297q0 -68 -29 -108q-46 -64 -121 -64q-32 0 -51.5 16.5t-19.5 44.5q0 46 36.5 80.5t85.5 34.5q26 0 53 -11v510z" />
    <glyph glyph-name="musicalnotedbl" unicode="&#x266b;" horiz-adv-x="667" 
d="M195 587l421 107v-495q0 -68 -29 -108q-46 -64 -121 -64q-32 0 -51.5 16.5t-19.5 44.5q0 46 36.5 80.5t85.5 34.5q25 0 53 -11v270l-329 -90v-229q0 -68 -29 -108q-46 -64 -121 -64q-32 0 -51.5 16.5t-19.5 44.5q0 46 36.5 80.5t85.5 34.5q28 0 53 -11v451zM241 448
l329 90v70l-329 -90v-70z" />
    <glyph glyph-name="nmacron" unicode="&#xe00c;" horiz-adv-x="682" 
d="M212 476v-92q38 51 76.5 71.5t97.5 20.5q183 0 183 -187v-157q0 -62 11 -79.5t56 -21.5l24 -2v-29h-269v29l24 2q45 4 56 21.5t11 79.5v133q0 83 -23 118q-31 47 -101 47q-77 0 -117 -61q-22 -34 -22 -103v-134q0 -62 11 -79.5t56 -21.5l24 -2v-29h-269v29l24 2
q45 4 56 21.5t11 79.5v195q0 53 -4 67q-10 36 -64 41l-32 3v28zM507 652v-53h-292v53h292z" />
    <glyph glyph-name="ahungarumlaut" unicode="&#xeb01;" horiz-adv-x="549" 
d="M528 69l12 -16q-61 -60 -111 -60q-36 0 -57 30q-11 15 -20 52q-77 -85 -163 -85q-61 0 -98.5 37t-37.5 98t36 93t132 48q16 3 38 7l94 17q-2 86 -16 113q-22 44 -93 44q-28 0 -52 -10t-24 -21q0 -4 12.5 -16.5t12.5 -32.5q0 -24 -16 -40t-41 -16t-40.5 16.5t-15.5 42.5
q0 49 50 78t134 29q123 0 162 -75q15 -31 15 -100v-164q0 -52 8 -72t30 -20q16 0 49 23zM354 181v78q-102 -18 -145 -33q-63 -22 -63 -90q0 -40 25 -65.5t65 -25.5q59 0 90 41q28 36 28 95zM203 529l-14 13l127 163q20 26 40 26q12 0 21.5 -10.5t9.5 -23.5q0 -18 -21 -35z
M349 529l-14 13l128 163q20 26 40 26q12 0 21.5 -10.5t9.5 -23.5q0 -17 -21 -35z" />
    <glyph glyph-name="Dbreve" unicode="&#xeb06;" horiz-adv-x="791" 
d="M146 134v398q0 63 -13 78t-54 20l-36 4v32h328q100 0 160 -17.5t106 -60.5q101 -95 101 -255q0 -179 -122 -272q-80 -61 -245 -61h-328v32l36 4q41 5 54 20t13 78zM246 40h83q133 0 197 42q102 67 102 251q0 199 -121 262q-59 31 -178 31h-83v-586zM524 865h34
q-10 -148 -162 -148q-151 0 -164 148h34q16 -88 129 -88q115 0 129 88z" />
    <glyph glyph-name="gcommamirror" unicode="&#xeb0c;" horiz-adv-x="573" 
d="M169 171q-97 35 -97 142q0 79 52 122q49 41 151 41q118 0 171 -45q6 51 20 75q23 39 68 39q25 0 42 -16t17 -40q0 -22 -14 -36.5t-34 -14.5q-34 0 -38 30q-1 11 -8 11q-11 0 -19 -17q-15 -25 -15 -43q0 -11 10 -45t10 -56q0 -105 -91 -142q-29 -12 -56 -15.5t-111 -6.5
q-67 -3 -67 -42q0 -36 86 -40q146 -7 181 -16q42 -11 66.5 -43.5t24.5 -77.5q0 -73 -68 -117.5t-180 -44.5q-99 0 -162 37.5t-63 96.5q0 64 92 102q-64 24 -64 75q0 70 96 87zM281 443q-118 0 -118 -128q0 -126 118 -126q117 0 117 125q0 129 -117 129zM177 -2l-9 -6
q-51 -34 -51 -71q0 -46 50.5 -80.5t118.5 -34.5q67 0 108.5 28.5t41.5 75.5q0 50 -39 64q-25 9 -119 14q-58 3 -101 10zM336 723l7 -20q-67 -20 -73 -78l5 -4q13 5 23 5q45 0 45 -45q0 -22 -15.5 -37t-38.5 -15q-27 0 -44 20t-17 51q0 89 108 123z" />
    <glyph glyph-name="ocommaaccent" unicode="&#xeb15;" horiz-adv-x="593" 
d="M296 476q116 0 181 -58q70 -62 70 -185t-70 -185q-65 -58 -180 -58q-122 0 -187 64t-65 183q0 120 70 181q67 58 181 58zM295 446q-150 0 -150 -210q0 -216 153 -216q149 0 149 213t-152 213zM248 -241l-7 21q67 20 73 78l-5 3q-13 -5 -23 -5q-46 0 -46 45q0 22 15.5 37
t38.5 15q28 0 45 -19.5t17 -50.5q0 -89 -108 -124z" />
    <glyph glyph-name="Sbreve" unicode="&#xeb1e;" horiz-adv-x="603" 
d="M509 666l2 -226l-39 -1q-12 99 -44 142q-46 62 -131 62q-57 0 -92.5 -31t-35.5 -81q0 -61 52 -98q40 -28 127 -57q91 -29 128 -53q73 -47 73 -141q0 -91 -71 -150q-57 -47 -155 -47q-86 0 -193 39q-8 3 -13 3q-13 0 -36 -27h-22l-2 233l39 2q20 -75 45 -118
q55 -94 173 -94q65 0 104 33.5t39 88.5t-39 83q-21 15 -38 23t-97 39q-101 40 -143 72q-63 49 -63 134t55 135t149 50q64 0 156 -34q8 -4 15 -4q13 0 35 23h22zM431 865h34q-12 -148 -163 -148t-164 148h34q17 -88 129 -88q114 0 130 88z" />
    <glyph glyph-name="Tcaron_1" unicode="&#xeb22;" horiz-adv-x="935" 
d="M642 666l2 -225h-42l-17 53q-24 75 -54 103.5t-86 28.5h-68v-492q0 -63 13 -78t54 -20l36 -4v-32h-306v32l36 4q41 5 54 20t13 78v492h-68q-56 0 -86 -28.5t-54 -103.5l-17 -53h-42l2 225h630zM732 476l-8 22q71 22 77 82l-5 4q-14 -5 -24 -5q-48 0 -48 47q0 23 16.5 39
t40.5 16q29 0 46.5 -20.5t17.5 -53.5q0 -94 -113 -131z" />
    <glyph glyph-name="tcaron_1" unicode="&#xeb23;" horiz-adv-x="369" 
d="M339 467v-33h-140v-301q0 -89 75 -89q26 0 72 18l11 -24q-80 -48 -144 -48q-100 0 -100 109v335h-112v33h112v102l65 65h21v-167h140zM161 707l-169 150l21 25l148 -102l149 102l20 -25z" />
    <glyph glyph-name="ucommaaccent" unicode="&#xeb26;" horiz-adv-x="672" 
d="M469 0v78q-78 -88 -183 -88q-95 0 -140 60q-32 43 -32 134v143q0 53 -4 67q-10 36 -64 41l-32 3v28l187 11v-274q0 -164 126 -164q87 0 118 68q17 37 17 96v124q0 53 -4 67q-10 36 -64 41l-32 3v28l187 11v-345q0 -62 11 -79.5t56 -21.5l24 -2v-29h-171zM279 -241l-7 21
q67 20 73 78l-5 3q-12 -5 -23 -5q-45 0 -45 45q0 22 15.5 37t38.5 15q27 0 44 -19.5t17 -50.5q0 -89 -108 -124z" />
    <glyph glyph-name="yhungarumlaut" unicode="&#xeb2b;" horiz-adv-x="578" 
d="M314 80l119 276q14 33 14 47q0 32 -70 35v29h208v-29q-40 -4 -61 -24.5t-53 -85.5l-160 -323q-54 -110 -62 -125q-15 -28 -29 -47q-44 -59 -114 -59q-46 0 -74 22.5t-28 59.5q0 28 16.5 45.5t42.5 17.5q22 0 37 -14t15 -34q0 -18 -17 -40q-2 -6 -2 -8q0 -17 31 -17
q40 0 76 55q13 20 64 124l-176 369q-26 55 -40 67t-54 17v29h249v-29q-44 -3 -58.5 -10t-14.5 -26q0 -16 24 -68zM238 529l-14 13l127 163q20 26 40 26q12 0 21.5 -10.5t9.5 -23.5q0 -18 -21 -35zM384 529l-14 13l128 163q20 26 40 26q12 0 21.5 -10.5t9.5 -23.5
q0 -17 -21 -35z" />
    <glyph glyph-name="dcaron_1" unicode="&#xeb30;" horiz-adv-x="648" 
d="M528 690v-558q0 -62 11 -79.5t56 -21.5l24 -2v-29h-172v79q-65 -89 -175 -89q-104 0 -166 67t-62 179q0 107 64 173.5t167 66.5q110 0 166 -81v156q0 50 -17 67t-70 19l-22 1v28zM290 439q-146 0 -146 -202q0 -209 149 -209q84 0 120 64q28 49 28 138q0 97 -27 143
q-39 66 -124 66zM481 707l-170 150l21 25l149 -102l148 102l20 -25z" />
    <glyph glyph-name="Lcaron_1" unicode="&#xeb31;" horiz-adv-x="630" 
d="M606 226l-18 -226h-545v32l36 4q41 5 54 20t13 78v398q0 63 -13 78t-54 20l-36 4v32h306v-32l-36 -4q-41 -5 -54 -20t-13 -78v-492h106q80 0 117.5 24t65.5 92l29 70h42zM455 476l-8 22q71 22 77 82l-5 4q-14 -5 -24 -5q-48 0 -48 47q0 23 16.5 39t40.5 16q29 0 47 -20.5
t18 -53.5q0 -92 -114 -131z" />
    <glyph glyph-name="Commaaccent" unicode="&#xeb86;" 
d="M197 476l-8 22q71 22 77 82l-5 4q-14 -5 -24 -5q-48 0 -48 47q0 23 16.5 39t40.5 16q29 0 47 -20.5t18 -53.5q0 -92 -114 -131z" />
    <glyph glyph-name="commaaccent" unicode="&#xeb87;" 
d="M199 496l-7 20q67 22 73 78l-5 4q-12 -5 -23 -5q-45 0 -45 45q0 22 15.5 37t38.5 15q27 0 44 -19.5t17 -50.5q0 -89 -108 -124z" />
    <glyph glyph-name="commamirror" unicode="&#xeb9d;" 
d="M293 723l7 -20q-67 -20 -73 -78l5 -4q13 5 23 5q45 0 45 -45q0 -22 -15.5 -37t-38.5 -15q-27 0 -44 20t-17 51q0 89 108 123z" />
    <glyph glyph-name="Slashstroke" unicode="&#xeb9e;" 
d="M314 496v-53l-329 -243v53z" />
    <glyph glyph-name="slashstroke" unicode="&#xeb9f;" 
d="M378 469v-43l-256 -189v42z" />
    <glyph glyph-name="Dieresisnarrow" unicode="&#xebce;" 
d="M155 852q26 0 44.5 -18t18.5 -44t-18.5 -44.5t-44.5 -18.5t-44 18.5t-18 44.5q0 25 18.5 43.5t43.5 18.5zM342 852q26 0 44.5 -18t18.5 -44t-18.5 -44.5t-44.5 -18.5t-44 18.5t-18 44.5q0 25 18.5 43.5t43.5 18.5z" />
    <glyph glyph-name="dieresisnarrow" unicode="&#xebcf;" 
d="M174 688q25 0 42 -17t17 -42t-17.5 -42t-42.5 -17q-24 0 -41 17.5t-17 42.5q0 23 17.5 40.5t41.5 17.5zM324 688q25 0 42 -17t17 -42t-17 -42t-42 -17t-42 17.5t-17 42.5q0 23 17.5 40.5t41.5 17.5z" />
    <glyph glyph-name="Pts" unicode="&#xec00;" horiz-adv-x="1056" 
d="M221 281v-150q0 -63 13.5 -77.5t59.5 -20.5l30 -4v-29h-284v29l26 4q42 6 54 20.5t12 77.5v398q0 63 -11.5 76.5t-54.5 20.5l-26 4v30h243q112 0 166 -33q83 -51 83 -157q0 -74 -44.5 -122t-123.5 -60q-46 -7 -143 -7zM220 626v-309q73 0 94 2t43 13q77 37 77 140
q0 99 -61 134q-35 20 -107 20h-46zM722 275v-31h-108v-111q0 -88 71 -88q22 0 51 17l11 -21q-63 -48 -110 -48q-101 0 -101 108v143h-85v31h85v71l57 58h21v-129h108zM992 282l2 -92l-23 -2q-5 23 -12 37q-18 37 -70 37q-48 0 -48 -36q0 -20 28 -36q1 0 67 -26
q41 -16 54 -31.5t13 -46.5q0 -43 -28 -68t-77 -25q-18 0 -47 8.5t-39 8.5q-6 0 -15 -10h-18l-1 108l23 2q17 -88 87 -88q56 0 56 44q0 21 -22 34q-6 3 -42 15q-53 18 -73 37t-20 52q0 40 27 63t73 23q34 0 66 -13q8 -2 10 -2q5 0 12 7h17z" />
    <glyph glyph-name="peseta2" unicode="&#xec01;" horiz-adv-x="576" 
d="M143 450h-92v34h92v45q0 63 -11.5 76.5t-54.5 20.5l-26 4v30h243q119 0 179.5 -42.5t68.5 -133.5h83v-34h-83q-10 -101 -81.5 -143t-228.5 -37v-139q0 -63 13.5 -77.5t59.5 -20.5l30 -4v-29h-284v29l26 4q42 6 54 20.5t12 77.5v319zM231 450v-144h40q114 0 153 66
q16 27 20 78h-213zM231 484h214q-5 67 -36 101q-36 41 -132 41h-46v-142z" />
    <glyph glyph-name="onenarrow" unicode="&#xec02;" horiz-adv-x="447" 
d="M301 673v-535q0 -64 20 -81q27 -22 114 -26v-31h-365v31l22 1q79 4 103 36q12 17 12 70v354q0 24 -6 31t-30 7l-108 1v29q84 7 135.5 33t90.5 80h12z" />
    <glyph glyph-name="oneone" unicode="&#xec03;" horiz-adv-x="875" 
d="M236 668v-319q0 -41 19 -52q12 -6 63 -8v-25h-231v25q58 4 71.5 13.5t13.5 46.5v208q0 13 -3 16.5t-16 3.5h-70v23q99 10 141 68h12zM674 660l-405 -660h-42l405 660h42zM740 404v-319q0 -41 20 -52q11 -6 63 -8v-25h-231v25q58 4 71 13.5t13 46.5v209q0 13 -3 16t-16 3
l-70 1v23q96 8 141 67h12z" />
    <glyph glyph-name="space10mm" unicode="&#xec05;" horiz-adv-x="67" 
 />
    <glyph glyph-name="space5mm" unicode="&#xec06;" horiz-adv-x="33" 
 />
    <glyph glyph-name="space2mm" unicode="&#xec07;" horiz-adv-x="13" 
 />
    <glyph glyph-name="space1mm" unicode="&#xec08;" horiz-adv-x="7" 
 />
    <glyph glyph-name="spacehalfmm" unicode="&#xec09;" horiz-adv-x="3" 
 />
    <glyph glyph-name="eightperemspace" unicode="&#xec04;" horiz-adv-x="125" 
 />
    <glyph glyph-name="ft" unicode="&#xec0a;" horiz-adv-x="688" 
d="M40 434v33h92q-3 29 -3 52q0 79 42.5 125t114.5 46q48 0 78 -21.5t30 -55.5q0 -29 -17.5 -48t-43.5 -19q-23 0 -38 14.5t-15 37.5q0 22 16 38q6 6 6 9q0 5 -12 10t-25 5q-31 0 -49.5 -22t-18.5 -59q0 -27 21 -112h214v102l65 65h21v-167h139v-33h-139v-301q0 -89 75 -89
q25 0 71 18l11 -24q-82 -48 -143 -48q-100 0 -100 109v335h-214v-302q0 -61 10.5 -77.5t56.5 -23.5l31 -2v-29h-276v29l24 2q45 4 56 21.5t11 79.5v302h-91z" />
    <glyph glyph-name="fff" unicode="&#xec0b;" horiz-adv-x="982" 
d="M40 434v33h92q-1 107 38 154q56 67 175 67q79 0 158 -39q59 39 142 39q70 0 141 -32q44 34 102 34q47 0 77 -22t30 -56q0 -29 -17.5 -48t-43.5 -19q-23 0 -38 14.5t-15 37.5q0 21 17 38q5 5 6 8q0 16 -37 16q-31 0 -50 -22.5t-19 -58.5q0 -26 21 -111h125v-33h-125v-302
q0 -61 10.5 -77.5t56.5 -23.5l31 -2v-29h-276v29l24 2q45 4 56 21.5t11 79.5v302h-213v-302q0 -61 10.5 -77.5t56.5 -23.5l31 -2v-29h-276v29l24 2q45 4 56 21.5t11 79.5v302h-214v-302q0 -61 10.5 -77.5t56.5 -23.5l31 -2v-29h-276v29l24 2q45 4 56 21.5t11 79.5v302h-91z
M218 467h215q-1 107 39 155q-63 35 -115 35q-104 0 -130 -94q-9 -32 -9 -96zM519 467h214q-3 29 -3 51q0 64 30 110q-54 29 -104 29q-93 0 -122 -76q-15 -40 -15 -114z" />
    <glyph glyph-name="fft" unicode="&#xec0c;" horiz-adv-x="988" 
d="M40 434v33h92q-1 106 38 154q55 67 174 67q72 0 143 -31q47 33 101 33q47 0 77 -21.5t30 -55.5q0 -29 -17.5 -48t-43.5 -19q-23 0 -38 14.5t-15 37.5q0 22 16 38q6 6 6 9q0 5 -12 10t-25 5q-31 0 -49.5 -22t-18.5 -59q0 -27 21 -112h214v102l65 65h21v-167h138v-33h-138
v-301q0 -89 74 -89q24 0 71 18l11 -24q-82 -48 -142 -48q-100 0 -100 109v335h-214v-302q0 -61 10.5 -77.5t56.5 -23.5l31 -2v-29h-276v29l24 2q45 4 56 21.5t11 79.5v302h-214v-302q0 -61 10.5 -77.5t56.5 -23.5l31 -2v-29h-276v29l24 2q45 4 56 21.5t11 79.5v302h-91z
M218 467h215q-3 29 -3 51q0 63 30 111q-53 28 -105 28q-102 0 -128 -93q-9 -32 -9 -97z" />
    <glyph glyph-name="currency_2" unicode="&#xec13;" horiz-adv-x="494" 
d="M21 406l33 32l93 -94q48 32 95 32q45 0 94 -30l92 92l32 -32l-92 -92q32 -43 32 -94t-32 -94l96 -97l-32 -31l-94 97q-42 -31 -93 -31q-49 0 -99 33l-95 -97l-30 35l95 92q-30 46 -30 95q0 50 31 92zM244 340q-50 0 -86 -34.5t-36 -83.5q0 -52 35.5 -87.5t87.5 -35.5
q50 0 84.5 35.5t34.5 86.5q0 49 -35.5 84t-84.5 35z" />
    <glyph glyph-name="Dotaccent" unicode="&#xefed;" 
d="M249 852q26 0 44.5 -18t18.5 -44t-18.5 -44.5t-44.5 -18.5t-44 18.5t-18 44.5q0 25 18.5 43.5t43.5 18.5z" />
    <glyph glyph-name="Breve" unicode="&#xefee;" 
d="M380 865h34q-12 -148 -163 -148t-164 148h34q17 -88 129 -88q114 0 130 88z" />
    <glyph glyph-name="Ogonek" unicode="&#xeff1;" 
d="M434 0h37q-61 -38 -61 -90q0 -30 19.5 -49t50.5 -19q22 0 45 13l12 -25q-38 -22 -84 -22q-50 0 -79.5 23.5t-29.5 63.5q0 68 90 105z" />
    <glyph glyph-name="Cedilla" unicode="&#xeff2;" 
d="M281 7l-18 -61q18 2 23 2q30 0 51.5 -17.5t21.5 -41.5q0 -35 -32.5 -58t-81.5 -23q-21 0 -64 7l4 28q29 -3 38 -3q68 0 68 46q0 31 -52 31q-1 0 -23 -2l29 92h36z" />
    <glyph glyph-name="Ring" unicode="&#xeff3;" 
d="M254 864q39 0 64.5 -22.5t25.5 -57.5q0 -34 -26 -57.5t-64 -23.5q-40 0 -65.5 23t-25.5 59q0 35 25.5 57t65.5 22zM254 839q-47 0 -47 -54q0 -25 13 -41t33 -16t33.5 16t13.5 41q0 24 -13 39t-33 15z" />
    <glyph glyph-name="Tilde" unicode="&#xeff5;" 
d="M397 848l34 -2q-10 -117 -86 -117q-34 0 -142 46q-28 12 -51 12q-21 0 -31.5 -13.5t-17.5 -50.5l-34 7q7 115 89 115q31 0 109 -30q65 -25 85 -25q23 0 32.5 12.5t12.5 45.5z" />
    <glyph glyph-name="Circumflex" unicode="&#xeff7;" 
d="M250 882l169 -150l-20 -25l-149 101l-148 -101l-21 25z" />
    <glyph glyph-name="Commabelow" unicode="&#xf634;" 
d="M197 -258l-8 21q71 24 77 83l-5 3q-14 -5 -24 -5q-48 0 -48 48q0 23 16.5 39t40.5 16q29 0 47 -20.5t18 -54.5q0 -93 -114 -130z" />
    <glyph glyph-name="zeronarrow" unicode="&#xf639;" horiz-adv-x="576" 
d="M288 675q118 0 173.5 -84t55.5 -261t-55.5 -261t-172.5 -84q-119 0 -174.5 84.5t-55.5 265.5q0 176 61 265q51 75 168 75zM288 642q-80 0 -107 -69q-31 -78 -31 -240q0 -167 31 -246q27 -69 110 -69q91 0 121 119q14 59 14 193q0 166 -31 243q-28 69 -107 69z" />
    <glyph glyph-name="twonarrow" unicode="&#xf63a;" horiz-adv-x="520" 
d="M463 184l-23 -184h-414q7 91 48 154t132 125q83 57 112.5 103.5t29.5 118.5q0 66 -33 102t-94 36q-43 0 -81.5 -22t-38.5 -46q0 -12 9 -12q5 0 13.5 2.5t13.5 2.5q47 0 47 -52q0 -28 -18.5 -46t-46.5 -18q-31 0 -50.5 22t-19.5 56q0 64 57 106.5t143 42.5q94 0 150 -48
t56 -129q0 -88 -62 -147q-44 -42 -138 -92q-78 -41 -115 -77.5t-53 -87.5h298q23 0 31 24l23 66h24z" />
    <glyph glyph-name="threenarrow" unicode="&#xf63b;" horiz-adv-x="503" 
d="M139 328v35q19 -1 31 -1q68 0 109.5 43t41.5 114q0 58 -27.5 91t-74.5 33q-37 0 -63 -20.5t-26 -48.5q0 -12 8 -12q1 0 13 4q5 3 12 3q20 0 33.5 -15t13.5 -37q0 -27 -19.5 -46t-45.5 -19q-29 0 -48.5 22.5t-19.5 56.5q0 64 46.5 104t120.5 40q81 0 129.5 -41.5
t48.5 -111.5q0 -130 -172 -169v-8q73 -4 111 -22q83 -38 83 -141q0 -87 -62.5 -142t-161.5 -55q-73 0 -119.5 32t-46.5 83q0 30 18.5 48.5t47.5 18.5q26 0 42.5 -14.5t16.5 -37.5q0 -25 -21 -42q-13 -13 -13 -20q0 -16 19 -26.5t46 -10.5q60 0 93.5 44t33.5 121
q0 112 -86 137q-35 10 -112 10z" />
    <glyph glyph-name="fournarrow" unicode="&#xf63c;" horiz-adv-x="533" 
d="M388 673v-419h130l-22 -63h-108v-79q0 -53 17.5 -66t94.5 -17v-29h-329v29q70 0 99 19t29 65v78h-276v63l310 419h55zM299 571l-228 -317h228v317z" />
    <glyph glyph-name="fivenarrow" unicode="&#xf63d;" horiz-adv-x="513" 
d="M65 325l26 335h235q38 0 48 7t23 43h23l-21 -141h-276l-19 -199q71 46 150 46q97 0 156.5 -59.5t59.5 -156.5q0 -100 -63 -157.5t-172 -57.5q-86 0 -142 34.5t-56 87.5q0 27 18 44.5t46 17.5q26 0 43 -15.5t17 -38.5q0 -22 -23 -43q-11 -10 -11 -17q0 -16 28.5 -28
t65.5 -12q70 0 109.5 47.5t39.5 133.5q0 82 -38 129t-105 47q-68 0 -136 -56z" />
    <glyph glyph-name="sixnarrow" unicode="&#xf63e;" horiz-adv-x="547" 
d="M147 351q61 61 143 61q91 0 152.5 -61t61.5 -152q0 -100 -72 -163q-58 -51 -149 -51q-120 0 -176 79t-56 249q0 189 74 278q70 84 188 84q73 0 122 -31t49 -78q0 -29 -19 -48t-48 -19q-26 0 -43 15.5t-17 39.5q0 21 24 48q5 6 5 11q0 12 -23 22t-51 10q-165 0 -165 -294z
M283 379q-62 0 -96 -46.5t-34 -131.5q0 -183 130 -183q62 0 95.5 47t33.5 133q0 87 -33.5 134t-95.5 47z" />
    <glyph glyph-name="sevennarrow" unicode="&#xf63f;" horiz-adv-x="513" 
d="M508 660l-7 -66q-123 -132 -161 -217.5t-48 -247.5q-6 -96 -16 -116q-14 -28 -49 -28q-58 0 -58 56q0 52 30 140t76 173q33 61 65 102.5t101 112.5h-316q-19 0 -25 -19l-24 -72h-24l19 182h437z" />
    <glyph glyph-name="eightnarrow" unicode="&#xf640;" horiz-adv-x="533" 
d="M193 349q-137 28 -137 154q0 80 56 126t155 46q98 0 154 -46t56 -126q0 -126 -137 -154q153 -43 153 -181q0 -86 -60.5 -134.5t-166.5 -48.5t-166 48.5t-60 134.5q0 138 153 181zM267 645q-56 0 -90 -37t-34 -97q0 -63 34 -100.5t90 -37.5q55 0 89 37.5t34 98.5
t-33.5 98.5t-89.5 37.5zM267 327q-61 0 -96.5 -41t-35.5 -111q0 -73 35 -114.5t97 -41.5q61 0 96 41.5t35 112.5t-35.5 112.5t-95.5 41.5z" />
    <glyph glyph-name="ninenarrow" unicode="&#xf641;" horiz-adv-x="547" 
d="M400 309q-61 -62 -144 -62q-91 0 -152 61.5t-61 152.5q0 100 72 163q58 51 149 51q119 0 175.5 -79.5t56.5 -247.5q0 -186 -70.5 -274.5t-192.5 -88.5q-73 0 -121.5 31t-48.5 78q0 29 19 48t48 19q26 0 43 -15.5t17 -39.5q0 -21 -25 -48q-5 -5 -5 -11q0 -12 23 -22
t51 -10q166 0 166 294zM265 642q-62 0 -96 -46.5t-34 -132.5q0 -183 130 -183q62 0 95.5 47t33.5 134t-33.5 134t-95.5 47z" />
    <glyph glyph-name="dotlessj" unicode="&#xf6be;" horiz-adv-x="305" 
d="M218 477v-489q0 -103 -45 -155q-52 -60 -136 -60q-47 0 -75 22t-28 59q0 28 17 45t43 17q23 0 38 -14.5t15 -36.5q0 -21 -18 -38q-5 -7 -5 -9q0 -15 32 -15q49 0 67 46q8 20 8 80v404q0 47 -4 61q-10 36 -64 41l-32 3v28z" />
    <glyph glyph-name="Scedilla1" unicode="&#xf6c1;" horiz-adv-x="603" 
d="M317 -15l-11 -39q16 2 22 2q30 0 51.5 -17.5t21.5 -41.5q0 -35 -32.5 -58t-81.5 -23q-21 0 -64 7l4 28q29 -3 39 -3q67 0 67 46q0 31 -52 31q-1 0 -23 -2l23 72q-66 5 -151 37q-8 3 -13 3q-13 0 -36 -27h-22l-2 233l39 2q20 -75 45 -118q55 -94 173 -94q65 0 104 33.5
t39 88.5t-39 83q-21 15 -38 23t-97 39q-101 40 -143 72q-63 49 -63 134t55 135t149 50q64 0 156 -34q8 -4 15 -4q13 0 35 23h22l2 -226l-39 -1q-12 99 -44 142q-46 62 -131 62q-57 0 -92.5 -31t-35.5 -81q0 -61 52 -98q37 -27 126 -57q98 -33 129 -53q73 -47 73 -141
q0 -56 -30.5 -104.5t-80 -70.5t-121.5 -22z" />
    <glyph glyph-name="scedilla1" unicode="&#xf6c2;" horiz-adv-x="458" 
d="M235 -10l-14 -44q8 1 20 1q31 0 51.5 -16t20.5 -41q0 -32 -32.5 -52.5t-83.5 -20.5q-23 0 -52 6l5 27q26 -3 34 -3q64 0 64 43q0 31 -42 31q-8 0 -25 -3l22 74q-31 3 -71 15q-28 8 -37 8q-11 0 -19 -15h-17l-2 168l29 1q13 -64 37 -95q42 -54 105 -54q44 0 71 23.5
t27 60.5q0 39 -31 60q-15 10 -25 15q-13 5 -63 23q-78 28 -109 59t-31 80q0 65 42 100.5t119 35.5q57 0 105 -19q8 -4 15 -4q9 0 15 13h17l2 -143l-29 -1q-16 60 -34 81q-37 44 -96 44q-38 0 -61.5 -19.5t-23.5 -51.5q0 -33 25.5 -54.5t90.5 -45.5q85 -31 108 -47
q43 -30 43 -94q0 -70 -44 -108t-126 -38z" />
    <glyph glyph-name="Acute" unicode="&#xf6c9;" 
d="M190 707l-11 17l181 143q23 18 38 18q12 0 21 -10t9 -23q0 -22 -29 -37z" />
    <glyph glyph-name="Caron" unicode="&#xf6ca;" 
d="M250 707l-169 150l21 25l148 -102l149 102l20 -25z" />
    <glyph glyph-name="Dieresis" unicode="&#xf6cb;" 
d="M119 852q26 0 44.5 -18t18.5 -44t-18.5 -44.5t-44.5 -18.5t-44 18.5t-18 44.5q0 25 18.5 43.5t43.5 18.5zM379 852q26 0 44.5 -18t18.5 -44t-18.5 -44.5t-44.5 -18.5t-44 18.5t-18 44.5q0 25 18.5 43.5t43.5 18.5z" />
    <glyph glyph-name="Grave" unicode="&#xf6ce;" 
d="M317 707l-204 115q-28 16 -28 37q0 13 9 23t21 10q17 0 38 -18l175 -150z" />
    <glyph glyph-name="Hungarumlaut" unicode="&#xf6cf;" 
d="M125 707l-13 14l126 141q21 23 40 23q11 0 20.5 -10.5t9.5 -23.5q0 -20 -24 -36zM285 707l-13 14l126 141q21 23 40 23q11 0 20.5 -10.5t9.5 -23.5q0 -20 -24 -36z" />
    <glyph glyph-name="Macron" unicode="&#xf6d0;" 
d="M406 810v-53h-312v53h312z" />
    <glyph glyph-name="onefitted" unicode="&#xf6dc;" horiz-adv-x="447" 
d="M301 673v-535q0 -64 20 -81q27 -22 114 -26v-31h-365v31l22 1q79 4 103 36q12 17 12 70v354q0 24 -6 31t-30 7l-108 1v29q84 7 135.5 33t90.5 80h12z" />
    <glyph glyph-name="centsuperior" unicode="&#xf6e0;" horiz-adv-x="371" 
d="M190 666h27v-51q48 -2 77.5 -22t29.5 -49q0 -38 -41 -38q-37 0 -37 33q0 14 15 29q2 2 2 3q0 8 -17 14t-37 6q-88 0 -88 -121q0 -115 95 -115q46 0 88 41l18 -18q-48 -49 -105 -56v-56h-27v55q-64 4 -100.5 43.5t-36.5 104.5q0 135 137 146v51z" />
    <glyph glyph-name="commasuperior" unicode="&#xf6e2;" horiz-adv-x="185" 
d="M51 179l-8 20q59 17 61 62q-15 -3 -19 -3q-17 0 -28.5 11t-11.5 27t13.5 28.5t31.5 12.5q51 0 51 -57q0 -72 -90 -101z" />
    <glyph glyph-name="dollarsuperior" unicode="&#xf6e4;" horiz-adv-x="371" 
d="M171 719h27v-50q46 -1 73 -22t27 -54q0 -21 -13 -35t-32 -14q-36 0 -36 35q0 19 28 35q5 3 5 6q0 10 -18 17t-41 7q-76 0 -76 -61q0 -42 36 -66q12 -8 66 -30.5t75 -43.5q27 -27 27 -69q0 -48 -33 -80.5t-88 -38.5v-54h-27v54q-116 3 -116 70q0 45 43 45q37 0 37 -35
q0 -12 -13 -26q-4 -3 -4 -7q0 -22 60 -22q36 0 59.5 20t23.5 51q0 33 -30 53q-5 4 -49 22q-120 45 -120 128q0 103 109 115v50z" />
    <glyph glyph-name="hyphensuperior" unicode="&#xf6e6;" horiz-adv-x="171" 
d="M166 428v-38h-161v38h161z" />
    <glyph glyph-name="periodsuperior" unicode="&#xf6e8;" horiz-adv-x="185" 
d="M91 341q17 0 29.5 -12t12.5 -29t-12.5 -29.5t-29.5 -12.5t-29 12.5t-12 29.5t12.5 29t28.5 12z" />
    <glyph glyph-name="asuperior" unicode="&#xf6e9;" horiz-adv-x="355" 
d="M334 312l11 -14q-41 -38 -73 -38q-35 0 -49 45q-44 -47 -98 -47q-39 0 -63 23t-24 60q0 38 23.5 57.5t82.5 28.5q17 3 24 4l54 10q-1 47 -9 62q-12 25 -55 25q-12 0 -28 -6t-15 -10l1 -1q16 -16 16 -28q0 -14 -12 -25t-27 -11q-16 0 -27.5 11.5t-11.5 27.5q0 29 33 47.5
t84 18.5q60 0 86 -24.5t26 -82.5v-97q0 -50 20 -50q8 0 31 14zM223 374v42q-67 -12 -84 -18q-37 -13 -37 -50q0 -23 14.5 -37t37.5 -14q69 0 69 77z" />
    <glyph glyph-name="esuperior" unicode="&#xf6ec;" horiz-adv-x="348" 
d="M292 337l18 -16q-58 -63 -131 -63q-66 0 -106 40.5t-40 107.5t40 106.5t107 39.5q82 0 118 -55q18 -28 21 -92h-218q0 -113 95 -113q51 0 96 45zM102 431h151q-4 52 -21.5 74.5t-53.5 22.5q-69 0 -76 -97z" />
    <glyph glyph-name="isuperior" unicode="&#xf6ed;" horiz-adv-x="227" 
d="M146 552v-207q0 -36 5.5 -44.5t33.5 -11.5l18 -2v-23h-173v23l18 2q27 3 32.5 11.5t5.5 44.5v115q0 32 -4 41q-7 18 -34 20l-23 2v23zM115 678q16 0 27.5 -11.5t11.5 -27.5t-11.5 -27.5t-27.5 -11.5t-27.5 11.5t-11.5 28.5q0 15 11.5 26.5t27.5 11.5z" />
    <glyph glyph-name="lsuperior" unicode="&#xf6ee;" horiz-adv-x="217" 
d="M139 678v-333q0 -36 5.5 -44.5t32.5 -11.5l18 -2v-23h-173v23l18 2q27 3 33 12t6 44v237q0 42 -14 51q-10 7 -36 7h-17v23z" />
    <glyph glyph-name="msuperior" unicode="&#xf6ef;" horiz-adv-x="641" 
d="M143 552v-48q40 48 105 48q66 0 98 -53q35 53 107 53q113 0 113 -123v-84q0 -35 6 -44t32 -12l18 -2v-23h-172v23l18 2q26 3 32 12t6 44v76q0 97 -69 97q-60 0 -76 -49q-5 -14 -5 -48v-76q0 -35 6 -44t33 -12l18 -2v-23h-173v23l18 2q26 3 32 12t6 44v70q0 56 -12 73
q-20 28 -58 28q-35 0 -57.5 -23.5t-22.5 -58.5v-89q0 -36 5.5 -44.5t33.5 -11.5l18 -2v-23h-173v23l18 2q27 3 32.5 11.5t5.5 44.5v115q0 32 -4 41q-7 18 -34 20l-23 2v23z" />
    <glyph glyph-name="osuperior" unicode="&#xf6f0;" horiz-adv-x="381" 
d="M191 552q75 0 116.5 -38.5t41.5 -108.5t-41.5 -108.5t-115.5 -38.5q-159 0 -159 149q0 68 42 106.5t116 38.5zM191 528q-90 0 -90 -121q0 -125 90 -125t90 123t-90 123z" />
    <glyph glyph-name="rsuperior" unicode="&#xf6f1;" horiz-adv-x="299" 
d="M144 552v-52q37 54 85 54q26 0 44 -14.5t18 -34.5q0 -16 -12.5 -28.5t-28.5 -12.5q-13 0 -24.5 10t-11.5 22q0 10 11 24q2 2 3 4q0 4 -8 4q-28 0 -51 -36.5t-23 -93.5v-53q0 -35 6 -43.5t33 -12.5l22 -1v-24h-177v23l18 2q27 3 32.5 11.5t5.5 44.5v117q0 31 -5 40
q-7 16 -33 18l-23 2v23z" />
    <glyph glyph-name="ssuperior" unicode="&#xf6f2;" horiz-adv-x="298" 
d="M246 546l1 -91l-24 -1q-9 36 -21 50q-21 25 -57 25q-49 0 -49 -39q0 -32 69 -56q53 -18 68 -28q28 -18 28 -58q0 -42 -28 -66t-77 -24q-30 0 -67 10q-19 5 -22 5q-5 0 -10 -9h-16l-1 106l24 1q7 -38 23 -58q25 -31 62 -31q25 0 41 13t16 33q0 25 -24 38q-5 3 -47 17
q-49 17 -69 36t-20 49q0 84 102 84q39 0 66 -12l8 -2q4 0 8 8h16z" />
    <glyph glyph-name="tsuperior" unicode="&#xf6f3;" horiz-adv-x="244" 
d="M220 546v-26h-85v-174q0 -49 42 -49q14 0 46 11l9 -19q-52 -31 -92 -31q-65 0 -65 68v194h-69v26h69v58l42 41h18v-99h85z" />
    <glyph glyph-name="ff" unicode="&#xfb00;" horiz-adv-x="681" 
d="M40 434v33h92q-1 107 38 154q56 67 175 67q69 0 140 -32q44 34 102 34q47 0 77 -22t30 -56q0 -29 -17.5 -48t-43.5 -19q-23 0 -38 14.5t-15 37.5q0 21 17 38q5 5 6 8q0 16 -37 16q-31 0 -50 -22.5t-19 -58.5q0 -26 21 -111h125v-33h-125v-302q0 -61 10.5 -77.5
t56.5 -23.5l31 -2v-29h-276v29l24 2q45 4 56 21.5t11 79.5v302h-213v-302q0 -61 10.5 -77.5t56.5 -23.5l31 -2v-29h-276v29l24 2q45 4 56 21.5t11 79.5v302h-91zM218 467h214q-3 29 -3 51q0 64 30 110q-54 29 -104 29q-93 0 -122 -76q-15 -40 -15 -114z" />
    <glyph glyph-name="ffi" unicode="&#xfb03;" horiz-adv-x="943" 
d="M819 467v-335q0 -62 11 -79.5t56 -21.5l24 -2v-29h-269v29l24 2q45 4 56 21.5t11 79.5v190q0 51 -2.5 64t-12.5 25q-20 23 -84 23h-114v-302q0 -61 10.5 -77.5t56.5 -23.5l31 -2v-29h-276v29l24 2q45 4 56 21.5t11 79.5v302h-214v-302q0 -61 10.5 -77.5t56.5 -23.5l31 -2
v-29h-276v29l24 2q45 4 56 21.5t11 79.5v302h-91v33h92q-1 107 38 154q56 67 175 67q79 0 149 -35l8 -4q62 41 149 41q161 0 161 -90q0 -59 -57 -59q-54 0 -54 53q0 6 2 18t2 18q0 12 -18 20.5t-45 8.5q-86 0 -110 -77q-13 -42 -13 -115h300zM218 467h215q-1 107 39 155
q-63 35 -116 35q-103 0 -129 -94q-9 -32 -9 -96z" />
    <glyph glyph-name="ffl" unicode="&#xfb04;" horiz-adv-x="945" 
d="M838 683v-551q0 -63 11 -80t56 -21l24 -2v-29h-269v29l24 2q45 4 56 21.5t11 79.5v417q-57 2 -57 56q0 8 1 15v7q0 31 -61 31q-119 0 -116 -148l1 -43h124v-33h-124v-302q0 -61 10.5 -77.5t56.5 -23.5l31 -2v-29h-276v29l24 2q45 4 56 21.5t11 79.5v302h-214v-302
q0 -61 10.5 -77.5t56.5 -23.5l31 -2v-29h-276v29l24 2q45 4 56 21.5t11 79.5v302h-91v33h92q-1 107 38 154q56 67 175 67q78 0 149 -35q51 36 149 36q91 0 129 -28zM218 467h215q-1 9 -1 22q0 88 34 136q-56 32 -110 32q-103 0 -129 -94q-9 -32 -9 -96z" />
    <glyph glyph-name="glyph584" horiz-adv-x="250" 
 />
    </font>
</defs>
</svg>
