<?xml version="1.0" standalone="no"?>
<!DOCTYPE svg PUBLIC "-//W3C//DTD SVG 1.1//EN" "http://www.w3.org/Graphics/SVG/1.1/DTD/svg11.dtd" >
<svg xmlns="http://www.w3.org/2000/svg">
<metadata>
This is a custom SVG webfont generated by Font Squirrel.
Copyright   : GM
</metadata>
<defs>
<font id="webfontg6RG0aLg" horiz-adv-x="1075" >
<font-face units-per-em="2048" ascent="1638" descent="-410" />
<missing-glyph horiz-adv-x="724" />
<glyph unicode=" "  horiz-adv-x="724" />
<glyph unicode="&#x09;" horiz-adv-x="724" />
<glyph unicode="&#xa0;" horiz-adv-x="724" />
<glyph unicode="!" horiz-adv-x="397" d="M180 23l29 133q4 20 27 20q20 0 16 -20l-29 -133q-4 -23 -24 -23q-23 0 -19 23zM254 354l219 1035h43l-219 -1035h-43z" />
<glyph unicode="&#x22;" horiz-adv-x="598" d="M401 1145l43 209q6 23 27 22q23 0 16 -22l-43 -209q-6 -25 -28 -25q-21 0 -15 25zM637 1145l43 209q6 23 29 22q20 0 14 -22l-43 -209q-6 -25 -27 -25q-22 0 -16 25z" />
<glyph unicode="#" horiz-adv-x="1087" d="M266 494l17 38h182l100 224h-184l18 39h183l73 163h43l-73 -163h245l72 163h43l-72 -163h183l-17 -39h-184l-98 -224h182l-16 -38h-183l-73 -164h-43l73 164h-245l-74 -164h-43l74 164h-183zM508 532h246l98 224h-244z" />
<glyph unicode="$" horiz-adv-x="1314" d="M154 324q0 53 12 114l6 21h43l-4 -13q-12 -63 -12 -118q2 -244 282 -303l150 706q-295 74 -295 262q0 33 8 70q61 287 430 348l29 131h43l-27 -125q57 4 121 4q76 0 137 -8l27 129h43l-29 -135q291 -59 291 -305q0 -47 -10 -103h-43q6 41 6 80q0 233 -252 289l-141 -666 q158 -41 221 -81q106 -68 106 -193q0 -41 -10 -90q-31 -150 -178 -250q-125 -84 -293 -108l-27 -123h-43l25 116q-49 -6 -100 -6q-84 0 -156 13l-27 -123h-43l27 127q-319 72 -317 340zM381 1004q0 -160 258 -230l127 596q-326 -61 -379 -307q-6 -30 -6 -59zM522 18 q72 -12 158 -12q51 0 98 6l142 658l-248 51zM680 764l248 -51l141 661q-63 8 -139 8q-63 0 -119 -6zM823 18q154 23 264 99q127 90 158 227q25 121 -14 176q-57 80 -273 139z" />
<glyph unicode="%" horiz-adv-x="1536" d="M272 0l1272 1389h49l-1269 -1389h-52zM309 846q0 61 17 137q78 362 352 363q213 0 213 -222q0 -61 -17 -141q-76 -352 -352 -352q-213 0 -213 215zM356 860q-2 -193 176 -192q229 0 297 315q16 74 17 131q0 193 -178 193q-227 0 -297 -324q-15 -70 -15 -123zM924 180 q0 59 16 135q78 365 354 365q211 0 211 -219q0 -63 -16 -146q-76 -354 -350 -354q-215 0 -215 219zM969 193q0 -193 180 -193q227 0 295 315q16 76 16 136q-2 190 -176 190q-229 0 -299 -326q-14 -69 -16 -122z" />
<glyph unicode="&#x26;" horiz-adv-x="1234" d="M152 242q0 193 221 356q109 80 346 190q-207 104 -207 277q0 33 8 68q25 121 135 190q102 66 232 66q111 0 182 -43q84 -53 84 -156q0 -29 -6 -62q-39 -186 -459 -393q-221 -109 -303 -172q-188 -147 -188 -313q0 -119 114 -187q98 -57 226 -57q285 0 469 248 q104 137 135 285h43l-123 -578h-43l76 361q-33 -57 -64 -103q-219 -252 -489 -252q-145 0 -256 64q-133 76 -133 211zM555 1067q0 -164 205 -260q350 178 350 373q0 86 -74 131q-61 39 -153 39q-113 0 -201 -56q-98 -59 -121 -164q-6 -32 -6 -63z" />
<glyph unicode="'" horiz-adv-x="358" d="M401 1145l43 209q6 23 27 22q23 0 16 -22l-43 -209q-6 -25 -28 -25q-21 0 -15 25z" />
<glyph unicode="(" horiz-adv-x="477" d="M223 182q0 188 45 398q113 526 449 923h43q-334 -389 -449 -923q-45 -215 -45 -406q0 -285 101 -518h-43q-101 239 -101 526z" />
<glyph unicode=")" horiz-adv-x="477" d="M-47 -344q344 389 457 924q45 209 45 395q0 291 -109 528h43q109 -240 109 -534q0 -182 -45 -389q-113 -530 -457 -924h-43z" />
<glyph unicode="*" horiz-adv-x="696" d="M322 1024q-6 16 18 29l190 90l-153 88q-18 10 -4 29q8 8 18 8q6 0 12 -4h3l151 -88l37 178q6 23 29 22q20 0 14 -22l-37 -178l191 88q8 4 14 4q12 0 16 -8q6 -20 -16 -31l-189 -86l150 -90q18 -10 4 -29q-14 -18 -33 -6l-151 90l-39 -178q-4 -23 -25 -23q-23 0 -18 23 l39 178l-189 -90q-24 -12 -32 6z" />
<glyph unicode="+" horiz-adv-x="1146" d="M264 496l8 39h392l75 352h43l-75 -352h393l-8 -39h-394l-75 -359h-43l75 359h-391z" />
<glyph unicode="," horiz-adv-x="536" d="M168 -168q0 4 4 10l156 318q10 23 26 16q14 -2 15 -14q0 -4 -2 -12l-154 -318q-12 -23 -33 -16q-16 4 -12 16z" />
<glyph unicode="-" horiz-adv-x="716" d="M215 520l8 41h527l-9 -41h-526z" />
<glyph unicode="." horiz-adv-x="428" d="M197 18l28 134q4 23 27 22q20 0 16 -22l-28 -134q-4 -23 -25 -22q-22 -1 -18 22z" />
<glyph unicode="/" horiz-adv-x="716" d="M4 0l987 1421h43l-987 -1421h-43z" />
<glyph unicode="0" horiz-adv-x="1196" d="M188 356q0 66 17 142l74 352q49 233 210 377q170 147 404 147q186 0 292.5 -98t106.5 -279q0 -70 -16 -147l-74 -352q-51 -236 -209 -375q-164 -147 -399 -148q-186 0 -293 99q-113 100 -113 282zM231 367q0 -166 99.5 -259.5t269.5 -93.5q215 0 367 138q145 131 192 346 l74 352q16 72 16 133q0 166 -99 259t-267 93q-215 0 -369 -139q-145 -131 -192 -346l-74 -352q-17 -70 -17 -131z" />
<glyph unicode="1" horiz-adv-x="845" d="M424 1001l448 322h43l-280 -1323h-43l268 1264l-371 -263h-65z" />
<glyph unicode="2" horiz-adv-x="1196" d="M119 0q78 354 532 602l324 172q213 115 242 250q8 35 8 63q0 119 -111 177q-84 43 -215 43q-434 0 -524 -418h-43q47 219 192.5 338t370.5 119q371 0 371 -250q0 -37 -9 -78q-35 -164 -397 -350q-190 -98 -280 -150q-111 -74 -207 -168q-168 -166 -197 -311h936l-8 -39 h-985z" />
<glyph unicode="3" horiz-adv-x="1196" d="M162 311q0 53 12 115l4 20h43l-10 -49q-8 -45 -8 -86q0 -152 129 -229q109 -66 272 -66q188 0 334 80q170 94 205 264q10 47 10 89q0 244 -367 243h-94l8 39h97q397 0 458 293q6 31 7 57q0 123 -125 181q-94 45 -232 45q-459 0 -543 -394h-43q45 217 207 330 q150 102 381 103q158 0 260 -48q139 -63 140 -202q0 -35 -9 -72q-57 -270 -387 -311q283 -27 283 -262q0 -41 -10 -91q-39 -188 -217 -292q-158 -90 -363 -91q-188 0 -303 72q-139 88 -139 262z" />
<glyph unicode="4" horiz-adv-x="1196" d="M166 461l610 864h43l-583 -825h686l176 825l41 -2l-174 -823h264l-8 -39h-265l-98 -461h-43l98 461h-747z" />
<glyph unicode="5" horiz-adv-x="1196" d="M156 303q0 55 14 121h43q-12 -57 -12 -107q0 -160 123 -237q100 -63 272 -64q207 0 352 109q154 113 195 311q12 55 12 103q0 160 -123 245q-106 74 -274 74q-270 0 -441 -203h-53l170 668h879l-8 -39h-834l-147 -582q176 195 450 195q180 0 295 -82q131 -92 131 -266 q0 -51 -14 -111q-45 -217 -210 -339t-390 -122q-430 0 -430 326z" />
<glyph unicode="6" horiz-adv-x="1196" d="M203 303q0 49 10 105l4 20q6 14 6 18l101 474q43 199 204 311q152 106 361 106q166 0 268 -75q119 -86 119 -244q0 -49 -12 -105h-41q10 49 10 93q0 145 -107 225q-96 74 -247 74q-190 0 -329.5 -103.5t-178.5 -288.5l-68 -307q162 225 469 225q166 0 270 -75 q117 -86 117 -244q0 -49 -12 -104q-41 -199 -201 -312q-150 -109 -356 -108q-166 0 -271 73q-116 84 -116 242zM244 311q0 -145 106 -223q96 -70 248 -70q188 0 328.5 103.5t179.5 286.5q12 51 12 96q0 147 -106 225q-94 70 -248 70q-190 0 -328 -103q-143 -106 -182 -288 q-10 -52 -10 -97z" />
<glyph unicode="7" horiz-adv-x="1196" d="M391 0l899 1284h-882l8 39h944l-926 -1323h-43z" />
<glyph unicode="8" horiz-adv-x="1230" d="M156 281q0 43 10 92q33 160 166 254q119 86 291 100q-104 16 -174 68q-82 63 -82 159q0 27 6 54q72 338 530 338q395 0 395 -261q0 -37 -8 -77q-25 -117 -141 -195q-98 -66 -229 -86q313 -35 313 -274q0 -39 -10 -84q-43 -205 -228 -308q-156 -84 -383 -84 q-186 0 -303 60q-153 78 -153 244zM199 291q0 -152 143 -221q109 -53 279 -54q209 0 350 76q170 92 209 279q10 43 10 80q0 254 -422 254q-489 0 -561 -334q-8 -43 -8 -80zM410 961q0 -113 135 -173q102 -45 231 -45q152 0 279 58q164 74 192 209q8 39 8 73q0 223 -360 224 q-416 0 -481 -301q-4 -22 -4 -45z" />
<glyph unicode="9" horiz-adv-x="1196" d="M199 285q0 49 10 104h41q-10 -51 -10 -96q0 -145 106 -223q96 -70 248 -70q188 0 328.5 104.5t179.5 284.5l78 348q-164 -223 -471 -223q-166 0 -269 74q-119 84 -118 241q0 49 12 105q41 197 201 311q152 111 358 111q164 0 268 -76q119 -86 119 -244q0 -47 -12 -102 l-4 -21q-4 -10 -7 -16l-108 -512q-41 -197 -205 -309q-152 -106 -358 -107q-166 0 -271 74q-116 84 -116 242zM365 838q0 -145 106 -224q96 -70 248 -69q188 0 328.5 103.5t179.5 285.5q10 51 10 96q0 147 -107 225q-94 70 -245 70q-190 0 -328 -102q-143 -106 -182 -289 q-10 -51 -10 -96z" />
<glyph unicode=":" horiz-adv-x="499" d="M233 18l29 134q4 23 27 22q18 0 16 -22l-29 -134q-4 -23 -24 -22q-23 -1 -19 22zM399 797l27 133q6 23 29 22q18 0 14 -22l-27 -133q-6 -23 -26 -23q-23 0 -17 23z" />
<glyph unicode=";" horiz-adv-x="514" d="M156 -168q0 4 4 10l155 318q10 23 27 16q14 -2 14 -14q0 -4 -2 -12l-153 -318q-12 -23 -33 -16q-16 4 -12 16zM440 797l27 133q6 23 29 22q20 0 14 -22l-27 -133q-6 -23 -26 -23q-23 0 -17 23z" />
<glyph unicode="&#x3c;" horiz-adv-x="1095" d="M199 469l10 47l958 367l-10 -41l-915 -350l768 -351l-11 -41z" />
<glyph unicode="=" horiz-adv-x="1290" d="M174 342l10 39h1086l-10 -39h-1086zM229 602l11 39h1085l-10 -39h-1086z" />
<glyph unicode="&#x3e;" horiz-adv-x="1095" d="M119 100l10 41l915 351l-768 350l11 41l803 -367l-11 -47z" />
<glyph unicode="?" d="M305 1053q63 180 204.5 274t336.5 94q139 0 237 -55q121 -70 121 -201q0 -209 -280 -407q-256 -180 -293 -355l-10 -49h-46l9 37q41 199 278 367q143 102 201 164q96 106 96 239q0 119 -108 176q-86 45 -217 45q-383 0 -494 -352zM504 23l28 133q4 20 25 20q23 0 18 -20 l-28 -133q-4 -23 -27 -23q-20 0 -16 23z" />
<glyph unicode="@" horiz-adv-x="1720" d="M252 543q0 78 18 164q68 315 336 518q262 199 590 198q287 0 453 -155q135 -127 135 -318q0 -61 -15 -131q-41 -197 -206 -370q-55 -57 -131 -101q-88 -53 -152 -53q-51 0 -51 45q0 18 8 45l49 147q-193 -264 -477 -266q-197 -2 -262 135q-29 59 -29 131q0 78 31 173 q68 199 213 317q154 127 356 129q150 2 222.5 -63.5t68.5 -198.5l90 262h37l-262 -766q0 -6 -2 -12q-6 -33 31 -33q53 0 131 53q68 45 110 96q195 231 195 455q0 174 -125 295q-156 147 -418 147q-315 0 -564 -191t-315 -499q-16 -82 -16 -155q0 -201 127 -340 q168 -186 473 -187q186 0 379 84q201 86 311 226h51q-113 -150 -331 -250q-211 -96 -406 -97q-328 0 -512 199q-141 152 -141 367zM553 535q0 -117 72.5 -177.5t193.5 -60.5q174 2 326 125q143 117 205 289q31 90 30 172q0 240 -280 235q-197 -2 -350 -149 q-143 -137 -187 -338q-10 -51 -10 -96z" />
<glyph unicode="A" horiz-adv-x="1302" d="M10 0l920 1389h55l307 -1389h-47l-102 457h-783l-299 -457h-51zM387 496h748l-187 841z" />
<glyph unicode="B" horiz-adv-x="1314" d="M100 0l295 1389h662q152 0 248 -58q119 -68 118 -209q0 -39 -8 -84q-27 -125 -143 -211q-100 -76 -240 -104q297 -37 297 -260q0 -41 -10 -90q-41 -193 -219 -291q-150 -82 -365 -82h-635zM152 39h616q184 0 317 76q156 88 191 256q10 41 10 78q0 139 -129 204 q-100 51 -256 52h-608zM301 743h612q168 0 289 72q139 82 172 234q8 35 8 67q0 123 -112 184q-90 49 -226 50h-614z" />
<glyph unicode="C" horiz-adv-x="1472" d="M227 496q0 86 23 188q70 328 304 523.5t568 195.5q383 0 494 -238l-43 -24q-98 223 -459 223q-311 0 -533.5 -183.5t-285.5 -488.5q-21 -94 -21 -184q0 -179 93 -301q139 -182 440 -182q346 0 559 227l33 -25q-229 -242 -598 -241q-322 0 -471 188q-103 129 -103 322z " />
<glyph unicode="D" horiz-adv-x="1392" d="M117 0l295 1389h528q537 0 537 -478q0 -98 -25 -219q-72 -334 -306.5 -513t-578.5 -179h-450zM168 39h414q326 0 542.5 168t284.5 485q25 117 25 213q0 444 -504 445h-484z" />
<glyph unicode="E" horiz-adv-x="1155" d="M117 0l295 1389h995l-8 -39h-955l-129 -607h846l-8 -36h-846l-141 -668h964l-8 -39h-1005z" />
<glyph unicode="F" horiz-adv-x="1034" d="M117 0l295 1389h921l-8 -39h-881l-129 -607h754l-8 -36h-754l-149 -707h-41z" />
<glyph unicode="G" horiz-adv-x="1552" d="M195 496q0 90 22 194q70 328 302.5 520.5t565.5 192.5q244 0 383 -98q162 -117 160 -351h-45q-2 410 -504 410q-315 0 -534 -181.5t-285 -490.5q-23 -100 -22 -186q0 -242 165 -369q150 -113 404 -112q250 0 450 133q213 143 265 381l14 69h-596l8 39h637 q-41 -356 -325 -532q-207 -129 -461 -129q-270 0 -428 118q-176 136 -176 392z" />
<glyph unicode="H" horiz-adv-x="1392" d="M117 0l295 1389h43l-138 -646h1074l137 646h43l-295 -1389h-43l149 707h-1073l-149 -707h-43z" />
<glyph unicode="I" horiz-adv-x="274" d="M117 0l295 1389h43l-295 -1389h-43z" />
<glyph unicode="J" horiz-adv-x="995" d="M100 246q0 25 4 51h43q-4 -27 -4 -49q0 -223 312 -223q205 0 309 87t147 289l209 988h43l-213 -1000q-84 -403 -495 -403q-353 0 -355 260z" />
<glyph unicode="K" horiz-adv-x="1372" d="M117 0l295 1389h43l-176 -826l1239 826h65l-889 -592l637 -797h-57l-621 774l-385 -262l-108 -512h-43z" />
<glyph unicode="L" horiz-adv-x="1034" d="M117 0l295 1389h43l-287 -1350h876l-8 -39h-919z" />
<glyph unicode="M" horiz-adv-x="1677" d="M117 0l295 1389h69l367 -1342l938 1342h67l-294 -1389h-43l286 1348l-940 -1348h-47l-369 1348l-286 -1348h-43z" />
<glyph unicode="N" horiz-adv-x="1392" d="M117 0l295 1389h63q123 -227 384 -672t384 -672l285 1344h43l-295 -1389h-64l-766 1346l-286 -1346h-43z" />
<glyph unicode="O" horiz-adv-x="1550" d="M197 494q0 92 22 200q70 326 294 507t556 181q264 0 418 -118q166 -129 166 -377q0 -82 -23 -193q-70 -328 -297 -518t-559 -190q-264 0 -416 123q-161 131 -161 385zM242 510q0 -180 94 -303q139 -182 446 -182q311 0 529 182q211 178 276 487q20 98 21 183 q0 236 -156 356q-143 111 -391 110q-311 0 -522 -172t-277 -477q-20 -98 -20 -184z" />
<glyph unicode="P" horiz-adv-x="1271" d="M117 0l295 1389h614q406 0 406 -279q0 -49 -13 -104q-39 -190 -215 -289q-152 -84 -360 -84h-549l-135 -633h-43zM303 672h586q172 0 305 82q147 90 180 250q12 51 12 96q0 250 -356 250h-584z" />
<glyph unicode="Q" horiz-adv-x="1550" d="M197 494q0 92 22 200q70 326 294 507t556 181q262 0 416 -116q168 -129 168 -379q0 -88 -23 -193q-57 -268 -225 -448q-176 -184 -438 -240q57 -102 198 -102h189l-8 -39h-189q-168 0 -233 133q-72 -12 -150 -12q-264 0 -416 123q-161 131 -161 385zM242 512 q0 -193 108 -319q41 102 139.5 166.5t210.5 64.5q102 0 177 -59.5t77 -159.5q0 -18 -6 -54t-6 -55q0 -27 8 -55q252 51 420 227q164 170 217 426q20 98 21 185q0 236 -158 356q-141 109 -389 108q-311 0 -522 -172t-277 -477q-20 -96 -20 -182zM379 164q145 -139 403 -139 q68 0 131 10q-10 31 -10 61q0 16 6 50t6 53q0 88 -69 139q-61 49 -154 49q-104 0 -195 -62.5t-118 -160.5z" />
<glyph unicode="R" horiz-adv-x="1314" d="M117 0l295 1389h639q393 0 393 -259q0 -43 -10 -92q-63 -293 -390 -362q229 -47 230 -246q0 -43 -10 -92l-72 -338h-43l70 332q10 45 10 82q0 236 -355 235h-577l-137 -649h-43zM307 690h567q188 0 324 78q154 90 191 264q10 45 10 84q0 233 -352 234h-601z" />
<glyph unicode="S" horiz-adv-x="1314" d="M154 330q0 49 12 108l6 21h43l-4 -13q-12 -57 -12 -108q0 -313 485 -313q199 0 342 65q182 84 219 254q8 41 8 76q0 141 -190 203q-59 18 -279 69q-248 57 -325 105q-121 72 -121 198q0 33 6 68q74 340 592 340q473 0 473 -307q0 -45 -10 -97h-43q6 41 6 80 q0 170 -141 238q-100 47 -293 47q-475 0 -541 -301q-6 -33 -6 -62q0 -121 131 -186q70 -33 240 -65q352 -68 456 -144q88 -63 88 -182q0 -41 -10 -86q-39 -184 -246 -279q-162 -74 -366 -73q-520 0 -520 344z" />
<glyph unicode="T" horiz-adv-x="1116" d="M293 1350l8 39h1104l-8 -39h-531l-286 -1350h-43l286 1350h-530z" />
<glyph unicode="U" horiz-adv-x="1359" d="M207 342q0 78 20 174l185 873h43l-185 -871q-18 -84 -18 -153q0 -340 434 -340q518 0 621 485l186 879h43l-186 -877q-57 -274 -223 -400t-449 -126q-471 0 -471 356z" />
<glyph unicode="V" horiz-adv-x="1286" d="M322 1389h43l299 -1344l849 1344h43l-880 -1389h-47z" />
<glyph unicode="W" horiz-adv-x="1986" d="M328 1389h43l276 -1344l514 838l-102 506h43l276 -1344l828 1344h43l-858 -1389h-48l-169 829l-515 -829h-47z" />
<glyph unicode="X" horiz-adv-x="1236" d="M4 0l741 715l-415 674h57l393 -644l672 644h55l-702 -674l430 -715h-53l-414 682l-711 -682h-53z" />
<glyph unicode="Y" horiz-adv-x="1282" d="M295 1389h53l447 -666l731 666h51l-768 -707l-145 -682h-43l145 682z" />
<glyph unicode="Z" horiz-adv-x="1282" d="M76 0l12 53l1348 1297h-1014l8 39h1057l-10 -52l-1350 -1298h1090l-9 -39h-1132z" />
<glyph unicode="[" horiz-adv-x="477" d="M133 -344l393 1847h242l-8 -39h-199l-377 -1769h199l-8 -39h-242z" />
<glyph unicode="\" horiz-adv-x="716" d="M287 1421h43l387 -1421h-43z" />
<glyph unicode="]" horiz-adv-x="477" d="M-45 -344l8 39h197l24 98l353 1671h-197l8 39h242l-395 -1847h-240z" />
<glyph unicode="^" horiz-adv-x="610" d="M348 1047l211 276h43l105 -276h-50l-84 237l-182 -237h-43z" />
<glyph unicode="_" d="M-51 -244l20 99h1075l-20 -99h-1075z" />
<glyph unicode="`" horiz-adv-x="395" d="M350 1341q-12 18 8 31q18 14 33 -4l178 -252q10 -16 -8 -29q-16 -10 -33 5z" />
<glyph unicode="a" horiz-adv-x="1155" d="M147 350q0 70 19 148q49 231 201 374q162 152 391 152q158 0 257 -80t115 -233l66 309h43l-217 -1020h-43l61 289q-184 -311 -512 -312q-223 0 -321 152q-60 92 -60 221zM190 358q0 -160 90.5 -251t254.5 -91q203 0 358 142q147 135 192 340q16 78 17 145 q0 166 -96.5 254t-266.5 88q-203 0 -352 -145q-137 -135 -180 -342q-17 -74 -17 -140z" />
<glyph unicode="b" horiz-adv-x="1155" d="M119 0l295 1389h43l-144 -678q74 147 207 230t297 83q182 0 282.5 -96.5t100.5 -274.5q0 -74 -18 -157q-49 -233 -199 -371q-158 -145 -389 -145q-150 0 -252 82.5t-119 228.5l-61 -291h-43zM252 371q0 -127 65 -217q94 -135 297 -136q205 0 351 142q133 129 178 338 q16 80 16 147q0 160 -89 250t-253 90q-221 0 -368 -139q-135 -129 -183 -354q-14 -64 -14 -121z" />
<glyph unicode="c" d="M154 344q0 63 16 137q51 246 218 394.5t413 148.5q145 0 237 -68q102 -76 109 -215l-43 -20q-10 264 -316 264q-223 0 -375.5 -140t-199.5 -364q-14 -68 -14 -127q0 -164 98 -251t266 -87q152 0 280 77t183 214l37 -18q-66 -150 -203 -231t-303 -81q-184 0 -291 93 q-112 96 -112 274z" />
<glyph unicode="d" horiz-adv-x="1155" d="M147 350q0 70 19 148q49 231 201 374q162 152 391 152q158 0 257 -80t115 -233l144 678h43l-295 -1389h-43l61 289q-184 -311 -512 -312q-223 0 -321 152q-60 92 -60 221zM190 358q0 -160 90.5 -251t254.5 -91q203 0 358 142q147 135 192 340q16 78 17 145 q0 166 -96.5 254t-266.5 88q-203 0 -352 -145q-137 -135 -180 -342q-17 -74 -17 -140z" />
<glyph unicode="e" d="M139 334q0 76 21 164q47 229 209.5 377.5t390.5 148.5q180 0 287 -88q113 -94 112 -268q0 -59 -14 -129l-10 -45l-936 -2q-16 -84 -17 -154q0 -322 359 -322q143 0 269 68t196 190h45q-74 -147 -217 -223q-135 -74 -306 -74q-389 1 -389 357zM207 530h883q14 66 14 123 q0 158 -95.5 245t-256.5 87q-203 0 -347.5 -126t-197.5 -329z" />
<glyph unicode="f" horiz-adv-x="546" d="M209 -2l180 852h-147l8 41h147l23 100q80 373 538 373l-8 -37q-416 0 -487 -336l-23 -100h228l-9 -41h-227l-180 -852h-43z" />
<glyph unicode="g" horiz-adv-x="1116" d="M106 -111q0 29 7 60h43q-4 -25 -4 -47q0 -229 325 -230q412 0 490 365l55 260q-74 -129 -208 -205t-284 -76q-174 0 -274 95.5t-100 265.5q0 66 16 139q47 225 203.5 366.5t382.5 141.5q150 0 246 -78q100 -84 106 -229l61 282h43l-204 -964q-86 -401 -543 -402 q-150 0 -244 52q-117 65 -117 204zM199 387q0 -156 89 -244t247 -88q203 0 346 127t186 330q14 66 14 125q0 117 -55 205q-88 143 -281 143q-199 0 -344 -134t-186 -333q-16 -70 -16 -131z" />
<glyph unicode="h" d="M119 0l295 1389h43l-138 -650q59 137 187 213q119 72 272 72q139 0 228 -57q100 -68 100 -199q0 -41 -8 -86l-146 -682h-43l142 662q10 47 10 86q0 121 -86 182q-76 55 -203 55q-186 0 -318 -117.5t-173 -304.5l-119 -563h-43z" />
<glyph unicode="i" horiz-adv-x="278" d="M119 0l213 999h43l-213 -999h-43zM385 1251l29 138q12 18 22 18t21 -18l-29 -138q-16 -16 -29 -16q-12 0 -14 16z" />
<glyph unicode="j" horiz-adv-x="278" d="M-381 -367l8 37q416 0 494 367l205 962h43l-205 -964q-86 -402 -545 -402zM385 1251l29 138q12 18 22 18t21 -18l-29 -138q-16 -16 -29 -16q-12 0 -14 16z" />
<glyph unicode="k" horiz-adv-x="1089" d="M119 0l295 1389h43l-201 -943l862 555l82 -2l-610 -381l432 -618h-57l-414 592l-305 -195l-84 -397h-43z" />
<glyph unicode="l" horiz-adv-x="278" d="M119 0l295 1389h43l-295 -1389h-43z" />
<glyph unicode="m" horiz-adv-x="1673" d="M119 0l213 999h43l-56 -260q53 131 170 208t261 77q119 0 192.5 -62.5t75.5 -179.5q129 242 407 242q285 0 285 -233q0 -49 -12 -109l-146 -682h-43l142 662q12 61 12 110q0 213 -242 213q-162 0 -278.5 -96t-149.5 -256l-135 -633h-43l141 662q12 59 13 106 q0 217 -248 217q-168 0 -291 -131q-111 -117 -149 -291l-119 -563h-43z" />
<glyph unicode="n" d="M119 0l213 999h43l-56 -260q59 137 187 213q119 72 272 72q139 0 228 -57q100 -68 100 -199q0 -41 -8 -86l-146 -682h-43l142 662q10 47 10 86q0 121 -86 182q-76 55 -203 55q-186 0 -318 -117.5t-173 -304.5l-119 -563h-43z" />
<glyph unicode="o" horiz-adv-x="1116" d="M150 356q0 68 16 144q49 233 214 378.5t398 145.5q186 0 295 -99.5t109 -281.5q0 -68 -17 -143q-49 -233 -211 -375q-168 -147 -401 -148q-184 0 -293.5 99.5t-109.5 279.5zM195 369q0 -166 99 -259.5t269 -93.5q213 0 367 138q147 133 192 346q14 72 15 135 q0 168 -98.5 259t-270.5 91q-215 0 -367 -139q-147 -131 -192 -346q-14 -70 -14 -131z" />
<glyph unicode="p" horiz-adv-x="1155" d="M45 -344l287 1343h43l-62 -290q72 145 206 230t296 85q182 0 284.5 -95t102.5 -274q0 -70 -18 -151q-49 -236 -197 -377q-158 -150 -391 -150q-158 0 -258 80t-115 234l-135 -635h-43zM252 354q0 -338 360 -338q207 0 353 144q133 131 178 342q16 76 16 139 q0 160 -89 252t-251 92q-207 0 -360 -137q-145 -133 -189 -340q-18 -84 -18 -154z" />
<glyph unicode="q" horiz-adv-x="1155" d="M150 360q0 68 16 144q49 225 203 368q164 152 385 152q160 0 260 -80t114 -235l62 290h43l-287 -1343h-43l135 631q-158 -309 -514 -310q-219 0 -315 158q-59 96 -59 225zM195 365q0 -117 51 -203q86 -145 286 -146q219 0 367 136q139 129 186 350q14 70 15 131 q0 166 -98.5 259t-266.5 93q-203 0 -348 -143q-133 -133 -178 -340q-14 -74 -14 -137z" />
<glyph unicode="r" horiz-adv-x="651" d="M119 0l213 999h43l-80 -376q33 178 188 290q147 111 332 111l-8 -39q-227 0 -381 -188q-129 -156 -180 -402l-84 -395h-43z" />
<glyph unicode="s" horiz-adv-x="995" d="M145 238q0 49 13 106h47q-12 -51 -12 -94q0 -233 323 -234q135 0 236 52q119 61 145 182q4 20 4 39q0 125 -186 172q-16 4 -203 35q-231 39 -231 196q0 27 6 56q27 133 151 208q111 70 254 70q350 0 352 -235q0 -41 -10 -89h-49q8 41 8 76q0 205 -299 205 q-125 0 -223 -57q-115 -63 -137 -178q-6 -20 -6 -39q0 -123 188 -160l209 -41q225 -43 225 -201q0 -27 -6 -57q-31 -145 -166 -217q-111 -59 -274 -60q-359 1 -359 265z" />
<glyph unicode="t" horiz-adv-x="538" d="M236 903l8 39h202l68 315h43l-68 -315h207l-8 -39h-207l-192 -903h-39l188 903h-202z" />
<glyph unicode="u" d="M180 242q0 47 10 100l142 657h43l-139 -655q-10 -49 -11 -92q0 -121 86 -182q76 -53 205 -54q197 0 328 125q121 115 162 316l116 542h43l-213 -999h-43l54 254q-63 -133 -184.5 -205t-270.5 -72q-143 0 -229 60q-99 70 -99 205z" />
<glyph unicode="v" horiz-adv-x="964" d="M231 999h54l223 -966l606 966h47l-633 -999h-53z" />
<glyph unicode="w" horiz-adv-x="1579" d="M270 999h52l202 -966l396 655l-70 311h53l201 -966l586 966h47l-611 -999h-55l-139 631l-387 -631h-53z" />
<glyph unicode="x" horiz-adv-x="956" d="M8 0l555 518l-301 481h55l277 -452l477 452h51l-506 -481l332 -518h-53l-313 487l-521 -487h-53z" />
<glyph unicode="y" d="M57 -111q0 29 6 60h43q-4 -25 -4 -47q0 -229 326 -230q412 0 490 365l45 217q-63 -133 -184.5 -205t-270.5 -72q-143 0 -229 60q-98 70 -99 205q0 47 10 100l142 657h43l-139 -655q-10 -49 -11 -92q0 -121 86 -182q76 -53 205 -54q197 0 328 125q121 115 162 316l116 542 h43l-204 -964q-86 -401 -545 -402q-150 0 -242 54q-117 65 -117 202z" />
<glyph unicode="z" horiz-adv-x="968" d="M57 0l11 49l968 912h-714l8 38h760l-11 -47l-968 -913h809l-9 -39h-854z" />
<glyph unicode="{" horiz-adv-x="716" d="M297 -221q0 31 8 71l101 469q27 127 -3 175q-16 29 -102 69l8 35q102 39 131 68q49 47 76 174l100 469q41 195 201 194h23l-9 -39h-20q-82 0 -123 -73q-20 -37 -39 -134l-90 -421q-29 -129 -78 -183q-31 -33 -131 -73q84 -41 101 -72q27 -51 0 -184l-91 -420 q-20 -98 -16 -135q8 -74 90 -74h21l-9 -39h-22q-127 0 -127 123z" />
<glyph unicode="|" horiz-adv-x="477" d="M203 -66l321 1512h43l-321 -1512h-43z" />
<glyph unicode="}" horiz-adv-x="716" d="M109 -344h22q160 0 201 194l100 469q27 127 76 175q31 29 131 69l8 35q-84 39 -102 68q-29 47 -2 174l100 469q8 41 8 71q0 123 -127 123h-22l-8 -39h20q82 0 90 -73q4 -37 -14 -134l-90 -421q-29 -129 0 -183q16 -33 98 -73q-100 -41 -129 -72q-51 -51 -78 -184 l-90 -420q-20 -98 -41 -135q-41 -74 -123 -74h-20z" />
<glyph unicode="~" horiz-adv-x="1122" d="M268 717q31 88 110 150.5t167 62.5q53 0 201.5 -79t195.5 -79q68 0 121 47t78 115h65q-33 -92 -110 -154q-55 -43 -92 -53q-20 -8 -72 -8q-57 0 -207 77.5t-195 77.5q-137 0 -196 -157h-66z" />
<glyph unicode="&#xa0;" />
<glyph unicode="&#xa1;" horiz-adv-x="397" d="M135 -195l219 1035h43l-219 -1035h-43zM399 1038l29 133q4 23 27 23q20 0 16 -23l-29 -133q-4 -20 -24 -20q-23 0 -19 20z" />
<glyph unicode="&#xa2;" d="M154 348q2 61 16 133q51 246 218 394.5t413 148.5q82 0 149 -23l88 127h43l-96 -139q152 -72 162 -248l-43 -20q-8 166 -143 231l-613 -884q86 -51 215 -52q152 0 280 77t183 214l37 -18q-66 -150 -203 -231t-303 -81q-139 0 -235 54l-74 -105h-43l88 125 q-139 104 -139 297zM199 354q0 -172 118 -266l609 877q-61 20 -138 20q-223 0 -375.5 -140t-199.5 -364q-14 -68 -14 -127z" />
<glyph unicode="&#xa3;" horiz-adv-x="1196" d="M186 518l15 39h145l47 221h-102l16 39h94l7 33q49 233 210 377q170 147 404 147q223 0 330 -145l-37 -29q-98 135 -303 135q-215 0 -369 -139q-145 -131 -192 -346l-7 -33h603l-17 -39h-594l-47 -221h551l-14 -39h-545l-4 -20q-16 -70 -17 -131q0 -166 99.5 -259.5 t269.5 -93.5q205 0 361 133l26 -26q-170 -145 -393 -146q-186 0 -293 99q-113 100 -113 282q0 66 17 142l4 20h-152z" />
<glyph unicode="&#xa4;" horiz-adv-x="1196" d="M229 426l248 186q-45 55 -45 125q0 137 123 240l-168 188l33 25l170 -189q100 68 213 68q117 0 186 -68l248 189l25 -25l-250 -188q47 -57 47 -129q0 -135 -121 -238l166 -184l-33 -25l-166 185q-100 -70 -217 -70t-188 72l-246 -187zM475 743q0 -88 68 -141 q61 -49 151 -49q113 0 205 66.5t115 173.5q6 29 6 53q0 88 -70 139q-61 47 -153 47q-111 0 -203 -66.5t-115 -170.5q-4 -27 -4 -52z" />
<glyph unicode="&#xa5;" horiz-adv-x="1320" d="M262 264l8 39h435l47 221h-435l9 39h434l26 119l-471 707h54l446 -666l731 666h51l-768 -707l-26 -119h434l-8 -39h-434l-47 -221h434l-8 -39h-435l-55 -264h-43l55 264h-434z" />
<glyph unicode="&#xa6;" horiz-adv-x="477" d="M207 -47l137 647h43l-137 -647h-43zM383 778l137 647h43l-137 -647h-43z" />
<glyph unicode="&#xa7;" horiz-adv-x="1196" d="M217 12q0 39 10 84h43q-8 -41 -8 -73q0 -205 301 -205q131 0 228 55q111 63 137 182q4 25 4 45q0 115 -150 148l-301 65q-70 23 -118 77t-48 124q0 29 11 59q61 209 325 246q-201 49 -198 193q0 20 6 45q27 131 151 207q111 70 252 69q350 0 350 -233q0 -41 -10 -86h-43 q8 39 8 73q2 207 -301 207q-127 0 -227 -57q-113 -63 -137 -180q-6 -20 -6 -41q0 -86 96 -129q43 -18 254 -64q104 -10 164 -47q109 -53 108 -162q0 -27 -6 -55q-49 -227 -334 -268q197 -49 197 -187q0 -23 -4 -49q-29 -131 -152 -207q-113 -70 -254 -69q-348 0 -348 233z M369 532q0 -106 110 -163q88 -45 207 -45q137 0 238 51q119 61 145 184q-2 229 -326 229q-270 0 -360 -172q-14 -45 -14 -84z" />
<glyph unicode="&#xa8;" horiz-adv-x="438" d="M324 1145l24 112q4 20 27 21q20 0 16 -21l-24 -112q-6 -25 -27 -25q-22 0 -16 25zM561 1145l25 112q4 20 24 21q23 0 19 -21l-25 -112q-6 -25 -29 -25q-20 0 -14 25z" />
<glyph unicode="&#xa9;" horiz-adv-x="1146" d="M274 827q0 47 11 101q43 195 213 321.5t374 126.5q168 0 285 -90q127 -98 127 -260q0 -47 -12 -96q-41 -197 -211 -322t-375 -125q-172 0 -285 86q-127 94 -127 258zM324 842q0 -145 112 -236q104 -82 254 -82q186 0 342 113t193 291q10 45 10 88q0 145 -113 235 q-104 82 -256 82q-186 0 -338 -110q-158 -115 -196 -293q-8 -45 -8 -88zM489 852q0 33 9 72q27 127 122 199.5t226 72.5q221 0 211 -195h-49q2 152 -172 152q-109 0 -189 -62.5t-102 -166.5q-6 -33 -6 -62q0 -86 61 -133q55 -45 145 -45q147 0 230 160h51 q-102 -203 -289 -203q-109 0 -174 51q-74 56 -74 160z" />
<glyph unicode="&#xaa;" horiz-adv-x="774" d="M295 934q0 41 10 90q31 143 128 233.5t241 90.5q178 0 221 -144l31 142h47l-135 -631h-47l28 133q-109 -147 -287 -148q-111 0 -174 62.5t-63 171.5zM344 940q0 -197 197 -197q119 0 207 84q84 78 108 197q10 45 10 84q0 197 -207 197q-119 0 -199.5 -80t-107.5 -201 q-8 -45 -8 -84z" />
<glyph unicode="&#xab;" horiz-adv-x="800" d="M260 541l8 39l353 223l-9 -45l-305 -197l221 -199l-8 -38zM498 541l8 39l352 223l-8 -45l-305 -197l221 -199l-8 -38z" />
<glyph unicode="&#xac;" horiz-adv-x="1232" d="M223 580l8 38h1006l-74 -344h-43l66 306h-963z" />
<glyph unicode="&#xad;" horiz-adv-x="1212" d="M203 473l8 39h977l-8 -39h-977z" />
<glyph unicode="&#x2212;" horiz-adv-x="1212" d="M203 473l8 39h977l-8 -39h-977z" />
<glyph unicode="&#xae;" horiz-adv-x="1112" d="M254 829q0 47 10 99q43 195 213 321.5t375 126.5q168 0 283 -88q127 -98 127 -262q0 -45 -13 -96q-41 -201 -213 -326q-164 -121 -372 -121q-170 0 -285 88q-125 94 -125 258zM301 838q0 -147 113 -234q102 -80 256 -80q188 0 338 111q158 115 194 293q10 49 10 92 q0 147 -112 233q-102 80 -256 80q-186 0 -336 -110q-158 -115 -197 -293q-10 -49 -10 -92zM520 659l113 529h233q147 0 148 -103q0 -18 -4 -38q-20 -94 -103 -132q47 -25 47 -81q0 -16 -4 -37l-30 -138h-50l29 136q4 14 4 26q0 72 -104 72h-181l-51 -234h-47zM627 938h176 q135 0 158 106q4 14 4 27q0 72 -107 72h-186z" />
<glyph unicode="&#xaf;" horiz-adv-x="641" d="M332 1223l8 39h500l-9 -39h-499z" />
<glyph unicode="&#x2c9;" horiz-adv-x="641" d="M332 1223l8 39h500l-9 -39h-499z" />
<glyph unicode="&#xb0;" horiz-adv-x="860" d="M342 1006q0 29 8 59q25 119 131.5 197.5t231.5 78.5q104 0 176 -55q80 -59 80 -162q0 -27 -6 -57q-27 -121 -133.5 -200t-231.5 -79q-102 0 -176 58q-80 62 -80 160zM385 1016q0 -88 68 -142q61 -49 153 -49q111 0 203 66.5t115 173.5q6 29 6 55q0 86 -70 137 q-61 47 -153 48q-109 0 -201 -67t-115 -171q-6 -26 -6 -51z" />
<glyph unicode="&#xb1;" horiz-adv-x="1290" d="M231 -6l11 41h827l-10 -41h-828zM336 496l8 39h391l76 352h43l-76 -352h393l-8 -39h-393l-76 -359h-43l76 359h-391z" />
<glyph unicode="&#xb2;" horiz-adv-x="802" d="M184 524q49 229 367 391l192 99q147 76 148 176q-2 123 -207 123q-268 0 -322 -252h-49q63 295 373 295q250 0 252 -156q0 -25 -6 -53q-20 -94 -176 -174l-201 -103q-266 -137 -309 -305h604l-10 -41h-656z" />
<glyph unicode="&#xb3;" horiz-adv-x="872" d="M254 729q0 31 6 66l6 22h51l-8 -41q-6 -25 -6 -45q0 -90 86 -135q70 -37 168 -37q117 0 205 43q109 51 129 154q6 25 6 47q0 143 -231 143h-74l10 43h76q248 0 283 164q2 14 2 29q0 72 -82 106q-61 25 -146 25q-287 0 -336 -238h-49q59 281 393 281q102 0 172 -31 q98 -41 99 -131q0 -18 -4 -41q-33 -147 -203 -186q139 -35 139 -156q0 -27 -6 -55q-25 -121 -145 -185q-102 -55 -238 -55q-127 0 -205 43q-98 55 -98 170z" />
<glyph unicode="&#xb4;" horiz-adv-x="434" d="M317 1087q-16 12 5 29l284 252q20 18 35 4q14 -12 -6 -31l-285 -249q-19 -17 -33 -5z" />
<glyph unicode="&#xb5;" d="M45 -350l287 1349h43l-117 -542q-14 -74 -14 -138q0 -303 319 -303q164 0 274.5 85t145.5 243l139 655h43l-141 -657q-47 -223 -231 -313q-59 -29 -60 -90q0 -80 146 -80l-9 -45q-68 0 -122 26q-72 33 -72 92q0 29 16 60q-63 -14 -137 -15q-145 0 -233 66 q-98 72 -107 211l-127 -604h-43z" />
<glyph unicode="&#xb6;" horiz-adv-x="1015" d="M317 854q0 47 13 98q41 195 217 320q168 119 373 119q6 0 12 -2h252l-353 -1661h-43l345 1622h-177l-344 -1622h-43l168 788q-207 -12 -325 109q-95 94 -95 229z" />
<glyph unicode="&#xb7;" horiz-adv-x="428" d="M348 598l29 131q4 23 26 23q20 0 17 -23l-29 -131q-4 -25 -24 -25q-23 0 -19 25z" />
<glyph unicode="&#x2219;" horiz-adv-x="428" d="M348 598l29 131q4 23 26 23q20 0 17 -23l-29 -131q-4 -25 -24 -25q-23 0 -19 25z" />
<glyph unicode="&#xb8;" horiz-adv-x="530" d="M-2 -324l27 37q86 -31 153 -30q166 0 189 104q14 72 -107 82q-61 6 -80 -2l2 10l45 141h43l-28 -112q8 2 32 2q145 0 146 -96q0 -14 -4 -33q-29 -135 -240 -135q-76 -1 -178 32z" />
<glyph unicode="&#xb9;" horiz-adv-x="587" d="M307 1126l361 211h45l-172 -805h-54l158 740l-256 -146h-82z" />
<glyph unicode="&#xba;" horiz-adv-x="845" d="M303 952q2 37 10 78q31 145 140.5 229t257.5 84q119 0 192 -57q78 -63 78 -178q0 -35 -8 -78q-31 -145 -141.5 -229t-260.5 -84q-117 0 -192.5 60t-75.5 175zM344 956q0 -100 70 -155q63 -51 168 -51q131 0 228 75.5t124 204.5q8 39 8 72q0 102 -72 158q-63 51 -170 51 q-129 0 -225 -77t-123 -204q-8 -39 -8 -74z" />
<glyph unicode="&#xbb;" horiz-adv-x="780" d="M215 324l350 217l8 39l-258 223l-8 -45l219 -197l-303 -199zM453 324l350 217l8 39l-258 223l-8 -45l219 -197l-303 -199z" />
<glyph unicode="&#xbc;" horiz-adv-x="1671" d="M367 1133l340 200h41l-168 -794h-43l157 743l-262 -149h-65zM412 0l985 1421h43l-985 -1421h-43zM840 281l426 534h43l-398 -502h475l107 502l39 -2l-105 -500h189l-8 -32h-189l-59 -281h-41l59 281h-538z" />
<glyph unicode="&#xbd;" horiz-adv-x="1644" d="M344 1133l340 200h41l-168 -794h-43l158 743l-260 -149h-68zM389 0l987 1421h43l-987 -1421h-43zM897 0q51 225 344 373l205 104q137 82 151 146q4 23 5 41q0 127 -209 127q-270 0 -326 -254h-39q61 287 363 286q248 0 247 -153q0 -25 -6 -52q-18 -90 -159 -161 l-207 -109q-279 -150 -320 -315h602l-6 -33h-645z" />
<glyph unicode="&#xbe;" horiz-adv-x="1855" d="M281 723q0 33 8 72l4 18h39l-6 -37q-6 -25 -7 -45q0 -92 91 -139q70 -37 172 -37q117 0 209 45q111 53 131 156q6 27 6 49q0 147 -238 147h-67l6 33h69q254 0 291 168q2 16 2 33q0 133 -231 133q-289 0 -342 -238h-39q61 270 385 271q268 0 268 -158q0 -20 -4 -41 q-31 -143 -219 -186q158 -39 158 -162q0 -23 -6 -49q-25 -117 -146 -181q-102 -53 -235 -53q-299 0 -299 201zM598 0l987 1421h43l-987 -1421h-43zM1026 281l428 534h43l-399 -502h475l106 502l39 -2l-104 -500h188l-8 -32h-188l-60 -281h-41l60 281h-539z" />
<glyph unicode="&#xbf;" d="M102 61q0 213 283 410q254 178 293 354l10 49h45l-8 -38q-43 -197 -281 -367q-145 -102 -200 -164q-98 -106 -99 -237q0 -119 111 -177q86 -47 217 -47q383 0 494 355l32 -25q-61 -178 -202.5 -273.5t-333.5 -95.5q-143 0 -242 56q-119 67 -119 200zM731 1071l29 133 q4 23 24 23q23 0 19 -23l-29 -133q-4 -20 -26 -20q-21 0 -17 20z" />
<glyph unicode="&#xc0;" horiz-adv-x="1384" d="M51 0l920 1389h55l307 -1389h-47l-102 457h-783l-299 -457h-51zM428 496h748l-187 841zM930 1724q-12 16 8 29q16 14 31 -4l178 -252q12 -16 -8 -29q-18 -10 -31 5z" />
<glyph unicode="&#xc1;" horiz-adv-x="1384" d="M51 0l920 1389h55l307 -1389h-47l-102 457h-783l-299 -457h-51zM428 496h748l-187 841zM879 1473q-14 12 4 28l286 252q20 18 33 4q12 -12 -6 -28l-285 -252q-18 -16 -32 -4z" />
<glyph unicode="&#xc2;" horiz-adv-x="1384" d="M51 0l920 1389h55l307 -1389h-47l-102 457h-783l-299 -457h-51zM428 496h748l-187 841zM784 1458l258 277h43l144 -277h-49l-125 238l-228 -238h-43z" />
<glyph unicode="&#xc3;" horiz-adv-x="1384" d="M51 0l920 1389h55l307 -1389h-47l-102 457h-783l-299 -457h-51zM428 496h748l-187 841zM754 1511q10 51 63 90t107 39q29 0 126 -56t126 -56q41 0 78.5 35.5t48.5 78.5l30 -20q-14 -53 -63 -93t-103 -40q-33 0 -131 56.5t-125 56.5q-41 0 -77.5 -36t-49.5 -79z" />
<glyph unicode="&#xc4;" horiz-adv-x="1384" d="M51 0l920 1389h55l307 -1389h-47l-102 457h-783l-299 -457h-51zM428 496h748l-187 841zM877 1501l22 113q6 23 29 22q20 0 14 -22l-22 -113q-6 -23 -27 -22q-22 -1 -16 22zM1114 1501l23 113q6 23 26 22q23 0 17 -22l-23 -113q-6 -23 -29 -22q-20 -1 -14 22z" />
<glyph unicode="&#xc5;" horiz-adv-x="1384" d="M51 0l920 1389h55l307 -1389h-47l-102 457h-783l-299 -457h-51zM428 496h748l-187 841zM879 1606q0 86 73 141q57 41 123 41q55 0 93 -31t38 -84q0 -86 -73 -141q-53 -43 -121 -43q-55 0 -94 32t-39 85zM928 1614q0 -82 92 -82q55 0 97 38t42 93q0 82 -94 82 q-55 0 -96 -39t-41 -92z" />
<glyph unicode="&#xc6;" horiz-adv-x="2205" d="M-27 0l1518 1389h905l-8 -39h-848l-129 -605h94v-2h645l-8 -36h-739l-139 -668h856l-9 -39h-903l150 707h-563l-770 -707h-52zM838 745h528l131 598zM1411 745z" />
<glyph unicode="&#xc7;" horiz-adv-x="1472" d="M227 496q0 86 23 188q70 328 304 523.5t568 195.5q383 0 494 -238l-43 -24q-98 223 -459 223q-311 0 -533.5 -183.5t-285.5 -488.5q-20 -94 -21 -176q-2 -184 93 -309q139 -182 440 -182q346 0 559 227l33 -25q-229 -242 -598 -241q-322 0 -471 188q-103 129 -103 322z M510 -324l29 37q86 -31 153 -30q164 0 187 104q14 72 -105 82q-61 6 -80 -2l2 10l45 141h43l-28 -112q8 2 32 2q145 0 146 -96q0 -14 -4 -33q-29 -135 -240 -135q-76 -1 -180 32z" />
<glyph unicode="&#xc8;" horiz-adv-x="1155" d="M117 0l295 1389h995l-8 -39h-955l-129 -607h846l-8 -36h-846l-141 -668h964l-8 -39h-1005zM807 1704q-12 18 8 29q18 14 31 -2l178 -252q12 -16 -8 -29q-18 -12 -31 4z" />
<glyph unicode="&#xc9;" horiz-adv-x="1155" d="M117 0l295 1389h995l-8 -39h-955l-129 -607h846l-8 -36h-846l-141 -668h964l-8 -39h-1005zM754 1450q-14 12 4 29l289 252q18 16 32 2q12 -12 -6 -29l-285 -250q-18 -16 -34 -4z" />
<glyph unicode="&#xca;" horiz-adv-x="1155" d="M117 0l295 1389h995l-8 -39h-955l-129 -607h846l-8 -36h-846l-141 -668h964l-8 -39h-1005zM668 1479l258 276h43l145 -276h-51l-125 237l-227 -237h-43z" />
<glyph unicode="&#xcb;" horiz-adv-x="1155" d="M117 0l295 1389h995l-8 -39h-955l-129 -607h846l-8 -36h-846l-141 -668h964l-8 -39h-1005zM762 1518l22 112q6 23 27 23q23 0 16 -23l-22 -112q-6 -23 -29 -23q-20 0 -14 23zM997 1518l23 112q6 23 29 23q20 0 14 -23l-23 -112q-6 -23 -26 -23q-23 0 -17 23z" />
<glyph unicode="&#xcc;" horiz-adv-x="274" d="M117 0l295 1389h43l-295 -1389h-43zM373 1735q-12 18 8 30q20 14 33 -4l178 -252q10 -16 -8 -28q-20 -12 -33 4z" />
<glyph unicode="&#xcd;" horiz-adv-x="274" d="M117 0l295 1389h43l-295 -1389h-43zM319 1473q-16 12 5 28l284 252q20 18 35 4q14 -12 -6 -28l-285 -252q-19 -16 -33 -4z" />
<glyph unicode="&#xce;" horiz-adv-x="274" d="M117 0l295 1389h43l-295 -1389h-43zM227 1470l256 277h43l148 -277h-49l-127 238l-228 -238h-43z" />
<glyph unicode="&#xcf;" horiz-adv-x="274" d="M117 0l295 1389h43l-295 -1389h-43zM322 1534l24 113q4 20 29 20q18 0 16 -20l-24 -113q-4 -25 -25 -25q-24 0 -20 25zM561 1534l25 113q4 20 24 20t19 -20l-25 -113q-4 -25 -26 -25q-21 0 -17 25z" />
<glyph unicode="&#xd0;" horiz-adv-x="1392" d="M117 0l143 676h-76l9 41h75l144 672h528q537 0 537 -478q0 -98 -25 -219q-72 -334 -306.5 -513t-578.5 -179h-450zM168 39h414q326 0 542.5 168t284.5 485q25 117 25 213q0 444 -504 445h-484l-135 -633h406l-8 -41h-406z" />
<glyph unicode="&#xd1;" horiz-adv-x="1392" d="M117 0l295 1389h63q123 -227 384 -672t384 -672l285 1344h43l-295 -1389h-64l-766 1346l-286 -1346h-43zM737 1499q10 49 63.5 89t104.5 40q31 0 128 -56t124 -56q43 0 81 35.5t48 78.5l31 -18q-14 -53 -63.5 -94t-104.5 -41q-33 0 -130 56t-124 56q-41 0 -79 -35.5 t-48 -78.5z" />
<glyph unicode="&#xd2;" horiz-adv-x="1550" d="M197 494q0 92 22 200q70 326 294 507t556 181q264 0 418 -118q168 -131 166 -383q-2 -86 -23 -187q-70 -328 -297 -518t-559 -190q-264 0 -416 123q-161 131 -161 385zM242 510q0 -180 94 -303q139 -182 446 -182q311 0 529 182q211 178 276 487q20 98 21 183 q0 236 -156 356q-143 111 -391 110q-311 0 -522 -172t-277 -477q-20 -98 -20 -184zM1012 1731q-10 18 8 30q18 14 31 -4l178 -252q12 -16 -8 -28q-18 -10 -29 4z" />
<glyph unicode="&#xd3;" horiz-adv-x="1550" d="M197 494q0 92 22 200q70 326 294 507t556 181q264 0 418 -118q168 -131 166 -383q-2 -86 -23 -187q-70 -328 -297 -518t-559 -190q-264 0 -416 123q-161 131 -161 385zM242 510q0 -180 94 -303q139 -182 446 -182q311 0 529 182q211 178 276 487q20 98 21 183 q0 236 -156 356q-143 111 -391 110q-311 0 -522 -172t-277 -477q-20 -98 -20 -184zM956 1489q-6 12 9 24l284 252q18 16 37 4q14 -12 -8 -30l-285 -250q-12 -8 -20 -8q-15 0 -17 8z" />
<glyph unicode="&#xd4;" horiz-adv-x="1550" d="M197 494q0 92 22 200q70 326 294 507t556 181q264 0 418 -118q168 -131 166 -383q-2 -86 -23 -187q-70 -328 -297 -518t-559 -190q-264 0 -416 123q-161 131 -161 385zM242 510q0 -180 94 -303q139 -182 446 -182q311 0 529 182q211 178 276 487q20 98 21 183 q0 236 -156 356q-143 111 -391 110q-311 0 -522 -172t-277 -477q-20 -98 -20 -184zM870 1495l256 274h43l146 -274h-49l-125 236l-228 -236h-43z" />
<glyph unicode="&#xd5;" horiz-adv-x="1550" d="M197 494q0 92 22 200q70 326 294 507t556 181q264 0 418 -118q168 -131 166 -383q-2 -86 -23 -187q-70 -328 -297 -518t-559 -190q-264 0 -416 123q-161 131 -161 385zM242 510q0 -180 94 -303q139 -182 446 -182q311 0 529 182q211 178 276 487q20 98 21 183 q0 236 -156 356q-143 111 -391 110q-311 0 -522 -172t-277 -477q-20 -98 -20 -184zM829 1542q10 49 64.5 89t103.5 40q33 0 130.5 -56t121.5 -56q43 0 81 35.5t50 78.5l31 -20q-18 -53 -67.5 -93t-102.5 -40q-31 0 -129 56t-125 56q-43 0 -79 -34.5t-48 -79.5z" />
<glyph unicode="&#xd6;" horiz-adv-x="1550" d="M197 494q0 92 22 200q70 326 294 507t556 181q264 0 418 -118q168 -131 166 -383q-2 -86 -23 -187q-70 -328 -297 -518t-559 -190q-264 0 -416 123q-161 131 -161 385zM242 510q0 -180 94 -303q139 -182 446 -182q311 0 529 182q211 178 276 487q20 98 21 183 q0 236 -156 356q-143 111 -391 110q-311 0 -522 -172t-277 -477q-20 -98 -20 -184zM963 1534l24 113q4 20 25 20q20 0 18 -20l-24 -113q-4 -25 -27 -25q-20 0 -16 25zM1198 1534l25 113q4 20 26 20q18 0 17 -20l-25 -113q-4 -25 -24 -25q-23 0 -19 25z" />
<glyph unicode="&#xd7;" horiz-adv-x="1003" d="M250 264l332 252l-224 248l37 29l221 -250l330 250l25 -29l-328 -248l223 -256l-37 -27l-225 252l-330 -247z" />
<glyph unicode="&#xd8;" horiz-adv-x="1550" d="M199 506q0 88 20 188q70 326 294 507t556 181q164 0 285 -43l71 103h43l-79 -117q262 -127 262 -444q0 -86 -21 -187q-70 -328 -297 -518t-559 -190q-166 0 -287 49l-65 -94h-43l76 110q-256 123 -256 455zM242 518q0 -137 59 -250q63 -123 180 -178l846 1213 q-113 41 -266 40q-311 0 -522 -172t-277 -477q-20 -92 -20 -176zM516 74q111 -49 266 -49q311 0 529 182q211 178 276 487q20 96 21 180q0 301 -248 414z" />
<glyph unicode="&#xd9;" horiz-adv-x="1359" d="M207 342q0 78 20 174l185 873h43l-185 -871q-18 -84 -18 -153q0 -340 434 -340q518 0 621 485l186 879h43l-186 -877q-57 -274 -223 -400t-449 -126q-471 0 -471 356zM911 1716q-12 16 9 29q18 14 32 -4l178 -250q12 -16 -8 -31q-16 -10 -32 4z" />
<glyph unicode="&#xda;" horiz-adv-x="1359" d="M207 342q0 78 20 174l185 873h43l-185 -871q-18 -84 -18 -153q0 -340 434 -340q518 0 621 485l186 879h43l-186 -877q-57 -274 -223 -400t-449 -126q-471 0 -471 356zM860 1464q-16 12 4 31l285 250q20 18 37 4q12 -12 -6 -29l-287 -252q-19 -14 -33 -4z" />
<glyph unicode="&#xdb;" horiz-adv-x="1359" d="M207 342q0 78 20 174l185 873h43l-185 -871q-18 -84 -18 -153q0 -340 434 -340q518 0 621 485l186 879h43l-186 -877q-57 -274 -223 -400t-449 -126q-471 0 -471 356zM770 1475l258 276h43l146 -276h-50l-127 237l-227 -237h-43z" />
<glyph unicode="&#xdc;" horiz-adv-x="1359" d="M207 342q0 78 20 174l185 873h43l-185 -871q-18 -84 -18 -153q0 -340 434 -340q518 0 621 485l186 879h43l-186 -877q-57 -274 -223 -400t-449 -126q-471 0 -471 356zM866 1534l25 113q4 20 24 20q23 0 19 -20l-25 -113q-4 -25 -26 -25q-21 0 -17 25zM1102 1534l24 113 q4 20 27 20q20 0 16 -20l-24 -113q-4 -25 -25 -25q-22 0 -18 25z" />
<glyph unicode="&#xdd;" horiz-adv-x="1345" d="M328 1389h53l446 -666l732 666h51l-768 -707l-146 -682h-43l146 682zM856 1473q-14 12 4 28l287 252q20 18 35 4q12 -12 -6 -28l-287 -252q-19 -16 -33 -4z" />
<glyph unicode="&#xde;" horiz-adv-x="870" d="M119 0l295 1389h43l-68 -316h322q215 0 215 -221q0 -61 -17 -141q-76 -352 -352 -353h-319l-76 -358h-43zM246 393l321 2q229 2 297 316q16 76 15 135q0 188 -179 188h-319z" />
<glyph unicode="&#xdf;" horiz-adv-x="1034" d="M119 0l178 836h-72l8 41h72q23 106 55 235q80 301 426 301q356 0 357 -211q0 -33 -10 -74q-35 -141 -136 -206q-84 -53 -243 -70q162 -2 256 -143q61 -96 61 -209q0 -45 -10 -92q-49 -236 -227 -357q-162 -113 -412 -112l8 38q498 0 588 431q12 53 12 100q0 164 -131 252 q-115 76 -287 76l9 38q193 0 284 35q150 55 182 209q8 39 9 74q0 117 -111 158q-68 25 -211 24q-319 0 -387 -315l-225 -1059h-43z" />
<glyph unicode="&#xe0;" horiz-adv-x="1130" d="M147 350q0 70 19 148q49 231 201 374q162 152 391 152q158 0 257 -80t115 -233l66 309h43l-217 -1020h-43l61 289q-184 -311 -512 -312q-223 0 -321 152q-60 92 -60 221zM190 358q0 -160 90.5 -251t254.5 -91q203 0 358 142q147 135 192 340q16 78 17 145 q0 166 -96.5 254t-266.5 88q-203 0 -352 -145q-137 -135 -180 -342q-17 -74 -17 -140zM670 1341q-12 18 8 31q18 14 33 -4l178 -252q12 -16 -8 -29q-18 -10 -33 5z" />
<glyph unicode="&#xe1;" horiz-adv-x="1130" d="M172 350q0 70 18 148q49 231 201 374q162 152 391 152q158 0 257.5 -80t115.5 -233l66 309h43l-217 -1020h-43l61 289q-184 -311 -512 -312q-223 0 -322 152q-59 92 -59 221zM215 358q0 -160 90 -251t254 -91q203 0 359 142q147 135 192 340q16 78 16 145q0 166 -96 254 t-266 88q-203 0 -352 -145q-137 -135 -181 -342q-16 -74 -16 -140zM637 1092q-4 12 10 24l285 252q20 18 35 4q12 -12 -6 -31l-287 -249q-12 -8 -21 -9q-12 1 -16 9z" />
<glyph unicode="&#xe2;" horiz-adv-x="1130" d="M172 350q0 70 18 148q49 231 201 374q162 152 391 152q158 0 257.5 -80t115.5 -233l66 309h43l-217 -1020h-43l61 289q-184 -311 -512 -312q-223 0 -322 152q-59 92 -59 221zM215 358q0 -160 90 -251t254 -91q203 0 359 142q147 135 192 340q16 78 16 145q0 166 -96 254 t-266 88q-203 0 -352 -145q-137 -135 -181 -342q-16 -74 -16 -140zM555 1106l254 274h43l147 -274h-49l-127 235l-225 -235h-43z" />
<glyph unicode="&#xe3;" horiz-adv-x="1130" d="M172 350q0 70 18 148q49 231 201 374q162 152 391 152q158 0 257.5 -80t115.5 -233l66 309h43l-217 -1020h-43l61 289q-184 -311 -512 -312q-223 0 -322 152q-59 92 -59 221zM215 358q0 -160 90 -251t254 -91q203 0 359 142q147 135 192 340q16 78 16 145q0 166 -96 254 t-266 88q-203 0 -352 -145q-137 -135 -181 -342q-16 -74 -16 -140zM512 1153q10 49 63.5 89t104.5 40q31 0 128 -56.5t122 -56.5q43 0 82 36t49 79l31 -20q-16 -53 -65.5 -93.5t-104.5 -40.5q-33 0 -130.5 56.5t-121.5 56.5q-43 0 -79 -34.5t-50 -80.5z" />
<glyph unicode="&#xe4;" horiz-adv-x="1130" d="M172 350q0 70 18 148q49 231 201 374q162 152 391 152q158 0 257.5 -80t115.5 -233l66 309h43l-217 -1020h-43l61 289q-184 -311 -512 -312q-223 0 -322 152q-59 92 -59 221zM215 358q0 -160 90 -251t254 -91q203 0 359 142q147 135 192 340q16 78 16 145q0 166 -96 254 t-266 88q-203 0 -352 -145q-137 -135 -181 -342q-16 -74 -16 -140zM672 1145l24 112q4 20 25 21q23 0 18 -21l-24 -112q-6 -25 -29 -25q-20 0 -14 25zM907 1145l25 112q4 20 26 21q20 0 17 -21l-25 -112q-6 -25 -26 -25q-23 0 -17 25z" />
<glyph unicode="&#xe5;" horiz-adv-x="1130" d="M172 350q0 70 18 148q49 231 201 374q162 152 391 152q158 0 257.5 -80t115.5 -233l66 309h43l-217 -1020h-43l61 289q-184 -311 -512 -312q-223 0 -322 152q-59 92 -59 221zM215 358q0 -160 90 -251t254 -91q203 0 359 142q147 135 192 340q16 78 16 145q0 166 -96 254 t-266 88q-203 0 -352 -145q-137 -135 -181 -342q-16 -74 -16 -140zM659 1251q0 86 74 142q57 41 125 41q53 0 91 -31t38 -84q0 -86 -72 -141q-55 -43 -120 -43q-55 0 -95.5 30.5t-40.5 85.5zM709 1260q0 -82 94 -82q55 0 97 38.5t42 92.5q0 82 -94 82q-55 0 -97 -38t-42 -93 z" />
<glyph unicode="&#xe6;" horiz-adv-x="2015" d="M147 350q0 70 19 148q49 231 201 374q162 152 391 152q158 0 257 -80t115 -233l66 309h43l-63 -293q49 80 127 147q170 150 380 150q180 0 287 -88q113 -94 113 -268q0 -59 -15 -129l-10 -45l-932 -2l-10 -52q-16 -70 -14 -127q0 -297 364 -297q143 0 269.5 68t195.5 190 h45q-74 -143 -219 -221q-137 -76 -303 -76q-330 0 -379 269l-53 -246h-43l61 289q-184 -311 -512 -312q-223 0 -321 152q-60 92 -60 221zM190 358q0 -160 90.5 -251t254.5 -91q203 0 358 142q147 135 192 340q16 78 17 145q0 166 -96.5 254t-266.5 88q-203 0 -352 -145 q-137 -135 -180 -342q-17 -74 -17 -140zM1135 530h878q14 66 15 123q0 158 -95.5 245t-257.5 87q-186 0 -340.5 -120t-193.5 -302z" />
<glyph unicode="&#xe7;" d="M154 344q0 63 16 137q51 246 218 394.5t413 148.5q145 0 237 -68q102 -76 109 -215l-43 -20q-10 264 -316 264q-223 0 -375.5 -140t-199.5 -364q-14 -68 -14 -127q0 -164 98 -251t266 -87q152 0 280 77t183 214l37 -18q-66 -150 -203 -231t-303 -81q-184 0 -291 93 q-112 96 -112 274zM317 -324l27 37q88 -31 154 -30q166 0 188 104q14 72 -106 82q-61 6 -80 -2l2 10l47 141h43l-29 -112q8 2 31 2q145 0 145 -96q0 -14 -4 -33q-29 -135 -239 -135q-75 -1 -179 32z" />
<glyph unicode="&#xe8;" d="M139 334q0 76 21 164q47 229 209.5 377.5t390.5 148.5q180 0 287 -88q113 -94 112 -268q0 -59 -14 -129l-10 -45l-936 -2q-16 -84 -17 -154q0 -322 359 -322q143 0 269 68t196 190h45q-74 -147 -217 -223q-135 -74 -306 -74q-389 1 -389 357zM207 530h883q14 66 14 123 q0 158 -95.5 245t-256.5 87q-203 0 -347.5 -126t-197.5 -329zM688 1341q-10 18 8 31q20 14 33 -4l180 -252q12 -16 -8 -29q-18 -10 -33 5z" />
<glyph unicode="&#xe9;" d="M139 334q0 76 21 164q47 229 209.5 377.5t390.5 148.5q180 0 287 -88q113 -94 112 -268q0 -59 -14 -129l-10 -45l-936 -2q-16 -84 -17 -154q0 -322 359 -322q143 0 269 68t196 190h45q-74 -147 -217 -223q-135 -74 -306 -74q-389 1 -389 357zM207 530h883q14 66 14 123 q0 158 -95.5 245t-256.5 87q-203 0 -347.5 -126t-197.5 -329zM635 1096q-6 12 8 24l285 252q18 16 37 4q4 -6 2 -14q0 -6 -9 -16l-286 -250q-12 -8 -21 -9q-12 1 -16 9z" />
<glyph unicode="&#xea;" d="M139 334q0 76 21 164q47 229 209.5 377.5t390.5 148.5q180 0 287 -88q113 -94 112 -268q0 -59 -14 -129l-10 -45l-936 -2q-16 -84 -17 -154q0 -322 359 -322q143 0 269 68t196 190h45q-74 -147 -217 -223q-135 -74 -306 -74q-389 1 -389 357zM207 530h883q14 66 14 123 q0 158 -95.5 245t-256.5 87q-203 0 -347.5 -126t-197.5 -329zM551 1106l256 274h43l145 -274h-49l-127 235l-225 -235h-43z" />
<glyph unicode="&#xeb;" d="M139 334q0 76 21 164q47 229 209.5 377.5t390.5 148.5q180 0 287 -88q113 -94 112 -268q0 -59 -14 -129l-10 -45l-936 -2q-16 -84 -17 -154q0 -322 359 -322q143 0 269 68t196 190h45q-74 -147 -217 -223q-135 -74 -306 -74q-389 1 -389 357zM207 530h883q14 66 14 123 q0 158 -95.5 245t-256.5 87q-203 0 -347.5 -126t-197.5 -329zM643 1145l25 112q4 20 26 21q20 0 17 -21l-25 -112q-6 -25 -27 -25q-22 0 -16 25zM881 1145l24 112q4 20 25 21q23 0 18 -21l-24 -112q-6 -25 -29 -25q-20 0 -14 25z" />
<glyph unicode="&#xec;" horiz-adv-x="278" d="M119 0l213 999h43l-213 -999h-43zM291 1341q-12 18 8 31q18 14 31 -4l180 -252q12 -16 -8 -29q-18 -10 -33 5z" />
<glyph unicode="&#xed;" horiz-adv-x="278" d="M119 0l213 999h43l-213 -999h-43zM238 1079q-14 12 4 29l286 252q20 18 35 4q10 -12 -6 -29l-287 -252q-18 -16 -32 -4z" />
<glyph unicode="&#xee;" horiz-adv-x="278" d="M119 0l213 999h43l-213 -999h-43zM166 1106l246 274h43l135 -274h-49l-115 235l-217 -235h-43z" />
<glyph unicode="&#xef;" horiz-adv-x="278" d="M119 0l213 999h43l-213 -999h-43zM250 1145l24 112q4 20 27 21q20 0 16 -21l-24 -112q-6 -25 -27 -25q-22 0 -16 25zM487 1145l25 112q4 20 25 21q23 0 18 -21l-25 -112q-6 -25 -28 -25q-21 0 -15 25z" />
<glyph unicode="&#xf0;" horiz-adv-x="1155" d="M147 350q0 70 19 148q49 231 201 374q162 152 391 152q158 0 257 -80t115 -233l105 489h-680l8 41h680l31 148h43l-295 -1389h-43l61 289q-184 -311 -512 -312q-223 0 -321 152q-60 92 -60 221zM190 358q0 -160 90.5 -251t254.5 -91q203 0 358 142q147 135 192 340 q16 78 17 145q0 166 -96.5 254t-266.5 88q-203 0 -352 -145q-137 -135 -180 -342q-17 -74 -17 -140z" />
<glyph unicode="&#xf1;" d="M119 0l213 999h43l-56 -260q59 137 187 213q119 72 272 72q139 0 228 -57q100 -68 100 -199q0 -41 -8 -86l-146 -682h-43l142 662q10 47 10 86q0 121 -86 182q-76 55 -203 55q-186 0 -318 -117.5t-173 -304.5l-119 -563h-43zM512 1153q10 47 64.5 88t103.5 41 q31 0 128 -56.5t124 -56.5q43 0 81 36t48 79l31 -20q-14 -53 -63.5 -93.5t-104.5 -40.5q-33 0 -130.5 56.5t-123.5 56.5q-41 0 -78 -36t-49 -79z" />
<glyph unicode="&#xf2;" horiz-adv-x="1116" d="M150 356q0 68 16 144q49 233 214 378.5t398 145.5q186 0 295 -99.5t109 -281.5q0 -68 -17 -143q-49 -233 -211 -375q-168 -147 -401 -148q-184 0 -293.5 99.5t-109.5 279.5zM195 369q0 -166 99 -259.5t269 -93.5q213 0 367 138q147 133 192 346q14 72 15 135 q0 168 -98.5 259t-270.5 91q-215 0 -367 -139q-147 -131 -192 -346q-14 -70 -14 -131zM711 1341q-12 18 8 31q18 14 33 -4l178 -252q12 -16 -8 -29q-18 -10 -33 5z" />
<glyph unicode="&#xf3;" horiz-adv-x="1116" d="M150 356q0 68 16 144q49 233 214 378.5t398 145.5q186 0 295 -99.5t109 -281.5q0 -68 -17 -143q-49 -233 -211 -375q-168 -147 -401 -148q-184 0 -293.5 99.5t-109.5 279.5zM195 369q0 -166 99 -259.5t269 -93.5q213 0 367 138q147 133 192 346q14 72 15 135 q0 168 -98.5 259t-270.5 91q-215 0 -367 -139q-147 -131 -192 -346q-14 -70 -14 -131zM657 1079q-16 12 2 29l287 252q20 18 37 4q12 -12 -6 -29l-289 -252q-17 -16 -31 -4z" />
<glyph unicode="&#xf4;" horiz-adv-x="1116" d="M150 356q0 68 16 144q49 233 214 378.5t398 145.5q186 0 295 -99.5t109 -281.5q0 -68 -17 -143q-49 -233 -211 -375q-168 -147 -401 -148q-184 0 -293.5 99.5t-109.5 279.5zM195 369q0 -166 99 -259.5t269 -93.5q213 0 367 138q147 133 192 346q14 72 15 135 q0 168 -98.5 259t-270.5 91q-215 0 -367 -139q-147 -131 -192 -346q-14 -70 -14 -131zM571 1106l256 274h43l148 -274h-49l-127 235l-228 -235h-43z" />
<glyph unicode="&#xf5;" horiz-adv-x="1116" d="M150 356q0 68 16 144q49 233 214 378.5t398 145.5q186 0 295 -99.5t109 -281.5q0 -68 -17 -143q-49 -233 -211 -375q-168 -147 -401 -148q-184 0 -293.5 99.5t-109.5 279.5zM195 369q0 -166 99 -259.5t269 -93.5q213 0 367 138q147 133 192 346q14 72 15 135 q0 168 -98.5 259t-270.5 91q-215 0 -367 -139q-147 -131 -192 -346q-14 -70 -14 -131zM526 1153q10 51 63.5 90t106.5 39q29 0 126.5 -56.5t123.5 -56.5q90 0 131 115l29 -20q-16 -53 -64.5 -93.5t-103.5 -40.5q-33 0 -131 56.5t-121 56.5q-43 0 -80 -34.5t-49 -80.5z" />
<glyph unicode="&#xf6;" horiz-adv-x="1116" d="M150 356q0 68 16 144q49 233 214 378.5t398 145.5q186 0 295 -99.5t109 -281.5q0 -68 -17 -143q-49 -233 -211 -375q-168 -147 -401 -148q-184 0 -293.5 99.5t-109.5 279.5zM195 369q0 -166 99 -259.5t269 -93.5q213 0 367 138q147 133 192 346q14 72 15 135 q0 168 -98.5 259t-270.5 91q-215 0 -367 -139q-147 -131 -192 -346q-14 -70 -14 -131zM664 1145l24 112q4 20 25 21q23 0 18 -21l-24 -112q-6 -25 -29 -25q-20 0 -14 25zM899 1145l25 112q4 20 26 21q20 0 17 -21l-25 -112q-6 -25 -27 -25q-22 0 -16 25z" />
<glyph unicode="&#xf7;" horiz-adv-x="1212" d="M203 473l8 39h977l-8 -39h-977zM623 174l28 133q4 23 25 23q23 0 18 -23l-28 -133q-4 -23 -27 -22q-20 -1 -16 22zM727 662l27 133q6 20 26 20q23 0 17 -20l-27 -133q-6 -23 -29 -23q-20 0 -14 23z" />
<glyph unicode="&#xf8;" horiz-adv-x="1116" d="M150 352q0 68 16 148q49 233 214 378.5t398 145.5q113 0 197 -35l94 135h43l-104 -153q174 -96 174 -330q0 -66 -17 -141q-49 -233 -211 -375q-168 -147 -401 -148q-123 0 -209 41l-80 -114h-43l92 131q-163 106 -163 317zM195 373q0 -199 143 -299l610 878 q-78 33 -180 33q-215 0 -367 -139q-147 -131 -192 -346q-14 -68 -14 -127zM369 57q80 -41 194 -41q213 0 367 138q147 133 192 346q14 66 15 125q0 219 -158 309z" />
<glyph unicode="&#xf9;" d="M180 242q0 47 10 100l142 657h43l-139 -655q-10 -49 -11 -92q0 -121 86 -182q76 -53 205 -54q197 0 328 125q121 115 162 316l116 542h43l-213 -999h-43l54 254q-63 -133 -184.5 -205t-270.5 -72q-143 0 -229 60q-99 70 -99 205zM690 1335q-12 16 8 29q14 14 29 -4 l180 -252q12 -16 -8 -29q-18 -10 -33 4z" />
<glyph unicode="&#xfa;" d="M180 242q0 47 10 100l142 657h43l-139 -655q-10 -49 -11 -92q0 -121 86 -182q76 -53 205 -54q197 0 328 125q121 115 162 316l116 542h43l-213 -999h-43l54 254q-63 -133 -184.5 -205t-270.5 -72q-143 0 -229 60q-99 70 -99 205zM639 1087q-14 12 4 29l285 252 q20 18 35 4q14 -12 -7 -31l-284 -249q-19 -17 -33 -5z" />
<glyph unicode="&#xfb;" d="M180 242q0 47 10 100l142 657h43l-139 -655q-10 -49 -11 -92q0 -121 86 -182q76 -53 205 -54q197 0 328 125q121 115 162 316l116 542h43l-213 -999h-43l54 254q-63 -133 -184.5 -205t-270.5 -72q-143 0 -229 60q-99 70 -99 205zM551 1106l256 274h43l145 -274h-49 l-127 235l-225 -235h-43z" />
<glyph unicode="&#xfc;" d="M180 242q0 47 10 100l142 657h43l-139 -655q-10 -49 -11 -92q0 -121 86 -182q76 -53 205 -54q197 0 328 125q121 115 162 316l116 542h43l-213 -999h-43l54 254q-63 -133 -184.5 -205t-270.5 -72q-143 0 -229 60q-99 70 -99 205zM641 1145l25 112q4 20 26 21q20 0 17 -21 l-25 -112q-6 -25 -27 -25q-22 0 -16 25zM879 1145l24 112q4 20 25 21q23 0 18 -21l-24 -112q-6 -25 -29 -25q-20 0 -14 25z" />
<glyph unicode="&#xfd;" horiz-adv-x="1036" d="M57 -111q0 29 6 60h43q-4 -25 -4 -47q0 -229 326 -230q412 0 490 365l45 217q-63 -133 -184.5 -205t-270.5 -72q-143 0 -229 60q-98 70 -99 205q0 47 10 100l142 657h43l-139 -655q-10 -49 -11 -92q0 -121 86 -182q76 -53 205 -54q197 0 328 125q121 115 162 316l116 542 h43l-204 -964q-86 -401 -545 -402q-150 0 -242 54q-117 65 -117 202zM614 1098q-6 12 9 22l286 252q18 16 37 4q4 -6 2 -14q0 -6 -8 -16l-287 -250q-12 -8 -20 -9q-13 1 -19 11z" />
<glyph unicode="&#xfe;" horiz-adv-x="1155" d="M45 -344l369 1733h43l-144 -680q72 145 206 230t296 85q182 0 284.5 -95t102.5 -274q0 -70 -18 -151q-49 -236 -197 -377q-158 -150 -391 -150q-158 0 -258 80t-115 234l-135 -635h-43zM252 354q0 -338 360 -338q207 0 353 144q133 131 178 342q16 76 16 139 q0 160 -89 252t-251 92q-207 0 -360 -137q-145 -133 -189 -340q-18 -84 -18 -154z" />
<glyph unicode="&#xff;" horiz-adv-x="1044" d="M57 -111q0 29 6 60h43q-4 -25 -4 -47q0 -229 326 -230q412 0 490 365l45 217q-63 -133 -184.5 -205t-270.5 -72q-143 0 -229 60q-98 70 -99 205q0 47 10 100l142 657h43l-139 -655q-10 -49 -11 -92q0 -121 86 -182q76 -53 205 -54q197 0 328 125q121 115 162 316l116 542 h43l-204 -964q-86 -401 -545 -402q-150 0 -242 54q-117 65 -117 202zM627 1145l24 112q4 20 27 21q18 0 16 -21l-24 -112q-6 -25 -27 -25q-22 0 -16 25zM864 1145l25 112q4 20 24 21q20 0 19 -21l-25 -112q-6 -25 -28 -25q-21 0 -15 25z" />
<glyph unicode="&#x152;" horiz-adv-x="2068" d="M203 496q0 92 22 194q70 328 297.5 518.5t558.5 190.5q68 0 131 -10h1061l-8 -39h-907q145 -61 223 -185.5t78 -285.5q0 -63 -12 -136h426l-9 -36h-424l-2 -17q-70 -319 -305 -514q-106 -88 -235 -137h901l-8 -39h-1028q-88 -16 -183 -16q-326 0 -475 190 q-102 129 -102 322zM246 506q0 -238 153 -367q143 -119 389 -119q94 0 183 21l276 1300q-80 18 -174 19q-311 0 -526 -181.5t-279 -488.5q-22 -98 -22 -184zM1014 51q166 45 297 156q219 182 284 483l2 17h-444zM1161 743h443q12 68 12 129q0 168 -86 290t-244 169z" />
<glyph unicode="&#x153;" horiz-adv-x="2154" d="M199 356q0 68 16 144q49 233 214 378.5t398 145.5q180 0 288 -95t114 -274q59 125 166 219q168 150 381 150q180 0 286 -88q113 -94 113 -268q0 -59 -14 -129l-11 -45l-933 -2q-16 -84 -17 -154q0 -322 359 -322q143 0 269 68t195 190h45q-74 -143 -219 -221 q-137 -76 -303 -76q-385 0 -387 357q-61 -123 -164 -211q-170 -145 -393 -146q-184 0 -293.5 99.5t-109.5 279.5zM244 369q0 -166 99 -259.5t269 -93.5q213 0 367 138q147 133 192 346q14 72 15 135q0 168 -98.5 259t-270.5 91q-215 0 -366 -139q-147 -131 -193 -346 q-14 -70 -14 -131zM1225 530h880q14 66 15 123q0 158 -95.5 245t-257.5 87q-199 0 -345 -128t-197 -327z" />
<glyph unicode="&#x178;" horiz-adv-x="1357" d="M332 1389h55l447 -666l731 666h51l-768 -707l-146 -682h-43l146 682zM874 1534l25 113q4 20 27 20q18 0 16 -20l-24 -113q-4 -25 -25 -25q-23 0 -19 25zM1112 1534l25 113q4 20 24 20t19 -20l-25 -113q-4 -25 -27 -25q-20 0 -16 25z" />
<glyph unicode="&#x2c6;" horiz-adv-x="530" d="M279 1106l253 274h43l148 -274h-49l-127 235l-225 -235h-43z" />
<glyph unicode="&#x2dc;" horiz-adv-x="749" d="M342 1153q10 47 64.5 88t103.5 41q31 0 128 -56.5t122 -56.5q43 0 82 36t49 79l31 -20q-16 -53 -65.5 -93.5t-104.5 -40.5q-31 0 -128.5 56.5t-123.5 56.5q-41 0 -78 -36t-49 -79z" />
<glyph unicode="&#x2000;" horiz-adv-x="894" />
<glyph unicode="&#x2001;" horiz-adv-x="1789" />
<glyph unicode="&#x2002;" horiz-adv-x="894" />
<glyph unicode="&#x2003;" horiz-adv-x="1789" />
<glyph unicode="&#x2004;" horiz-adv-x="595" />
<glyph unicode="&#x2005;" horiz-adv-x="446" />
<glyph unicode="&#x2006;" horiz-adv-x="296" />
<glyph unicode="&#x2007;" horiz-adv-x="296" />
<glyph unicode="&#x2008;" horiz-adv-x="223" />
<glyph unicode="&#x2009;" horiz-adv-x="356" />
<glyph unicode="&#x200a;" horiz-adv-x="98" />
<glyph unicode="&#x2010;" horiz-adv-x="716" d="M215 520l8 41h527l-9 -41h-526z" />
<glyph unicode="&#x2011;" horiz-adv-x="716" d="M215 520l8 41h527l-9 -41h-526z" />
<glyph unicode="&#x2012;" horiz-adv-x="716" d="M215 520l8 41h527l-9 -41h-526z" />
<glyph unicode="&#x2013;" horiz-adv-x="1013" d="M111 520l8 41h1009l-8 -41h-1009z" />
<glyph unicode="&#x2014;" horiz-adv-x="1830" d="M111 520l8 41h1827l-9 -41h-1826z" />
<glyph unicode="&#x2018;" horiz-adv-x="358" d="M344 1053l154 317q10 20 30 16t11 -26l-156 -318q-10 -23 -31 -16q-18 4 -8 27z" />
<glyph unicode="&#x2019;" horiz-adv-x="358" d="M344 1053l156 317q12 23 28 16q20 -4 11 -26l-154 -318q-10 -20 -33 -16q-18 4 -8 27z" />
<glyph unicode="&#x201a;" horiz-adv-x="598" d="M162 -168q0 4 4 10l156 318q10 23 26 16q14 -2 14 -14q0 -4 -2 -12l-153 -318q-12 -23 -33 -16q-16 4 -12 16z" />
<glyph unicode="&#x201c;" horiz-adv-x="546" d="M344 1053l154 317q10 20 30 16t11 -26l-156 -318q-10 -23 -31 -16q-18 4 -8 27zM559 1053l154 317q10 20 30 16t11 -26l-156 -318q-10 -23 -31 -16q-18 4 -8 27z" />
<glyph unicode="&#x201d;" horiz-adv-x="565" d="M344 1053l156 317q12 23 28 16q20 -4 11 -26l-154 -318q-10 -20 -33 -16q-18 4 -8 27zM559 1053l156 317q12 23 28 16q20 -4 11 -26l-154 -318q-10 -20 -33 -16q-18 4 -8 27z" />
<glyph unicode="&#x201e;" horiz-adv-x="718" d="M162 -168q0 4 4 10l156 318q10 23 26 16q14 -2 14 -14q0 -4 -2 -12l-153 -318q-12 -23 -33 -16q-16 4 -12 16zM377 -168q0 4 4 10l156 318q10 23 26 16q14 -2 15 -14q0 -4 -3 -12l-153 -318q-12 -23 -33 -16q-16 4 -12 16z" />
<glyph unicode="&#x2022;" horiz-adv-x="598" d="M225 535l58 262q4 23 139 22q135 0 131 -22l-57 -262q-4 -23 -140 -23q-135 0 -131 23z" />
<glyph unicode="&#x2026;" horiz-adv-x="1306" d="M281 18l28 134q4 23 27 22q20 0 16 -22l-28 -134q-4 -23 -25 -22q-22 -1 -18 22zM668 18l28 134q4 23 27 22q20 0 16 -22l-28 -134q-4 -23 -25 -22q-22 -1 -18 22zM1055 18l28 134q4 23 27 22q20 0 16 -22l-28 -134q-4 -23 -25 -22q-22 -1 -18 22z" />
<glyph unicode="&#x202f;" horiz-adv-x="356" />
<glyph unicode="&#x2039;" horiz-adv-x="602" d="M260 541l8 39l353 223l-9 -45l-305 -197l221 -199l-8 -38z" />
<glyph unicode="&#x203a;" horiz-adv-x="602" d="M215 324l350 217l8 39l-258 223l-8 -45l219 -197l-303 -199z" />
<glyph unicode="&#x205f;" horiz-adv-x="446" />
<glyph unicode="&#x2122;" horiz-adv-x="1615" d="M397 1358l9 43h673l195 -629l457 629h75l-145 -690h-53l135 637l-457 -637h-47l-199 647q-10 -55 -133 -647h-51l137 647h-241l-138 -647h-51l137 647h-303z" />
<glyph unicode="&#xe000;" horiz-adv-x="1000" d="M0 1000h1000v-1000h-1000v1000z" />
<glyph unicode="&#xfb01;" horiz-adv-x="825" d="M666 0l213 999h43l-213 -999h-43zM932 1251l29 138q12 18 22 18t21 -18l-29 -138q-16 -16 -29 -16q-12 0 -14 16zM209 -2l180 852h-147l8 41h147l23 100q80 373 538 373l-8 -37q-416 0 -487 -336l-23 -100h228l-9 -41h-227l-180 -852h-43z" />
<glyph unicode="&#xfb02;" horiz-adv-x="825" d="M666 0l295 1389h43l-295 -1389h-43zM209 -2l180 852h-147l8 41h147l23 100q80 373 538 373l-8 -37q-416 0 -487 -336l-23 -100h228l-9 -41h-227l-180 -852h-43z" />
<glyph unicode="&#xfb03;" horiz-adv-x="1372" d="M1213 0l213 999h43l-213 -999h-43zM1479 1251l29 138q12 18 22 18t21 -18l-29 -138q-16 -16 -29 -16q-12 0 -14 16zM756 -2l180 852h-147l8 41h147l23 100q80 373 538 373l-8 -37q-416 0 -487 -336l-23 -100h228l-9 -41h-227l-180 -852h-43zM209 -2l180 852h-147l8 41 h147l23 100q80 373 538 373l-8 -37q-416 0 -487 -336l-23 -100h228l-9 -41h-227l-180 -852h-43z" />
<glyph unicode="&#xfb04;" horiz-adv-x="1372" d="M1213 0l295 1389h43l-295 -1389h-43zM756 -2l180 852h-147l8 41h147l23 100q80 373 538 373l-8 -37q-416 0 -487 -336l-23 -100h228l-9 -41h-227l-180 -852h-43zM209 -2l180 852h-147l8 41h147l23 100q80 373 538 373l-8 -37q-416 0 -487 -336l-23 -100h228l-9 -41h-227 l-180 -852h-43z" />
</font>
</defs>
</svg>
