<?xml version="1.0" standalone="no"?>
<!DOCTYPE svg PUBLIC "-//W3C//DTD SVG 1.1//EN" "http://www.w3.org/Graphics/SVG/1.1/DTD/svg11.dtd" >
<svg xmlns="http://www.w3.org/2000/svg">
<metadata>
This is a custom SVG webfont generated by Font Squirrel.
Copyright   : GM
</metadata>
<defs>
<font id="webfontDq6LZINr" horiz-adv-x="1075" >
<font-face units-per-em="2048" ascent="1638" descent="-410" />
<missing-glyph horiz-adv-x="724" />
<glyph unicode=" "  horiz-adv-x="724" />
<glyph unicode="&#x09;" horiz-adv-x="724" />
<glyph unicode="&#xa0;" horiz-adv-x="724" />
<glyph unicode="!" horiz-adv-x="397" d="M162 37v131q0 35 37 35t37 -35v-131q0 -37 -37 -37t-37 37zM164 346v1043h74v-1043h-74z" />
<glyph unicode="&#x22;" horiz-adv-x="598" d="M143 1155v186q0 35 35 35q39 0 39 -35v-186q0 -35 -39 -35q-35 0 -35 35zM379 1155v186q0 35 37 35t37 -35v-186q0 -35 -37 -35t-37 35z" />
<glyph unicode="#" horiz-adv-x="1087" d="M143 485l15 68h182l47 182h-186l18 68h182l39 155h74l-39 -155h215l37 155h74l-37 -155h182l-14 -68h-184l-46 -182h183l-15 -68h-182l-39 -155h-74l39 155h-215l-39 -155h-73l39 155h-183zM414 553h215l45 182h-213z" />
<glyph unicode="$" horiz-adv-x="1314" d="M59 442v35h74v-26q0 -319 328 -396v664q-166 39 -248 104q-109 86 -109 234q0 289 357 354v131h74v-121q47 2 102 2q68 0 125 -6v125h74v-135q360 -76 366 -428h-74q-18 293 -292 358v-622q199 -51 280 -111q115 -86 115 -260q0 -152 -127 -252q-106 -86 -268 -112v-123 h-74v112q-43 -4 -86 -4q-76 0 -141 10v-118h-74v127q-402 89 -402 458zM178 1057q0 -115 88 -183q61 -47 195 -81v546q-283 -61 -283 -282zM535 43q66 -10 143 -10q43 0 84 6v618l-227 45v-659zM535 774l227 -43v619q-57 6 -125 6q-55 0 -102 -6v-576zM836 49q135 23 219 92 q102 84 102 209q0 113 -49 164q-68 72 -272 127v-592z" />
<glyph unicode="%" horiz-adv-x="1536" d="M102 977q0 369 289 369q291 0 291 -369q0 -360 -293 -361q-287 1 -287 361zM178 977q0 -295 213 -295q215 0 215 295q0 301 -217 301q-211 0 -211 -301zM244 0l997 1389h86l-995 -1389h-88zM858 324q0 371 291 370q289 0 289 -370q0 -362 -291 -363q-289 1 -289 363z M934 324q0 -295 215 -295q213 0 213 295q0 303 -215 303q-213 0 -213 -303z" />
<glyph unicode="&#x26;" horiz-adv-x="1234" d="M80 313q0 158 147 291q92 80 289 182q-252 123 -252 336q0 127 103 201q92 66 225 66q141 0 229 -64q102 -72 103 -207q0 -190 -383 -397q-197 -106 -265 -166q-123 -113 -122 -242q0 -133 129 -211q111 -68 252 -67q276 0 403 235q74 131 74 287h73v-596h-73v289 q-8 -14 -15 -29q-172 -254 -450 -254q-176 0 -311 82q-156 98 -156 264zM338 1120q0 -190 250 -299q262 147 262 299q0 98 -82 154q-70 47 -172 47t-176 -49q-82 -54 -82 -152z" />
<glyph unicode="'" horiz-adv-x="358" d="M143 1155v186q0 35 35 35q39 0 39 -35v-186q0 -35 -39 -35q-35 0 -35 35z" />
<glyph unicode="(" horiz-adv-x="477" d="M131 580q0 522 258 923h80q-264 -401 -264 -923t264 -924h-80q-258 404 -258 924z" />
<glyph unicode=")" horiz-adv-x="477" d="M-2 -344q274 403 274 924q0 520 -274 923h80q268 -395 268 -923q0 -526 -268 -924h-80z" />
<glyph unicode="*" horiz-adv-x="696" d="M86 1040q0 18 23 31l145 72l-145 69q-35 16 -17 48q10 14 29 14q8 0 18 -4h2l152 -72v143q0 35 37 35t37 -35v-145l149 74q10 4 19 4q20 0 30 -14q18 -33 -16 -50l-143 -67l145 -72q20 -10 20 -31q0 -33 -36 -32q-10 0 -23 4l-145 73v-143q0 -35 -37 -35t-37 35v143 l-148 -73q-12 -4 -22 -4q-37 -1 -37 32z" />
<glyph unicode="+" horiz-adv-x="1146" d="M145 481v68h392v338h73v-338h394v-68h-394v-344h-73v344h-392z" />
<glyph unicode="," horiz-adv-x="536" d="M188 -156q0 4 2 15l89 293q10 33 43 24q37 -8 26 -43l-86 -293q-8 -27 -35 -26q-39 -1 -39 30z" />
<glyph unicode="-" horiz-adv-x="716" d="M90 520v41h557v-41h-557z" />
<glyph unicode="." horiz-adv-x="428" d="M178 29v112q0 33 37 33t37 -33v-112q0 -33 -37 -33t-37 33z" />
<glyph unicode="/" horiz-adv-x="716" d="M-20 0l698 1421h78l-699 -1421h-77z" />
<glyph unicode="0" horiz-adv-x="1196" d="M84 502v344q0 238 139 383t377 145t375 -144.5t137 -383.5v-344q0 -240 -137 -383.5t-375 -143.5q-240 0 -378 145.5t-138 381.5zM158 502q0 -205 118.5 -332t321.5 -127q207 0 326 131q115 123 114 328v344q0 205 -118.5 333t-321.5 128q-205 0 -322.5 -127t-117.5 -334 v-344z" />
<glyph unicode="1" horiz-adv-x="845" d="M168 979l418 344h65v-1323h-73v1219l-295 -240h-115z" />
<glyph unicode="2" horiz-adv-x="1196" d="M102 0q4 371 414 616l287 168q182 106 182 232q0 139 -119 207q-96 55 -245 55q-418 0 -418 -410h-74q0 238 126 358t353 120q190 0 307 -72q141 -86 142 -264q0 -170 -330 -355q-170 -96 -250 -145q-115 -88 -192 -197q-96 -131 -101 -245h936v-68h-1018z" />
<glyph unicode="3" horiz-adv-x="1196" d="M70 432v35h73v-64q0 -178 144 -274q123 -84 313 -84q178 0 301 72q152 86 152 250q0 309 -414 309h-109v69h111q383 0 383 271q0 139 -137 209q-104 53 -260 53q-442 0 -443 -385h-73q0 238 145 352q133 100 365 101q195 0 319 -68q158 -84 158 -262q0 -240 -250 -303 q276 -68 276 -346q0 -195 -168 -301q-141 -88 -348 -89q-238 0 -381 107q-157 121 -157 348z" />
<glyph unicode="4" horiz-adv-x="1196" d="M43 451l440 874h78l-407 -807h647v807l73 -2v-805h265v-67h-265v-451h-73v451h-758z" />
<glyph unicode="5" horiz-adv-x="1196" d="M66 444h73q0 -209 129 -307q117 -92 324 -92q199 0 317 100q127 104 127 295q0 193 -137 299q-123 98 -324 99q-262 0 -389 -197h-77l30 682h910v-68h-836l-23 -507q139 160 394 159q227 0 370 -119q156 -127 156 -346q0 -223 -152 -348q-141 -117 -368 -117 q-340 0 -463 205q-61 102 -61 262z" />
<glyph unicode="6" horiz-adv-x="1196" d="M113 414v20q0 14 2 17v462q0 203 145 318q133 106 344 106q209 0 340 -110q141 -117 141 -334h-71q0 184 -121 287q-113 96 -291 96q-182 0 -293 -94q-117 -98 -119 -275v-243q125 178 406 178q209 0 342 -109q139 -117 139 -319q0 -203 -143 -318q-131 -109 -342 -108 q-209 0 -340 108q-139 115 -139 318zM184 414q0 -174 115 -270.5t295 -96.5t296 96.5t116 270.5q0 176 -121 274q-111 92 -291 92t-293 -92q-117 -100 -117 -274z" />
<glyph unicode="7" horiz-adv-x="1196" d="M121 1255v68h983l-660 -1323h-77l626 1255h-872z" />
<glyph unicode="8" horiz-adv-x="1230" d="M72 379q0 141 88 233q82 86 225 117q-242 72 -242 270q0 186 150 275q123 72 323 72q199 0 322 -72q154 -90 154 -275q0 -197 -246 -270q315 -70 315 -354q0 -213 -176 -316q-141 -82 -369 -82q-229 0 -372 84q-172 105 -172 318zM145 377q0 -178 154 -264 q121 -68 317 -68q197 0 318 68q154 84 153 264q0 311 -469 311q-473 0 -473 -311zM217 997q0 -123 145 -190q115 -51 256 -51q147 0 261 55q139 68 139 190q0 276 -402 277q-399 0 -399 -281z" />
<glyph unicode="9" horiz-adv-x="1196" d="M113 410h71q0 -186 115 -283.5t295 -97.5q178 0 294 97t118 269v285q-125 -178 -406 -178q-209 0 -340 108q-139 115 -139 318q0 201 141 319q133 109 342 109t340 -111q141 -115 141 -317v-21q-2 -10 -2 -14v-502q0 -201 -147 -315q-135 -106 -344 -107q-209 0 -340 109 q-139 115 -139 332zM193 928q0 -174 114.5 -269.5t294.5 -95.5t296 95.5t116 269.5q0 176 -121 276q-111 92 -291 92t-294.5 -96t-114.5 -272z" />
<glyph unicode=":" horiz-adv-x="499" d="M215 33v129q0 37 37 37q33 0 35 -37l2 -129q0 -37 -37 -37t-37 37zM215 786v129q0 37 37 37q33 0 35 -37l2 -129q0 -37 -37 -36q-37 -1 -37 36z" />
<glyph unicode=";" horiz-adv-x="514" d="M176 -154q0 4 2 15l88 309q10 37 43 27q37 -8 27 -45l-86 -310q-8 -29 -35 -28q-39 -1 -39 32zM256 786v129q0 37 37 37t37 -37v-129q0 -37 -37 -36q-37 -1 -37 36z" />
<glyph unicode="&#x3c;" horiz-adv-x="1095" d="M84 461v63l911 367v-72l-817 -327l817 -328v-72z" />
<glyph unicode="=" horiz-adv-x="1290" d="M88 342v64h1116v-64h-1116zM88 578v63h1116v-63h-1116z" />
<glyph unicode="&#x3e;" horiz-adv-x="1095" d="M84 92v72l815 328l-815 327v72l911 -367v-63z" />
<glyph unicode="?" d="M66 1038q27 195 159 291q123 92 318 92q174 0 295 -78q141 -90 141 -253q0 -176 -209 -346.5t-209 -333.5v-64h-76v51q0 203 205 371q123 100 164 158q51 70 51 164q0 137 -119 206q-96 57 -245 58q-369 0 -408 -355zM485 37v131q0 35 35 35q39 0 39 -35v-131 q0 -37 -39 -37q-35 0 -35 37z" />
<glyph unicode="@" horiz-adv-x="1720" d="M106 707q0 322 236 524q225 193 551 192q291 0 493 -153q225 -170 226 -453q0 -199 -133 -373q-45 -59 -117 -104q-80 -51 -145 -51q-78 0 -78 86q0 12 10 92q-141 -205 -397 -207q-203 -2 -303 139q-68 96 -68 228q0 227 127 372q137 154 366 158q264 2 340 -196l27 196 h70l-103 -764v-14q2 -16 23 -17q47 0 110 50q55 43 86 90q109 168 109 319q0 248 -199 400q-180 137 -436 137q-303 0 -506 -178q-209 -184 -209 -484q0 -295 211 -477q203 -176 502 -176q174 0 344 78q184 82 270 225h84q-94 -178 -305 -276q-193 -92 -383 -93 q-332 0 -561 195q-242 207 -242 535zM446 633q0 -145 81 -229.5t229 -84.5q166 2 284.5 115t143.5 279q4 27 4 73q0 152 -86 231t-240 77q-188 -2 -302 -136.5t-114 -324.5z" />
<glyph unicode="A" horiz-adv-x="1302" d="M-14 0l639 1389h75l615 -1389h-80l-199 446h-762l-202 -446h-86zM307 514h701l-344 772z" />
<glyph unicode="B" horiz-adv-x="1314" d="M86 0v1389h676q190 0 311 -82q137 -94 137 -277q0 -217 -260 -303q305 -66 305 -348q0 -199 -170 -299q-135 -80 -350 -80h-649zM160 68h600q172 0 287 67q137 82 137 242q0 168 -142 248q-111 66 -290 65h-592v-622zM160 758h596q156 0 258 63q123 74 123 219t-123 220 q-100 61 -256 61h-598v-563z" />
<glyph unicode="C" horiz-adv-x="1472" d="M90 684q0 330 197.5 524.5t535.5 194.5q391 0 566 -252l-62 -41q-152 225 -504 225q-301 0 -480 -174t-179 -469q0 -293 172 -466t465 -173q338 0 508 230l63 -41q-193 -256 -569 -256q-330 0 -521.5 188t-191.5 510z" />
<glyph unicode="D" horiz-adv-x="1392" d="M102 0v1389h543q336 0 508 -187q168 -178 168 -510q0 -340 -211 -520q-199 -172 -543 -172h-465zM176 68h397q315 0 494.5 158.5t179.5 465.5q0 303 -147 461q-154 168 -457 168h-467v-1253z" />
<glyph unicode="E" horiz-adv-x="1155" d="M102 0v1389h1026v-68h-954v-563h846v-66h-846v-624h965v-68h-1037z" />
<glyph unicode="F" horiz-adv-x="1034" d="M102 0v1389h953v-68h-881v-563h754v-66h-754v-692h-72z" />
<glyph unicode="G" horiz-adv-x="1552" d="M55 690q0 330 197 521.5t534 191.5q252 0 418 -103q188 -117 240 -366h-76q-90 401 -580 401q-305 0 -482 -172t-177 -471q0 -305 179 -472t493 -167q240 0 405 123q186 135 187 367v53h-596v68h665q6 -57 6 -99q0 -293 -225 -450q-184 -129 -442 -129q-342 0 -541 180 q-205 186 -205 524z" />
<glyph unicode="H" horiz-adv-x="1392" d="M102 0v1389h74v-631h1043v631h73v-1389h-73v692h-1043v-692h-74z" />
<glyph unicode="I" horiz-adv-x="274" d="M102 0v1389h74v-1389h-74z" />
<glyph unicode="J" horiz-adv-x="995" d="M25 319h73q23 -266 351 -266q199 0 280.5 81t81.5 274v981h74v-994q0 -410 -428 -409q-399 -1 -432 333z" />
<glyph unicode="K" horiz-adv-x="1372" d="M102 0v1389h74v-793l1041 793h116l-786 -596l821 -793h-100l-781 752l-311 -244v-508h-74z" />
<glyph unicode="L" horiz-adv-x="1034" d="M102 0v1389h74v-1321h877v-68h-951z" />
<glyph unicode="M" horiz-adv-x="1677" d="M102 0v1389h95l641 -1293l643 1293h94v-1389h-74v1268l-629 -1268h-67l-629 1268v-1268h-74z" />
<glyph unicode="N" horiz-adv-x="1392" d="M102 0v1389h86l514 -644l517 -641v1285h73v-1389h-88l-1028 1288v-1288h-74z" />
<glyph unicode="O" horiz-adv-x="1550" d="M57 694q0 328 191.5 508t527.5 180t529.5 -180t193.5 -508q0 -334 -194.5 -521t-528.5 -187q-338 0 -528.5 188t-190.5 520zM131 694q0 -295 172 -468t473 -173q305 0 477 171t172 470t-176 463q-170 158 -473 158t-474 -163t-171 -458z" />
<glyph unicode="P" horiz-adv-x="1271" d="M102 0v1389h629q492 0 492 -390q0 -197 -168 -297q-135 -84 -346 -84h-533v-618h-74zM176 688h569q162 0 273 72q129 84 129 237q0 324 -404 324h-567v-633z" />
<glyph unicode="Q" horiz-adv-x="1550" d="M57 692q0 330 191.5 510t527.5 180t529.5 -180t193.5 -510q0 -258 -127 -436q-133 -186 -379 -246q72 -78 193 -78h205v-67h-205q-170 0 -268 129q-68 -10 -142 -10q-338 0 -528.5 188t-190.5 520zM131 692q0 -291 170 -463q29 98 116 155.5t193 57.5q131 0 227.5 -81.5 t96.5 -208.5q0 -41 16 -82q233 51 357 223q119 162 118 399q0 301 -173 462t-476 161t-474 -163t-171 -460zM360 180q168 -129 416 -129q55 0 107 8q-18 45 -19 95q0 100 -74.5 161.5t-179.5 61.5q-94 0 -166 -51q-76 -58 -84 -146z" />
<glyph unicode="R" horiz-adv-x="1314" d="M102 0v1389h654q473 0 473 -359q0 -270 -266 -354q246 -74 245 -330v-346h-73v340q0 295 -398 295h-561v-635h-74zM176 705h551q178 0 291 69q137 84 137 250q0 297 -395 297h-584v-616z" />
<glyph unicode="S" horiz-adv-x="1314" d="M59 444v35h74v-26q0 -399 545 -400q186 0 311 58q168 78 168 241q0 113 -61 172q-51 51 -170 86q-61 18 -293 68q-260 55 -352 102q-176 94 -177 275q0 348 533 348q557 0 565 -426h-74q-12 213 -155 293q-113 66 -336 65q-459 0 -459 -280q0 -139 129 -209 q84 -45 287 -82q371 -68 493 -143q143 -86 144 -275q0 -190 -195 -287q-150 -74 -360 -73q-264 0 -424 94q-193 116 -193 364z" />
<glyph unicode="T" horiz-adv-x="1116" d="M-10 1321v68h1136v-68h-530v-1321h-74v1321h-532z" />
<glyph unicode="U" horiz-adv-x="1359" d="M102 520v869h74v-867q0 -469 504 -469t504 461v875h73v-873q0 -279 -149 -407q-139 -123 -428 -123q-291 0 -430 123q-148 128 -148 411z" />
<glyph unicode="V" horiz-adv-x="1286" d="M4 1389h76l573 -1291l555 1291h76l-598 -1389h-68z" />
<glyph unicode="W" horiz-adv-x="1986" d="M10 1389h76l551 -1291l319 781l-215 510h76l551 -1291l533 1291h75l-575 -1389h-68l-336 786l-327 -786h-68z" />
<glyph unicode="X" horiz-adv-x="1236" d="M-29 0l602 715l-571 674h98l523 -621l526 621h96l-571 -674l594 -715h-94l-551 659l-557 -659h-95z" />
<glyph unicode="Y" horiz-adv-x="1282" d="M-35 1389h94l582 -644l584 644h92l-637 -713v-676h-74v676z" />
<glyph unicode="Z" horiz-adv-x="1282" d="M61 0v72l1055 1249h-995v68h1087v-70l-1056 -1251h1073v-68h-1164z" />
<glyph unicode="[" horiz-adv-x="477" d="M193 -344v1847h272v-67h-199v-1712h199v-68h-272z" />
<glyph unicode="\" horiz-adv-x="716" d="M-41 1421h78l704 -1421h-77z" />
<glyph unicode="]" horiz-adv-x="477" d="M14 -276h197l2 81l-2 1631h-197v67h273l-4 -1847h-269v68z" />
<glyph unicode="^" horiz-adv-x="610" d="M98 1047l172 276h60l180 -276h-84l-125 198l-125 -198h-78z" />
<glyph unicode="_" d="M-16 -145h1108v-99h-1108v99z" />
<glyph unicode="`" horiz-adv-x="395" d="M53 1321q-29 29 4 49q27 20 56 -6l231 -227q25 -27 -6 -47q-23 -14 -51 6z" />
<glyph unicode="a" horiz-adv-x="1155" d="M45 498q0 231 125 374q135 152 371 152q301 0 424 -242v238h73v-1020h-73v225q-131 -248 -433 -248q-231 0 -362 152q-125 142 -125 369zM117 498q0 -197 102 -320q113 -133 311 -133q197 0 318 133q117 127 117 320q0 211 -113 334.5t-322 123.5q-197 0 -309 -137 q-104 -126 -104 -321z" />
<glyph unicode="b" horiz-adv-x="1155" d="M104 0v1389h74v-598q119 242 422 241q238 0 371 -153q123 -141 123 -379t-130 -379t-366 -141q-135 0 -247.5 64.5t-172.5 178.5v-223h-74zM178 496q0 -197 119 -323t313 -126q199 0 310 133q102 123 102 322q0 205 -102 327q-111 135 -312 136q-215 0 -327 -134 q-103 -120 -103 -335z" />
<glyph unicode="c" d="M53 481q0 250 141.5 396.5t389.5 146.5q152 0 262 -70q123 -78 162 -227l-68 -35q-68 264 -360 264q-215 0 -338 -135q-115 -127 -115 -340q0 -199 114.5 -317.5t317.5 -118.5q143 0 248 68q113 74 141 221l72 -31q-39 -166 -172 -250q-119 -76 -287 -76 q-236 0 -372 137.5t-136 366.5z" />
<glyph unicode="d" horiz-adv-x="1155" d="M45 502q0 233 125 377q135 154 371 153q301 0 424 -244v601h73v-1389h-73v225q-131 -248 -433 -248q-231 0 -362 152q-125 144 -125 373zM117 502q0 -199 102 -322q113 -135 311 -135q197 0 318 135q117 127 117 322q0 211 -113 337t-322 126q-197 0 -309 -140 q-104 -128 -104 -323z" />
<glyph unicode="e" d="M39 498q0 233 136 379.5t368 146.5q229 0 366.5 -131t137.5 -356v-58l-936 -2q12 -432 426 -432q139 0 246.5 63.5t154.5 186.5h76q-53 -170 -189 -248q-123 -70 -293 -70q-246 0 -374 144q-119 135 -119 377zM111 545h850q-4 188 -117 299.5t-301 111.5t-303 -111.5 t-129 -299.5z" />
<glyph unicode="f" horiz-adv-x="546" d="M47 831v70h148v84q0 379 489 379v-66q-416 0 -416 -313v-84h228v-70h-228v-833h-73v833h-148z" />
<glyph unicode="g" horiz-adv-x="1116" d="M47 512q0 229 131 370.5t363 141.5q131 0 235 -59q113 -61 168 -170v204h74v-958q0 -408 -473 -408q-178 0 -293 70q-135 84 -146 268h74q23 -270 367 -270q397 0 397 342v184q-61 -104 -175 -161.5t-243 -57.5q-223 0 -351 140.5t-128 363.5zM121 514q0 -190 100 -309 q109 -129 301 -129q195 0 309 123q113 117 113 309q0 188 -110.5 318t-296.5 130q-190 0 -308 -129q-108 -125 -108 -313z" />
<glyph unicode="h" d="M104 0v1389h74v-562q102 205 383 205q178 0 287 -86q121 -94 121 -264v-682h-74v662q0 147 -90 225t-242 78q-178 0 -281.5 -111t-103.5 -289v-565h-74z" />
<glyph unicode="i" horiz-adv-x="278" d="M104 0v1008h74v-1008h-74zM104 1237v139q12 31 33 31q18 0 41 -29v-143q-20 -27 -41 -27q-23 0 -33 29z" />
<glyph unicode="j" horiz-adv-x="278" d="M-319 -301q418 0 417 346v961h74v-963q0 -410 -491 -410v66zM104 1237v139q12 31 33 31q18 0 41 -29v-145q-20 -25 -41 -25q-23 0 -33 29z" />
<glyph unicode="k" horiz-adv-x="1089" d="M104 0v1389h74v-908l723 529l131 -2l-551 -390l576 -618h-99l-534 573l-246 -178v-395h-74z" />
<glyph unicode="l" horiz-adv-x="278" d="M104 0v1389h74v-1389h-74z" />
<glyph unicode="m" horiz-adv-x="1673" d="M104 0v999h74v-174q98 199 354 199q246 0 322 -203q90 203 354 203q360 0 361 -346v-678h-74v657q0 299 -283 299q-154 0 -246 -89t-92 -238v-629h-73v657q0 299 -289 299q-162 0 -254 -122q-80 -109 -80 -273v-561h-74z" />
<glyph unicode="n" d="M104 0v999h74v-180q102 205 383 205q178 0 287 -86q121 -92 121 -260v-678h-74v657q0 145 -90 222t-242 77q-178 0 -281.5 -109.5t-103.5 -285.5v-561h-74z" />
<glyph unicode="o" horiz-adv-x="1116" d="M45 500q0 238 140.5 381t375.5 143q236 0 375 -143.5t139 -380.5q0 -236 -141 -379.5t-377 -143.5q-238 0 -377 148q-135 142 -135 375zM119 500q0 -205 118.5 -330t321.5 -125t322.5 125t119.5 330q0 209 -117.5 332.5t-324.5 123.5q-205 0 -322.5 -124.5t-117.5 -331.5 z" />
<glyph unicode="p" horiz-adv-x="1155" d="M104 -344v1343h74v-217q57 117 170 179.5t250 62.5q238 0 367 -144.5t129 -379.5q0 -240 -125 -381q-131 -147 -369 -148q-303 0 -422 240v-555h-74zM178 504q0 -215 103 -336q113 -129 327 -129q201 0 312 135q102 125 102 324q0 201 -104 325q-111 133 -308 133 q-199 0 -315.5 -125.5t-116.5 -326.5z" />
<glyph unicode="q" horiz-adv-x="1155" d="M45 500q0 227 127 370q135 154 365 154q305 0 426 -242v217h73v-1343h-73v551q-115 -236 -435 -236q-223 0 -358 156q-125 148 -125 373zM119 498q0 -195 102 -322q113 -137 307 -137q213 0 328 127q109 121 109 332q0 201 -118 329.5t-321 128.5q-197 0 -307 -137 q-100 -124 -100 -321z" />
<glyph unicode="r" horiz-adv-x="651" d="M104 0v999h74v-217q33 74 103 133q131 109 333 109v-68q-236 0 -346 -178q-90 -147 -90 -379v-399h-74z" />
<glyph unicode="s" horiz-adv-x="995" d="M70 362h77q0 -317 365 -317q127 0 209 43q109 55 108 168q0 141 -217 190q-14 4 -206 35q-293 45 -293 260q0 137 114 215q100 70 248 70q424 0 426 -344h-80q0 272 -336 272q-115 0 -198 -49q-96 -59 -97 -164q0 -139 211 -180l217 -39q289 -51 289 -266 q0 -152 -131 -225q-102 -57 -266 -58q-440 0 -440 389z" />
<glyph unicode="t" horiz-adv-x="538" d="M29 881v69h202v307h74v-307h207v-69h-207v-881h-69l-5 881h-202z" />
<glyph unicode="u" d="M104 346v653h74v-651q0 -150 89 -226.5t245 -76.5q190 0 291 117q92 109 92 295v542h74v-999h-74v180q-106 -203 -383 -203q-186 0 -297 94.5t-111 274.5z" />
<glyph unicode="v" horiz-adv-x="964" d="M-6 999h88l420 -915l389 915h80l-432 -999h-74z" />
<glyph unicode="w" horiz-adv-x="1579" d="M35 999h84l399 -913l240 596l-146 317h88l398 -913l368 913h80l-409 -999h-76l-262 588l-244 -588h-74z" />
<glyph unicode="x" horiz-adv-x="956" d="M-25 0l457 518l-416 481h97l364 -430l375 430h90l-416 -481l455 -518h-92l-412 465l-409 -465h-93z" />
<glyph unicode="y" d="M57 -29h74q23 -270 367 -270q397 0 397 342v131q-106 -205 -383 -205q-186 0 -297 95.5t-111 277.5v657h74v-655q0 -152 89 -228.5t245 -76.5q190 0 291 117q92 109 92 297v546h74v-958q0 -408 -475 -408q-178 0 -291 70q-136 86 -146 268z" />
<glyph unicode="z" horiz-adv-x="968" d="M43 0v68l756 864h-697v67h791v-65l-758 -866h793v-68h-885z" />
<glyph unicode="{" horiz-adv-x="716" d="M168 553v55q98 41 119 66q37 41 37 162v460q0 207 174 207h39v-67h-37q-72 0 -92 -64q-10 -33 -11 -125v-416q0 -133 -43 -188q-23 -29 -90 -63q70 -33 90 -62q43 -55 43 -190v-414q0 -94 11 -127q20 -63 92 -63h37v-68h-39q-174 0 -174 207v461q0 121 -37 161 q-21 25 -119 68z" />
<glyph unicode="|" horiz-adv-x="477" d="M203 -66v1512h73v-1512h-73z" />
<glyph unicode="}" horiz-adv-x="716" d="M168 -276h35q72 0 92 63q12 33 12 127v414q0 135 41 190q20 29 90 62q-68 35 -90 63q-41 55 -41 188v416q0 92 -12 125q-20 63 -92 64h-35v67h37q176 0 176 -207v-460q0 -121 35 -162q20 -25 121 -66v-55q-100 -43 -121 -68q-35 -41 -35 -161v-461q0 -207 -176 -207h-37 v68z" />
<glyph unicode="~" horiz-adv-x="1122" d="M98 717q16 96 86 154.5t164 58.5q59 0 221 -68.5t209 -68.5q127 0 152 141h96q-16 -100 -86 -157.5t-162 -57.5q-63 0 -226 67.5t-208 67.5q-125 0 -149 -137h-97z" />
<glyph unicode="&#xa0;" />
<glyph unicode="&#xa1;" horiz-adv-x="397" d="M162 -195v1043h74v-1043h-74zM164 1026v131q0 37 37 37t37 -37v-131q0 -35 -37 -35t-37 35z" />
<glyph unicode="&#xa2;" d="M53 483q0 248 141.5 395.5t389.5 147.5q78 0 145 -18l59 120h78l-71 -143q162 -74 213 -256l-68 -35q-43 166 -174 228l-412 -836q88 -41 205 -41q143 0 248 66q113 74 141 223l72 -31q-39 -166 -172 -250q-119 -78 -287 -78q-133 0 -239 48l-48 -97h-77l65 131 q-209 139 -209 426zM127 483q0 -242 166 -362l405 823q-55 14 -118 14q-215 0 -338 -135q-115 -129 -115 -340z" />
<glyph unicode="&#xa3;" horiz-adv-x="1196" d="M57 506l13 69h143v187h-107l15 67h92v17q0 238 139.5 383t376.5 145q229 0 383 -157l-53 -50q-133 139 -332 140q-205 0 -322.5 -127t-117.5 -334v-17h604l-14 -67h-590v-187h553l-13 -69h-540v-4q0 -205 118.5 -332t321.5 -127q199 0 332 137l53 -47 q-154 -158 -383 -158q-240 0 -378 145.5t-138 381.5v4h-156z" />
<glyph unicode="&#xa4;" horiz-adv-x="1196" d="M117 440l207 181q-68 74 -68 172q0 100 70 176l-209 182l51 43l209 -180q88 59 198 59q115 0 201 -59l209 180l51 -43l-209 -182q74 -76 74 -174q0 -100 -70 -177l205 -178l-51 -43l-205 176q-88 -61 -202 -61q-115 0 -203 63l-207 -178zM328 795q0 -96 73.5 -156.5 t176.5 -60.5q102 0 177.5 59t75.5 156q0 100 -79 159q-72 55 -174 56q-102 0 -175 -56q-75 -61 -75 -157z" />
<glyph unicode="&#xa5;" horiz-adv-x="1320" d="M-14 1389h94l582 -644l583 644h92l-637 -713v-94h435v-70h-435v-186h435v-68h-435v-258h-73v258h-434v68h434v186h-434v70h434v94z" />
<glyph unicode="&#xa6;" horiz-adv-x="477" d="M203 -47v663h73v-663h-73zM203 762v663h73v-663h-73z" />
<glyph unicode="&#xa7;" horiz-adv-x="1196" d="M188 573q14 190 224 244q-193 66 -193 230q0 137 115 217q100 70 246 69q422 0 424 -344h-74q0 276 -338 277q-119 0 -201 -49q-98 -59 -98 -170q0 -106 117 -152q45 -18 264 -61q109 -10 176 -50q160 -68 160 -225q0 -209 -228 -266q193 -66 193 -227q0 -137 -117 -218 q-100 -70 -246 -69q-420 0 -419 342h73q0 -274 336 -275q121 0 201 50q98 57 98 170q0 137 -176 174l-315 63q-96 31 -160 100q-70 78 -62 170zM266 582q0 -119 121 -185q98 -53 229 -53q127 0 211 43q106 55 107 170q-49 211 -359 211q-258 0 -309 -156v-30z" />
<glyph unicode="&#xa8;" horiz-adv-x="438" d="M66 1153v94q0 31 36 31q37 0 37 -31v-94q0 -33 -37 -33q-36 0 -36 33zM303 1153v94q0 31 35 31q39 0 39 -31v-94q0 -33 -39 -33q-35 0 -35 33z" />
<glyph unicode="&#xa9;" horiz-adv-x="1146" d="M74 928q0 201 155 327q145 121 351 121q205 0 352 -119q160 -127 160 -327q0 -201 -158 -328q-145 -119 -350 -119q-211 0 -355 115q-155 125 -155 330zM152 930q0 -170 131 -277q123 -100 297 -100t299 98q135 106 135 277q0 170 -133 276q-123 100 -297 101 q-174 0 -299 -99q-133 -106 -133 -276zM287 924q0 129 85 203.5t220 74.5q233 0 270 -217h-80q-31 145 -192 145q-100 0 -162.5 -55t-62.5 -151q0 -100 65.5 -158.5t169.5 -58.5q135 0 182 155h84q-68 -227 -266 -227q-139 0 -226 78t-87 211z" />
<glyph unicode="&#xaa;" horiz-adv-x="774" d="M74 1024q0 143 83 233.5t230 90.5q156 0 238 -101v99h77v-631h-77v90q-84 -104 -242 -105q-145 0 -229 95q-80 88 -80 229zM152 1024q0 -111 55 -178q61 -76 176 -76q111 0 178 76q63 70 64 178q0 119 -62.5 186.5t-179.5 67.5q-113 0 -174 -76q-57 -67 -57 -178z" />
<glyph unicode="&#xab;" horiz-adv-x="800" d="M131 535v51l336 231v-78l-254 -178l254 -180v-72zM369 535v51l336 231v-78l-254 -178l254 -180v-72z" />
<glyph unicode="&#xac;" horiz-adv-x="1232" d="M86 555v63h1036v-344h-73v281h-963z" />
<glyph unicode="&#xad;" horiz-adv-x="1212" d="M88 473v39h1008v-39h-1008z" />
<glyph unicode="&#x2212;" horiz-adv-x="1212" d="M88 473v39h1008v-39h-1008z" />
<glyph unicode="&#xae;" horiz-adv-x="1112" d="M53 928q0 201 156 327q145 121 350 121q207 0 352 -119q158 -125 158 -327q0 -205 -156 -330q-143 -117 -352 -117q-207 0 -352 117q-156 125 -156 328zM131 930q0 -172 127 -277q121 -100 301 -100q176 0 299 98q133 104 133 277q0 174 -131 278q-121 98 -299 99 q-176 0 -299 -99q-131 -104 -131 -276zM367 653v541h247q188 0 189 -152q0 -84 -62 -127q55 -37 56 -114v-148h-80v146q0 80 -109 80h-164v-226h-77zM444 952h160q121 0 121 88q0 80 -111 80h-170v-168z" />
<glyph unicode="&#xaf;" horiz-adv-x="641" d="M57 1223v39h531v-39h-531z" />
<glyph unicode="&#x2c9;" horiz-adv-x="641" d="M57 1223v39h531v-39h-531z" />
<glyph unicode="&#xb0;" horiz-adv-x="860" d="M109 1065q0 121 95 198.5t224 77.5q131 0 223 -73q100 -78 101 -201q0 -125 -97.5 -202t-224.5 -77q-129 0 -225 78t-96 199zM180 1067q0 -94 74 -154.5t176 -60.5t177 58.5t75 154.5q0 98 -75 155.5t-177 57.5t-176 -58.5t-74 -152.5z" />
<glyph unicode="&#xb1;" horiz-adv-x="1290" d="M217 479v68h391v340h74v-340h393v-68h-393v-346h-74v346h-391zM219 -6v69h858v-69h-858z" />
<glyph unicode="&#xb2;" horiz-adv-x="802" d="M59 524q0 176 146 305q63 55 274 170q147 82 148 144q0 141 -221 141q-252 0 -252 -242h-80q0 313 323 314q307 0 308 -217q0 -98 -148 -181l-178 -98q-219 -121 -238 -266h604v-70h-686z" />
<glyph unicode="&#xb3;" horiz-adv-x="872" d="M78 799v37h82v-54q0 -100 92 -153q76 -41 186 -41q106 0 180 35q98 45 99 139q0 170 -252 170h-88v69h90q233 0 233 144q0 76 -90 112q-66 27 -153 27q-270 0 -271 -229h-80q0 301 349 301q127 0 213 -43q113 -55 112 -168q0 -129 -127 -178q143 -55 144 -205 q0 -127 -119 -193q-94 -53 -232 -53q-158 0 -253 64q-115 74 -115 219z" />
<glyph unicode="&#xb4;" horiz-adv-x="434" d="M61 1114q0 12 11 23l231 227q14 14 33 14q37 0 37 -32q0 -12 -11 -25l-231 -225q-14 -12 -31 -13q-39 0 -39 31z" />
<glyph unicode="&#xb5;" d="M104 -350v1349h74v-544q0 -190 90 -299q100 -117 291 -117q156 0 246 77t90 228v655h74v-657q0 -227 -174 -319q-35 -18 -35 -54q0 -86 166 -86v-73q-96 0 -164 34q-88 43 -88 119v17q-53 -10 -115 -11q-276 0 -381 205v-524h-74z" />
<glyph unicode="&#xb6;" horiz-adv-x="1015" d="M113 946q0 201 157 328q147 117 355 117q8 0 14 -2h266v-1661h-74v1593h-145v-1593h-74v774q-205 -8 -352 116.5t-147 327.5z" />
<glyph unicode="&#xb7;" horiz-adv-x="428" d="M207 608v111q0 33 37 33t37 -33v-111q0 -35 -37 -35t-37 35z" />
<glyph unicode="&#x2219;" horiz-adv-x="428" d="M207 608v111q0 33 37 33t37 -33v-111q0 -35 -37 -35t-37 35z" />
<glyph unicode="&#xb8;" horiz-adv-x="530" d="M45 -322l33 62q102 -33 168 -33q152 0 151 84q0 51 -110 62q-59 4 -92 -13v35l14 143h74l-4 -102h16q184 0 184 -133q0 -139 -227 -139q-78 -1 -207 34z" />
<glyph unicode="&#xb9;" horiz-adv-x="587" d="M16 1104l363 233h65v-805h-84v701l-206 -129h-138z" />
<glyph unicode="&#xba;" horiz-adv-x="845" d="M80 1030q0 145 96 229t250 84q152 0 248 -84.5t96 -228.5q0 -147 -99.5 -230t-250.5 -83q-152 0 -246 85t-94 228zM150 1030q0 -117 74.5 -184.5t197.5 -67.5q125 0 201.5 66.5t76.5 185.5q0 121 -82 189q-74 63 -196 63q-121 0 -196.5 -68.5t-75.5 -183.5z" />
<glyph unicode="&#xbb;" horiz-adv-x="780" d="M131 309v72l252 180l-252 178v78l336 -231v-51zM369 309v72l252 180l-252 178v78l336 -231v-51z" />
<glyph unicode="&#xbc;" horiz-adv-x="1671" d="M74 1108l346 227h61v-809h-73v717l-213 -135h-121zM387 0l696 1421h78l-696 -1421h-78zM754 274l329 553h78l-291 -491h435v493l71 -4v-489h189v-62h-189v-274h-71v274h-551z" />
<glyph unicode="&#xbd;" horiz-adv-x="1644" d="M51 1108l346 227h62v-809h-74v717l-211 -135h-123zM365 0l698 1421h78l-699 -1421h-77zM881 0q6 244 272 393l182 101q115 76 115 131q0 150 -225 149q-256 0 -258 -250h-70q4 311 320 312q301 0 301 -215q0 -98 -134 -172l-184 -107q-229 -135 -244 -281h603v-61h-678z " />
<glyph unicode="&#xbe;" horiz-adv-x="1855" d="M106 793v32h70v-51q0 -102 94 -158q80 -43 193 -43q106 0 184 37q100 49 101 146q0 176 -261 176h-81v63h83q240 0 240 148q0 147 -250 147q-274 0 -276 -231h-70q6 295 344 295q127 0 211 -41q111 -55 111 -170q0 -129 -142 -182q160 -55 160 -205q0 -125 -119 -191 q-94 -53 -229 -53q-363 0 -363 281zM573 0l699 1421h78l-699 -1421h-78zM940 274l332 553h78l-293 -491h434v493l72 -4v-489h188v-62h-188v-274h-72v274h-551z" />
<glyph unicode="&#xbf;" d="M68 139q0 127 108 248l201 195q111 117 110 237v64h76v-54q0 -201 -209 -370q-123 -100 -164 -158q-49 -70 -49 -162q0 -137 117 -209q98 -57 248 -57q369 0 405 358l68 -43q-27 -190 -156 -290q-123 -92 -319 -93q-176 0 -297 78q-139 90 -139 256zM489 1059v131 q0 37 35 37q39 0 39 -37v-131q0 -35 -39 -35q-35 0 -35 35z" />
<glyph unicode="&#xc0;" horiz-adv-x="1384" d="M27 0l639 1395h75l615 -1395h-80l-199 449h-762l-202 -449h-86zM348 518h701l-344 774zM551 1700q-27 29 4 49q25 25 53 -4l234 -248q27 -31 -6 -51q-27 -16 -52 6z" />
<glyph unicode="&#xc1;" horiz-adv-x="1384" d="M27 0l639 1395h75l615 -1395h-80l-199 449h-762l-202 -449h-86zM348 518h701l-344 774zM541 1477q0 12 10 24l233 248q14 14 31 14q37 0 37 -34q0 -12 -10 -25l-232 -248q-14 -14 -30 -14q-39 0 -39 35z" />
<glyph unicode="&#xc2;" horiz-adv-x="1384" d="M27 0l639 1395h75l615 -1395h-80l-199 449h-762l-202 -449h-86zM348 518h701l-344 774zM444 1434l222 301h59l225 -301h-88l-168 223l-168 -223h-82z" />
<glyph unicode="&#xc3;" horiz-adv-x="1384" d="M27 0l639 1393h75l615 -1393h-80l-199 449h-762l-202 -449h-86zM348 516h701l-344 774zM418 1491q0 66 49 107.5t108 41.5q35 0 146 -57q104 -53 129 -53q35 0 61.5 30.5t28.5 92.5l66 -37q-6 -68 -51.5 -111t-104.5 -43q-39 0 -146.5 55.5t-132.5 55.5q-33 0 -59.5 -31 t-28.5 -94z" />
<glyph unicode="&#xc4;" horiz-adv-x="1384" d="M27 0l639 1393h75l615 -1393h-80l-199 449h-762l-202 -449h-86zM348 516h701l-344 774zM543 1489v110q0 37 37 37t36 -37v-110q0 -37 -36 -37q-37 0 -37 37zM780 1489v110q0 37 35 37q39 0 39 -37v-110q0 -37 -39 -37q-35 0 -35 37z" />
<glyph unicode="&#xc5;" horiz-adv-x="1384" d="M27 0l639 1395h75l615 -1395h-80l-199 449h-762l-202 -449h-86zM348 518h701l-344 774zM520 1626q0 70 51.5 116t122.5 46q74 0 125 -45t51 -117t-51 -117t-125 -45q-72 0 -123 45t-51 117zM598 1626q0 -41 27.5 -65.5t68.5 -24.5q100 0 101 90q0 90 -101 90 q-41 0 -68.5 -25.5t-27.5 -64.5z" />
<glyph unicode="&#xc6;" horiz-adv-x="2205" d="M-61 0l1251 1389h928v-68h-848v-561h94v-2h645v-66h-739v-624h858v-68h-934v692h-543l-620 -692h-92zM715 760h479l2 530z" />
<glyph unicode="&#xc7;" horiz-adv-x="1472" d="M90 682q0 330 197.5 525.5t535.5 195.5q391 0 566 -252l-62 -41q-152 225 -504 225q-301 0 -480 -175t-179 -470t171 -468t466 -173q338 0 508 227l63 -40q-193 -256 -569 -256q-330 0 -521.5 189t-191.5 513zM557 -317l35 63q102 -35 168 -35q150 0 149 88q0 57 -108 66 q-59 6 -92 -10v34l14 154h74l-4 -111q6 2 16 2q184 0 184 -143q0 -147 -227 -147q-78 0 -209 39z" />
<glyph unicode="&#xc8;" horiz-adv-x="1155" d="M102 0v1395h1026v-68h-954v-567h846v-66h-846v-626h965v-68h-1037zM432 1679q-29 31 4 52q27 23 53 -5l234 -247q25 -29 -4 -52q-29 -20 -55 7z" />
<glyph unicode="&#xc9;" horiz-adv-x="1155" d="M102 0v1395h1026v-68h-954v-567h846v-66h-846v-626h965v-68h-1037zM422 1454q0 12 10 25l234 247q14 12 30 13q37 0 37 -35q0 -12 -10 -25l-231 -245q-14 -14 -31 -15q-39 0 -39 35z" />
<glyph unicode="&#xca;" horiz-adv-x="1155" d="M102 0v1395h1026v-68h-954v-567h846v-66h-846v-626h965v-68h-1037zM324 1454l221 301h59l227 -301h-90l-168 223l-167 -223h-82z" />
<glyph unicode="&#xcb;" horiz-adv-x="1155" d="M102 0v1393h1026v-68h-954v-565h846v-66h-846v-626h965v-68h-1037zM424 1505v111q0 37 35 37q39 0 39 -37v-111q0 -37 -39 -37q-35 0 -35 37zM659 1505v111q0 37 37 37t37 -37v-111q0 -37 -37 -37t-37 37z" />
<glyph unicode="&#xcc;" horiz-adv-x="274" d="M-8 1710q-27 31 4 51q29 23 55 -4l232 -248q27 -29 -7 -51q-29 -20 -53 6zM102 0v1395h74v-1395h-74z" />
<glyph unicode="&#xcd;" horiz-adv-x="274" d="M-18 1477q0 12 10 24l231 248q14 14 33 14q37 0 37 -34q0 -12 -10 -25l-232 -248q-14 -14 -31 -14q-38 0 -38 35zM102 0v1395h74v-1395h-74z" />
<glyph unicode="&#xce;" horiz-adv-x="274" d="M-117 1446l221 301h60l227 -301h-88l-168 223l-170 -223h-82zM102 0v1395h74v-1395h-74z" />
<glyph unicode="&#xcf;" horiz-adv-x="274" d="M-20 1522v110q0 35 40 35q33 0 35 -35l2 -110q0 -39 -37 -39q-40 0 -40 39zM102 0v1393h74v-1393h-74zM221 1522v110q0 35 35 35t37 -35l2 -110q0 -39 -39 -39q-35 0 -35 39z" />
<glyph unicode="&#xd0;" horiz-adv-x="1392" d="M27 662v69h75v658h543q336 0 508 -187q168 -178 168 -510q0 -340 -211 -520q-199 -172 -543 -172h-465v662h-75zM176 68h397q315 0 494.5 158.5t179.5 465.5q0 303 -147 461q-154 168 -457 168h-467v-590h406v-69h-406v-594z" />
<glyph unicode="&#xd1;" horiz-adv-x="1392" d="M102 0v1393h86q172 -227 514 -645l517 -644v1289h73v-1393h-88l-1028 1292v-1292h-74zM403 1479q0 63 50.5 106t105.5 43q37 0 148 -57q104 -53 129 -53q35 0 61.5 30.5t28.5 91.5l65 -34q-6 -68 -51 -112t-104 -44q-39 0 -146.5 55.5t-132.5 55.5q-33 0 -59.5 -31 t-28.5 -94z" />
<glyph unicode="&#xd2;" horiz-adv-x="1550" d="M57 696q0 330 191.5 511.5t527.5 181.5t529 -179q195 -184 194 -514q0 -332 -194.5 -521t-528.5 -189q-338 0 -528.5 189t-190.5 521zM131 696q0 -295 172 -469t473 -174q305 0 477 172t172 471q0 301 -173 463t-476 162t-474 -164t-171 -461zM623 1731q0 37 36 36 q16 0 31 -14l232 -248q27 -31 -7 -51q-27 -18 -49 6l-235 246q-8 13 -8 25z" />
<glyph unicode="&#xd3;" horiz-adv-x="1550" d="M57 698q0 328 191.5 509.5t527.5 181.5t529 -179q195 -184 194 -512q0 -334 -194.5 -523t-528.5 -189q-338 0 -528.5 189t-190.5 523zM131 698q0 -297 172 -471t473 -174q305 0 477 172t172 473q0 299 -173 461t-476 162t-474 -164t-171 -459zM621 1487q0 14 10 26 l231 248q25 25 56 6q31 -25 2 -53l-234 -246q-14 -12 -29 -12q-36 0 -36 31z" />
<glyph unicode="&#xd4;" horiz-adv-x="1550" d="M57 698q0 328 191.5 509.5t527.5 181.5t529 -179q195 -184 194 -512q0 -334 -194.5 -523t-528.5 -189q-338 0 -528.5 189t-190.5 523zM131 698q0 -297 172 -471t473 -174q305 0 477 172t172 473q0 299 -173 461t-476 162t-474 -164t-171 -459zM522 1470l219 299h60 l227 -299h-88l-168 222l-168 -222h-82z" />
<glyph unicode="&#xd5;" horiz-adv-x="1550" d="M57 696q0 330 191.5 511.5t527.5 181.5t529.5 -181.5t193.5 -511.5q0 -334 -194.5 -522t-528.5 -188q-338 0 -528.5 189t-190.5 521zM131 696q0 -297 172 -470t473 -173q305 0 477 172t172 471q0 301 -176 465q-170 158 -473 158t-474 -163t-171 -460zM487 1522 q0 63 50.5 106t105.5 43q37 0 148 -57q104 -53 127 -53q37 0 63.5 30.5t28.5 91.5l65 -36q-8 -68 -53 -111t-104 -43q-37 0 -144.5 55.5t-132.5 55.5q-39 0 -66 -37q-20 -29 -26 -88z" />
<glyph unicode="&#xd6;" horiz-adv-x="1550" d="M57 696q0 330 191.5 510t527.5 180t529.5 -180t193.5 -510q0 -334 -194.5 -522t-528.5 -188q-338 0 -528.5 189t-190.5 521zM131 696q0 -297 172 -470t473 -173q305 0 477 172t172 471q0 301 -176 465q-170 158 -473 158t-474 -163t-171 -460zM623 1522v110q0 35 34 35 q35 0 37 -35l2 -110q0 -39 -39 -39q-34 0 -34 39zM858 1522v110q0 35 37 35q33 0 35 -35l2 -110q0 -39 -37 -39t-37 39z" />
<glyph unicode="&#xd7;" horiz-adv-x="1003" d="M172 276l277 240l-275 236l53 47l275 -238l276 238l53 -47l-276 -236l279 -244l-54 -43l-278 238l-279 -236z" />
<glyph unicode="&#xd8;" horiz-adv-x="1550" d="M57 694q0 328 191.5 509t527.5 181q158 0 285 -38l47 96h78l-60 -123q373 -168 373 -625q0 -334 -194.5 -521t-528.5 -187q-160 0 -289 43l-43 -88h-77l57 116q-106 47 -186 133q-181 195 -181 504zM131 694q0 -276 164 -452q72 -80 160 -119l573 1159q-111 33 -252 33 q-303 0 -474 -163t-171 -458zM520 94q113 -41 256 -41q305 0 477 171t172 470q0 418 -331 563z" />
<glyph unicode="&#xd9;" horiz-adv-x="1359" d="M102 522v873h74v-871q0 -471 504 -471t504 463v879h73v-877q0 -281 -149 -409q-139 -123 -428 -123q-291 0 -430 123q-148 130 -148 413zM535 1692q-27 29 4 49q29 23 55 -4l231 -246q27 -31 -4 -53q-25 -16 -53 6z" />
<glyph unicode="&#xda;" horiz-adv-x="1359" d="M102 522v873h74v-871q0 -471 504 -471t504 463v879h73v-877q0 -281 -149 -409q-139 -123 -428 -123q-291 0 -430 123q-148 130 -148 413zM524 1468q0 14 11 27l231 246q14 14 33 14q37 0 37 -35q0 -12 -11 -24l-233 -248q-14 -12 -31 -12q-37 -1 -37 32z" />
<glyph unicode="&#xdb;" horiz-adv-x="1359" d="M102 522v873h74v-871q0 -471 504 -471t504 463v879h73v-877q0 -281 -149 -409q-139 -123 -428 -123q-291 0 -430 123q-148 130 -148 413zM426 1450l221 301h60l227 -301h-88l-170 223l-168 -223h-82z" />
<glyph unicode="&#xdc;" horiz-adv-x="1359" d="M102 522v871h74v-869q0 -471 504 -471t504 463v877h73v-875q0 -281 -149 -409q-139 -123 -428 -123q-291 0 -430 123q-148 130 -148 413zM526 1522v110q0 35 35 35q39 0 39 -35v-110q0 -39 -39 -39q-35 0 -35 39zM762 1522v110q0 35 37 35t37 -35v-110q0 -39 -37 -39 t-37 39z" />
<glyph unicode="&#xdd;" horiz-adv-x="1345" d="M-2 1395h94l582 -647l583 647h93l-637 -715v-680h-74v680zM518 1477q0 12 10 24l234 248q14 14 33 14q37 0 36 -34q0 -12 -10 -25l-233 -248q-14 -14 -31 -14q-39 0 -39 35z" />
<glyph unicode="&#xde;" horiz-adv-x="870" d="M104 0v1389h74v-310h305q291 0 291 -368q0 -360 -293 -361h-303v-350h-74zM178 416h305q215 2 215 295q0 301 -217 301h-303v-596z" />
<glyph unicode="&#xdf;" horiz-adv-x="1034" d="M33 817v70h71q0 100 7 217q14 309 374 309q432 0 422 -295q-6 -219 -233 -270q109 -31 196 -131q121 -135 121 -303q0 -242 -162 -367q-145 -109 -409 -108v67q498 0 498 408q0 195 -146 303q-133 100 -352 100v68q203 0 287 33q129 51 129 192t-103 195q-76 41 -252 41 q-303 0 -303 -295v-1053h-74v819h-71z" />
<glyph unicode="&#xe0;" horiz-adv-x="1130" d="M45 502q0 233 125 377q135 154 371 153q301 0 424 -244v240h73v-1028h-73v225q-131 -248 -433 -248q-231 0 -362 152q-125 144 -125 373zM117 502q0 -199 102 -322q113 -135 311 -135q197 0 318 135q117 127 117 322q0 211 -113 336t-322 125q-197 0 -309 -138 q-104 -128 -104 -323zM373 1317q-29 31 4 51q27 25 55 -4l232 -248q27 -29 -7 -49q-25 -18 -51 4z" />
<glyph unicode="&#xe1;" horiz-adv-x="1130" d="M70 502q0 233 125 377q135 154 370 153q301 0 424 -244v240h74v-1028h-74v225q-131 -248 -432 -248q-231 0 -362 152q-125 144 -125 373zM141 502q0 -199 103 -322q113 -135 311 -135q197 0 317 135q117 127 117 322q0 211 -112.5 336t-321.5 125q-197 0 -309 -138 q-105 -128 -105 -323zM387 1092q0 12 10 24l232 248q14 14 33 14q37 0 36 -35q0 -12 -10 -26l-235 -246q-14 -12 -29 -12q-37 0 -37 33z" />
<glyph unicode="&#xe2;" horiz-adv-x="1130" d="M70 502q0 233 125 377q135 154 370 153q301 0 424 -244v240h74v-1028h-74v225q-131 -248 -432 -248q-231 0 -362 152q-125 144 -125 373zM141 502q0 -199 103 -322q113 -135 311 -135q197 0 317 135q117 127 117 322q0 211 -112.5 336t-321.5 125q-197 0 -309 -138 q-105 -128 -105 -323zM289 1081l219 299h59l228 -299h-88l-168 222l-168 -222h-82z" />
<glyph unicode="&#xe3;" horiz-adv-x="1130" d="M70 500q0 233 125 379q135 152 370 151q301 0 424 -242v238h74v-1026h-74v225q-131 -248 -432 -248q-231 0 -362 152q-125 144 -125 371zM141 500q0 -197 103 -322q113 -133 311 -133q197 0 315.5 131t118.5 324q0 213 -110 334q-115 129 -324 129q-197 0 -309 -140 q-105 -126 -105 -323zM252 1133q0 63 50 106t106 43q37 0 147 -57q104 -53 127 -54q37 0 63.5 31t28.5 92l66 -37q-8 -68 -53.5 -110.5t-104.5 -42.5q-39 0 -146.5 55t-129.5 55q-39 0 -63 -31.5t-30 -92.5z" />
<glyph unicode="&#xe4;" horiz-adv-x="1130" d="M70 500q0 233 125 377q135 154 370 153q301 0 424 -242v238h74v-1026h-74v225q-131 -248 -432 -248q-231 0 -362 152q-125 144 -125 371zM141 500q0 -197 103 -322q113 -133 311 -133q197 0 315.5 131t118.5 324q0 213 -110 334q-115 129 -324 129q-197 0 -309 -140 q-105 -126 -105 -323zM414 1133v110q0 35 35 35q39 0 38 -35v-110q0 -39 -38 -39q-35 0 -35 39zM649 1133v110q0 35 37 35t37 -35v-110q0 -39 -37 -39t-37 39z" />
<glyph unicode="&#xe5;" horiz-adv-x="1130" d="M70 502q0 233 125 379q135 152 370 151q301 0 424 -241v237h74v-1028h-74v227q-131 -250 -432 -250q-231 0 -362 152q-125 144 -125 373zM141 502q0 -199 103 -322q113 -135 311 -135q197 0 317 135q117 127 117 322q0 213 -110 334q-115 129 -324 129q-197 0 -309 -140 q-105 -126 -105 -323zM377 1272q0 72 51 117t125 45q72 0 123 -45.5t51 -116.5q0 -72 -51 -117t-123 -45q-74 0 -125 45t-51 117zM455 1272q0 -39 28.5 -63.5t69.5 -24.5t69.5 24.5t28.5 63.5q0 41 -28.5 65.5t-69.5 24.5t-69.5 -24.5t-28.5 -65.5z" />
<glyph unicode="&#xe6;" horiz-adv-x="2015" d="M45 498q0 231 125 374q135 152 371 152q301 0 424 -242v238h73v-234q27 45 68 88q143 150 360 150q229 0 366.5 -131t137.5 -356v-58l-932 -2v-35q0 -397 424 -397q139 0 247 63.5t155 186.5h75q-53 -166 -190 -246q-125 -72 -291 -72q-299 0 -420 209v-186h-73v225 q-131 -248 -433 -248q-231 0 -362 152q-125 142 -125 369zM117 498q0 -197 102 -320q113 -133 311 -133q197 0 318 133q117 127 117 320q0 211 -113 334.5t-322 123.5q-197 0 -309 -137q-104 -126 -104 -321zM1038 545h846q-4 188 -116.5 299.5t-301.5 111.5 q-176 0 -302 -110.5t-126 -284.5v-16z" />
<glyph unicode="&#xe7;" d="M53 477q0 250 141.5 398.5t389.5 148.5q152 0 262 -70q123 -78 162 -229l-68 -35q-68 266 -360 266q-215 0 -338 -135q-115 -129 -115 -344q0 -199 114.5 -318.5t317.5 -119.5q143 0 248 67q113 74 141 224l72 -31q-39 -168 -172 -252q-119 -78 -287 -78 q-236 0 -372 139.5t-136 368.5zM365 -319l32 65q104 -35 168 -35q152 0 152 88q0 55 -111 66q-59 4 -92 -12v34l16 154h74l-4 -109h14q184 0 185 -141q0 -147 -228 -147q-75 0 -206 37z" />
<glyph unicode="&#xe8;" d="M39 502q0 233 136 381.5t368 148.5q229 0 366.5 -133t137.5 -358v-58l-936 -2q12 -436 426 -436q139 0 246.5 64.5t154.5 189.5h76q-53 -174 -189 -252q-123 -70 -293 -70q-246 0 -374 146q-119 135 -119 379zM111 549h850q-4 188 -117 301t-301 113t-303 -113t-129 -301 zM383 1341q0 37 37 37q16 0 31 -14l233 -248q27 -29 -6 -51q-27 -14 -51 6l-236 246q-8 12 -8 24z" />
<glyph unicode="&#xe9;" d="M39 502q0 233 136 381.5t368 148.5q229 0 366.5 -133t137.5 -358v-58l-936 -2q12 -436 426 -436q139 0 246.5 64.5t154.5 189.5h76q-53 -174 -189 -252q-123 -70 -293 -70q-246 0 -374 146q-119 135 -119 379zM111 549h850q-4 188 -117 301t-301 113t-303 -113t-129 -301 zM383 1096q0 12 10 24l232 248q25 25 57 4q12 -10 12 -24q0 -10 -10 -25l-235 -248q-14 -12 -29 -12q-37 0 -37 33z" />
<glyph unicode="&#xea;" d="M39 502q0 233 136 381.5t368 148.5q229 0 366.5 -133t137.5 -358v-58l-936 -2q12 -436 426 -436q139 0 246.5 64.5t154.5 189.5h76q-53 -174 -189 -252q-123 -70 -293 -70q-246 0 -374 146q-119 135 -119 379zM111 549h850q-4 188 -117 301t-301 113t-303 -113t-129 -301 zM285 1081l221 299h59l226 -299h-89l-167 222l-168 -222h-82z" />
<glyph unicode="&#xeb;" d="M39 500q0 236 136 383t368 147q229 0 366.5 -132t137.5 -357v-60l-936 -2q12 -434 426 -434q139 0 246.5 64.5t154.5 187.5h76q-53 -172 -189 -250q-123 -70 -293 -70q-246 0 -374 146q-119 135 -119 377zM111 547h850q-4 190 -117 303t-301 113t-303 -113t-129 -303z M385 1133v110q0 35 37 35t37 -35v-110q0 -39 -37 -39t-37 39zM623 1133v110q0 35 34 35q39 0 39 -35v-110q0 -39 -39 -39q-34 0 -34 39z" />
<glyph unicode="&#xec;" horiz-adv-x="278" d="M-6 1317q-27 31 4 51q25 25 53 -4l234 -248q27 -29 -6 -49q-27 -16 -52 4zM104 0v1008h74v-1008h-74z" />
<glyph unicode="&#xed;" horiz-adv-x="278" d="M-16 1085q0 12 10 23l233 248q14 14 31 14q37 0 37 -35q0 -12 -10 -24l-232 -246q-14 -14 -30 -14q-39 -1 -39 34zM104 0v1008h74v-1008h-74z" />
<glyph unicode="&#xee;" horiz-adv-x="278" d="M-98 1081l209 299h59l213 -299h-86l-156 219l-159 -219h-80zM104 0v1008h74v-1008h-74z" />
<glyph unicode="&#xef;" horiz-adv-x="278" d="M-10 1133v110q0 35 39 35q37 0 37 -35v-110q0 -39 -37 -39q-39 0 -39 39zM104 0v1006h74v-1006h-74zM229 1133v110q0 35 35 35q39 0 39 -35v-110q0 -39 -39 -39q-35 0 -35 39z" />
<glyph unicode="&#xf0;" horiz-adv-x="1155" d="M45 502q0 233 125 377q135 154 371 153q301 0 424 -244v386h-680v71h680v144h73v-1389h-73v225q-131 -248 -433 -248q-231 0 -362 152q-125 144 -125 373zM117 502q0 -199 102 -322q113 -135 311 -135q197 0 318 135q117 127 117 322q0 211 -113 337t-322 126 q-197 0 -309 -140q-104 -128 -104 -323z" />
<glyph unicode="&#xf1;" d="M104 0v1006h74v-181q102 205 383 205q178 0 287 -86q121 -92 121 -262v-682h-74v662q0 145 -90 223t-242 78q-178 0 -281.5 -111t-103.5 -287v-565h-74zM252 1133q0 61 51 105t105 44q37 0 147 -57q104 -53 129 -54q35 0 61.5 31t28.5 92l66 -37q-6 -68 -51.5 -110.5 t-104.5 -42.5q-39 0 -146.5 55t-131.5 55q-33 0 -60 -30.5t-29 -93.5z" />
<glyph unicode="&#xf2;" horiz-adv-x="1116" d="M45 504q0 238 139.5 383t376.5 145q236 0 375 -145.5t139 -382.5q0 -238 -140 -382.5t-378 -144.5t-375 145.5t-137 381.5zM119 504q0 -205 118.5 -332t321.5 -127t322.5 127t119.5 332q0 209 -117.5 334t-324.5 125q-205 0 -322.5 -126t-117.5 -333zM414 1317 q-29 31 4 51q27 25 55 -4l232 -248q27 -29 -7 -49q-25 -18 -51 4z" />
<glyph unicode="&#xf3;" horiz-adv-x="1116" d="M45 504q0 238 139.5 383t376.5 145q236 0 375 -145.5t139 -382.5q0 -238 -140 -382.5t-378 -144.5t-375 145.5t-137 381.5zM119 504q0 -205 118.5 -332t321.5 -127t322.5 127t119.5 332q0 209 -117.5 334t-324.5 125q-205 0 -322.5 -126t-117.5 -333zM403 1085q0 12 9 23 l233 248q14 14 33 14q37 0 37 -35q0 -12 -10 -24l-234 -246q-14 -14 -31 -14q-37 -1 -37 34z" />
<glyph unicode="&#xf4;" horiz-adv-x="1116" d="M45 504q0 238 139.5 383t376.5 145q236 0 375 -145.5t139 -382.5q0 -238 -140 -382.5t-378 -144.5t-375 145.5t-137 381.5zM119 504q0 -205 118.5 -332t321.5 -127t322.5 127t119.5 332q0 209 -117.5 334t-324.5 125q-205 0 -322.5 -126t-117.5 -333zM305 1081l221 299 h60l227 -299h-88l-168 222l-170 -222h-82z" />
<glyph unicode="&#xf5;" horiz-adv-x="1116" d="M45 502q0 238 140.5 383t375.5 145q236 0 375 -145.5t139 -382.5q0 -236 -140 -380.5t-378 -144.5t-375 146t-137 379zM119 502q0 -205 117 -328q121 -129 323 -129q203 0 324 129q119 123 118 328q0 209 -117.5 335t-324.5 126q-205 0 -322.5 -127t-117.5 -334z M266 1133q0 66 49.5 107.5t108.5 41.5q35 0 145 -57q104 -53 129 -54q76 0 95 123l61 -37q-8 -68 -52 -110.5t-104 -42.5q-39 0 -147.5 55t-128.5 55q-37 0 -62.5 -29.5t-27.5 -94.5z" />
<glyph unicode="&#xf6;" horiz-adv-x="1116" d="M45 502q0 238 140.5 383t375.5 145q236 0 375 -145.5t139 -382.5q0 -236 -140 -380.5t-378 -144.5t-375 146t-137 379zM119 502q0 -205 117 -328q121 -129 323 -129q203 0 324 129q119 123 118 328q0 209 -117.5 335t-324.5 126q-205 0 -322.5 -127t-117.5 -334z M406 1133v110q0 35 34 35q39 0 39 -35v-110q0 -39 -39 -39q-34 0 -34 39zM641 1133v110q0 35 37 35t37 -35v-110q0 -39 -37 -39t-37 39z" />
<glyph unicode="&#xf7;" horiz-adv-x="1212" d="M88 459v67h1008v-67h-1008zM571 188v127q0 35 35 35q39 0 39 -35v-127q0 -37 -39 -36q-35 -1 -35 36zM571 653v127q0 35 35 35q39 0 39 -35v-127q0 -37 -39 -37q-35 0 -35 37z" />
<glyph unicode="&#xf8;" horiz-adv-x="1116" d="M45 500q0 238 140.5 382t375.5 144q106 0 195 -31l63 129h78l-76 -157q70 -37 125 -99q129 -145 129 -368q0 -238 -141 -381.5t-377 -143.5q-117 0 -209 37l-53 -108h-78l68 137q-240 142 -240 459zM119 500q0 -264 196 -394l410 828q-76 25 -166 24 q-205 0 -322.5 -125.5t-117.5 -332.5zM377 76q80 -33 182 -33q203 0 322.5 126t119.5 331q0 190 -112 317q-45 55 -103 86z" />
<glyph unicode="&#xf9;" d="M104 348v660h74v-658q0 -150 89 -227.5t245 -77.5q190 0 291 119q92 109 92 297v547h74v-1008h-74v182q-106 -205 -383 -205q-186 0 -297 95.5t-111 275.5zM393 1311q-27 29 4 49q25 25 54 -4l233 -248q27 -29 -6 -49q-27 -16 -51 4z" />
<glyph unicode="&#xfa;" d="M104 350v658h74v-658q0 -150 89 -227.5t245 -77.5q190 0 291 119q92 109 92 297v547h74v-1008h-74v182q-106 -205 -383 -205q-186 0 -297 95.5t-111 277.5zM383 1094q0 12 10 22l232 248q14 14 32 14q37 0 37 -35q0 -14 -10 -26l-231 -244q-14 -14 -31 -14q-39 0 -39 35z " />
<glyph unicode="&#xfb;" d="M104 350v658h74v-656q0 -152 89 -229.5t245 -77.5q190 0 291 119q92 109 92 297v547h74v-1008h-74v182q-106 -205 -383 -205q-186 0 -297 95.5t-111 277.5zM285 1081l221 299h59l226 -299h-89l-167 222l-168 -222h-82z" />
<glyph unicode="&#xfc;" d="M104 348v658h74v-656q0 -150 89 -227.5t245 -77.5q190 0 291 117q92 109 92 299v545h74v-1006h-74v180q-106 -203 -383 -203q-186 0 -297 95.5t-111 275.5zM383 1133v110q0 35 37 35t37 -35v-110q0 -39 -37 -39t-37 39zM621 1133v110q0 35 34 35q39 0 39 -35v-110 q0 -39 -39 -39q-34 0 -34 39z" />
<glyph unicode="&#xfd;" horiz-adv-x="1036" d="M57 -27h74q23 -272 367 -272q397 0 397 344v131q-106 -205 -383 -205q-186 0 -297 96.5t-111 276.5v662h74v-660q0 -150 89 -228.5t245 -78.5q190 0 291 119q92 109 92 299v549h74v-963q0 -410 -475 -410q-178 0 -291 72q-136 84 -146 268zM362 1096q0 14 13 24l231 248 q25 25 58 4q12 -10 12 -24q0 -10 -10 -27l-236 -246q-14 -12 -29 -12q-39 0 -39 33z" />
<glyph unicode="&#xfe;" horiz-adv-x="1155" d="M104 -344v1733h74v-601q57 117 170 179.5t250 62.5q238 0 369 -149q127 -141 127 -377q0 -240 -125 -383q-131 -150 -369 -150q-303 0 -422 244v-559h-74zM178 508q0 -215 103 -338q113 -129 327 -129q201 0 312 135q102 125 102 326t-104 325q-111 135 -308 136 q-199 0 -315.5 -127t-116.5 -328z" />
<glyph unicode="&#xff;" horiz-adv-x="1044" d="M57 -27h74q23 -272 367 -272q397 0 397 344v131q-106 -205 -383 -205q-186 0 -297 95.5t-111 277.5v660h74v-658q0 -152 89 -229.5t245 -77.5q190 0 291 119q92 109 92 299v547h74v-961q0 -410 -475 -410q-178 0 -291 72q-136 84 -146 268zM369 1133v110q0 35 37 35 q33 0 34 -35l2 -110q0 -39 -36 -39q-37 0 -37 39zM606 1133v110q0 35 35 35t37 -35l2 -110q0 -39 -39 -39q-35 0 -35 39z" />
<glyph unicode="&#x152;" horiz-adv-x="2068" d="M63 690q0 330 193 519.5t528 189.5q68 0 136 -10h1075v-68h-852q336 -170 360 -563h428v-68h-424q0 -438 -350 -622h850v-68h-1042q-86 -16 -181 -16q-334 0 -527.5 190t-193.5 516zM137 690q0 -297 172 -469t475 -172q86 0 164 19v1247q-78 16 -164 16q-303 0 -475 -172 t-172 -469zM1020 86q137 43 237 141q176 174 177 463h-414v-604zM1020 758h410q-16 244 -173 399q-100 98 -237 141v-540z" />
<glyph unicode="&#x153;" horiz-adv-x="2154" d="M94 500q0 238 140.5 381t375.5 143q172 0 299 -83t181 -239q37 96 106 172q143 150 363 150q229 0 366 -131t137 -356v-58l-934 -2q12 -432 426 -432q139 0 247 63.5t155 186.5h76q-53 -166 -191 -246q-125 -72 -291 -72q-369 0 -465 310q-57 -147 -184 -228.5 t-295 -81.5q-238 0 -377 148q-135 142 -135 375zM168 500q0 -205 119 -330t321 -125q203 0 323 125t120 330q0 209 -118 332.5t-325 123.5q-205 0 -322.5 -124.5t-117.5 -331.5zM1128 545h848q-4 188 -116.5 299.5t-300.5 111.5q-184 0 -301.5 -113.5t-129.5 -297.5z" />
<glyph unicode="&#x178;" horiz-adv-x="1357" d="M2 1393h96l582 -645l584 645h92l-637 -713v-680h-74v680zM535 1522v110q0 35 36 35q33 0 35 -35l2 -110q0 -39 -37 -39q-36 0 -36 39zM772 1522v110q0 35 35 35t37 -35l2 -110q0 -39 -39 -39q-35 0 -35 39z" />
<glyph unicode="&#x2c6;" horiz-adv-x="530" d="M12 1106l219 274h60l227 -274h-88l-168 203l-168 -203h-82z" />
<glyph unicode="&#x2dc;" horiz-adv-x="749" d="M82 1155q0 51 51 89t105 38q37 0 147 -49q104 -45 127 -45q37 0 63.5 26.5t28.5 77.5l66 -30q-8 -57 -53.5 -94.5t-104.5 -37.5q-37 0 -144.5 47.5t-131.5 47.5q-33 0 -59.5 -27t-29.5 -80z" />
<glyph unicode="&#x2000;" horiz-adv-x="894" />
<glyph unicode="&#x2001;" horiz-adv-x="1789" />
<glyph unicode="&#x2002;" horiz-adv-x="894" />
<glyph unicode="&#x2003;" horiz-adv-x="1789" />
<glyph unicode="&#x2004;" horiz-adv-x="595" />
<glyph unicode="&#x2005;" horiz-adv-x="446" />
<glyph unicode="&#x2006;" horiz-adv-x="296" />
<glyph unicode="&#x2007;" horiz-adv-x="296" />
<glyph unicode="&#x2008;" horiz-adv-x="223" />
<glyph unicode="&#x2009;" horiz-adv-x="356" />
<glyph unicode="&#x200a;" horiz-adv-x="98" />
<glyph unicode="&#x2010;" horiz-adv-x="716" d="M90 520v41h557v-41h-557z" />
<glyph unicode="&#x2011;" horiz-adv-x="716" d="M90 520v41h557v-41h-557z" />
<glyph unicode="&#x2012;" horiz-adv-x="716" d="M90 520v41h557v-41h-557z" />
<glyph unicode="&#x2013;" horiz-adv-x="1013" d="M-16 520v41h1042v-41h-1042z" />
<glyph unicode="&#x2014;" horiz-adv-x="1830" d="M-16 520v41h1859v-41h-1859z" />
<glyph unicode="&#x2018;" horiz-adv-x="358" d="M106 1069l87 293q8 25 36 24q49 0 35 -43l-88 -292q-10 -33 -45 -25t-25 43z" />
<glyph unicode="&#x2019;" horiz-adv-x="358" d="M106 1069l89 293q10 33 43 24q37 -8 26 -43l-86 -292q-8 -25 -37 -25q-49 0 -35 43z" />
<glyph unicode="&#x201a;" horiz-adv-x="598" d="M182 -156q0 4 2 15l88 293q10 33 43 24q37 -8 27 -43l-86 -293q-8 -27 -35 -26q-39 -1 -39 30z" />
<glyph unicode="&#x201c;" horiz-adv-x="546" d="M106 1069l87 293q8 25 36 24q49 0 35 -43l-88 -292q-10 -33 -45 -25t-25 43zM322 1069l86 293q8 25 36 24q49 0 35 -43l-88 -292q-10 -33 -45 -25q-34 8 -24 43z" />
<glyph unicode="&#x201d;" horiz-adv-x="565" d="M106 1069l89 293q10 33 43 24q37 -8 26 -43l-86 -292q-8 -25 -37 -25q-49 0 -35 43zM322 1069l88 293q10 33 43 24q37 -8 26 -43l-86 -292q-8 -25 -37 -25q-48 0 -34 43z" />
<glyph unicode="&#x201e;" horiz-adv-x="718" d="M182 -156q0 4 2 15l88 293q10 33 43 24q37 -8 27 -43l-86 -293q-8 -27 -35 -26q-39 -1 -39 30zM397 -156q0 4 2 15l88 293q10 33 43 24q37 -8 27 -43l-86 -293q-8 -27 -35 -26q-39 -1 -39 30z" />
<glyph unicode="&#x2022;" horiz-adv-x="598" d="M98 547v237q0 35 150 35q152 0 151 -35v-237q0 -35 -151 -35q-150 0 -150 35z" />
<glyph unicode="&#x2026;" horiz-adv-x="1306" d="M262 29v112q0 33 37 33t37 -33v-112q0 -33 -37 -33t-37 33zM649 29v112q0 33 37 33t37 -33v-112q0 -33 -37 -33t-37 33zM1036 29v112q0 33 37 33t37 -33v-112q0 -33 -37 -33t-37 33z" />
<glyph unicode="&#x202f;" horiz-adv-x="356" />
<glyph unicode="&#x2039;" horiz-adv-x="602" d="M131 535v51l336 231v-78l-254 -178l254 -180v-72z" />
<glyph unicode="&#x203a;" horiz-adv-x="602" d="M131 309v72l252 180l-252 178v78l336 -231v-51z" />
<glyph unicode="&#x205f;" horiz-adv-x="446" />
<glyph unicode="&#x2122;" horiz-adv-x="1615" d="M94 1331v70h699l317 -584l313 584h103v-690h-84v563l-297 -563h-68l-309 571q2 -184 4 -571h-82v620h-211v-620h-82v620h-303z" />
<glyph unicode="&#xe000;" horiz-adv-x="1000" d="M0 1000h1000v-1000h-1000v1000z" />
<glyph unicode="&#xfb01;" horiz-adv-x="825" d="M651 0v1008h74v-1008h-74zM651 1237v139q12 31 33 31q18 0 41 -29v-143q-20 -27 -41 -27q-23 0 -33 29zM47 831v70h148v84q0 379 489 379v-66q-416 0 -416 -313v-84h228v-70h-228v-833h-73v833h-148z" />
<glyph unicode="&#xfb02;" horiz-adv-x="825" d="M651 0v1389h74v-1389h-74zM47 831v70h148v84q0 379 489 379v-66q-416 0 -416 -313v-84h228v-70h-228v-833h-73v833h-148z" />
<glyph unicode="&#xfb03;" horiz-adv-x="1372" d="M1198 0v1008h74v-1008h-74zM1198 1237v139q12 31 33 31q18 0 41 -29v-143q-20 -27 -41 -27q-23 0 -33 29zM594 831v70h148v84q0 379 489 379v-66q-416 0 -416 -313v-84h228v-70h-228v-833h-73v833h-148zM47 831v70h148v84q0 379 489 379v-66q-416 0 -416 -313v-84h228 v-70h-228v-833h-73v833h-148z" />
<glyph unicode="&#xfb04;" horiz-adv-x="1372" d="M1198 0v1389h74v-1389h-74zM594 831v70h148v84q0 379 489 379v-66q-416 0 -416 -313v-84h228v-70h-228v-833h-73v833h-148zM47 831v70h148v84q0 379 489 379v-66q-416 0 -416 -313v-84h228v-70h-228v-833h-73v833h-148z" />
</font>
</defs>
</svg>
