<?xml version="1.0" standalone="no"?>
<!DOCTYPE svg PUBLIC "-//W3C//DTD SVG 1.1//EN" "http://www.w3.org/Graphics/SVG/1.1/DTD/svg11.dtd" >
<svg xmlns="http://www.w3.org/2000/svg">
<metadata></metadata>
<defs>
<font id="rbno2.1abolditalic" horiz-adv-x="884" >
<font-face units-per-em="2048" ascent="1638" descent="-410" />
<missing-glyph horiz-adv-x="286" />
<glyph unicode="&#xfb01;" horiz-adv-x="888" d="M57 0l136 965h-82l30 217h82l8 59q10 70 25.5 115t38.5 75t63 45.5t87.5 21t123.5 5.5h174l-30 -221h-174q-18 0 -29.5 -7.5t-16 -17t-6.5 -24.5l-8 -51h477l-165 -1182h-256l135 965h-221l-136 -965h-256z" />
<glyph unicode="&#xfb02;" horiz-adv-x="888" d="M57 0l136 965h-82l30 217h82l8 59q10 70 25.5 115t38.5 75t63 45.5t87.5 21t123.5 5.5h432l-210 -1503h-256l182 1296h-176q-46 0 -54 -51l-8 -63h127l-31 -217h-126l-136 -965h-256z" />
<glyph horiz-adv-x="2048" />
<glyph horiz-adv-x="2048" />
<glyph unicode="&#xd;" horiz-adv-x="2048" />
<glyph unicode=" "  horiz-adv-x="286" />
<glyph unicode="&#x09;" horiz-adv-x="286" />
<glyph unicode="&#xa0;" horiz-adv-x="286" />
<glyph unicode="!" horiz-adv-x="405" d="M47 0l41 293h229l-41 -293h-229zM158 436l22 604l56 394h256l-56 -394l-147 -604h-131z" />
<glyph unicode="&#x22;" horiz-adv-x="665" d="M147 840l78 594h228l-33 -230l-115 -364h-158zM457 840l78 594h227l-33 -230l-115 -364h-157z" />
<glyph unicode="#" horiz-adv-x="1216" d="M39 301l55 186h162l127 426h-156l58 189h155l103 332h198l-100 -332h258l100 332h203l-102 -332h192l-57 -189h-195l-127 -426h191l-57 -186h-193l-92 -301h-199l90 301h-258l-90 -301h-199l91 301h-158zM455 487h258l127 426h-258z" />
<glyph unicode="$" horiz-adv-x="854" d="M55 319l25 168h268l-26 -184q-8 -57 11 -72.5t68 -15.5h37q48 0 72.5 16t32.5 72l24 170q2 15 2.5 27t-2 21.5t-5 16.5t-9 13.5t-12 11t-15.5 10t-17.5 9t-21.5 9.5t-24 11l-139 51q-28 11 -39 16t-34.5 16.5t-33 19t-27 21.5t-24 27t-15.5 32.5t-11 41t-2 50t5 61.5 l25 176q25 180 93 248.5t233 77.5l20 143h188l-20 -143q164 -9 212.5 -76.5t23.5 -249.5l-23 -164h-270l26 183q7 55 -12 70.5t-68 15.5h-28q-50 0 -74 -15.5t-31 -70.5l-14 -113q-3 -22 -2.5 -38t1.5 -28.5t10 -23t15 -17t25 -16t31 -14.5t41 -17l129 -47q26 -9 38.5 -14 t34.5 -14.5t32 -17t25.5 -20.5t22 -26t14.5 -32t9.5 -41t1 -50.5t-5.5 -62.5l-33 -222q-26 -183 -95 -250.5t-239 -74.5l-22 -166h-189l23 166q-164 9 -213 77t-23 248z" />
<glyph unicode="%" horiz-adv-x="1329" d="M137 825l58 410q16 110 66.5 157.5t166.5 47.5h70q118 0 155 -47.5t21 -157.5l-58 -410q-16 -112 -66 -160.5t-167 -48.5h-70q-116 0 -154 49t-22 160zM276 0l732 1434h159l-731 -1434h-160zM295 805q-4 -33 6 -45t37 -12h53q28 0 43 12.5t19 44.5l63 448q4 33 -7 45.5 t-38 12.5h-53q-27 0 -41.5 -12.5t-18.5 -45.5zM776 201l58 409q16 110 66 157.5t167 47.5h70q116 0 154 -47.5t22 -157.5l-58 -409q-16 -112 -66.5 -160.5t-166.5 -48.5h-70q-117 0 -154.5 48.5t-21.5 160.5zM934 182q-4 -32 6.5 -44.5t38.5 -12.5h53q28 0 42 12.5t18 44.5 l61 447q4 34 -6 46.5t-37 12.5h-53q-28 0 -43 -12.5t-19 -46.5z" />
<glyph unicode="&#x26;" horiz-adv-x="1007" d="M57.5 219.5q2.5 42.5 10.5 99.5l24 181q19 137 72.5 189.5t154.5 58.5q-78 11 -103.5 64t-10.5 179l10 84q13 100 36 159.5t70.5 96.5t114.5 49.5t178 12.5h213l-30 -224h-213q-42 0 -66 -18.5t-31 -69.5l-20 -145q-7 -51 10 -70.5t55 -19.5h533l-25 -174l-188 -35 l-88 -637h-387q-59 0 -96.5 1.5t-76.5 6.5t-60.5 14t-42 25.5t-28.5 39t-13 56.5t-2.5 76.5zM332 299q-7 -50 11 -66t63 -16h126l60 412h-125q-43 0 -68 -18.5t-32 -69.5z" />
<glyph unicode="'" horiz-adv-x="354" d="M147 840l78 594h228l-33 -230l-115 -364h-158z" />
<glyph unicode="(" horiz-adv-x="446" d="M33 78l155 1112q19 127 105 217q75 75 180 143l84 -86q-9 -11 -32 -36.5t-39.5 -45.5t-24.5 -34q-18 -32 -27 -63t-18 -95l-156 -1112q-9 -66 -9 -97.5t9 -62.5q6 -19 33.5 -66t30.5 -53l-109 -84q-91 68 -141 142q-60 85 -41 221z" />
<glyph unicode=")" horiz-adv-x="446" d="M-18 -201q6 8 45.5 54t50.5 65q18 30 27 61.5t18 98.5l156 1112q9 63 9 94.5t-9 63.5q-4 14 -15 33.5t-27.5 46.5t-21.5 36l109 86q38 -30 77.5 -69.5t63.5 -73.5q60 -85 41 -217l-156 -1112q-19 -132 -104 -221q-73 -77 -180 -142z" />
<glyph unicode="*" horiz-adv-x="710" d="M129 975l109 61l172 49l16 -41l-137 -122l-111 -62zM162 1212l82 117l94 -63l102 -123l-28 -43l-158 51zM354 754l17 118l65 166h47l21 -166l-17 -118h-133zM432 1315l17 119h133l-17 -119l-65 -166h-47zM498 1044l30 41l154 -49l94 -61l-84 -115l-94 62zM512 1143 l135 123l111 63l51 -117l-111 -61l-168 -51z" />
<glyph unicode="+" horiz-adv-x="710" d="M84 647l25 176h231l33 228h176l-33 -228h234l-25 -176h-233l-33 -231h-176l32 231h-231z" />
<glyph unicode="," horiz-adv-x="354" d="M6 -205q66 104 76 128q10 25 18 77h-80l41 285h232l-33 -230q-13 -89 -50 -151t-124 -160z" />
<glyph unicode="-" horiz-adv-x="595" d="M66 510l28 211h527l-29 -211h-526z" />
<glyph unicode="." horiz-adv-x="380" d="M35 0l41 285h229l-41 -285h-229z" />
<glyph unicode="/" horiz-adv-x="532" d="M-23 -70l525 1583h162l-527 -1583h-160z" />
<glyph unicode="0" d="M61 334l109 768q19 137 60.5 208t121.5 101.5t226 30.5h51q73 0 124.5 -6.5t91.5 -22.5t61.5 -41.5t34 -63t10.5 -89t-9 -117.5l-108 -768q-14 -103 -39 -166t-72.5 -104t-117 -56.5t-179.5 -15.5h-51q-213 0 -277.5 71.5t-36.5 270.5zM328 305q-7 -57 12 -73.5t66 -16.5 h51q49 0 72.5 16.5t31.5 73.5l117 823q7 57 -12.5 74t-67.5 17h-51q-47 0 -71 -17t-32 -74z" />
<glyph unicode="1" horiz-adv-x="735" d="M20 0l31 217h201l133 954l-231 -51l-29 174l330 140h229l-170 -1217h201l-31 -217h-664z" />
<glyph unicode="2" horiz-adv-x="790" d="M8 0l51 360q14 98 56 164t112 123l226 184q80 58 115 114t46 132l9 60q7 55 -12 71.5t-68 16.5h-25q-49 0 -72.5 -16.5t-31.5 -71.5l-25 -170h-244l21 147q14 101 41.5 164.5t77 100t113 50t161.5 13.5h47q123 0 185 -34t77.5 -107t-2.5 -187l-10 -70 q-17 -115 -61.5 -181.5t-135.5 -141.5l-190 -160q-85 -65 -106 -89q-36 -43 -44 -105l-20 -150h449l-31 -217h-709z" />
<glyph unicode="3" horiz-adv-x="825" d="M30.5 200.5q0.5 48.5 10.5 118.5l14 107h250l-18 -127q-8 -57 10.5 -73.5t67.5 -16.5h41q47 0 70.5 16.5t31.5 73.5l35 240q6 47 -9.5 64.5t-50.5 17.5h-233l31 217h233q35 0 55.5 18t26.5 64l29 215q8 57 -10.5 73.5t-65.5 16.5h-41q-49 0 -73 -16.5t-32 -73.5l-16 -121 h-250l15 100q15 105 38.5 166t70.5 99t113.5 50.5t178.5 12.5h47q55 0 96 -4t75.5 -13.5t56.5 -26.5t38 -41.5t22 -59.5t5.5 -79.5t-8.5 -103.5l-19 -133q-19 -130 -59.5 -181.5t-128.5 -62.5q87 -9 113 -58.5t8 -180.5l-25 -179q-9 -65 -24 -114.5t-33 -84.5t-45 -58.5 t-53 -37.5t-65.5 -21t-73.5 -9t-85 -2h-47q-74 0 -124.5 5t-89.5 20t-60.5 37t-32.5 60t-10.5 86.5z" />
<glyph unicode="4" horiz-adv-x="956" d="M2 297l27 188l485 949h397l-131 -934h183l-29 -203h-182l-41 -297h-262l40 297h-487zM301 500h217l100 712h-2z" />
<glyph unicode="5" horiz-adv-x="790" d="M29 200.5q2 48.5 12 118.5l20 142h246l-24 -176q-3 -28 -0.5 -44t15 -23t23.5 -8t36 -1h8h36h8q25 0 36.5 1.5t26 8t22 22.5t10.5 44l45 315q7 49 -10.5 65.5t-57.5 16.5h-364l121 752h645l-33 -230h-408l-43 -305h148q45 0 76.5 -1.5t63 -7t51 -15.5t37.5 -26t26.5 -39 t13.5 -55t3 -73.5t-9 -95.5l-37 -267q-8 -59 -17.5 -102.5t-24.5 -78t-30 -58t-41 -40t-50.5 -26t-66 -14.5t-79.5 -6.5t-98 -1.5h-64q-65 0 -108.5 5t-77.5 20t-52 37.5t-27 60t-7 86z" />
<glyph unicode="6" horiz-adv-x="811" d="M35.5 170q-6.5 62 5.5 149l111 783q29 203 111 271.5t296 68.5h39q47 0 82.5 -4t68 -14t53.5 -26.5t38.5 -41.5t23.5 -59t8 -79.5t-8 -103.5l-16 -121h-250l20 142q8 58 -9 74t-64 16h-31q-47 0 -69.5 -16.5t-30.5 -73.5l-43 -310q47 27 114 27h64q67 0 107.5 -3.5 t77.5 -16.5t54 -35.5t27 -63t8 -96.5t-14 -139l-25 -179q-14 -105 -36.5 -165.5t-69.5 -98.5t-113 -50.5t-178 -12.5h-37q-107 0 -173 18.5t-100.5 58t-41 101.5zM297 299q-8 -57 11 -73.5t67 -16.5h41q48 0 73 17t33 73l33 240q8 58 -11.5 77t-66.5 19h-63q-35 0 -54.5 -11 t-23.5 -46z" />
<glyph unicode="7" horiz-adv-x="735" d="M72 0l483 1165l6 39h-411l30 230h688l-32 -242l-486 -1192h-278z" />
<glyph unicode="8" horiz-adv-x="843" d="M25 221q1 40 8 92l24 183q20 142 67.5 192.5t156.5 59.5q-80 12 -109 60.5t-14 162.5l20 141q15 105 37.5 166t69 99.5t113 51.5t177.5 13h23q75 0 126 -5.5t91.5 -20t62.5 -38t34 -61.5t11.5 -87t-10.5 -118l-16 -115q-19 -132 -61.5 -184.5t-137.5 -64.5 q103 -9 134.5 -60.5t11.5 -191.5l-25 -183q-11 -83 -32 -138.5t-51.5 -92t-81 -56t-110.5 -27t-151 -7.5h-24q-56 0 -98 2.5t-80 9.5t-63.5 18t-47 28.5t-33 41.5t-17.5 56.5t-5 72.5zM295 250.5q4 -17.5 18.5 -24.5t27.5 -9t38 -2h65q25 0 39 2t31.5 9t27 24.5t13.5 46.5 l33 244q8 55 -11.5 70.5t-68.5 15.5h-84q-45 -2 -67 -18t-29 -68l-33 -244q-4 -29 0 -46.5zM403 934q-7 -52 10.5 -67t61.5 -15h55q23 1 35.5 3t26.5 10t21.5 24.5t11.5 44.5l28 199q8 56 -11 71t-69 15h-38q-25 0 -38.5 -2t-28.5 -10t-23.5 -26t-12.5 -48z" />
<glyph unicode="9" horiz-adv-x="827" d="M41 200.5q2 47.5 12 118.5l13 87h245l-14 -101q-8 -56 11 -76t65 -20h39q47 0 71.5 19.5t32.5 76.5l37 268q-41 -24 -115 -24h-55q-68 0 -108.5 3.5t-78.5 16t-56 35t-29 63t-9 97t13 139.5l28 211q11 83 29.5 138t47.5 93.5t76 59t106.5 29t148.5 8.5h31 q107 0 172.5 -18t99.5 -57.5t39.5 -102t-6.5 -150.5l-111 -782q-15 -106 -37 -168t-67.5 -102.5t-112 -55t-176.5 -14.5h-37q-74 0 -123.5 5t-87.5 20t-57.5 37t-29 60.5t-7.5 86zM369 854q-7 -55 12.5 -71.5t67.5 -16.5h61q40 0 56.5 13.5t23.5 62.5l43 297q8 56 -11 71 t-67 15h-41q-25 0 -38.5 -2t-29 -10t-24 -26t-12.5 -48z" />
<glyph unicode=":" horiz-adv-x="354" d="M25 0l41 285h229l-41 -285h-229zM150 895l40 285h230l-41 -285h-229z" />
<glyph unicode=";" horiz-adv-x="354" d="M6 -205q66 104 76 128q10 25 18 77h-80l41 285h232l-33 -230q-13 -89 -50 -151t-124 -160zM150 895l40 285h230l-41 -285h-229z" />
<glyph unicode="&#x3c;" horiz-adv-x="684" d="M86 649l27 185l651 286l-29 -211l-387 -168l340 -166l-31 -213z" />
<glyph unicode="=" horiz-adv-x="710" d="M61 479l25 170h641l-25 -170h-641zM106 807l25 170h641l-24 -170h-642z" />
<glyph unicode="&#x3e;" horiz-adv-x="684" d="M45 362l31 213l385 166l-338 168l29 211l571 -286l-25 -185z" />
<glyph unicode="?" horiz-adv-x="815" d="M143 954l23 160q14 101 41 164.5t76 100t112.5 50t161.5 13.5h41q65 0 111 -5.5t85.5 -20t61 -38t37 -60t14.5 -87t-8 -117.5l-16 -119q-11 -84 -52.5 -134.5t-138.5 -119.5q-27 -20 -65.5 -46.5t-51.5 -36t-32 -25.5t-24.5 -27.5t-11.5 -28t-9 -40.5l-15 -103h-204 l26 182q3 22 11.5 42.5t15 33.5t26.5 32.5t27 25.5t36 29t36 28q14 12 49.5 40.5t44.5 36.5t30 29t27.5 33.5t15 33t11.5 44.5l16 115q8 56 -11 71t-69 15h-49q-49 0 -74 -17.5t-32 -72.5l-25 -181h-248zM207 0l39 291h227l-39 -291h-227z" />
<glyph unicode="@" horiz-adv-x="1120" d="M33 166l114 821q24 171 100.5 238t235.5 67h437q160 0 216.5 -67t32.5 -238l-106 -754q-8 -56 -25 -92.5t-42.5 -53.5t-50.5 -22.5t-62 -5.5q-126 0 -168.5 10t-75.5 52q-26 -20 -36 -27t-37.5 -15.5t-63.5 -8.5h-35q-120 0 -175.5 51.5t-37.5 175.5l27 199 q18 127 76.5 177t174.5 50h164l17 113q7 48 -7 62.5t-49 14.5h-16h-25.5t-19 -3t-18 -10t-10.5 -20t-9 -34l-12 -88h-199l10 80q7 56 17.5 92.5t30.5 68t52 49t80 28.5t117 14l31 2q119 0 176.5 -26.5t69.5 -82.5t-2 -145l-86 -605q-7 -56 1 -74t50 -18q58 0 75.5 23 t26.5 84l105 739q9 57 5.5 103t-21 78t-61 49.5t-114.5 17.5h-436q-70 0 -117 -15t-75.5 -48.5t-43.5 -76t-24 -108.5l-115 -821q-9 -76 -1.5 -131t54.5 -86t138 -31h579l-8 -55h-579q-159 0 -216.5 67t-33.5 236zM477 332q-9 -72 51 -72h21q42 0 86 27l39 276h-103 q-38 0 -53 -22.5t-20 -65.5z" />
<glyph unicode="A" horiz-adv-x="919" d="M-33 0l445 1434h415l43 -1434h-268l-8 264h-277l-79 -264h-271zM377 508h225l-8 704h-12z" />
<glyph unicode="B" horiz-adv-x="854" d="M18 0l201 1434h385q63 0 108.5 -4t82.5 -13.5t60.5 -26.5t39.5 -40q15 -23 21 -58q5 -32 6 -70v-8q0 -42 -9 -100l-18 -137q-18 -129 -59.5 -181.5t-126.5 -64.5q86 -11 114 -62q16 -30 16 -87q0 -41 -8 -95l-24 -168q-8 -57 -17.5 -99.5t-24 -76.5t-29 -56.5t-39.5 -39 t-49 -25.5t-64.5 -14t-78.5 -6.5t-97 -1.5h-390zM317 223h121q44 0 67 15.5t30 66.5l32 236q2 13 2 24q0 30 -14 42q-19 16 -63 16h-117zM403 831h123q41 0 62 16t28 66l29 215q2 14 2 25q0 29 -13 41q-18 16 -61 16h-116z" />
<glyph unicode="C" horiz-adv-x="878" d="M50 217q1 44 9 102l113 795q14 103 38 164.5t72.5 99.5t116.5 51t179 13h47q64 0 110 -4.5t84 -13.5t62 -26.5t40.5 -41.5t22.5 -60q5 -31 5 -67v-13q-1 -44 -9 -102l-37 -262h-268l39 278q2 15 2 27q0 33 -14 45q-20 16 -68 17h-47q-48 0 -73 -17t-32 -72l-116 -827 q-2 -15 -2 -26q0 -33 14 -45q20 -16 68 -17h47q49 0 73 16.5t31 71.5l45 320h268l-43 -304q-14 -103 -37.5 -164t-71.5 -99t-116 -51t-180 -13h-47q-63 0 -109 4.5t-84.5 14t-62.5 26.5t-40.5 41.5t-22.5 59.5q-6 30 -6 67v12z" />
<glyph unicode="D" horiz-adv-x="866" d="M18 0l201 1434h404q62 0 107.5 -4.5t83 -14t61 -26.5t39.5 -40.5t22 -58.5q5 -30 5 -65v-12q-1 -42 -9 -99l-113 -795q-14 -100 -37.5 -159.5t-70 -96.5t-113.5 -50t-176 -13h-404zM317 223h136q44 0 66.5 16.5t29.5 67.5l117 826q2 14 2 25q0 28 -13 38q-18 14 -63 14 h-133z" />
<glyph unicode="E" horiz-adv-x="741" d="M23 0l200 1434h641l-30 -230h-373l-51 -356h338l-33 -230h-338l-53 -389h372l-32 -229h-641z" />
<glyph unicode="F" horiz-adv-x="714" d="M23 0l200 1434h631l-31 -230h-362l-55 -385h327l-35 -250h-327l-80 -569h-268z" />
<glyph unicode="G" horiz-adv-x="872" d="M50 217q1 44 9 102l113 795q14 103 38 164.5t72.5 99.5t116.5 51t179 13h45q63 0 109 -4t84 -14t62 -27t41 -41t23 -60q5 -31 5 -67v-13q-1 -43 -9 -102l-23 -160h-268l25 176q2 14 2 26q0 33 -15 46q-20 17 -67 17h-45q-48 0 -73 -17t-32 -72l-116 -833 q-2 -15 -2.5 -26.5t2 -20t5.5 -14.5t10 -10t12.5 -6t15.5 -3t17 -1.5t20 -0.5h45q25 0 38.5 1.5t29.5 9t24 25t12 46.5l37 258h-127l33 223h391l-64 -459q-14 -103 -38 -164t-72 -99t-116 -51t-179 -13h-45q-63 0 -109 4.5t-84.5 14t-62.5 26.5t-40.5 41.5t-22.5 59.5 q-6 30 -6 67v12z" />
<glyph unicode="H" horiz-adv-x="890" d="M23 0l200 1434h269l-82 -586h227l82 586h270l-201 -1434h-270l84 604h-227l-84 -604h-268z" />
<glyph unicode="I" horiz-adv-x="395" d="M23 0l200 1434h269l-201 -1434h-268z" />
<glyph unicode="J" horiz-adv-x="579" d="M-29 0l33 229h156q44 0 66.5 15t29.5 65l158 1127h270l-152 -1071q-13 -90 -27.5 -150.5t-36.5 -105.5t-51.5 -67.5t-70.5 -37.5q-41 -14 -92 -14h-4q-54 1 -125 2z" />
<glyph unicode="K" d="M23 0l200 1434h269l-82 -590h86l235 590h289l-305 -725l119 -709h-297l-70 561h-96l-80 -561h-268z" />
<glyph unicode="L" horiz-adv-x="686" d="M23 0l200 1434h269l-168 -1205h342l-33 -229h-610z" />
<glyph unicode="M" horiz-adv-x="1169" d="M23 0l200 1434h332l74 -818h2l303 818h332l-201 -1434h-266l129 817h-6l-279 -817h-197l-49 817h-8l-102 -817h-264z" />
<glyph unicode="N" horiz-adv-x="897" d="M23 0l200 1434h271l137 -791h2l110 791h252l-200 -1434h-281l-121 752h-2l-106 -752h-262z" />
<glyph unicode="O" d="M50 218q1 43 9 101l113 795q14 103 38 164.5t72.5 99.5t116.5 51t179 13h51q63 0 109 -4t84 -14t62 -27t41 -41t23 -60q5 -31 5 -67v-13q-1 -44 -9 -102l-113 -795q-14 -103 -38 -164t-72 -99t-116 -51t-179 -13h-51q-63 0 -109.5 4.5t-84 14.5t-62 27.5t-41 41.5 t-22.5 60q-6 31 -6 67v11zM328 305q-2 -16 -2 -29q0 -32 14 -44q20 -17 70 -17h45q48 0 73 17t33 73l117 823q2 14 2 26q0 34 -16 48q-20 18 -68 17h-45q-49 0 -75 -17t-34 -74z" />
<glyph unicode="P" horiz-adv-x="833" d="M18 0l201 1434h399q72 0 122 -6t89 -20t59.5 -37t33.5 -58q11 -30 11 -70v-12q-2 -47 -9 -109l-50 -346q-14 -99 -36.5 -156.5t-68.5 -93.5t-111.5 -48.5t-174.5 -12.5h-131l-65 -465h-269zM383 688h127q42 0 63.5 13.5t28.5 60.5l53 373q2 13 2 24q0 27 -13 37 q-18 14 -60 14h-127z" />
<glyph unicode="Q" d="M50 218q1 43 9 101l113 795q14 103 38 164.5t72.5 99.5t116.5 51t179 13h51q63 0 109 -4t84 -14t62 -27t41 -41t23 -60q5 -31 5 -67v-13q-1 -43 -9 -102l-113 -795q-18 -124 -52.5 -191t-102.5 -99l51 -203h-201l-71 166h-29h-51q-63 0 -109.5 4.5t-84 14.5t-62 27.5 t-41 41.5t-22.5 60q-6 30 -6 67v11zM328 305q-2 -16 -2 -29q0 -32 14 -44q20 -17 70 -17h45q48 0 73 17t33 73l117 823q2 14 2 26q0 34 -16 48q-20 17 -68 17h-45q-49 0 -75 -17t-34 -74z" />
<glyph unicode="R" horiz-adv-x="845" d="M18 0l201 1434h408q72 0 121.5 -5.5t88 -19.5t60 -35.5t32.5 -57.5t11 -82.5t-10 -111.5l-29 -200q-19 -131 -63 -181.5t-127 -58.5q86 -14 113 -69q16 -32 15 -89q0 -43 -8 -100l-59 -424h-270l63 459q2 16 2 30q0 72 -65 72h-135l-80 -561h-269zM395 778h140 q41 0 61 14t27 62l39 285q2 13 2 24q0 27 -12 35q-18 12 -60 12h-135z" />
<glyph unicode="S" horiz-adv-x="845" d="M53 319l25 168h268l-27 -184q-2 -17 -3 -30q0 -31 14 -42q19 -16 69 -16h37q48 0 72.5 16t32.5 72l24 170q2 15 2.5 27t-2 21.5t-5 16.5t-9 13.5t-12 11t-15.5 10t-17.5 9t-21.5 9.5t-24 11l-139 51q-28 11 -39 16t-34.5 16.5t-33 19t-27 21.5t-24 27t-15.5 32.5t-11 41 t-2 50t5 61.5l25 176q14 103 38 164.5t72 99.5t116 51t179 13h29q64 0 110 -4.5t84 -13.5t62 -26.5t40.5 -41.5t22.5 -60q5 -31 5 -67v-13q-1 -44 -9 -102l-22 -164h-270l26 183q2 15 2 27q0 32 -14 44q-19 16 -68 15h-28q-49 0 -73 -15.5t-32 -70.5l-16 -113 q-3 -22 -2.5 -38t1.5 -28t10.5 -23t15 -17.5t25 -16t30.5 -14.5t41 -17l131 -47q29 -10 43.5 -16t37 -16.5t33.5 -20.5t26 -25t21 -33.5t11 -42.5t4 -55t-6 -69l-31 -222q-14 -103 -38 -164t-72 -99t-116 -51t-179 -13h-37q-74 0 -126 5.5t-92 20.5t-63 38q-22 22 -34 60 q-12 36 -12 83q0 48 11 120z" />
<glyph unicode="T" horiz-adv-x="798" d="M139 1204l33 230h778l-32 -230h-254l-170 -1204h-271l170 1204h-254z" />
<glyph unicode="U" d="M50 217q1 44 9 102l156 1115h272l-157 -1125q-4 -24 -4 -41q0 -26 8 -36q14 -18 59 -17h78q44 0 63.5 18t28.5 76l158 1125h266l-156 -1115q-14 -103 -38 -164t-72 -99t-116 -51t-179 -13h-51q-63 0 -109 4.5t-84.5 14t-62.5 26.5t-40.5 41.5t-22.5 59.5q-6 30 -6 67v12z " />
<glyph unicode="V" horiz-adv-x="964" d="M176 1434h270l35 -1115h6l351 1115h270l-446 -1434h-441z" />
<glyph unicode="W" horiz-adv-x="1292" d="M123 0l51 1434h272l-59 -1078h2l277 1078h282l-28 -1078h2l243 1078h275l-350 -1434h-418l47 805h-2l-178 -805h-416z" />
<glyph unicode="X" horiz-adv-x="860" d="M-31 0l350 721l-143 713h270l76 -467l211 467h268l-342 -713l150 -721h-270l-84 479l-215 -479h-271z" />
<glyph unicode="Y" d="M170 1434h270l80 -576l244 576h270l-422 -891l-75 -543h-271l76 543z" />
<glyph unicode="Z" horiz-adv-x="743" d="M-8 0l33 231l538 971h-395l33 232h669l-30 -230l-521 -975h383l-32 -229h-678z" />
<glyph unicode="[" horiz-adv-x="565" d="M4 -178l238 1687h477l-27 -188h-250l-184 -1311h250l-27 -188h-477z" />
<glyph unicode="\" horiz-adv-x="532" d="M213 1513h162l80 -1583h-160z" />
<glyph unicode="]" horiz-adv-x="565" d="M-47 -178l27 188h249l185 1311h-250l26 188h478l-238 -1687h-477z" />
<glyph unicode="^" horiz-adv-x="888" d="M182 938l330 496h184l189 -496h-197l-108 313l-199 -313h-199z" />
<glyph unicode="_" horiz-adv-x="905" d="M-84 -252l25 176h923l-24 -176h-924z" />
<glyph unicode="`" horiz-adv-x="1024" d="M469 1458h258l70 -209h-170z" />
<glyph unicode="a" horiz-adv-x="802" d="M45 254l33 231q21 146 89.5 203t203.5 57h184l20 152q2 18 2 31q-1 26 -9 35q-14 14 -50 14h-35q-19 0 -28.5 -1.5t-21 -8t-17.5 -22t-10 -40.5l-13 -94h-239l12 90q7 54 16 91.5t25.5 72.5t41 56.5t61.5 38t88 23.5t120 7h35q137 0 202.5 -30.5t78.5 -94.5q6 -29 5 -65 q0 -44 -8 -99l-122 -881q-240 -28 -383 -28h-50q-136 0 -194 58q-43 43 -43 133q0 32 6 71zM307 295q-2 -15 -3 -27q0 -20 8 -32q10 -18 44 -19h39q80 0 86 2l47 340h-122q-61 0 -74 -82z" />
<glyph unicode="b" horiz-adv-x="821" d="M16 0l209 1481h256l-43 -299h197q136 0 188 -54q37 -38 37 -122q0 -34 -6 -76l-96 -676q-21 -146 -94.5 -204t-210.5 -58h-52q-96 0 -192.5 2t-144.5 4zM303 217h129q35 0 52.5 18.5t23.5 59.5l84 594q1 11 1 20q0 23 -9 37q-13 18 -47 19h-129z" />
<glyph unicode="c" horiz-adv-x="813" d="M54 118q-7 32 -7 71q0 41 8 92l86 620q12 81 31 130.5t59.5 87.5t107.5 53.5t171 15.5h47q137 0 205 -30q66 -29 82 -93q8 -31 8 -72q0 -42 -8 -92l-29 -205h-254l29 203q2 13 2 23q0 26 -12 38q-16 16 -54 17h-47q-38 0 -57 -16.5t-25 -61.5l-86 -616q-6 -45 8.5 -61.5 t51.5 -16.5h47q39 0 59.5 16.5t26.5 61.5l28 209h254l-28 -211q-11 -80 -30 -130t-59.5 -88t-108 -54.5t-171.5 -16.5h-47q-137 0 -205.5 31t-82.5 95z" />
<glyph unicode="d" horiz-adv-x="821" d="M53 254l94 676q21 145 87.5 198.5t203.5 53.5h197l41 299h256l-209 -1481q-233 -8 -387 -8h-51q-137 0 -195 58q-42 42 -43 132q0 33 6 72zM313 295q-2 -12 -2 -22q0 -56 58 -56h129l106 748h-129q-69 0 -78 -76z" />
<glyph unicode="e" horiz-adv-x="808" d="M54 118q-7 32 -7 71q0 41 8 92l86 620q12 81 31 130.5t59.5 87.5t107.5 53.5t171 15.5h45q136 0 203 -30q66 -29 82 -93q8 -31 8 -72q0 -42 -8 -92l-60 -416l-442 -6l-29 -200q-6 -45 9 -61.5t53 -16.5h51q38 0 57 16.5t25 61.5l14 104h250l-14 -102q-9 -64 -22.5 -107 t-38.5 -80t-64.5 -58t-99 -32.5t-142.5 -11.5h-45q-137 0 -205.5 31t-82.5 95zM367 688h188l31 215q2 13 2 23q0 25 -10 37q-14 16 -52 16h-45q-38 0 -58 -16.5t-26 -59.5z" />
<glyph unicode="f" horiz-adv-x="518" d="M57 0l136 965h-82l30 217h82l8 53q9 58 20.5 97.5t30.5 69.5t42 47.5t60.5 28t79.5 14t105 3.5q24 0 51.5 -2.5t43.5 -4.5l16 -3l-29 -203h-112q-18 0 -29.5 -7.5t-16 -17t-6.5 -24.5l-8 -51h154l-31 -217h-153l-136 -965h-256z" />
<glyph unicode="g" horiz-adv-x="821" d="M36 -160q-5 28 -5 63q0 51 12 117l6 39h232l-11 -67q-6 -43 7.5 -55.5t52.5 -12.5h59q39 0 55.5 14.5t22.5 59.5l16 119h-182q-138 0 -195 57q-42 42 -42 131q0 33 6 72l75 538q21 146 102 210.5t218 64.5h41l383 -8l-166 -1182q-10 -76 -24.5 -123t-39 -83t-65.5 -53 t-98 -25q-44 -5 -107 -5h-35q-161 4 -232 33t-86 96zM330 418q-2 -12 -2 -21q0 -57 59 -57h129l86 625h-129q-66 0 -78 -76z" />
<glyph unicode="h" horiz-adv-x="821" d="M16 0l209 1481h256l-43 -299h201q136 0 185 -53q34 -37 34 -120q0 -35 -6 -79l-131 -930h-256l125 889q2 12 2 21q0 55 -57 55h-127l-136 -965h-256z" />
<glyph unicode="i" horiz-adv-x="370" d="M18 0l166 1182h254l-166 -1182h-254zM193 1264l26 198h262l-26 -198h-262z" />
<glyph unicode="j" horiz-adv-x="370" d="M-115 -127q7 8 31 33.5t28.5 31t22 26.5t21.5 31.5t15.5 32t16 41.5t10.5 47.5t11 61.5l141 1004h256l-145 -1030q-11 -80 -35 -141.5t-64 -110.5t-78 -81.5t-100 -76.5zM190 1264l29 198h262l-28 -198h-263z" />
<glyph unicode="k" horiz-adv-x="841" d="M16 0l209 1481h256l-104 -733h90l203 434h278l-264 -557l109 -625h-279l-78 504h-92l-72 -504h-256z" />
<glyph unicode="l" horiz-adv-x="370" d="M16 0l209 1481h256l-209 -1481h-256z" />
<glyph unicode="m" horiz-adv-x="1255" d="M16 0l166 1182q695 8 830 8h45q137 0 195 -58q42 -42 42 -131q0 -33 -6 -71l-131 -930h-256l125 889q2 12 2 21q0 55 -57 55h-121l-135 -965h-256l129 915q5 35 0.5 42.5t-33.5 7.5h-147l-136 -965h-256z" />
<glyph unicode="n" horiz-adv-x="821" d="M16 0l166 1182q239 8 389 8h50q137 0 195 -58q42 -42 42 -131q0 -33 -6 -71l-131 -930h-256l125 889q2 12 2 21q0 55 -57 55h-127l-136 -965h-256z" />
<glyph unicode="o" horiz-adv-x="817" d="M54 118q-7 32 -7 71q0 41 8 92l86 620q12 81 31 131t59.5 88t107.5 54t171 16h51q137 0 205 -30q66 -31 82 -95q8 -31 8 -72q0 -42 -8 -92l-86 -620q-12 -80 -31 -130t-59.5 -88.5t-107.5 -54.5t-171 -16h-51q-137 0 -205.5 31t-82.5 95zM311 283q-2 -15 -3 -26 q0 -23 10 -35q14 -16 53 -17h51q39 0 58.5 16.5t25.5 61.5l88 618q2 14 2 25q0 26 -10 36q-16 16 -54 15h-51q-38 0 -57 -15.5t-25 -60.5z" />
<glyph unicode="p" horiz-adv-x="821" d="M-18 -252l200 1434q211 8 389 8h52q135 0 193 -64q42 -46 42 -138q0 -33 -6 -73l-92 -661q-21 -147 -88.5 -202.5t-202.5 -55.5h-51l-146 4l-34 -252h-256zM303 217h129q35 0 53.5 19t24.5 59l82 594q2 12 2 21q0 55 -57 55h-129z" />
<glyph unicode="q" horiz-adv-x="821" d="M53 254l92 661q21 146 102 210.5t218 64.5h41l385 -8l-203 -1434h-256l35 252q-88 -4 -137 -4h-54q-137 0 -190 56q-39 39 -39 126q0 35 6 76zM313 295q-2 -12 -2 -22q0 -56 58 -56h129l106 748h-129q-68 0 -80 -76z" />
<glyph unicode="r" horiz-adv-x="589" d="M16 0l138 979q14 100 86 155.5t170 55.5h24q36 0 105 -3t119 -6l51 -3l-29 -199q-174 -19 -213 -21q-40 -3 -52.5 -16.5t-17.5 -50.5l-125 -891h-256z" />
<glyph unicode="s" horiz-adv-x="755" d="M29 153q-2 17 -2 36q0 42 8 94l14 106h254l-16 -117q-6 -43 8.5 -56t54.5 -13h21q37 0 57.5 18.5t26.5 63.5l16 121q-1 12 1.5 20.5t-1.5 16.5t-4.5 13t-7.5 10.5t-10 8.5t-12 7.5t-14.5 7t-16 7l-17.5 7.5l-135 57q-22 10 -31 14t-28 13.5t-26.5 15.5t-22 18t-19.5 23 t-13 27.5t-10 34.5t-2 41.5t4 50.5l15 102q12 81 31 130.5t59 87.5t107 53.5t171 15.5h15q136 0 200 -29t76 -94q5 -27 5 -61q0 -45 -9 -103l-12 -88h-242l15 98q6 43 -8.5 55.5t-53.5 12.5h-14q-41 0 -59.5 -12.5t-24.5 -55.5l-10 -73q-6 -41 9.5 -57t72.5 -40l139 -55 q60 -24 92 -48t48 -70q9 -28 9 -65q0 -24 -4 -52l-22 -158q-12 -82 -31 -133t-59 -91t-108 -57.5t-171 -17.5h-20q-104 0 -166.5 17t-92 52t-34.5 90z" />
<glyph unicode="t" horiz-adv-x="536" d="M86 168q0 37 8 86l101 711h-82l30 217h82l37 260h256l-37 -260h154l-31 -217h-153l-99 -697q-3 -23 4.5 -36t34.5 -13h127l-31 -219l-129 -8q-26 -1 -48.5 -1t-41.5 1q-38 2 -69.5 9t-52 20t-34.5 33q-14 19 -20 48q-5 27 -6 60v6z" />
<glyph unicode="u" horiz-adv-x="817" d="M51 254l131 928h256l-125 -887q-6 -40 6.5 -59t47.5 -19h127l137 965h256l-168 -1182q-260 -8 -385 -8h-51q-137 0 -195 58q-42 42 -43 132q0 33 6 72z" />
<glyph unicode="v" horiz-adv-x="827" d="M131 1182h268l11 -873h12l254 873h270l-381 -1182h-385z" />
<glyph unicode="w" horiz-adv-x="1196" d="M127 0l4 1182h268l-32 -863h4l221 863h262l-20 -863h2l211 863h270l-328 -1182h-373l23 573h-6l-135 -573h-371z" />
<glyph unicode="x" horiz-adv-x="800" d="M-27 0l269 596l-103 586h269l63 -402l172 402h270l-266 -586l101 -596h-271l-57 418l-178 -418h-269z" />
<glyph unicode="y" horiz-adv-x="829" d="M121 1182h268l21 -873h6l282 873h246l-471 -1442h-242l91 274h-148z" />
<glyph unicode="z" horiz-adv-x="720" d="M-20 0l30 217l482 741h-363l31 224h659l-31 -221l-477 -740h377l-31 -221h-677z" />
<glyph unicode="{" horiz-adv-x="524" d="M53 571l19 136l14 5q14 6 27 12t32 19.5t34 29.5t27.5 41.5t16.5 55.5l43 320q19 127 105 217q57 57 180 143l80 -71q-7 -9 -29 -36t-37.5 -47.5t-23.5 -35.5q-17 -29 -26 -64.5t-19 -105.5l-45 -320q-20 -148 -156 -233q110 -87 90 -229l-47 -330q-18 -126 -2 -174 q5 -17 29 -62.5t28 -54.5l-100 -72q-92 75 -139 142q-62 87 -43 221l47 330q0 21 1 36t-5.5 30t-10.5 25.5t-14.5 20.5t-17 16.5t-17.5 13t-16.5 9.5t-14 7t-10.5 5z" />
<glyph unicode="|" horiz-adv-x="475" d="M76 -150l239 1706h201l-240 -1706h-200z" />
<glyph unicode="}" horiz-adv-x="524" d="M-14 -213q8 11 29.5 37t37 46.5t23.5 33.5q30 51 47 174l47 330q20 144 152 229q-109 86 -89 233l46 320q17 119 2 170q-5 15 -14 34.5t-25 49t-19 35.5l101 71q98 -84 139 -143q62 -87 43 -217l-45 -320q-4 -30 1 -55.5t16 -42t25.5 -29.5t27 -19.5t23 -11t11.5 -5.5 l-18 -136l-13 -5q-13 -6 -20 -9t-22 -11.5t-24.5 -16.5t-22.5 -21t-21.5 -27t-16 -33t-10.5 -40l-47 -330q-19 -136 -104 -221q-60 -63 -180 -142z" />
<glyph unicode="~" horiz-adv-x="819" d="M205 627l35 237h143l205 -76l12 74h139l-34 -237h-142l-196 127l-21 -125h-141z" />
<glyph unicode="&#xa1;" horiz-adv-x="382" d="M25 0l55 393l145 604h131l-20 -604l-55 -393h-256zM197 1141l41 293h229l-41 -293h-229z" />
<glyph unicode="&#xa2;" horiz-adv-x="813" d="M53 149.5q-10 61.5 2 151.5l88 621q10 73 26.5 120t49.5 84t86 56t133 24l21 142h188l-20 -142q106 -7 158.5 -39.5t63 -93t-2.5 -151.5l-29 -205h-254l29 203q6 45 -9.5 61t-54.5 16h-47q-38 0 -57 -16t-25 -61l-86 -617q-6 -45 8.5 -61.5t51.5 -16.5h47q39 0 59.5 16.5 t26.5 61.5l29 209h251l-28 -211q-10 -73 -26.5 -120t-49 -85t-86.5 -57.5t-135 -24.5l-23 -149h-188l22 149q-104 7 -156.5 40.5t-62.5 95z" />
<glyph unicode="&#xa3;" horiz-adv-x="921" d="M-25 0l31 215h94l47 334h-94l29 211h96l47 342q19 137 60.5 208t121.5 101.5t226 30.5h26q63 0 109 -4.5t84 -13.5t62 -26.5t40.5 -41.5t22.5 -60t5 -79.5t-9 -102.5l-25 -180h-256l29 201q7 56 -11.5 72t-66.5 16h-41q-49 0 -73 -16.5t-31 -71.5l-54 -375h361l-29 -211 h-360l-47 -334h510l-31 -215h-873z" />
<glyph unicode="&#xa5;" d="M86 367l18 127h232l6 49l-8 43h-217l18 127h174l-139 721h270l80 -576l244 576h270l-342 -721h172l-18 -127h-213l-21 -43l-6 -49h228l-19 -127h-227l-51 -367h-271l51 367h-231z" />
<glyph unicode="&#xa7;" horiz-adv-x="921" d="M88 0l25 176h356q28 0 42 1.5t33.5 8.5t30.5 24t17 46l4 18q5 26 -2 44t-27 28t-40.5 15.5t-53.5 11.5q-7 1 -11 2t-10.5 2t-11.5 2l-176 31q-113 20 -152 71.5t-24 163.5l21 146q15 118 112 174q-31 73 -14 172l2 12q27 167 118 230t283 63l314 -8l-25 -177h-346 q-46 0 -67 -14t-29 -67l-2 -13q-5 -28 0.5 -46t24.5 -28.5t37 -15.5t52 -11q18 -3 27 -5l176 -29q112 -19 150.5 -70.5t23.5 -164.5l-22 -164q-14 -99 -113 -160q32 -65 14 -174l-2 -12q-11 -67 -26.5 -114t-41.5 -79.5t-54 -51.5t-74 -29.5t-91 -13.5t-114 -3zM305 715 q-7 -51 6 -64.5t74 -27.5q15 -3 23 -5l153 -34q22 -5 74 -20.5t59 -22.5q12 12 17 45l20 137q2 15 3 26.5t-2 21t-5 15.5t-11.5 11.5t-15 8.5t-22.5 7t-26 5.5t-34 6.5l-149 33q-108 20 -127 39q-13 -16 -18 -53z" />
<glyph unicode="&#xa8;" horiz-adv-x="1024" d="M434 1262l27 196h170l-27 -196h-170zM694 1262l27 196h170l-27 -196h-170z" />
<glyph unicode="&#xa9;" horiz-adv-x="1083" d="M76 291l121 854q21 149 111.5 219t234.5 70h311q145 0 216 -70t50 -219l-121 -854q-21 -151 -112 -221t-236 -70h-311q-143 0 -214 71t-50 220zM113 291q-18 -130 41.5 -194t189.5 -64h311q272 0 308 258l120 854q37 258 -233 258h-311q-269 0 -306 -258zM274 283 q-15 59 2 157l78 543q22 154 81 209t214 55h51q158 0 203 -53t23 -205l-27 -184h-197l31 213q5 42 -9 53.5t-50 11.5h-39q-19 0 -27.5 -1t-21.5 -6.5t-20 -19.5t-11 -38l-86 -608q-6 -41 9.5 -55.5t51.5 -14.5h39q35 0 53.5 14t24.5 56l33 239h199l-31 -215 q-22 -153 -81.5 -205.5t-217.5 -52.5h-51q-106 0 -157.5 24t-66.5 83z" />
<glyph unicode="&#xaa;" horiz-adv-x="536" d="M86 485l20 148h418l-20 -148h-418zM145 879l21 151q13 91 54.5 123.5t123.5 32.5h107l10 78q4 31 -4 40t-29 9h-20q-21 0 -31.5 -8.5t-14.5 -36.5l-4 -33h-143l4 33q11 95 54.5 134.5t156.5 39.5h21q83 0 121.5 -18t46.5 -56.5t-1 -99.5l-75 -531q-107 -12 -213 -12h-31 q-84 0 -124.5 34.5t-29.5 119.5zM305 903q-3 -24 3.5 -33.5t27.5 -9.5h70l28 213h-69q-37 0 -43 -55z" />
<glyph unicode="&#xab;" horiz-adv-x="679" d="M57 578l4 26l250 361h170l-205 -361l-4 -26l103 -361h-170zM342 578l4 26l221 361h183l-191 -361l-4 -26l88 -361h-182z" />
<glyph unicode="&#xad;" horiz-adv-x="595" d="M66 510l28 211h527l-29 -211h-526z" />
<glyph unicode="&#xae;" horiz-adv-x="708" d="M150 817l59 416q16 116 73.5 158.5t166.5 42.5h147q109 0 154.5 -42.5t29.5 -158.5l-59 -416q-16 -116 -74.5 -159.5t-167.5 -43.5h-147q-109 0 -153.5 43t-28.5 160zM174 817q-14 -102 25 -141t137 -39h147q101 0 150 38t63 142l60 416q14 105 -25.5 141.5t-138.5 36.5 h-148q-97 0 -147 -37t-64 -141zM274 743l78 553h160q85 0 110 -25t15 -102l-10 -75q-7 -54 -25 -74t-59 -23q40 -6 52 -27t5 -75l-20 -152h-113l22 164q7 45 -20 45h-55l-31 -209h-109zM426 1040h55q28 0 33 33l14 98q3 19 -4.5 26t-23.5 7h-51z" />
<glyph unicode="&#xaf;" horiz-adv-x="1024" d="M422 1278l20 147h459l-20 -147h-459z" />
<glyph unicode="&#xb0;" horiz-adv-x="538" d="M121.5 810.5q-4.5 47.5 5.5 119.5l41 299q8 62 18.5 96.5t34.5 64t65.5 41t108.5 11.5h76q87 0 126 -22.5t43.5 -70t-5.5 -120.5l-41 -299q-8 -61 -18.5 -95.5t-34.5 -64t-65 -41.5t-107 -12h-76q-88 0 -127.5 23t-44 70.5zM279.5 864q5.5 -14 35.5 -14h66q30 0 41 13 t16 46l47 344q5 32 -2 44t-37 12h-65q-30 0 -39 -11.5t-14 -44.5l-47 -344q-7 -31 -1.5 -45z" />
<glyph unicode="&#xb1;" horiz-adv-x="710" d="M35 297l24 176h641l-24 -176h-641zM106 803l25 176h231l31 227h176l-30 -227h233l-24 -176h-234l-33 -232h-176l33 232h-232z" />
<glyph unicode="&#xb4;" horiz-adv-x="1024" d="M496 1249l129 209h258l-217 -209h-170z" />
<glyph unicode="&#xb6;" horiz-adv-x="907" d="M143 842l54 383q6 38 21 73.5t40.5 66.5t65.5 50t90 19h590l-201 -1434h-154l176 1255h-137l-176 -1255h-154l88 631h-145q-62 0 -101.5 33.5t-51.5 80t-5 97.5z" />
<glyph unicode="&#xb7;" horiz-adv-x="364" d="M104 549l41 285h230l-41 -285h-230z" />
<glyph unicode="&#xb8;" horiz-adv-x="1024" d="M279 -250l131 250h143l-86 -250h-188z" />
<glyph unicode="&#xba;" horiz-adv-x="548" d="M88 485l21 148h428l-21 -148h-428zM147 903l50 359q9 65 28.5 101.5t66.5 57.5t128 21h35q82 0 122.5 -20t48 -60t-0.5 -100l-50 -359q-9 -64 -28 -100t-66 -57t-129 -21h-35q-118 0 -150.5 40.5t-19.5 137.5zM303 901q-4 -26 4.5 -35.5t28.5 -9.5h35q22 0 33 9.5 t14 35.5l51 363q3 26 -5 34.5t-30 8.5h-35q-21 0 -32 -8.5t-15 -34.5z" />
<glyph unicode="&#xbb;" horiz-adv-x="679" d="M16 217l191 361l4 26l-90 361h184l121 -361l-4 -26l-221 -361h-185zM287 217l202 361l5 26l-103 361h170l148 -361l-4 -26l-248 -361h-170z" />
<glyph unicode="&#xbf;" horiz-adv-x="815" d="M26 216.5q0 44.5 9 102.5l18 119q13 85 53.5 135.5t135.5 118.5q25 18 58 41t46.5 32.5t32 24.5t25 23t15 22t11.5 28t6 34l15 102h206l-26 -182q-3 -22 -11 -42.5t-15.5 -33.5t-26.5 -31.5t-27.5 -26t-36 -28.5t-35.5 -28q-14 -12 -49.5 -40.5t-44.5 -36.5t-30 -29 t-27.5 -33.5t-15 -33t-11.5 -44.5l-16 -115q-8 -56 11 -71t69 -15h49q48 0 72.5 17t31.5 73l25 180h248l-23 -160q-14 -101 -41 -164.5t-76 -99.5t-112.5 -49.5t-161.5 -13.5h-41q-55 0 -97 4t-78 14t-60.5 26.5t-42 41t-25 59.5t-7.5 79.5zM461 1143l41 291h227l-41 -291 h-227z" />
<glyph unicode="&#xc0;" horiz-adv-x="874" d="M-53 0l444 1434h416l43 -1434h-268l-9 264h-276l-80 -264h-270zM356 508h226l-9 704h-12zM369 1710h258l69 -209h-170z" />
<glyph unicode="&#xc1;" horiz-adv-x="874" d="M-53 0l444 1434h416l43 -1434h-268l-9 264h-276l-80 -264h-270zM356 508h226l-9 704h-12zM506 1501l129 209h258l-217 -209h-170z" />
<glyph unicode="&#xc2;" horiz-adv-x="874" d="M-53 0l444 1434h416l43 -1434h-268l-9 264h-276l-80 -264h-270zM356 508h226l-9 704h-12zM356 1501l162 209h242l104 -209h-172l-67 101l-97 -101h-172z" />
<glyph unicode="&#xc3;" horiz-adv-x="874" d="M-53 0l444 1434h416l43 -1434h-268l-9 264h-276l-80 -264h-270zM356 508h226l-9 704h-12zM403 1511l29 197h117l170 -63l12 61h117l-31 -197h-117l-163 105l-19 -103h-115z" />
<glyph unicode="&#xc4;" horiz-adv-x="874" d="M-53 0l444 1434h416l43 -1434h-268l-9 264h-276l-80 -264h-270zM356 508h226l-9 704h-12zM393 1513l27 197h170l-27 -197h-170zM653 1513l27 197h170l-27 -197h-170z" />
<glyph unicode="&#xc5;" horiz-adv-x="874" d="M-53 0l444 1434h416l43 -1434h-268l-9 264h-276l-80 -264h-270zM356 508h226l-9 704h-12zM461 1620l4 31q11 81 42 110t120 29h45q90 0 112 -28.5t11 -110.5l-4 -31q-11 -81 -41.5 -110t-120.5 -29h-45q-89 0 -111.5 29t-11.5 110zM543 1614q-6 -38 3.5 -49t51.5 -11h39 q42 0 55 11t19 49l6 43q5 38 -5 48.5t-53 10.5h-38q-43 0 -55 -10.5t-17 -48.5z" />
<glyph unicode="&#xc6;" horiz-adv-x="1329" d="M-25 0l654 1434h823l-31 -230h-370l-52 -356h336l-32 -232h-336l-54 -385h371l-33 -231h-641l39 276h-287l-120 -276h-267zM457 508h225l98 696h-24z" />
<glyph unicode="&#xc7;" horiz-adv-x="874" d="M48 188q-4 55 9 131l113 795q14 103 38 164.5t72 99.5t116 51t179 13h48q64 0 110 -4.5t84 -13.5t62 -26.5t40.5 -41.5t22.5 -60t5 -79.5t-9 -102.5l-37 -262h-268l39 278q7 56 -12.5 72.5t-67.5 16.5h-47q-47 0 -72 -17t-33 -72l-116 -827q-7 -55 12.5 -71.5t66.5 -16.5 h48q49 0 73 16.5t31 71.5l45 320h268l-43 -304q-26 -187 -97 -254t-253 -71l-84 -244h-188l127 242q-77 2 -127.5 12t-86.5 32.5t-50 59.5t-18 92z" />
<glyph unicode="&#xc8;" horiz-adv-x="741" d="M23 0l200 1434h641l-30 -230h-373l-51 -356h338l-33 -230h-338l-53 -389h372l-32 -229h-641zM354 1710h258l70 -209h-170z" />
<glyph unicode="&#xc9;" horiz-adv-x="741" d="M23 0l200 1434h641l-30 -230h-373l-51 -356h338l-33 -230h-338l-53 -389h372l-32 -229h-641zM436 1501l129 209h258l-217 -209h-170z" />
<glyph unicode="&#xca;" horiz-adv-x="741" d="M23 0l200 1434h641l-30 -230h-373l-51 -356h338l-33 -230h-338l-53 -389h372l-32 -229h-641zM299 1501l162 209h241l105 -209h-172l-68 101l-96 -101h-172z" />
<glyph unicode="&#xcb;" horiz-adv-x="741" d="M23 0l200 1434h641l-30 -230h-373l-51 -356h338l-33 -230h-338l-53 -389h372l-32 -229h-641zM346 1513l27 197h170l-27 -197h-170zM606 1513l27 197h170l-27 -197h-170z" />
<glyph unicode="&#xcc;" horiz-adv-x="395" d="M23 0l200 1434h269l-201 -1434h-268zM145 1710h258l70 -209h-170z" />
<glyph unicode="&#xcd;" horiz-adv-x="395" d="M23 0l200 1434h269l-201 -1434h-268zM262 1501l129 209h258l-217 -209h-170z" />
<glyph unicode="&#xce;" horiz-adv-x="395" d="M23 0l200 1434h269l-201 -1434h-268zM115 1501l161 209h242l105 -209h-172l-68 101l-96 -101h-172z" />
<glyph unicode="&#xcf;" horiz-adv-x="395" d="M23 0l200 1434h269l-201 -1434h-268zM156 1513l26 197h170l-26 -197h-170zM416 1513l26 197h170l-26 -197h-170z" />
<glyph unicode="&#xd0;" horiz-adv-x="903" d="M53 635l27 188h92l86 611h404q73 0 123.5 -5.5t89 -20t60.5 -37.5t33 -59.5t11 -84t-10 -113.5l-113 -795q-14 -100 -37.5 -159.5t-70 -96.5t-113.5 -50t-176 -13h-404l90 635h-92zM356 223h136q43 0 65 16.5t29 67.5l116 826q7 49 -10.5 63t-62.5 14h-133l-56 -387h101 l-27 -188h-100z" />
<glyph unicode="&#xd1;" horiz-adv-x="897" d="M23 0l200 1434h271l137 -791h2l110 791h252l-200 -1434h-281l-121 752h-2l-106 -752h-262zM412 1511l28 197h117l170 -63l12 61h117l-31 -197h-116l-164 105l-19 -103h-114z" />
<glyph unicode="&#xd2;" d="M50 218q1 43 9 101l113 795q14 103 38 164.5t72.5 99.5t116.5 51t179 13h51q63 0 109 -4t84 -14t62 -27t41 -41t23 -60t5 -79.5t-9 -102.5l-113 -795q-14 -103 -38 -164t-72 -99t-116 -51t-179 -13h-51q-63 0 -109.5 4.5t-84 14.5t-62 27.5t-41 41.5t-23 59.5t-5.5 78.5z M328 305q-8 -56 12 -73t70 -17h45q48 0 73 17t33 73l117 823q7 56 -13.5 73.5t-68.5 17.5h-45q-49 0 -75 -17t-34 -74zM383 1710h258l70 -209h-170z" />
<glyph unicode="&#xd3;" d="M50 218q1 43 9 101l113 795q14 103 38 164.5t72.5 99.5t116.5 51t179 13h51q63 0 109 -4t84 -14t62 -27t41 -41t23 -60t5 -79.5t-9 -102.5l-113 -795q-14 -103 -38 -164t-72 -99t-116 -51t-179 -13h-51q-63 0 -109.5 4.5t-84 14.5t-62 27.5t-41 41.5t-23 59.5t-5.5 78.5z M328 305q-8 -56 12 -73t70 -17h45q48 0 73 17t33 73l117 823q7 56 -13.5 73.5t-68.5 17.5h-45q-49 0 -75 -17t-34 -74zM504 1501l129 209h258l-217 -209h-170z" />
<glyph unicode="&#xd4;" d="M50 218q1 43 9 101l113 795q14 103 38 164.5t72.5 99.5t116.5 51t179 13h51q63 0 109 -4t84 -14t62 -27t41 -41t23 -60t5 -79.5t-9 -102.5l-113 -795q-14 -103 -38 -164t-72 -99t-116 -51t-179 -13h-51q-63 0 -109.5 4.5t-84 14.5t-62 27.5t-41 41.5t-23 59.5t-5.5 78.5z M328 305q-8 -56 12 -73t70 -17h45q48 0 73 17t33 73l117 823q7 56 -13.5 73.5t-68.5 17.5h-45q-49 0 -75 -17t-34 -74zM360 1501l162 209h242l104 -209h-172l-67 101l-97 -101h-172z" />
<glyph unicode="&#xd5;" d="M50 218q1 43 9 101l113 795q14 103 38 164.5t72.5 99.5t116.5 51t179 13h51q63 0 109 -4t84 -14t62 -27t41 -41t23 -60t5 -79.5t-9 -102.5l-113 -795q-14 -103 -38 -164t-72 -99t-116 -51t-179 -13h-51q-63 0 -109.5 4.5t-84 14.5t-62 27.5t-41 41.5t-23 59.5t-5.5 78.5z M328 305q-8 -56 12 -73t70 -17h45q48 0 73 17t33 73l117 823q7 56 -13.5 73.5t-68.5 17.5h-45q-49 0 -75 -17t-34 -74zM408 1511l28 197h117l170 -63l12 61h117l-31 -197h-116l-164 105l-19 -103h-114z" />
<glyph unicode="&#xd6;" d="M50 218q1 43 9 101l113 795q14 103 38 164.5t72.5 99.5t116.5 51t179 13h51q63 0 109 -4t84 -14t62 -27t41 -41t23 -60t5 -79.5t-9 -102.5l-113 -795q-14 -103 -38 -164t-72 -99t-116 -51t-179 -13h-51q-63 0 -109.5 4.5t-84 14.5t-62 27.5t-41 41.5t-23 59.5t-5.5 78.5z M328 305q-8 -56 12 -73t70 -17h45q48 0 73 17t33 73l117 823q7 56 -13.5 73.5t-68.5 17.5h-45q-49 0 -75 -17t-34 -74zM401 1513l27 197h170l-27 -197h-170zM662 1513l26 197h170l-27 -197h-169z" />
<glyph unicode="&#xd7;" horiz-adv-x="696" d="M84 559l201 174l-146 172l142 125l145 -172l203 176l108 -123l-202 -178l145 -172l-139 -125l-152 172l-201 -176z" />
<glyph unicode="&#xd8;" d="M6 -70l78 140q-49 68 -25 249l111 795q14 103 38.5 164.5t73 99.5t117 51t179.5 13h51q105 0 178 -15l39 80h143l-71 -141q27 -35 32 -98t-8 -154l-111 -795q-14 -102 -38.5 -163.5t-73 -99.5t-116.5 -51t-179 -13h-51q-122 0 -185 16l-41 -78h-141zM326 258 q6 -27 25.5 -35t58.5 -8h45q48 0 73 17t33 73l84 594zM358 524l320 645q-4 30 -25.5 40t-58.5 10h-45q-49 0 -74 -17t-33 -74z" />
<glyph unicode="&#xd9;" d="M50 217q1 44 9 102l156 1115h272l-157 -1125q-9 -59 4.5 -76.5t58.5 -17.5h78q44 0 63.5 18t28.5 76l158 1125h266l-156 -1115q-14 -103 -38 -164t-72 -99t-116 -51t-179 -13h-51q-63 0 -109 4.5t-84.5 14t-62.5 26.5t-40.5 41.5t-23 59.5t-5.5 79zM412 1710h258l67 -209 h-170z" />
<glyph unicode="&#xda;" d="M50 217q1 44 9 102l156 1115h272l-157 -1125q-9 -59 4.5 -76.5t58.5 -17.5h78q44 0 63.5 18t28.5 76l158 1125h266l-156 -1115q-14 -103 -38 -164t-72 -99t-116 -51t-179 -13h-51q-63 0 -109 4.5t-84.5 14t-62.5 26.5t-40.5 41.5t-23 59.5t-5.5 79zM508 1501l131 209h258 l-219 -209h-170z" />
<glyph unicode="&#xdb;" d="M50 217q1 44 9 102l156 1115h272l-157 -1125q-9 -59 4.5 -76.5t58.5 -17.5h78q44 0 63.5 18t28.5 76l158 1125h266l-156 -1115q-14 -103 -38 -164t-72 -99t-116 -51t-179 -13h-51q-63 0 -109 4.5t-84.5 14t-62.5 26.5t-40.5 41.5t-23 59.5t-5.5 79zM360 1501l164 209h242 l102 -209h-172l-67 101l-97 -101h-172z" />
<glyph unicode="&#xdc;" d="M50 217q1 44 9 102l156 1115h272l-157 -1125q-9 -59 4.5 -76.5t58.5 -17.5h78q44 0 63.5 18t28.5 76l158 1125h266l-156 -1115q-14 -103 -38 -164t-72 -99t-116 -51t-179 -13h-51q-63 0 -109 4.5t-84.5 14t-62.5 26.5t-40.5 41.5t-23 59.5t-5.5 79zM401 1513l29 197h170 l-29 -197h-170zM662 1513l28 197h170l-29 -197h-169z" />
<glyph unicode="&#xdd;" d="M170 1434h270l80 -576l244 576h270l-422 -891l-75 -543h-271l76 543zM518 1501l129 209h258l-217 -209h-170z" />
<glyph unicode="&#xde;" horiz-adv-x="833" d="M18 0l201 1434h268l-30 -230h131q72 0 122 -5.5t88 -20t59.5 -37t32.5 -58.5t10.5 -81.5t-9.5 -110.5l-47 -338q-14 -98 -36 -156t-68.5 -94t-112 -48.5t-174.5 -12.5h-131l-35 -242h-269zM352 463h131q40 0 60.5 17t27.5 65l52 356q7 48 -10.5 65t-57.5 17h-131z" />
<glyph unicode="&#xdf;" horiz-adv-x="897" d="M59 0l140 995l-90 21l22 166h102l7 39q13 100 97.5 156.5t194.5 56.5h105q73 0 123 -5.5t89 -19.5t61 -36.5t33 -59.5t11 -84.5t-10 -114.5l-16 -117q-19 -130 -62 -181.5t-145 -61.5q108 -9 142 -60t14 -188l-27 -187q-8 -57 -17.5 -99.5t-24 -76.5t-29 -56.5t-39.5 -39 t-49 -25.5t-64.5 -14t-78.5 -6.5t-97 -1.5h-74l29 203h88q43 0 66 18t30 70l37 264q7 50 -13 69t-61 19h-86l29 209h71q43 0 66.5 18t30.5 70l28 203q7 51 -10 66.5t-61 15.5h-50q-44 0 -66.5 -15.5t-29.5 -66.5l-160 -1143h-256z" />
<glyph unicode="&#xe0;" horiz-adv-x="802" d="M45 254l33 231q21 146 89.5 203t203.5 57h184l20 152q7 52 -6.5 66t-50.5 14h-35q-19 0 -28.5 -1.5t-21 -8t-17.5 -22t-10 -40.5l-13 -94h-239l12 90q7 54 16 91.5t25.5 72.5t41 56.5t61.5 38t88 23.5t120 7h35q137 0 202.5 -30.5t78.5 -94.5t-3 -164l-122 -881 q-240 -28 -383 -28h-50q-136 0 -194 58t-37 204zM307 295q-6 -41 4.5 -59.5t44.5 -18.5h39q80 0 86 2l47 340h-122q-61 0 -74 -82zM350 1458h258l68 -209h-170z" />
<glyph unicode="&#xe1;" horiz-adv-x="802" d="M45 254l33 231q21 146 89.5 203t203.5 57h184l20 152q7 52 -6.5 66t-50.5 14h-35q-19 0 -28.5 -1.5t-21 -8t-17.5 -22t-10 -40.5l-13 -94h-239l12 90q7 54 16 91.5t25.5 72.5t41 56.5t61.5 38t88 23.5t120 7h35q137 0 202.5 -30.5t78.5 -94.5t-3 -164l-122 -881 q-240 -28 -383 -28h-50q-136 0 -194 58t-37 204zM307 295q-6 -41 4.5 -59.5t44.5 -18.5h39q80 0 86 2l47 340h-122q-61 0 -74 -82zM436 1249l131 209h258l-219 -209h-170z" />
<glyph unicode="&#xe2;" horiz-adv-x="802" d="M45 254l33 231q21 146 89.5 203t203.5 57h184l20 152q7 52 -6.5 66t-50.5 14h-35q-19 0 -28.5 -1.5t-21 -8t-17.5 -22t-10 -40.5l-13 -94h-239l12 90q7 54 16 91.5t25.5 72.5t41 56.5t61.5 38t88 23.5t120 7h35q137 0 202.5 -30.5t78.5 -94.5t-3 -164l-122 -881 q-240 -28 -383 -28h-50q-136 0 -194 58t-37 204zM291 1249l164 209h241l103 -209h-172l-68 101l-96 -101h-172zM307 295q-6 -41 4.5 -59.5t44.5 -18.5h39q80 0 86 2l47 340h-122q-61 0 -74 -82z" />
<glyph unicode="&#xe3;" horiz-adv-x="802" d="M45 254l33 231q21 146 89.5 203t203.5 57h184l20 152q7 52 -6.5 66t-50.5 14h-35q-19 0 -28.5 -1.5t-21 -8t-17.5 -22t-10 -40.5l-13 -94h-239l12 90q7 54 16 91.5t25.5 72.5t41 56.5t61.5 38t88 23.5t120 7h35q137 0 202.5 -30.5t78.5 -94.5t-3 -164l-122 -881 q-240 -28 -383 -28h-50q-136 0 -194 58t-37 204zM307 295q-6 -41 4.5 -59.5t44.5 -18.5h39q80 0 86 2l47 340h-122q-61 0 -74 -82zM338 1260l29 196h116l170 -63l13 61h116l-30 -197h-117l-164 105l-18 -102h-115z" />
<glyph unicode="&#xe4;" horiz-adv-x="802" d="M45 254l33 231q21 146 89.5 203t203.5 57h184l20 152q7 52 -6.5 66t-50.5 14h-35q-19 0 -28.5 -1.5t-21 -8t-17.5 -22t-10 -40.5l-13 -94h-239l12 90q7 54 16 91.5t25.5 72.5t41 56.5t61.5 38t88 23.5t120 7h35q137 0 202.5 -30.5t78.5 -94.5t-3 -164l-122 -881 q-240 -28 -383 -28h-50q-136 0 -194 58t-37 204zM307 295q-6 -41 4.5 -59.5t44.5 -18.5h39q80 0 86 2l47 340h-122q-61 0 -74 -82zM326 1262l28 196h170l-28 -196h-170zM586 1262l28 196h170l-28 -196h-170z" />
<glyph unicode="&#xe5;" horiz-adv-x="802" d="M45 254l33 231q21 146 89.5 203t203.5 57h184l20 152q7 52 -6.5 66t-50.5 14h-35q-19 0 -28.5 -1.5t-21 -8t-17.5 -22t-10 -40.5l-13 -94h-239l12 90q7 54 16 91.5t25.5 72.5t41 56.5t61.5 38t88 23.5t120 7h35q137 0 202.5 -30.5t78.5 -94.5t-3 -164l-122 -881 q-240 -28 -383 -28h-50q-136 0 -194 58t-37 204zM307 295q-6 -41 4.5 -59.5t44.5 -18.5h39q80 0 86 2l47 340h-122q-61 0 -74 -82zM387 1376l4 31q11 81 42 110t120 29h45q90 0 112 -28.5t11 -110.5l-4 -31q-11 -80 -42.5 -109.5t-121.5 -29.5h-45q-88 0 -110 29t-11 110z M469 1370q-6 -38 2.5 -48.5t50.5 -10.5h39q42 0 56 11t20 48l4 43q6 38 -3 49t-52 11h-39q-43 0 -55.5 -11t-18.5 -49z" />
<glyph unicode="&#xe6;" horiz-adv-x="1257" d="M45 254l29 205q21 146 89.5 203t203.5 57h198l27 186q4 43 -9.5 57.5t-45.5 14.5h-52q-36 -2 -52.5 -16t-22.5 -60l-13 -90h-229l12 90q11 82 28.5 131t55.5 87t103 53.5t168 15.5h30q72 0 116.5 -10.5t70.5 -40.5q63 53 206 53h43q137 0 204.5 -30.5t83 -94.5t-0.5 -164 l-61 -442l-447 -6l-24 -179q-6 -45 9 -61t54 -16h60q36 0 54.5 16t24.5 61l15 109h244l-15 -102q-11 -78 -29.5 -127t-57.5 -86.5t-103 -54.5t-162 -19l-59 -2q-127 0 -184 14.5t-79 65.5q-99 -80 -202 -80h-50q-136 0 -194 58t-37 204zM307 295q-6 -41 6.5 -59.5 t48.5 -18.5h33q11 0 22.5 3t24 8.5t20.5 9.5t22 12.5t16 9.5l39 268h-131q-35 0 -56 -26.5t-26 -67.5zM811 655h197l34 252q6 45 -9 61.5t-54 16.5h-49q-36 0 -56 -14t-26 -51z" />
<glyph unicode="&#xe7;" horiz-adv-x="813" d="M50.5 126q-11.5 62 2.5 155l86 620q12 81 31 130.5t59.5 87.5t107.5 53.5t171 15.5h47q137 0 204.5 -29.5t83 -93.5t-0.5 -164l-29 -205h-254l29 203q6 45 -8.5 61.5t-53.5 16.5h-47q-38 0 -58 -16.5t-26 -61.5l-86 -616q-6 -45 9 -61.5t53 -16.5h47q39 0 58.5 16.5 t25.5 61.5l28 209h254l-28 -211q-11 -76 -28.5 -124t-53 -86t-94.5 -56t-148 -21l-84 -244h-188l127 244q-112 5 -168.5 37.5t-68 94.5z" />
<glyph unicode="&#xe8;" horiz-adv-x="808" d="M54.5 117.5q-14.5 64.5 0.5 163.5l86 620q12 81 31 130.5t59.5 87.5t107.5 53.5t171 15.5h45q136 0 203 -29.5t82.5 -93.5t-0.5 -164l-60 -416l-442 -6l-29 -200q-6 -45 9 -61.5t53 -16.5h51q38 0 57 16.5t25 61.5l14 104h250l-14 -102q-9 -64 -22.5 -107t-38.5 -80 t-64.5 -58t-99 -32.5t-142.5 -11.5h-45q-137 0 -205 30.5t-82.5 95zM317 1458h258l70 -209h-170zM367 688h188l31 215q6 44 -8.5 60t-51.5 16h-45q-38 0 -58 -16.5t-26 -59.5z" />
<glyph unicode="&#xe9;" horiz-adv-x="808" d="M54.5 117.5q-14.5 64.5 0.5 163.5l86 620q12 81 31 130.5t59.5 87.5t107.5 53.5t171 15.5h45q136 0 203 -29.5t82.5 -93.5t-0.5 -164l-60 -416l-442 -6l-29 -200q-6 -45 9 -61.5t53 -16.5h51q38 0 57 16.5t25 61.5l14 104h250l-14 -102q-9 -64 -22.5 -107t-38.5 -80 t-64.5 -58t-99 -32.5t-142.5 -11.5h-45q-137 0 -205 30.5t-82.5 95zM367 688h188l31 215q6 44 -8.5 60t-51.5 16h-45q-38 0 -58 -16.5t-26 -59.5zM438 1249l129 209h258l-217 -209h-170z" />
<glyph unicode="&#xea;" horiz-adv-x="808" d="M54.5 117.5q-14.5 64.5 0.5 163.5l86 620q12 81 31 130.5t59.5 87.5t107.5 53.5t171 15.5h45q136 0 203 -29.5t82.5 -93.5t-0.5 -164l-60 -416l-442 -6l-29 -200q-6 -45 9 -61.5t53 -16.5h51q38 0 57 16.5t25 61.5l14 104h250l-14 -102q-9 -64 -22.5 -107t-38.5 -80 t-64.5 -58t-99 -32.5t-142.5 -11.5h-45q-137 0 -205 30.5t-82.5 95zM289 1249l162 209h241l105 -209h-172l-68 101l-96 -101h-172zM367 688h188l31 215q6 44 -8.5 60t-51.5 16h-45q-38 0 -58 -16.5t-26 -59.5z" />
<glyph unicode="&#xeb;" horiz-adv-x="808" d="M54.5 117.5q-14.5 64.5 0.5 163.5l86 620q12 81 31 130.5t59.5 87.5t107.5 53.5t171 15.5h45q136 0 203 -29.5t82.5 -93.5t-0.5 -164l-60 -416l-442 -6l-29 -200q-6 -45 9 -61.5t53 -16.5h51q38 0 57 16.5t25 61.5l14 104h250l-14 -102q-9 -64 -22.5 -107t-38.5 -80 t-64.5 -58t-99 -32.5t-142.5 -11.5h-45q-137 0 -205 30.5t-82.5 95zM330 1262l26 196h170l-26 -196h-170zM367 688h188l31 215q6 44 -8.5 60t-51.5 16h-45q-38 0 -58 -16.5t-26 -59.5zM590 1262l26 196h170l-26 -196h-170z" />
<glyph unicode="&#xec;" horiz-adv-x="370" d="M18 0l166 1182h254l-166 -1182h-254zM84 1458h258l70 -209h-170z" />
<glyph unicode="&#xed;" horiz-adv-x="370" d="M18 0l166 1182h254l-166 -1182h-254zM231 1249l129 209h258l-217 -209h-170z" />
<glyph unicode="&#xee;" horiz-adv-x="370" d="M18 0l166 1182h254l-166 -1182h-254zM70 1249l161 209h242l105 -209h-172l-68 101l-96 -101h-172z" />
<glyph unicode="&#xef;" horiz-adv-x="370" d="M18 0l166 1182h254l-166 -1182h-254zM111 1262l26 196h170l-26 -196h-170zM371 1262l26 196h170l-26 -196h-170z" />
<glyph unicode="&#xf0;" horiz-adv-x="817" d="M52.5 114q-15.5 63 0.5 162l88 639q22 149 88.5 212t198.5 63q176 -6 203 -8l2 12q12 78 2 100l-139 -51l-29 100l145 54q-18 33 -82 108l179 58q70 -54 102 -88l131 47l29 -101l-105 -39q37 -76 23 -180l-129 -926q-12 -80 -31 -129t-59.5 -86.5t-107.5 -53t-171 -15.5 h-51q-137 0 -204.5 29.5t-83 92.5zM309 281q-6 -44 9.5 -60t52.5 -16h51q39 0 57.5 16t24.5 60l96 684h-127q-69 0 -78 -76z" />
<glyph unicode="&#xf1;" horiz-adv-x="821" d="M16 0l166 1182q239 8 389 8h50q137 0 194.5 -57.5t36.5 -202.5l-131 -930h-256l125 889q12 76 -55 76h-127l-136 -965h-256zM336 1260l31 196h116l170 -63l13 61h116l-32 -197h-117l-164 105l-18 -102h-115z" />
<glyph unicode="&#xf2;" horiz-adv-x="817" d="M54.5 117.5q-14.5 64.5 0.5 163.5l86 620q12 81 31 131t59.5 88t107.5 54t171 16h51q137 0 204.5 -30.5t83 -94.5t-0.5 -164l-86 -620q-12 -80 -31 -130t-59.5 -88.5t-107.5 -54.5t-171 -16h-51q-137 0 -205 30.5t-82.5 95zM311 283q-7 -45 7.5 -61.5t52.5 -16.5h51 q39 0 58.5 16.5t25.5 61.5l88 618q7 45 -8.5 60.5t-53.5 15.5h-51q-38 0 -57 -15.5t-25 -60.5zM334 1458h258l70 -209h-170z" />
<glyph unicode="&#xf3;" horiz-adv-x="817" d="M54.5 117.5q-14.5 64.5 0.5 163.5l86 620q12 81 31 131t59.5 88t107.5 54t171 16h51q137 0 204.5 -30.5t83 -94.5t-0.5 -164l-86 -620q-12 -80 -31 -130t-59.5 -88.5t-107.5 -54.5t-171 -16h-51q-137 0 -205 30.5t-82.5 95zM311 283q-7 -45 7.5 -61.5t52.5 -16.5h51 q39 0 58.5 16.5t25.5 61.5l88 618q7 45 -8.5 60.5t-53.5 15.5h-51q-38 0 -57 -15.5t-25 -60.5zM444 1249l129 209h258l-217 -209h-170z" />
<glyph unicode="&#xf4;" horiz-adv-x="817" d="M54.5 117.5q-14.5 64.5 0.5 163.5l86 620q12 81 31 131t59.5 88t107.5 54t171 16h51q137 0 204.5 -30.5t83 -94.5t-0.5 -164l-86 -620q-12 -80 -31 -130t-59.5 -88.5t-107.5 -54.5t-171 -16h-51q-137 0 -205 30.5t-82.5 95zM293 1249l162 209h241l105 -209h-172l-68 101 l-96 -101h-172zM311 283q-7 -45 7.5 -61.5t52.5 -16.5h51q39 0 58.5 16.5t25.5 61.5l88 618q7 45 -8.5 60.5t-53.5 15.5h-51q-38 0 -57 -15.5t-25 -60.5z" />
<glyph unicode="&#xf5;" horiz-adv-x="817" d="M54.5 117.5q-14.5 64.5 0.5 163.5l86 620q12 81 31 131t59.5 88t107.5 54t171 16h51q137 0 204.5 -30.5t83 -94.5t-0.5 -164l-86 -620q-12 -80 -31 -130t-59.5 -88.5t-107.5 -54.5t-171 -16h-51q-137 0 -205 30.5t-82.5 95zM311 283q-7 -45 7.5 -61.5t52.5 -16.5h51 q39 0 58.5 16.5t25.5 61.5l88 618q7 45 -8.5 60.5t-53.5 15.5h-51q-38 0 -57 -15.5t-25 -60.5zM340 1260l29 196h116l170 -63l13 61h116l-30 -197h-117l-164 105l-18 -102h-115z" />
<glyph unicode="&#xf6;" horiz-adv-x="817" d="M54.5 117.5q-14.5 64.5 0.5 163.5l86 620q12 81 31 131t59.5 88t107.5 54t171 16h51q137 0 204.5 -30.5t83 -94.5t-0.5 -164l-86 -620q-12 -80 -31 -130t-59.5 -88.5t-107.5 -54.5t-171 -16h-51q-137 0 -205 30.5t-82.5 95zM311 283q-7 -45 7.5 -61.5t52.5 -16.5h51 q39 0 58.5 16.5t25.5 61.5l88 618q7 45 -8.5 60.5t-53.5 15.5h-51q-38 0 -57 -15.5t-25 -60.5zM334 1262l26 196h170l-26 -196h-170zM594 1262l27 196h170l-27 -196h-170z" />
<glyph unicode="&#xf7;" horiz-adv-x="698" d="M84 647l25 176h641l-25 -176h-641zM285 367l26 190h170l-26 -190h-170zM360 911l27 191h170l-27 -191h-170z" />
<glyph unicode="&#xf8;" horiz-adv-x="817" d="M2 -59l76 122q-48 60 -25 218l88 620q12 81 31 131t59.5 88t107.5 54t171 16h51q72 0 137 -10l47 84h132l-78 -125q42 -33 52.5 -94t-3.5 -144l-88 -620q-9 -64 -22.5 -107t-38.5 -80t-64.5 -58t-99 -32.5t-142.5 -11.5h-51q-100 0 -166 16l-45 -67h-129zM307 258 q0 -31 15.5 -42t48.5 -11h51q39 0 58.5 16.5t25.5 61.5l72 495zM340 487l246 474q-13 16 -54 16h-51q-38 0 -56.5 -15.5t-25.5 -60.5z" />
<glyph unicode="&#xf9;" horiz-adv-x="817" d="M51 254l131 928h256l-125 -887q-6 -40 6.5 -59t47.5 -19h127l137 965h256l-168 -1182q-260 -8 -385 -8h-51q-138 0 -195.5 58t-36.5 204zM336 1458h258l68 -209h-170z" />
<glyph unicode="&#xfa;" horiz-adv-x="817" d="M51 254l131 928h256l-125 -887q-6 -40 6.5 -59t47.5 -19h127l137 965h256l-168 -1182q-260 -8 -385 -8h-51q-138 0 -195.5 58t-36.5 204zM436 1249l131 209h258l-219 -209h-170z" />
<glyph unicode="&#xfb;" horiz-adv-x="817" d="M51 254l131 928h256l-125 -887q-6 -40 6.5 -59t47.5 -19h127l137 965h256l-168 -1182q-260 -8 -385 -8h-51q-138 0 -195.5 58t-36.5 204zM291 1249l164 209h241l103 -209h-172l-68 101l-96 -101h-172z" />
<glyph unicode="&#xfc;" horiz-adv-x="817" d="M51 254l131 928h256l-125 -887q-6 -40 6.5 -59t47.5 -19h127l137 965h256l-168 -1182q-260 -8 -385 -8h-51q-138 0 -195.5 58t-36.5 204zM334 1262l28 196h170l-28 -196h-170zM594 1262l29 196h170l-29 -196h-170z" />
<glyph unicode="&#xfd;" horiz-adv-x="829" d="M121 1182h268l21 -873h6l282 873h246l-471 -1442h-242l91 274h-148zM455 1249l129 209h258l-217 -209h-170z" />
<glyph unicode="&#xfe;" horiz-adv-x="821" d="M-18 -252l237 1688h256l-37 -254h217q129 0 173 -64t22 -215l-84 -608q-22 -156 -86 -227.5t-191 -71.5h-51l-166 4l-34 -252h-256zM303 217h129q35 0 53.5 19t24.5 59l82 594q12 76 -55 76h-129z" />
<glyph unicode="&#xff;" horiz-adv-x="829" d="M121 1182h268l21 -873h6l282 873h246l-471 -1442h-242l91 274h-148zM332 1262l28 196h170l-28 -196h-170zM592 1262l29 196h170l-29 -196h-170z" />
<glyph unicode="&#x152;" horiz-adv-x="1230" d="M61 340l107 754q19 137 60 208t121 101.5t226 30.5h783l-33 -230h-371l-49 -356h338l-33 -230h-338l-55 -389h371l-31 -229h-782q-213 0 -277.5 71t-36.5 269zM328 311q-7 -56 13 -75t65 -19h141l139 1002h-141q-45 0 -70 -20t-33 -77z" />
<glyph unicode="&#x153;" horiz-adv-x="1261" d="M54.5 117.5q-14.5 64.5 0.5 163.5l86 620q12 81 31 131t59.5 88t107.5 54t171 16h51q124 0 197 -29q74 27 203 27h45q136 0 202.5 -29.5t82 -93.5t-0.5 -164l-59 -416l-443 -6l-26 -198l-2 -2q-6 -45 9 -61.5t52 -16.5h51q38 0 57 16.5t25 61.5l15 104h250l-15 -102 q-12 -81 -30.5 -130.5t-58.5 -88t-106.5 -54.5t-170.5 -16h-45q-132 0 -197 26q-74 -26 -203 -26h-51q-137 0 -205 30.5t-82.5 95zM311 283q-7 -45 7.5 -61.5t52.5 -16.5h51q37 0 56.5 13.5t25.5 49.5l2 13v2l86 618l4 29q-1 28 -16.5 37.5t-47.5 9.5h-51q-38 0 -57 -15.5 t-25 -60.5zM819 688h187l30 215q6 44 -8 60t-51 16h-45q-36 0 -56 -14t-26 -50l-2 -14z" />
<glyph unicode="&#x178;" d="M170 1434h270l80 -576l244 576h270l-422 -891l-75 -543h-271l76 543zM399 1513l29 197h170l-29 -197h-170zM659 1513l29 197h170l-29 -197h-170z" />
<glyph unicode="&#x2c6;" horiz-adv-x="1024" d="M393 1249l162 209h242l104 -209h-172l-67 101l-97 -101h-172z" />
<glyph unicode="&#x2dc;" horiz-adv-x="1024" d="M434 1260l29 196h117l170 -63l12 61h117l-31 -197h-117l-164 105l-18 -102h-115z" />
<glyph unicode="&#x2000;" horiz-adv-x="895" />
<glyph unicode="&#x2001;" horiz-adv-x="1790" />
<glyph unicode="&#x2002;" horiz-adv-x="895" />
<glyph unicode="&#x2003;" horiz-adv-x="1790" />
<glyph unicode="&#x2004;" horiz-adv-x="596" />
<glyph unicode="&#x2005;" horiz-adv-x="447" />
<glyph unicode="&#x2006;" horiz-adv-x="298" />
<glyph unicode="&#x2007;" horiz-adv-x="298" />
<glyph unicode="&#x2008;" horiz-adv-x="223" />
<glyph unicode="&#x2009;" horiz-adv-x="358" />
<glyph unicode="&#x200a;" horiz-adv-x="99" />
<glyph unicode="&#x2010;" horiz-adv-x="595" d="M66 510l28 211h527l-29 -211h-526z" />
<glyph unicode="&#x2011;" horiz-adv-x="595" d="M66 510l28 211h527l-29 -211h-526z" />
<glyph unicode="&#x2012;" horiz-adv-x="595" d="M66 510l28 211h527l-29 -211h-526z" />
<glyph unicode="&#x2013;" horiz-adv-x="817" d="M59 524l27 183h764l-27 -183h-764z" />
<glyph unicode="&#x2014;" horiz-adv-x="1179" d="M59 524l27 183h1126l-26 -183h-1127z" />
<glyph unicode="&#x2018;" horiz-adv-x="354" d="M145 899l33 229q13 89 50 152.5t122 159.5l82 -51q-62 -95 -74.5 -120.5t-19.5 -84.5h80l-41 -285h-232z" />
<glyph unicode="&#x2019;" horiz-adv-x="354" d="M168 944q66 104 76 128q10 25 18 77h-80l41 285h232l-33 -230q-13 -89 -50 -151t-124 -160z" />
<glyph unicode="&#x201a;" horiz-adv-x="354" d="M6 -205q66 104 76 128q10 25 18 77h-80l41 285h232l-33 -230q-13 -89 -50 -151t-124 -160z" />
<glyph unicode="&#x201c;" horiz-adv-x="649" d="M145 899l33 229q13 89 50 152.5t122 159.5l82 -51q-62 -95 -74.5 -120.5t-19.5 -84.5h80l-41 -285h-232zM438 899l33 229q13 89 50 152.5t122 159.5l82 -51q-62 -95 -74.5 -120.5t-19.5 -84.5h80l-41 -285h-232z" />
<glyph unicode="&#x201d;" horiz-adv-x="649" d="M168 944q66 104 76 128q10 25 18 77h-80l41 285h232l-33 -230q-13 -89 -50 -151t-124 -160zM461 944q66 104 76 128q11 26 18 77h-80l41 285h232l-33 -230q-13 -89 -50 -151t-124 -160z" />
<glyph unicode="&#x201e;" horiz-adv-x="649" d="M6 -205q66 104 76 128q10 25 18 77h-80l41 285h232l-33 -230q-13 -89 -50 -151t-124 -160zM299 -205q66 104 76 128q10 25 18 77h-80l41 285h232l-33 -230q-13 -89 -50 -151t-124 -160z" />
<glyph unicode="&#x2022;" horiz-adv-x="575" d="M126 530.5q-6 39.5 5 106.5l25 172q9 59 17 88t29.5 53t57.5 31.5t100 7.5h50q82 0 116.5 -16t40.5 -56t-6 -108l-24 -172q-8 -57 -16 -86t-29.5 -52.5t-57.5 -31.5t-98 -8h-49q-83 0 -119 16t-42 55.5z" />
<glyph unicode="&#x2026;" horiz-adv-x="1062" d="M20 0l41 285h232l-41 -285h-232zM375 0l41 285h231l-41 -285h-231zM729 0l41 285h231l-40 -285h-232z" />
<glyph unicode="&#x202f;" horiz-adv-x="358" />
<glyph unicode="&#x2039;" horiz-adv-x="411" d="M57 578l4 26l250 361h170l-205 -361l-4 -26l103 -361h-170z" />
<glyph unicode="&#x203a;" horiz-adv-x="411" d="M14 217l205 361l4 26l-104 361h170l149 -361l-4 -26l-250 -361h-170z" />
<glyph unicode="&#x205f;" horiz-adv-x="447" />
<glyph unicode="&#x20ac;" horiz-adv-x="921" d="M55 565l19 127h84l12 99h-84l18 127h86l27 196q14 103 38 164.5t72.5 99.5t115.5 51t178 13h43q74 0 124.5 -5.5t90.5 -20t62.5 -37.5t34.5 -61t11.5 -86.5t-10.5 -117.5l-14 -98h-261l17 112q8 56 -12 76.5t-66 20.5h-51q-45 0 -70.5 -20.5t-32.5 -76.5l-28 -210h395 l-18 -127h-398l-12 -99h397l-18 -127h-397l-37 -260q-7 -56 12.5 -76t65.5 -20h57q46 0 69.5 19.5t32.5 76.5l25 168h260l-23 -154q-20 -137 -60.5 -205t-118 -95t-224.5 -27h-49q-63 0 -108.5 4.5t-83.5 14t-62 26.5t-40.5 41.5t-23 59.5t-5.5 79t9 102l35 246h-84z" />
<glyph unicode="&#x2122;" horiz-adv-x="1015" d="M160 1317l16 117h389l-16 -117h-127l-84 -600h-135l84 600h-127zM496 717l100 717h186l15 -433h2l135 433h188l-100 -717h-131l74 467h-7l-145 -467h-108l-15 467h-4l-59 -467h-131z" />
<glyph unicode="&#xe000;" horiz-adv-x="1177" d="M0 0v1178h1178v-1178h-1178z" />
</font>
</defs>
</svg>
